osu file format v14

[General]
AudioFilename: audio.mp3
AudioLeadIn: 0
PreviewTime: 101973
Countdown: 0
SampleSet: Normal
StackLeniency: 0.7
Mode: 1
LetterboxInBreaks: 0
WidescreenStoryboard: 0

[Editor]
DistanceSpacing: 0.8
BeatDivisor: 4
GridSize: 4
TimelineZoom: 2.6

[Metadata]
Title:Star of the COME ON!!
TitleUnicode:スター・オブ・ザ・COME ON!!
Artist:Frums
ArtistUnicode:Frums
Creator:Nifty
Version:Muzukashii
Source:osu!
Tags:サンダース Thunders EVolution!!!!!!!!! Pokémon Pokemon ポケモン ポケットモンスター Pocket Monsters Jolteon Eeveelution EVs FA Featured Artist MG Mappers' Guild Electronic Chiptune Breakcore Instrumental SV 8bit Luca Frums.xyz frumsdotxyz
BeatmapID:2317884
BeatmapSetID:1108821

[Difficulty]
HPDrainRate:5.5
CircleSize:2
OverallDifficulty:5
ApproachRate:10
SliderMultiplier:1.4
SliderTickRate:1

[Events]
//Background and Video events
0,0,"protepond.png",0,-60
//Break Periods
//Storyboard Layer 0 (Background)
//Storyboard Layer 1 (Fail)
//Storyboard Layer 2 (Pass)
//Storyboard Layer 3 (Foreground)
//Storyboard Layer 4 (Overlay)
//Storyboard Sound Samples

[TimingPoints]
393,240,4,1,0,100,1,0
393,-200,4,1,0,100,0,0
1293,-166.666666666667,4,1,0,100,0,0
2251,-142.857142857143,4,1,0,100,0,0
3238,-125,4,1,0,100,0,0
10953,-125,4,1,0,100,0,0
11193,-123.950295931332,4,1,0,100,0,0
11313,-123.432103702716,4,1,0,100,0,0
11553,-122.40845989348,4,1,0,100,0,0
11673,-121.902904336696,4,1,0,100,0,0
11913,-120.904364647564,4,1,0,100,0,0
12153,-119.922194480221,4,1,0,100,0,0
12273,-119.436926553456,4,1,0,100,0,0
12633,-118.004682425799,4,1,0,100,0,0
12873,-117.068739251626,4,1,0,100,0,0
12993,-116.606381167603,4,1,0,100,0,0
13113,-116.14752594155,4,1,0,100,0,0
13233,-115.692401670136,4,1,0,100,0,0
13473,-114.792638577673,4,1,0,100,0,0
13593,-114.347919553952,4,1,0,100,0,0
13833,-113.468868114,4,1,0,100,0,0
14193,-112.175406439541,4,1,0,100,0,0
14433,-111.329316571591,4,1,0,100,0,0
14553,-110.911101424875,4,1,0,100,0,0
14793,-110.083905953117,4,1,0,100,0,0
14913,-109.674978202098,4,1,0,100,0,0
15033,-109.268957891022,4,1,0,100,0,0
15153,-108.86605121059,4,1,0,100,0,0
15393,-108.068969616409,4,1,0,100,0,0
15513,-107.674731862999,4,1,0,100,0,0
15753,-106.894937241982,4,1,0,100,0,0
15873,-106.509316902496,4,1,0,100,0,0
15993,-106.126468790328,4,1,0,100,0,0
16113,-105.746251295392,4,1,0,100,0,0
16353,-104.99404158814,4,1,0,100,0,0
16473,-104.621990286894,4,1,0,100,0,0
16713,-103.885634382821,4,1,0,100,0,0
16833,-103.52138337695,4,1,0,100,0,0
16953,-103.159571351349,4,1,0,100,0,0
17073,-102.800385295844,4,1,0,100,0,0
17313,-102.089360859347,4,1,0,100,0,0
17433,-101.737472556317,4,1,0,100,0,0
17553,-101.388104539247,4,1,0,100,0,0
17673,-101.04102568766,4,1,0,100,0,0
17793,-100.696416415933,4,1,0,100,0,0
17913,-100.354149794625,4,1,0,100,0,0
18033,-100.01410198838,4,1,0,100,0,0
18541,-125.022035133692,4,1,0,80,0,0
33153,-125,4,1,0,80,0,0
33273,-122.819795112018,4,1,0,80,0,0
33393,-120.714339173493,4,1,0,80,0,0
33513,-118.679711940603,4,1,0,80,0,0
33633,-116.712670911117,4,1,0,80,0,0
33753,-114.809771689288,4,1,0,80,0,0
33873,-112.967927275767,4,1,0,80,0,0
33993,-111.153720037125,4,1,0,100,0,0
46158,-105.263157894737,4,1,0,100,0,0
46842,-100,4,1,0,100,0,0
53133,-111.111111111111,4,1,0,100,0,0
60873,-111.111111111111,4,1,0,100,0,0
61113,-110.726888806951,4,1,0,100,0,0
61233,-110.535833506506,4,1,0,100,0,0
61353,-110.345314627596,4,1,0,100,0,0
61473,-110.155572715346,4,1,0,100,0,0
61593,-109.966361290081,4,1,0,100,0,0
61833,-109.590001884948,4,1,0,100,0,0
62073,-109.216209869869,4,1,0,100,0,0
62193,-109.030327876002,4,1,0,100,0,0
62313,-108.844959063411,4,1,0,100,0,0
62553,-108.476223638922,4,1,0,100,0,0
62673,-108.292849856295,4,1,0,100,0,0
62793,-108.10997811854,4,1,0,100,0,0
63033,-107.746197367329,4,1,0,100,0,0
63153,-107.565281369263,4,1,0,100,0,0
63273,-107.384856587524,4,1,0,100,0,0
63393,-107.205150993095,4,1,0,100,0,0
63513,-107.025931312898,4,1,0,100,0,0
63753,-106.66939740324,4,1,0,100,0,0
63993,-106.315231038944,4,1,0,100,0,0
64113,-106.139084656534,4,1,0,100,0,0
64233,-105.963408715702,4,1,0,100,0,0
64353,-105.788425265238,4,1,0,100,0,0
64473,-105.613907239305,4,1,0,100,0,0
64713,-105.266814531452,4,1,0,100,0,0
64953,-104.921885656129,4,1,0,100,0,0
65073,-104.750212642932,4,1,0,100,0,0
65193,-104.579209862238,4,1,0,100,0,0
65313,-104.408655477539,4,1,0,100,0,0
65433,-104.238765145893,4,1,0,100,0,0
65673,-103.900529788801,4,1,0,100,0,0
65913,-103.564482353648,4,1,0,100,0,0
66033,-103.397219028397,4,1,0,100,0,0
66153,-103.230601679562,4,1,0,100,0,0
66273,-103.064414228249,4,1,0,100,0,0
66393,-102.898866877678,4,1,0,100,0,0
66633,-102.569257326778,4,1,0,100,0,0
66753,-102.405190714307,4,1,0,100,0,0
66873,-102.241752669021,4,1,0,100,0,0
67113,-101.916332805746,4,1,0,100,0,0
67233,-101.754346691305,4,1,0,100,0,0
67353,-101.592977893368,4,1,0,100,0,0
67473,-101.432017219099,4,1,0,100,0,0
67593,-101.271668339337,4,1,0,100,0,0
67833,-100.952384798186,4,1,0,100,0,0
68073,-100.635108167646,4,1,0,100,0,0
68193,-100.477267018337,4,1,0,100,0,0
68313,-100.319819584836,4,1,0,100,0,0
68433,-100.16296514429,4,1,0,100,0,0
68553,-100.006500422527,4,1,0,100,0,0
69513,-111.111111111111,4,1,0,100,0,0
69633,-112.667804611493,4,1,0,100,0,0
69753,-114.268737216185,4,1,0,100,0,0
69873,-115.915956295048,4,1,0,100,0,0
69993,-117.611221992358,4,1,0,100,0,0
70113,-119.356810022153,4,1,0,100,0,0
70233,-121.154994796393,4,1,0,100,0,0
70473,-124.91911487312,4,1,0,100,0,0
70713,-126.981547041584,4,1,0,100,0,0
70953,-129.026764021661,4,1,0,100,0,0
71193,-131.139113683186,4,1,0,100,0,0
71313,-132.221439177477,4,1,0,100,0,0
71553,-134.440585999626,4,1,0,100,0,0
71673,-135.578329702094,4,1,0,100,0,0
71913,-137.912392531768,4,1,0,100,0,0
72033,-139.109919093671,4,1,0,100,0,0
72153,-140.328424645039,4,1,0,100,0,0
72273,-141.568465341208,4,1,0,100,0,0
72393,-142.830617171097,4,1,0,100,0,0
72633,-145.423662756709,4,1,0,100,0,0
72753,-146.755815932985,4,1,0,100,0,0
72873,-148.112381750777,4,1,0,100,0,0
73233,-152.337543435242,4,1,0,100,0,0
73473,-155.290836443032,4,1,0,100,0,0
73593,-156.810843783469,4,1,0,100,0,0
73833,-159.941653284882,4,1,0,100,0,0
73953,-161.554542429069,4,1,0,100,0,0
74073,-163.200292454924,4,1,0,100,0,0
74313,-166.594475727185,4,1,0,100,0,0
74433,-165.050546729936,4,1,0,100,0,0
74553,-163.465467919902,4,1,0,100,0,0
74673,-161.910544424206,4,1,0,100,0,0
74793,-160.384666584336,4,1,0,100,0,0
75033,-157.418091431576,4,1,0,100,0,0
75153,-155.975580463123,4,1,0,100,0,0
75393,-153.168442399476,4,1,0,100,0,0
75513,-151.802195666958,4,1,0,100,0,0
75753,-149.141986153658,4,1,0,100,0,0
75873,-147.846541204092,4,1,0,100,0,0
75993,-146.57340689364,4,1,0,100,0,0
76113,-145.322011779802,4,1,0,100,0,0
76233,-144.091803770018,4,1,0,100,0,0
76593,-140.522857447992,4,1,0,100,0,0
76713,-139.37223955858,4,1,0,100,0,0
76953,-137.126621350889,4,1,0,100,0,0
77073,-136.030547019639,4,1,0,100,0,0
77193,-134.952038045679,4,1,0,100,0,0
77313,-133.890496318681,4,1,0,100,0,0
77433,-132.845524567123,4,1,0,100,0,0
77673,-130.803762962653,4,1,0,100,0,0
77833,-129.476990643993,4,1,0,100,0,0
77993,-128.177027856713,4,1,0,100,0,0
78153,-126.90274807901,4,1,0,100,0,0
78393,-125.038292977224,4,1,0,100,0,0
78633,-127.115681626064,4,1,0,100,0,0
78873,-129.304214024335,4,1,0,100,0,0
79113,-131.56942589681,4,1,0,100,0,0
79233,-132.731969025668,4,1,0,100,0,0
79353,-133.915239688192,4,1,0,100,0,0
79593,-136.346407135826,4,1,0,100,0,0
79713,-137.595491270942,4,1,0,100,0,0
79833,-138.867480152365,4,1,0,100,0,0
79953,-140.16320603711,4,1,0,100,0,0
80073,-141.483539804979,4,1,0,100,0,0
80313,-144.200057391623,4,1,0,100,0,0
80433,-145.59770770969,4,1,0,100,0,0
80553,-147.022932637033,4,1,0,100,0,0
80793,-149.958311589378,4,1,0,100,0,0
80913,-151.47062833046,4,1,0,100,0,0
81033,-153.013524865463,4,1,0,100,0,0
81153,-154.58841607163,4,1,0,100,0,0
81273,-156.195819575085,4,1,0,100,0,0
81513,-159.513293040275,4,1,0,100,0,0
81633,-161.225312374043,4,1,0,100,0,0
81753,-162.974745433448,4,1,0,100,0,0
81993,-166.589757728515,4,1,0,100,0,0
82113,-164.950630276358,4,1,0,100,0,0
82233,-163.269571123491,4,1,0,100,0,0
82353,-161.622430607409,4,1,0,100,0,0
82473,-160.008448446078,4,1,0,100,0,0
82833,-155.353561402718,4,1,0,100,0,0
83073,-152.397904833604,4,1,0,100,0,0
83193,-150.961853449252,4,1,0,100,0,0
83433,-148.169660187701,4,1,0,100,0,0
83553,-146.811834208332,4,1,0,100,0,0
83673,-145.478668462843,4,1,0,100,0,0
83793,-144.169497194462,4,1,0,100,0,0
83913,-142.883678397417,4,1,0,100,0,0
84273,-139.160251379078,4,1,0,100,0,0
84393,-137.962052157933,4,1,0,100,0,0
84513,-136.784123193253,4,1,0,100,0,0
84633,-135.626138411899,4,1,0,100,0,0
84873,-133.368009015677,4,1,0,100,0,0
84993,-132.266909332356,4,1,0,100,0,0
85113,-131.183842348506,4,1,0,100,0,0
85233,-130.118368679988,4,1,0,100,0,0
85353,-129.070229693381,4,1,0,100,0,0
85593,-127.023484101741,4,1,0,100,0,0
85713,-126.024262190957,4,1,0,100,0,0
85833,-125.040638207417,4,1,0,100,0,0
86073,-126.981547041584,4,1,0,100,0,0
86313,-129.026764021661,4,1,0,100,0,0
86553,-131.139113683186,4,1,0,100,0,0
86673,-132.221439177477,4,1,0,100,0,0
86913,-134.440585999626,4,1,0,100,0,0
87033,-135.578329702094,4,1,0,100,0,0
87273,-137.912392531768,4,1,0,100,0,0
87393,-139.109919093671,4,1,0,100,0,0
87513,-140.328424645039,4,1,0,100,0,0
87633,-141.568465341208,4,1,0,100,0,0
87753,-142.830617171097,4,1,0,100,0,0
87993,-145.423662756709,4,1,0,100,0,0
88113,-146.755815932985,4,1,0,100,0,0
88233,-148.112381750777,4,1,0,100,0,0
88473,-150.90262404573,4,1,0,100,0,0
88593,-152.337543435242,4,1,0,100,0,0
88833,-155.290836443032,4,1,0,100,0,0
88953,-156.810843783469,4,1,0,100,0,0
89193,-159.941653284882,4,1,0,100,0,0
89313,-161.554542429069,4,1,0,100,0,0
89433,-163.200292454924,4,1,0,100,0,0
89673,-166.594475727185,4,1,0,100,0,0
89793,-164.950630276358,4,1,0,100,0,0
89913,-163.269571123491,4,1,0,100,0,0
90033,-161.622430607409,4,1,0,100,0,0
90153,-160.008448446078,4,1,0,100,0,0
90513,-155.353561402718,4,1,0,100,0,0
90753,-152.397904833604,4,1,0,100,0,0
90873,-150.961853449252,4,1,0,100,0,0
91113,-148.169660187701,4,1,0,100,0,0
91233,-146.811834208332,4,1,0,100,0,0
91353,-145.478668462843,4,1,0,100,0,0
91593,-142.883678397417,4,1,0,100,0,0
91713,-141.620592767153,4,1,0,100,0,0
91833,-140.379642705733,4,1,0,100,0,0
91953,-139.160251379078,4,1,0,100,0,0
92073,-137.962052157933,4,1,0,100,0,0
92313,-135.626138411899,4,1,0,100,0,0
92553,-133.368009015677,4,1,0,100,0,0
92673,-132.266909332356,4,1,0,100,0,0
92793,-131.183842348506,4,1,0,100,0,0
93033,-129.070229693381,4,1,0,100,0,0
93193,-127.698427393867,4,1,0,100,0,0
93353,-126.355638051748,4,1,0,100,0,0
93513,-125.040638207417,4,1,0,100,0,0
93753,-126.981547041584,4,1,0,100,0,0
93993,-129.026764021661,4,1,0,100,0,0
94233,-131.139113683186,4,1,0,100,0,0
94353,-132.221439177477,4,1,0,100,0,0
94593,-134.440585999626,4,1,0,100,0,0
94833,-136.735494756877,4,1,0,100,0,0
94953,-137.912392531768,4,1,0,100,0,0
95073,-139.109919093671,4,1,0,100,0,0
95433,-142.830617171097,4,1,0,100,0,0
95673,-145.423662756709,4,1,0,100,0,0
95793,-146.755815932985,4,1,0,100,0,0
95913,-148.112381750777,4,1,0,100,0,0
96153,-150.90262404573,4,1,0,100,0,0
96273,-152.337543435242,4,1,0,100,0,0
96513,-155.290836443032,4,1,0,100,0,0
96633,-156.810843783469,4,1,0,100,0,0
96873,-159.941653284882,4,1,0,100,0,0
96993,-161.554542429069,4,1,0,100,0,0
97113,-163.200292454924,4,1,0,100,0,0
97353,-166.594475727185,4,1,0,100,0,0
97473,-163.269571123491,4,1,0,100,0,0
97593,-160.008448446078,4,1,0,100,0,0
97713,-156.874802926029,4,1,0,100,0,0
97833,-153.861540000154,4,1,0,100,0,0
98073,-148.169660187701,4,1,0,100,0,0
98193,-145.478668462843,4,1,0,100,0,0
98433,-140.379642705733,4,1,0,100,0,0
98553,-137.962052157933,4,1,0,100,0,0
98793,-133.368009015677,4,1,0,100,0,0
98913,-131.183842348506,4,1,0,100,0,0
99033,-129.070229693381,4,1,0,100,0,0
99153,-127.023484101741,4,1,0,100,0,0
99273,-125.040638207417,4,1,0,100,0,0
99513,-121.255185174856,4,1,0,100,0,0
99633,-119.447055689801,4,1,0,100,0,0
99753,-117.692058728337,4,1,0,100,0,0
99873,-115.987886225163,4,1,0,100,0,0
99993,-114.332492608404,4,1,0,100,0,0
100233,-111.159280132502,4,1,0,100,0,0
100353,-109.637822417426,4,1,0,100,0,0
100473,-108.157568271761,4,1,0,100,0,0
100593,-106.71663851126,4,1,0,100,0,0
100713,-105.31359756515,4,1,0,100,0,0
100833,-103.946970413574,4,1,0,100,0,0
100953,-102.615462918876,4,1,0,100,0,0
101193,-100.052027054068,4,1,0,100,0,0
101958,-66.6666666666667,4,1,0,70,0,0
102068,-125,4,1,0,70,0,0
105993,-125,4,1,0,80,0,0
106113,-123.086770018525,4,1,0,80,0,0
106233,-121.231224314134,4,1,0,80,0,0
106473,-117.682917500744,4,1,0,80,0,0
106593,-115.985599228,4,1,0,80,0,0
106713,-114.336545046884,4,1,0,80,0,0
106833,-112.733598106977,4,1,0,80,0,0
106953,-111.175098556725,4,1,0,100,0,0
117633,-111.111111111111,4,1,0,100,0,0
117753,-109.385135216435,4,1,0,100,0,0
117873,-107.711960982419,4,1,0,100,0,0
117993,-106.089089373692,4,1,0,100,0,0
118113,-104.514504000293,4,1,0,100,0,0
118233,-102.985975369874,4,1,0,100,0,0
118353,-101.501511865019,4,1,0,100,0,0
118473,-100.013901932369,4,1,0,100,0,1
130353,-100,4,1,0,100,0,0
130713,-95.2380952380952,4,1,0,100,0,1
131073,-95.2380952380952,4,1,0,100,0,0
131433,-90.9090909090909,4,1,0,100,0,1
131553,-92.2979229275424,4,1,0,100,0,1
131673,-93.7297602299004,4,1,0,100,0,1
131793,-95.2068129995382,4,1,0,100,0,1
131913,-96.7311637823046,4,1,0,100,0,1
132033,-98.3051214019097,4,1,0,100,0,1
132153,-99.9310475771717,4,1,0,100,0,1
137193,-83.3456268132883,4,1,0,100,0,0
137658,-125,4,1,0,80,0,0
154653,-83.3333333333333,4,1,0,100,0,0

[HitObjects]
317,100,3273,5,8,0:0:0:0:
317,100,3513,1,8,0:0:0:0:
317,100,3753,1,8,0:0:0:0:
317,100,3993,1,8,0:0:0:0:
317,100,4233,1,8,0:0:0:0:
317,100,4473,1,8,0:0:0:0:
317,100,4713,1,8,0:0:0:0:
317,100,5193,1,0,0:0:0:0:
317,100,5313,1,0,0:0:0:0:
317,100,5433,1,8,0:0:0:0:
328,96,5673,1,8,0:0:0:0:
328,96,5913,1,8,0:0:0:0:
328,96,6153,1,8,0:0:0:0:
328,96,6393,1,8,0:0:0:0:
328,96,6633,1,0,0:0:0:0:
328,96,6753,1,0,0:0:0:0:
328,96,6873,1,0,0:0:0:0:
328,96,6993,1,0,0:0:0:0:
328,96,7113,1,8,0:0:0:0:
338,86,7593,1,8,0:0:0:0:
338,86,7833,1,8,0:0:0:0:
338,86,8073,1,8,0:0:0:0:
338,86,8313,1,8,0:0:0:0:
338,86,8553,1,8,0:0:0:0:
338,86,9033,1,8,0:0:0:0:
338,86,9273,1,8,0:0:0:0:
338,86,9513,1,8,0:0:0:0:
338,86,9753,1,8,0:0:0:0:
338,86,9993,1,0,0:0:0:0:
338,86,10233,1,8,0:0:0:0:
345,78,10353,1,0,0:0:0:0:
349,87,10473,1,0,0:0:0:0:
338,86,10593,1,8,0:0:0:0:
338,86,10713,1,8,0:0:0:0:
338,86,10953,1,0,0:0:0:0:
338,86,11193,1,8,0:0:0:0:
339,84,11313,1,0,0:0:0:0:
358,83,11553,1,0,0:0:0:0:
357,83,11673,1,8,0:0:0:0:
357,83,11913,1,0,0:0:0:0:
357,83,12153,1,8,0:0:0:0:
345,74,12273,1,0,0:0:0:0:
365,75,12633,1,8,0:0:0:0:
357,83,12873,1,0,0:0:0:0:
368,83,12993,1,0,0:0:0:0:
369,83,13113,1,8,0:0:0:0:
369,83,13233,1,0,0:0:0:0:
369,83,13473,1,0,0:0:0:0:
369,83,13593,1,8,0:0:0:0:
366,79,13833,1,0,0:0:0:0:
369,83,14193,1,8,0:0:0:0:
369,83,14433,1,0,0:0:0:0:
369,83,14553,1,8,0:0:0:0:
375,66,14793,1,0,0:0:0:0:
368,83,14913,1,0,0:0:0:0:
376,66,15033,1,8,0:0:0:0:
376,66,15153,1,0,0:0:0:0:
376,66,15393,1,0,0:0:0:0:
376,66,15513,1,8,0:0:0:0:
375,66,15753,1,0,0:0:0:0:
376,66,15873,1,0,0:0:0:0:
376,66,15993,1,8,0:0:0:0:
385,72,16113,1,0,0:0:0:0:
385,72,16353,1,0,0:0:0:0:
386,71,16473,1,8,0:0:0:0:
383,59,16713,1,0,0:0:0:0:
386,63,16833,1,0,0:0:0:0:
386,63,16953,1,8,0:0:0:0:
387,62,17073,1,0,0:0:0:0:
394,61,17313,1,8,0:0:0:0:
394,61,17433,1,0,0:0:0:0:
399,55,17553,1,0,0:0:0:0:
399,55,17673,1,8,0:0:0:0:
399,56,17793,1,0,0:0:0:0:
399,56,17913,1,8,0:0:0:0:
397,55,18033,1,0,0:0:0:0:
399,55,18633,1,0,0:0:0:0:
399,56,18753,1,0,0:0:0:0:
399,56,18873,1,8,0:0:0:0:
399,56,18993,1,8,0:0:0:0:
399,55,19233,1,0,0:0:0:0:
406,54,19353,1,8,0:0:0:0:
399,55,19593,1,8,0:0:0:0:
399,56,19713,1,8,0:0:0:0:
399,56,19833,1,0,0:0:0:0:
399,56,19953,1,0,0:0:0:0:
380,75,20193,1,0,0:0:0:0:
406,54,20313,1,8,0:0:0:0:
406,54,20433,1,8,0:0:0:0:
399,55,20553,1,0,0:0:0:0:
399,56,20793,1,8,0:0:0:0:
399,56,20913,1,0,0:0:0:0:
419,56,21153,1,0,0:0:0:0:
401,46,21393,1,8,0:0:0:0:
415,41,21633,1,8,0:0:0:0:
414,41,21753,1,8,0:0:0:0:
414,40,21873,1,0,0:0:0:0:
414,40,21993,1,8,0:0:0:0:
413,49,22473,1,0,0:0:0:0:
413,49,22593,1,0,0:0:0:0:
415,48,22713,1,8,0:0:0:0:
415,48,22833,1,8,0:0:0:0:
418,55,23073,1,0,0:0:0:0:
418,55,23193,1,8,0:0:0:0:
413,49,23433,1,8,0:0:0:0:
413,49,23553,1,8,0:0:0:0:
415,48,23673,1,0,0:0:0:0:
415,48,23793,1,0,0:0:0:0:
418,55,24033,1,0,0:0:0:0:
418,55,24153,1,8,0:0:0:0:
413,49,24273,1,8,0:0:0:0:
413,49,24393,1,0,0:0:0:0:
415,48,24633,1,8,0:0:0:0:
415,48,24753,1,0,0:0:0:0:
416,44,24993,1,0,0:0:0:0:
416,45,25233,1,8,0:0:0:0:
413,59,25473,1,0,0:0:0:0:
419,38,25593,1,8,0:0:0:0:
419,38,25713,1,0,0:0:0:0:
419,39,25833,1,8,0:0:0:0:
418,39,26313,1,0,0:0:0:0:
411,41,26433,1,0,0:0:0:0:
418,38,26553,1,8,0:0:0:0:
419,38,26673,1,8,0:0:0:0:
416,45,26913,1,0,0:0:0:0:
416,44,27033,1,8,0:0:0:0:
418,39,27273,1,8,0:0:0:0:
421,39,27393,1,8,0:0:0:0:
418,38,27513,1,0,0:0:0:0:
419,38,27633,1,0,0:0:0:0:
409,39,27873,1,0,0:0:0:0:
409,41,27993,1,8,0:0:0:0:
409,41,28113,1,8,0:0:0:0:
408,41,28233,1,0,0:0:0:0:
418,38,28473,1,8,0:0:0:0:
419,38,28593,1,0,0:0:0:0:
409,39,28833,1,0,0:0:0:0:
408,49,29073,1,8,0:0:0:0:
406,46,29313,1,8,0:0:0:0:
406,47,29433,1,8,0:0:0:0:
416,45,29553,1,0,0:0:0:0:
416,45,29673,1,8,0:0:0:0:
421,54,30153,1,0,0:0:0:0:
413,55,30273,1,0,0:0:0:0:
413,55,30393,1,8,0:0:0:0:
413,55,30513,1,8,0:0:0:0:
413,55,30753,1,0,0:0:0:0:
384,61,30873,1,8,0:0:0:0:
406,53,31113,1,8,0:0:0:0:
413,55,31233,1,8,0:0:0:0:
413,55,31353,1,0,0:0:0:0:
413,55,31473,1,0,0:0:0:0:
413,55,31713,1,0,0:0:0:0:
357,69,31833,1,8,0:0:0:0:
412,55,31953,1,8,0:0:0:0:
406,52,32073,1,0,0:0:0:0:
406,48,32313,1,8,0:0:0:0:
406,48,32433,1,0,0:0:0:0:
406,48,32673,1,0,0:0:0:0:
406,48,32913,1,8,0:0:0:0:
406,48,33153,1,0,0:0:0:0:
406,48,33273,1,8,0:0:0:0:
406,48,33393,1,0,0:0:0:0:
418,46,33513,1,0,0:0:0:0:
413,33,33633,1,8,0:0:0:0:
413,33,33753,1,8,0:0:0:0:
413,33,33873,1,0,0:0:0:0:
408,39,33993,1,8,0:0:0:0:
414,48,34353,1,0,0:0:0:0:
418,46,34473,1,8,0:0:0:0:
412,43,34593,1,0,0:0:0:0:
412,43,34713,1,8,0:0:0:0:
412,43,34833,1,8,0:0:0:0:
408,39,35073,1,8,0:0:0:0:
422,47,35313,1,8,0:0:0:0:
422,47,35553,1,0,0:0:0:0:
413,69,35673,1,8,0:0:0:0:
391,58,35793,1,0,0:0:0:0:
403,49,35913,1,0,0:0:0:0:
408,49,36273,1,0,0:0:0:0:
408,49,36513,1,8,0:0:0:0:
412,46,36633,1,8,0:0:0:0:
412,46,36753,1,0,0:0:0:0:
400,46,36993,1,8,0:0:0:0:
400,45,37233,1,0,0:0:0:0:
408,49,37473,1,8,0:0:0:0:
412,46,37593,1,8,0:0:0:0:
399,51,37713,1,0,0:0:0:0:
403,49,37833,1,8,0:0:0:0:
399,55,38193,1,0,0:0:0:0:
415,57,38313,1,8,0:0:0:0:
415,57,38433,1,0,0:0:0:0:
414,56,38553,1,8,0:0:0:0:
414,56,38673,1,8,0:0:0:0:
412,55,38913,1,8,0:0:0:0:
412,55,39153,1,8,0:0:0:0:
415,57,39393,1,0,0:0:0:0:
414,56,39513,1,8,0:0:0:0:
414,56,39633,1,8,0:0:0:0:
414,56,39753,1,0,0:0:0:0:
412,55,40113,1,0,0:0:0:0:
415,57,40353,1,8,0:0:0:0:
420,52,40473,1,8,0:0:0:0:
420,52,40593,1,0,0:0:0:0:
420,54,40833,1,8,0:0:0:0:
420,54,40953,1,8,0:0:0:0:
423,55,41073,1,0,0:0:0:0:
422,52,41313,1,0,0:0:0:0:
420,52,41433,1,8,0:0:0:0:
420,53,41673,1,8,0:0:0:0:
412,48,42033,1,0,0:0:0:0:
414,43,42153,1,8,0:0:0:0:
414,43,42273,1,0,0:0:0:0:
414,43,42393,1,8,0:0:0:0:
414,43,42513,1,8,0:0:0:0:
416,63,42753,1,8,0:0:0:0:
413,62,42993,1,8,0:0:0:0:
418,63,43233,1,0,0:0:0:0:
414,43,43353,1,8,0:0:0:0:
414,43,43473,1,0,0:0:0:0:
414,43,43593,1,0,0:0:0:0:
416,53,43953,1,0,0:0:0:0:
420,37,44193,1,8,0:0:0:0:
426,38,44313,1,8,0:0:0:0:
423,45,44433,1,0,0:0:0:0:
417,44,44673,1,8,0:0:0:0:
406,41,44913,1,0,0:0:0:0:
421,50,45153,1,8,0:0:0:0:
422,50,45273,1,0,0:0:0:0:
429,56,45513,1,8,0:0:0:0:
422,47,45633,1,0,0:0:0:0:
424,51,45753,1,0,0:0:0:0:
422,47,45873,1,8,0:0:0:0:
416,60,46233,1,8,0:0:0:0:
416,60,46353,1,0,0:0:0:0:
416,60,46473,1,8,0:0:0:0:
420,60,46593,1,8,0:0:0:0:
315,79,46953,1,8,0:0:0:0:
402,48,47073,1,0,0:0:0:0:
402,48,47193,1,8,0:0:0:0:
402,48,47313,1,8,0:0:0:0:
391,59,47553,1,0,0:0:0:0:
391,59,47673,1,8,0:0:0:0:
398,58,47913,1,8,0:0:0:0:
399,58,48033,1,0,0:0:0:0:
399,58,48153,1,8,0:0:0:0:
397,59,48273,1,0,0:0:0:0:
391,59,48513,1,0,0:0:0:0:
394,58,48753,1,8,0:0:0:0:
390,57,48873,1,0,0:0:0:0:
390,57,48993,1,0,0:0:0:0:
390,57,49113,1,8,0:0:0:0:
383,55,49353,1,8,0:0:0:0:
400,57,49593,1,8,0:0:0:0:
399,55,49713,1,8,0:0:0:0:
399,55,49833,1,0,0:0:0:0:
399,55,50073,1,8,0:0:0:0:
390,50,50313,1,8,0:0:0:0:
390,51,50433,1,8,0:0:0:0:
390,50,50553,1,0,0:0:0:0:
390,50,50793,1,8,0:0:0:0:
390,50,51033,1,0,0:0:0:0:
390,50,51273,1,8,0:0:0:0:
390,51,51393,1,8,0:0:0:0:
390,50,51513,1,8,0:0:0:0:
380,46,51633,1,8,0:0:0:0:
382,48,51753,1,0,0:0:0:0:
382,48,51873,1,0,0:0:0:0:
390,50,51993,1,0,0:0:0:0:
385,47,52113,1,0,0:0:0:0:
270,194,52233,2,0,L|333:179,6,35
327,94,53193,1,4,0:0:0:0:
378,66,53433,1,8,0:0:0:0:
378,66,53553,1,0,0:0:0:0:
316,111,53793,1,8,0:0:0:0:
379,76,54033,1,0,0:0:0:0:
376,77,54153,1,0,0:0:0:0:
376,77,54393,1,8,0:0:0:0:
376,77,54513,1,0,0:0:0:0:
367,78,54753,1,8,0:0:0:0:
367,78,54873,1,0,0:0:0:0:
368,79,54993,1,8,0:0:0:0:
367,79,55113,1,0,0:0:0:0:
366,79,55353,1,8,0:0:0:0:
368,75,55473,1,0,0:0:0:0:
367,78,55713,1,8,0:0:0:0:
363,71,56073,1,0,0:0:0:0:
366,67,56313,1,0,0:0:0:0:
366,67,56433,1,8,0:0:0:0:
367,78,56673,1,8,0:0:0:0:
364,69,56793,1,8,0:0:0:0:
381,83,56913,1,0,0:0:0:0:
372,71,57033,1,8,0:0:0:0:
366,67,57273,1,8,0:0:0:0:
368,73,57393,1,0,0:0:0:0:
367,78,57633,1,8,0:0:0:0:
368,61,57873,1,0,0:0:0:0:
375,69,57993,1,0,0:0:0:0:
366,67,58233,1,8,0:0:0:0:
368,73,58353,1,0,0:0:0:0:
349,63,58593,1,8,0:0:0:0:
379,69,58713,1,0,0:0:0:0:
379,69,58833,1,8,0:0:0:0:
375,69,58953,1,0,0:0:0:0:
380,69,59193,1,8,0:0:0:0:
380,69,59313,1,0,0:0:0:0:
379,66,59553,1,8,0:0:0:0:
380,69,59913,1,8,0:0:0:0:
380,69,60153,1,8,0:0:0:0:
379,66,60393,1,8,0:0:0:0:
379,66,60513,1,8,0:0:0:0:
383,62,60633,1,8,0:0:0:0:
382,62,60753,1,8,0:0:0:0:
380,69,60873,1,0,0:0:0:0:
380,69,61113,1,8,0:0:0:0:
383,62,61233,1,0,0:0:0:0:
379,66,61353,1,8,0:0:0:0:
392,64,61473,1,0,0:0:0:0:
392,64,61593,1,8,0:0:0:0:
389,65,61833,1,0,0:0:0:0:
389,66,62073,1,8,0:0:0:0:
389,65,62193,1,0,0:0:0:0:
389,65,62313,1,8,0:0:0:0:
386,55,62553,1,0,0:0:0:0:
384,55,62673,1,0,0:0:0:0:
384,55,62793,1,8,0:0:0:0:
384,56,63033,1,8,0:0:0:0:
384,56,63153,1,8,0:0:0:0:
384,57,63273,1,0,0:0:0:0:
384,64,63393,1,8,0:0:0:0:
386,55,63513,1,0,0:0:0:0:
375,59,63753,1,0,0:0:0:0:
376,59,63993,1,8,0:0:0:0:
373,58,64113,1,0,0:0:0:0:
373,58,64233,1,8,0:0:0:0:
373,58,64353,1,8,0:0:0:0:
377,54,64473,1,8,0:0:0:0:
384,55,64713,1,8,0:0:0:0:
386,49,64953,1,8,0:0:0:0:
386,49,65073,1,8,0:0:0:0:
386,49,65193,1,0,0:0:0:0:
386,49,65313,1,0,0:0:0:0:
386,49,65433,1,8,0:0:0:0:
386,56,65673,1,8,0:0:0:0:
386,49,65913,1,0,0:0:0:0:
386,49,66033,1,8,0:0:0:0:
386,49,66153,1,8,0:0:0:0:
386,49,66273,1,0,0:0:0:0:
386,49,66393,1,8,0:0:0:0:
379,54,66633,1,8,0:0:0:0:
379,54,66753,1,0,0:0:0:0:
386,49,66873,1,8,0:0:0:0:
386,49,67113,1,0,0:0:0:0:
406,69,67233,1,0,0:0:0:0:
386,49,67353,1,8,0:0:0:0:
392,53,67473,1,0,0:0:0:0:
392,49,67593,1,8,0:0:0:0:
386,49,67833,1,8,0:0:0:0:
396,48,68073,1,8,0:0:0:0:
396,48,68193,1,0,0:0:0:0:
396,48,68313,1,8,0:0:0:0:
392,53,68433,1,8,0:0:0:0:
392,53,68553,1,0,0:0:0:0:
403,81,69513,1,8,0:0:0:0:
417,92,69633,1,0,0:0:0:0:
417,92,69753,1,0,0:0:0:0:
417,92,69873,1,8,0:0:0:0:
417,92,69993,1,0,0:0:0:0:
417,92,70113,1,0,0:0:0:0:
417,92,70233,1,8,0:0:0:0:
403,81,70473,1,4,0:0:0:0:
433,79,70713,1,8,0:0:0:0:
419,78,70953,1,0,0:0:0:0:
411,78,71193,1,0,0:0:0:0:
411,78,71313,1,8,0:0:0:0:
412,77,71553,1,8,0:0:0:0:
412,77,71673,1,0,0:0:0:0:
412,77,71913,1,8,0:0:0:0:
411,78,72033,1,0,0:0:0:0:
411,78,72153,1,8,0:0:0:0:
418,76,72273,1,8,0:0:0:0:
412,77,72393,1,0,0:0:0:0:
412,77,72633,1,0,0:0:0:0:
412,77,72753,1,0,0:0:0:0:
412,77,72873,1,8,0:0:0:0:
411,78,73233,1,8,0:0:0:0:
412,77,73473,1,8,0:0:0:0:
412,77,73593,1,0,0:0:0:0:
403,69,73833,1,8,0:0:0:0:
404,67,73953,1,0,0:0:0:0:
408,68,74073,1,8,0:0:0:0:
407,68,74313,1,0,0:0:0:0:
405,68,74433,1,8,0:0:0:0:
405,67,74553,1,8,0:0:0:0:
403,69,74673,1,0,0:0:0:0:
403,69,74793,1,8,0:0:0:0:
408,68,75033,1,0,0:0:0:0:
408,68,75153,1,8,0:0:0:0:
405,68,75393,1,8,0:0:0:0:
405,68,75513,1,0,0:0:0:0:
418,74,75753,1,8,0:0:0:0:
396,92,75873,1,0,0:0:0:0:
401,75,75993,1,8,0:0:0:0:
405,81,76113,1,0,0:0:0:0:
413,57,76233,1,0,0:0:0:0:
412,61,76593,1,8,0:0:0:0:
429,64,76713,1,0,0:0:0:0:
415,71,76953,1,8,0:0:0:0:
405,67,77073,1,0,0:0:0:0:
420,56,77193,1,8,0:0:0:0:
420,56,77313,1,0,0:0:0:0:
420,56,77433,1,8,0:0:0:0:
423,56,77673,1,8,0:0:0:0:
423,56,77833,1,8,0:0:0:0:
423,56,77993,1,0,0:0:0:0:
420,56,78153,1,0,0:0:0:0:
420,56,78393,1,8,0:0:0:0:
432,65,78633,1,0,0:0:0:0:
432,65,78873,1,8,0:0:0:0:
432,65,79113,1,0,0:0:0:0:
432,65,79233,1,0,0:0:0:0:
432,65,79353,1,8,0:0:0:0:
432,65,79593,1,8,0:0:0:0:
432,65,79713,1,0,0:0:0:0:
432,65,79833,1,8,0:0:0:0:
432,65,79953,1,8,0:0:0:0:
432,65,80073,1,0,0:0:0:0:
432,65,80313,1,8,0:0:0:0:
432,65,80433,1,0,0:0:0:0:
432,65,80553,1,8,0:0:0:0:
432,65,80793,1,0,0:0:0:0:
424,72,80913,1,8,0:0:0:0:
432,65,81033,1,8,0:0:0:0:
432,65,81153,1,0,0:0:0:0:
432,65,81273,1,8,0:0:0:0:
423,70,81513,1,0,0:0:0:0:
423,70,81633,1,0,0:0:0:0:
438,69,81753,1,8,0:0:0:0:
440,68,81993,1,0,0:0:0:0:
440,68,82113,1,8,0:0:0:0:
439,67,82233,1,8,0:0:0:0:
439,67,82353,1,0,0:0:0:0:
439,67,82473,1,8,0:0:0:0:
431,77,82833,1,8,0:0:0:0:
436,59,83073,1,8,0:0:0:0:
436,59,83193,1,0,0:0:0:0:
437,59,83433,1,8,0:0:0:0:
436,61,83553,1,0,0:0:0:0:
436,60,83673,1,8,0:0:0:0:
436,60,83793,1,0,0:0:0:0:
436,59,83913,1,8,0:0:0:0:
416,52,84273,1,0,0:0:0:0:
430,54,84393,1,8,0:0:0:0:
432,52,84513,1,0,0:0:0:0:
437,51,84633,1,8,0:0:0:0:
441,51,84873,1,0,0:0:0:0:
441,52,84993,1,8,0:0:0:0:
446,51,85113,1,8,0:0:0:0:
432,51,85233,1,0,0:0:0:0:
439,52,85353,1,8,0:0:0:0:
437,51,85593,1,8,0:0:0:0:
438,50,85713,1,8,0:0:0:0:
441,51,85833,1,0,0:0:0:0:
435,47,86073,1,8,0:0:0:0:
446,45,86313,1,8,0:0:0:0:
446,44,86553,1,0,0:0:0:0:
447,44,86673,1,8,0:0:0:0:
447,44,86913,1,8,0:0:0:0:
446,44,87033,1,0,0:0:0:0:
446,45,87273,1,8,0:0:0:0:
446,44,87393,1,0,0:0:0:0:
446,44,87513,1,8,0:0:0:0:
440,46,87633,1,8,0:0:0:0:
440,46,87753,1,0,0:0:0:0:
446,44,87993,1,8,0:0:0:0:
446,45,88113,1,0,0:0:0:0:
446,45,88233,1,8,0:0:0:0:
446,44,88473,1,0,0:0:0:0:
454,38,88593,1,8,0:0:0:0:
454,38,88833,1,8,0:0:0:0:
454,38,88953,1,0,0:0:0:0:
453,39,89193,1,8,0:0:0:0:
452,39,89313,1,0,0:0:0:0:
452,39,89433,1,8,0:0:0:0:
454,38,89673,1,0,0:0:0:0:
454,38,89793,1,8,0:0:0:0:
454,38,89913,1,8,0:0:0:0:
454,38,90033,1,0,0:0:0:0:
453,39,90153,1,8,0:0:0:0:
454,38,90513,1,8,0:0:0:0:
437,43,90753,1,8,0:0:0:0:
446,41,90873,1,0,0:0:0:0:
445,41,91113,1,8,0:0:0:0:
452,39,91233,1,0,0:0:0:0:
452,39,91353,1,8,0:0:0:0:
447,40,91593,1,0,0:0:0:0:
466,46,91713,1,0,0:0:0:0:
466,46,91833,1,8,0:0:0:0:
466,46,91953,1,0,0:0:0:0:
471,39,92073,1,8,0:0:0:0:
474,34,92313,1,0,0:0:0:0:
452,47,92553,1,8,0:0:0:0:
470,38,92673,1,8,0:0:0:0:
471,36,92793,1,0,0:0:0:0:
471,39,93033,1,8,0:0:0:0:
447,47,93193,1,8,0:0:0:0:
395,54,93353,1,0,0:0:0:0:
430,41,93513,1,8,0:0:0:0:
420,51,93753,1,0,0:0:0:0:
434,46,93993,1,8,0:0:0:0:
434,40,94233,1,0,0:0:0:0:
432,42,94353,1,8,0:0:0:0:
431,42,94593,1,8,0:0:0:0:
434,46,94833,1,0,0:0:0:0:
434,46,94953,1,8,0:0:0:0:
434,40,95073,1,8,0:0:0:0:
438,44,95433,1,0,0:0:0:0:
431,43,95673,1,8,0:0:0:0:
434,46,95793,1,0,0:0:0:0:
434,46,95913,1,8,0:0:0:0:
438,44,96153,1,0,0:0:0:0:
438,44,96273,1,8,0:0:0:0:
437,44,96513,1,8,0:0:0:0:
437,44,96633,1,0,0:0:0:0:
434,46,96873,1,8,0:0:0:0:
438,44,96993,1,0,0:0:0:0:
447,45,97113,1,8,0:0:0:0:
448,49,97353,1,0,0:0:0:0:
437,44,97473,1,8,0:0:0:0:
437,44,97593,1,8,0:0:0:0:
434,46,97713,1,0,0:0:0:0:
434,46,97833,1,8,0:0:0:0:
430,43,98073,1,0,0:0:0:0:
430,43,98193,1,8,0:0:0:0:
437,44,98433,1,8,0:0:0:0:
437,44,98553,1,0,0:0:0:0:
434,46,98793,1,8,0:0:0:0:
423,39,98913,1,0,0:0:0:0:
439,44,99033,1,8,0:0:0:0:
439,44,99153,1,8,0:0:0:0:
437,44,99273,1,0,0:0:0:0:
437,44,99513,1,8,0:0:0:0:
434,46,99633,1,0,0:0:0:0:
434,46,99753,1,8,0:0:0:0:
440,43,99873,1,0,0:0:0:0:
439,44,99993,1,8,0:0:0:0:
431,35,100233,1,0,0:0:0:0:
437,44,100353,1,8,0:0:0:0:
431,35,100473,1,0,0:0:0:0:
431,35,100593,1,8,0:0:0:0:
431,35,100713,1,0,0:0:0:0:
436,34,100833,1,0,0:0:0:0:
445,32,100953,1,8,0:0:0:0:
443,26,101193,1,4,0:0:0:0:
256,192,102033,12,0,102633,0:0:0:0:
326,85,102753,5,0,0:0:0:0:
326,85,102873,1,0,0:0:0:0:
334,84,102993,1,8,0:0:0:0:
334,84,103113,1,8,0:0:0:0:
333,58,103473,1,0,0:0:0:0:
338,69,103593,1,8,0:0:0:0:
338,69,103713,1,0,0:0:0:0:
339,62,103833,1,8,0:0:0:0:
339,62,103953,1,8,0:0:0:0:
350,49,104193,1,8,0:0:0:0:
350,49,104433,1,8,0:0:0:0:
350,49,104673,1,0,0:0:0:0:
350,49,104793,1,8,0:0:0:0:
372,56,104913,1,8,0:0:0:0:
350,56,105033,1,0,0:0:0:0:
351,56,105633,1,8,0:0:0:0:
349,57,105753,1,8,0:0:0:0:
350,56,105873,1,0,0:0:0:0:
350,56,105993,1,8,0:0:0:0:
351,56,106113,1,0,0:0:0:0:
351,56,106233,1,8,0:0:0:0:
355,47,106473,1,8,0:0:0:0:
355,47,106593,1,0,0:0:0:0:
359,50,106713,1,8,0:0:0:0:
359,50,106833,1,8,0:0:0:0:
359,50,106953,1,0,0:0:0:0:
378,73,107313,1,0,0:0:0:0:
379,73,107433,1,8,0:0:0:0:
379,73,107553,1,0,0:0:0:0:
379,73,107673,1,8,0:0:0:0:
380,73,107793,1,8,0:0:0:0:
386,74,108033,1,8,0:0:0:0:
385,74,108153,1,0,0:0:0:0:
400,76,108273,1,8,0:0:0:0:
394,69,108513,1,8,0:0:0:0:
394,69,108633,1,8,0:0:0:0:
394,69,108753,1,0,0:0:0:0:
390,74,108873,1,0,0:0:0:0:
397,66,109233,1,0,0:0:0:0:
403,68,109353,1,8,0:0:0:0:
403,68,109473,1,0,0:0:0:0:
403,68,109593,1,8,0:0:0:0:
403,68,109713,1,8,0:0:0:0:
403,68,109953,1,0,0:0:0:0:
403,68,110073,1,8,0:0:0:0:
403,68,110193,1,0,0:0:0:0:
403,68,110433,1,8,0:0:0:0:
397,62,110553,1,0,0:0:0:0:
397,62,110673,1,0,0:0:0:0:
397,62,110793,1,8,0:0:0:0:
406,60,111153,1,0,0:0:0:0:
406,61,111273,1,8,0:0:0:0:
406,61,111393,1,0,0:0:0:0:
406,61,111513,1,8,0:0:0:0:
406,61,111633,1,8,0:0:0:0:
406,61,111873,1,8,0:0:0:0:
406,60,112113,1,8,0:0:0:0:
406,61,112353,1,0,0:0:0:0:
406,61,112473,1,8,0:0:0:0:
396,49,112593,1,0,0:0:0:0:
396,49,112713,1,8,0:0:0:0:
399,49,113073,1,0,0:0:0:0:
402,50,113193,1,8,0:0:0:0:
406,61,113313,1,0,0:0:0:0:
406,61,113433,1,8,0:0:0:0:
411,59,113553,1,8,0:0:0:0:
406,57,113793,1,0,0:0:0:0:
406,57,113913,1,8,0:0:0:0:
416,51,114033,1,0,0:0:0:0:
416,51,114273,1,0,0:0:0:0:
416,51,114393,1,8,0:0:0:0:
416,50,114513,1,0,0:0:0:0:
412,50,114633,1,0,0:0:0:0:
416,51,114993,1,0,0:0:0:0:
416,51,115113,1,8,0:0:0:0:
416,51,115233,1,0,0:0:0:0:
416,51,115353,1,8,0:0:0:0:
416,50,115473,1,8,0:0:0:0:
416,50,115593,1,0,0:0:0:0:
420,50,115833,1,0,0:0:0:0:
416,51,115953,1,8,0:0:0:0:
421,39,116193,1,8,0:0:0:0:
425,46,116313,1,8,0:0:0:0:
425,45,116433,1,0,0:0:0:0:
417,41,116553,1,8,0:0:0:0:
423,43,116793,1,0,0:0:0:0:
412,36,116913,1,8,0:0:0:0:
421,39,117153,1,8,0:0:0:0:
436,37,117393,1,8,0:0:0:0:
440,38,117633,1,0,0:0:0:0:
306,75,117753,1,8,0:0:0:0:
441,40,117873,1,0,0:0:0:0:
441,41,117993,1,8,0:0:0:0:
441,40,118113,1,0,0:0:0:0:
447,42,118233,1,8,0:0:0:0:
468,51,118353,1,8,0:0:0:0:
468,51,118473,1,0,0:0:0:0:
378,73,118833,1,0,0:0:0:0:
379,73,118953,1,8,0:0:0:0:
379,73,119073,1,0,0:0:0:0:
379,73,119193,1,8,0:0:0:0:
380,73,119313,1,8,0:0:0:0:
432,59,119553,1,8,0:0:0:0:
385,74,119673,1,0,0:0:0:0:
400,76,119793,1,8,0:0:0:0:
402,76,119913,1,8,0:0:0:0:
394,69,120033,1,0,0:0:0:0:
394,69,120153,1,8,0:0:0:0:
394,69,120273,1,0,0:0:0:0:
390,74,120393,1,0,0:0:0:0:
397,66,120753,1,0,0:0:0:0:
403,68,120873,1,0,0:0:0:0:
403,68,120993,1,8,0:0:0:0:
403,68,121113,1,8,0:0:0:0:
403,68,121233,1,0,0:0:0:0:
403,68,121473,1,0,0:0:0:0:
403,68,121593,1,8,0:0:0:0:
420,79,121713,1,0,0:0:0:0:
419,79,121833,1,8,0:0:0:0:
419,79,121953,1,8,0:0:0:0:
419,79,122073,1,8,0:0:0:0:
397,62,122193,1,0,0:0:0:0:
397,62,122313,1,8,0:0:0:0:
406,60,122673,1,0,0:0:0:0:
406,61,122793,1,8,0:0:0:0:
406,61,122913,1,0,0:0:0:0:
406,61,123033,1,8,0:0:0:0:
406,61,123153,1,8,0:0:0:0:
406,61,123393,1,0,0:0:0:0:
407,54,123513,1,8,0:0:0:0:
406,60,123633,1,0,0:0:0:0:
404,60,123753,1,8,0:0:0:0:
406,61,123873,1,8,0:0:0:0:
406,61,123993,1,0,0:0:0:0:
396,49,124113,1,8,0:0:0:0:
396,49,124233,1,0,0:0:0:0:
399,49,124593,1,0,0:0:0:0:
402,50,124713,1,8,0:0:0:0:
406,61,124833,1,0,0:0:0:0:
406,61,124953,1,8,0:0:0:0:
411,59,125073,1,8,0:0:0:0:
406,57,125313,1,0,0:0:0:0:
406,57,125433,1,8,0:0:0:0:
405,61,125553,1,0,0:0:0:0:
416,51,125673,1,0,0:0:0:0:
407,72,125793,1,8,0:0:0:0:
416,51,125913,1,8,0:0:0:0:
416,50,126033,1,0,0:0:0:0:
412,50,126153,1,8,0:0:0:0:
416,51,126513,1,0,0:0:0:0:
416,51,126633,1,8,0:0:0:0:
416,51,126753,1,0,0:0:0:0:
416,51,126873,1,8,0:0:0:0:
416,50,126993,1,8,0:0:0:0:
420,50,127233,1,8,0:0:0:0:
420,50,127353,1,0,0:0:0:0:
416,51,127473,1,8,0:0:0:0:
416,51,127593,1,8,0:0:0:0:
425,46,127713,1,0,0:0:0:0:
425,45,127833,1,8,0:0:0:0:
400,55,127953,1,0,0:0:0:0:
397,66,128073,1,0,0:0:0:0:
411,62,128433,1,0,0:0:0:0:
424,37,128553,1,0,0:0:0:0:
421,39,128673,1,8,0:0:0:0:
425,45,128793,1,8,0:0:0:0:
436,37,128913,1,0,0:0:0:0:
440,38,129153,1,8,0:0:0:0:
442,40,129273,1,8,0:0:0:0:
441,40,129393,1,0,0:0:0:0:
441,41,129513,1,8,0:0:0:0:
441,40,129633,1,0,0:0:0:0:
447,42,129753,1,8,0:0:0:0:
468,51,129873,1,0,0:0:0:0:
439,57,129993,1,8,0:0:0:0:
434,47,130113,1,0,0:0:0:0:
437,49,130233,1,0,0:0:0:0:
436,46,130353,1,8,0:0:0:0:
430,44,130713,1,8,0:0:0:0:
441,50,130833,1,0,0:0:0:0:
444,49,130953,1,8,0:0:0:0:
444,49,131073,1,8,0:0:0:0:
441,55,131433,1,8,0:0:0:0:
447,48,131553,1,0,0:0:0:0:
449,46,131673,1,8,0:0:0:0:
449,46,131793,1,8,0:0:0:0:
433,51,131913,1,0,0:0:0:0:
428,53,132033,1,8,0:0:0:0:
452,57,132153,1,0,0:0:0:0:
447,48,132513,1,8,0:0:0:0:
449,46,132633,1,8,0:0:0:0:
449,46,132753,1,0,0:0:0:0:
431,52,132993,1,0,0:0:0:0:
422,79,133113,1,8,0:0:0:0:
414,76,133233,1,8,0:0:0:0:
431,60,133353,1,8,0:0:0:0:
438,60,133473,1,0,0:0:0:0:
438,60,133593,1,8,0:0:0:0:
438,60,133833,1,8,0:0:0:0:
445,44,134073,1,8,0:0:0:0:
445,44,134193,1,8,0:0:0:0:
442,41,134313,1,0,0:0:0:0:
441,42,134553,1,8,0:0:0:0:
441,42,134793,1,8,0:0:0:0:
445,44,134913,1,8,0:0:0:0:
445,44,135033,1,0,0:0:0:0:
434,54,135273,1,8,0:0:0:0:
420,48,135513,1,0,0:0:0:0:
422,54,135753,1,8,0:0:0:0:
424,52,135873,1,8,0:0:0:0:
422,52,135993,1,8,0:0:0:0:
419,52,136113,1,8,0:0:0:0:
418,51,136233,1,0,0:0:0:0:
420,48,136353,1,0,0:0:0:0:
420,48,136473,1,0,0:0:0:0:
420,48,136593,1,0,0:0:0:0:
184,197,136713,2,4,L|225:187,8,35.0241507167189
399,55,137673,1,0,0:0:0:0:
399,56,137793,1,0,0:0:0:0:
399,56,137913,1,8,0:0:0:0:
399,56,138033,1,8,0:0:0:0:
399,55,138273,1,0,0:0:0:0:
406,54,138393,1,8,0:0:0:0:
399,55,138633,1,8,0:0:0:0:
399,56,138753,1,8,0:0:0:0:
399,56,138873,1,0,0:0:0:0:
399,56,138993,1,0,0:0:0:0:
380,75,139233,1,0,0:0:0:0:
406,54,139353,1,8,0:0:0:0:
406,54,139473,1,8,0:0:0:0:
399,55,139593,1,0,0:0:0:0:
399,56,139833,1,8,0:0:0:0:
399,56,139953,1,0,0:0:0:0:
419,56,140193,1,0,0:0:0:0:
401,46,140433,1,8,0:0:0:0:
415,41,140673,1,8,0:0:0:0:
414,41,140793,1,8,0:0:0:0:
414,40,140913,1,0,0:0:0:0:
414,40,141033,1,8,0:0:0:0:
413,49,141513,1,0,0:0:0:0:
413,49,141633,1,0,0:0:0:0:
415,48,141753,1,8,0:0:0:0:
415,48,141873,1,8,0:0:0:0:
418,55,142113,1,0,0:0:0:0:
418,55,142233,1,8,0:0:0:0:
413,49,142473,1,8,0:0:0:0:
413,49,142593,1,8,0:0:0:0:
415,48,142713,1,0,0:0:0:0:
415,48,142833,1,0,0:0:0:0:
418,55,143073,1,0,0:0:0:0:
418,55,143193,1,8,0:0:0:0:
413,49,143313,1,8,0:0:0:0:
413,49,143433,1,0,0:0:0:0:
415,48,143673,1,8,0:0:0:0:
415,48,143793,1,0,0:0:0:0:
416,44,144033,1,0,0:0:0:0:
416,45,144273,1,8,0:0:0:0:
413,59,144513,1,0,0:0:0:0:
419,38,144633,1,8,0:0:0:0:
419,38,144753,1,0,0:0:0:0:
419,39,144873,1,8,0:0:0:0:
418,39,145353,1,0,0:0:0:0:
411,41,145473,1,0,0:0:0:0:
418,38,145593,1,8,0:0:0:0:
419,38,145713,1,8,0:0:0:0:
416,45,145953,1,0,0:0:0:0:
416,44,146073,1,8,0:0:0:0:
418,39,146313,1,8,0:0:0:0:
421,39,146433,1,8,0:0:0:0:
418,38,146553,1,0,0:0:0:0:
419,38,146673,1,0,0:0:0:0:
409,39,146913,1,0,0:0:0:0:
409,41,147033,1,8,0:0:0:0:
409,41,147153,1,8,0:0:0:0:
408,41,147273,1,0,0:0:0:0:
418,38,147513,1,8,0:0:0:0:
419,38,147633,1,0,0:0:0:0:
409,39,147873,1,0,0:0:0:0:
408,49,148113,1,8,0:0:0:0:
406,46,148353,1,8,0:0:0:0:
406,47,148473,1,8,0:0:0:0:
416,45,148593,1,0,0:0:0:0:
416,45,148713,1,8,0:0:0:0:
421,54,149193,1,0,0:0:0:0:
413,55,149313,1,0,0:0:0:0:
413,55,149433,1,8,0:0:0:0:
413,55,149553,1,8,0:0:0:0:
413,55,149793,1,0,0:0:0:0:
384,61,149913,1,8,0:0:0:0:
406,53,150153,1,8,0:0:0:0:
413,55,150273,1,8,0:0:0:0:
413,55,150393,1,0,0:0:0:0:
413,55,150513,1,0,0:0:0:0:
413,55,150753,1,0,0:0:0:0:
357,69,150873,1,8,0:0:0:0:
412,55,150993,1,8,0:0:0:0:
406,52,151113,1,0,0:0:0:0:
406,48,151353,1,8,0:0:0:0:
406,48,151473,1,0,0:0:0:0:
406,48,151713,1,0,0:0:0:0:
406,48,151953,1,8,0:0:0:0:
406,48,152193,1,0,0:0:0:0:
406,48,152313,5,8,0:0:0:0:
406,48,152433,1,0,0:0:0:0:
419,51,152673,5,0,0:0:0:0:
419,50,152913,1,8,0:0:0:0:
420,52,153033,1,8,0:0:0:0:
418,52,153153,1,0,0:0:0:0:
418,51,153273,1,8,0:0:0:0:
418,51,153393,1,0,0:0:0:0:
419,51,153633,1,8,0:0:0:0:
419,50,153873,1,8,0:0:0:0:
418,52,154113,1,8,0:0:0:0:
418,52,154233,1,0,0:0:0:0:
416,43,154353,1,8,0:0:0:0:
418,51,154473,1,0,0:0:0:0:
419,50,154713,1,12,0:0:0:0:
