osu file format v14

[General]
AudioFilename: audio.mp3
AudioLeadIn: 0
PreviewTime: 102748
Countdown: 0
SampleSet: Soft
StackLeniency: 0.7
Mode: 3
LetterboxInBreaks: 0
SpecialStyle: 0
WidescreenStoryboard: 1

[Editor]
Bookmarks: 3268,9988,10948,18628,26308,33988,45508,49348,52468,53188,59908,60868,68548,70468,78388,85828,93748,101188,106948,110308,110788,117988,118468,125668,126148,129988,133828,136948,137668,145348,154708,154948
DistanceSpacing: 0.8
BeatDivisor: 4
GridSize: 4
TimelineZoom: 1.2

[Metadata]
Title:Star of the COME ON!!
TitleUnicode:スター・オブ・ザ・COME ON!!
Artist:Frums
ArtistUnicode:Frums
Creator:Kawawa
Version:STARRY REVOLUTION!!
Source:osu!
Tags:Mapping Olympiad #7: 1st place FA Featured Artist MG Mappers' Guild Electronic Chiptune Instrumental Chip Rock Fakebit Breakcore Pocket Monsters Pokémon Pokemon ポケモン ポケットモンスター サンダース Evolution EVS eeveelution EVolution!!!!!!!!! ああああ AAAA Jun Kuroda
BeatmapID:2706985
BeatmapSetID:1305627

[Difficulty]
HPDrainRate:8.3
CircleSize:7
OverallDifficulty:8
ApproachRate:5
SliderMultiplier:1.4
SliderTickRate:1

[Events]
//Background and Video events
0,0,"BG.jpg",0,0
//Break Periods
//Storyboard Layer 0 (Background)
//Storyboard Layer 1 (Fail)
//Storyboard Layer 2 (Pass)
//Storyboard Layer 3 (Foreground)
//Storyboard Layer 4 (Overlay)
//Storyboard Sound Samples

[TimingPoints]
3268,240,4,2,1,30,1,0
10948,-100,4,2,1,30,0,1
18628,-100,4,2,1,30,0,0
49348,-100,4,2,1,30,0,1
52468,-100,4,2,1,30,0,0
60868,-100,4,2,1,30,0,1
68548,-100,4,2,1,30,0,0
106948,-100,4,2,1,30,0,1
129988,-100,4,2,1,30,0,0
133828,-100,4,2,1,30,0,1
136948,-100,4,2,1,30,0,0
154708,-100,4,2,1,30,0,1
154948,-100,4,2,1,30,0,0

[HitObjects]
256,192,1348,128,0,3268:0:0:0:30:Reversed Cymbal.wav
36,192,3268,5,0,0:0:0:50:Drum-KicK.wav
402,192,3268,1,0,0:0:0:50:Shorted Crash.wav
109,192,3268,1,0,0:0:0:0:
475,192,3268,1,0,0:0:0:0:
256,192,3388,1,0,0:0:0:0:
36,192,3508,5,0,0:0:0:50:Drum-KicK.wav
109,192,3508,1,0,0:0:0:0:
402,192,3508,1,0,0:0:0:0:
475,192,3508,1,0,0:0:0:0:
256,192,3628,1,0,0:0:0:0:
36,192,3748,1,0,0:0:0:50:Drum-KicK.wav
475,192,3748,1,0,0:0:0:0:
329,192,3748,1,0,0:0:0:0:
109,192,3748,1,0,0:0:0:0:
182,192,3868,1,0,0:0:0:0:
109,192,3988,1,0,0:0:0:0:
36,192,3988,1,0,0:0:0:50:Drum-KicK.wav
329,192,3988,1,0,0:0:0:0:
475,192,3988,1,0,0:0:0:0:
182,192,4108,1,0,0:0:0:0:
256,192,4228,1,0,0:0:0:0:
109,192,4228,1,0,0:0:0:0:
36,192,4228,1,0,0:0:0:50:Drum-KicK.wav
402,192,4228,1,0,0:0:0:0:
475,192,4348,1,0,0:0:0:0:
36,192,4468,5,0,0:0:0:50:Drum-KicK.wav
402,192,4468,1,0,0:0:0:0:
256,192,4468,1,0,0:0:0:0:
109,192,4468,1,0,0:0:0:0:
475,192,4588,1,0,0:0:0:0:
182,192,4708,1,0,0:0:0:0:
109,192,4708,1,0,0:0:0:0:
36,192,4708,1,0,0:0:0:50:Drum-KicK.wav
329,192,4708,1,0,0:0:0:0:
402,192,4828,1,0,0:0:0:0:
36,192,4948,5,0,0:0:0:50:Drum-KicK.wav
109,192,4948,1,0,0:0:0:0:
329,192,4948,1,0,0:0:0:0:
182,192,4948,1,0,0:0:0:0:
402,192,5068,1,0,0:0:0:0:
256,192,5188,1,0,0:0:0:0:
109,192,5188,1,0,0:0:0:0:
36,192,5188,1,0,0:0:0:50:Drum-KicK.wav
475,192,5188,1,0,0:0:0:0:
402,192,5248,1,0,0:0:0:50:Drum-KicK.wav
329,192,5248,1,0,0:0:0:0:
109,192,5308,1,0,0:0:0:50:Drum-KicK.wav
182,192,5308,1,0,0:0:0:0:
402,192,5368,1,0,0:0:0:50:Drum-KicK.wav
329,192,5368,1,0,0:0:0:0:
36,192,5428,5,0,0:0:0:50:Drum-KicK.wav
109,192,5428,1,0,0:0:0:0:
256,192,5428,1,0,0:0:0:0:
475,192,5428,1,0,0:0:0:0:
402,192,5548,1,0,0:0:0:0:
109,192,5668,1,0,0:0:0:0:
329,192,5668,1,0,0:0:0:0:
36,192,5668,1,0,0:0:0:50:Drum-KicK.wav
182,192,5668,1,0,0:0:0:0:
475,192,5788,1,0,0:0:0:0:
36,192,5908,5,0,0:0:0:50:Drum-KicK.wav
329,192,5908,1,0,0:0:0:0:
182,192,5908,1,0,0:0:0:0:
109,192,5908,1,0,0:0:0:0:
402,192,6028,1,0,0:0:0:0:
109,192,6148,1,0,0:0:0:0:
475,192,6148,1,0,0:0:0:0:
36,192,6148,1,0,0:0:0:50:Drum-KicK.wav
256,192,6148,1,0,0:0:0:0:
329,192,6268,1,0,0:0:0:0:
36,192,6388,5,0,0:0:0:50:Drum-KicK.wav
256,192,6388,1,0,0:0:0:0:
109,192,6388,1,0,0:0:0:0:
475,192,6388,1,0,0:0:0:0:
329,192,6508,1,0,0:0:0:0:
475,192,6628,1,0,0:0:0:0:
256,192,6628,1,0,0:0:0:0:
36,192,6628,1,0,0:0:0:50:Drum-KicK.wav
109,192,6628,1,0,0:0:0:0:
402,192,6748,1,0,0:0:0:0:
329,192,6748,1,0,0:0:0:50:Drum-KicK.wav
182,192,6808,1,0,0:0:0:50:Drum-KicK.wav
256,192,6808,1,0,0:0:0:0:
36,192,6868,5,0,0:0:0:50:Drum-KicK.wav
402,192,6868,1,0,0:0:0:0:
109,192,6868,1,0,0:0:0:0:
475,192,6868,1,0,0:0:0:0:
36,192,6988,1,0,0:0:0:50:Drum-KicK.wav
109,192,6988,1,0,0:0:0:0:
402,192,7108,1,0,0:0:0:0:
109,192,7108,1,0,0:0:0:0:
36,192,7108,1,0,0:0:0:50:Drum-KicK.wav
475,192,7108,1,0,0:0:0:0:
256,192,7228,1,0,0:0:0:0:
475,192,7348,5,0,0:0:0:50:Drum-KicK.wav
402,192,7348,1,0,0:0:0:0:
36,192,7348,1,0,0:0:0:0:
109,192,7348,1,0,0:0:0:0:
256,192,7468,1,0,0:0:0:0:
182,192,7588,1,0,0:0:0:0:
36,192,7588,1,0,0:0:0:0:
475,192,7588,1,0,0:0:0:50:Drum-KicK.wav
402,192,7588,1,0,0:0:0:0:
329,192,7708,1,0,0:0:0:0:
475,192,7828,5,0,0:0:0:50:Drum-KicK.wav
36,192,7828,1,0,0:0:0:0:
402,192,7828,1,0,0:0:0:0:
182,192,7828,1,0,0:0:0:0:
329,192,7948,1,0,0:0:0:0:
402,192,8068,1,0,0:0:0:0:
475,192,8068,1,0,0:0:0:50:Drum-KicK.wav
109,192,8068,1,0,0:0:0:0:
256,192,8068,1,0,0:0:0:0:
36,192,8188,1,0,0:0:0:0:
475,192,8308,5,0,0:0:0:50:Drum-KicK.wav
402,192,8308,1,0,0:0:0:0:
109,192,8308,1,0,0:0:0:0:
256,192,8308,1,0,0:0:0:0:
36,192,8428,1,0,0:0:0:0:
329,192,8548,1,0,0:0:0:0:
475,192,8548,1,0,0:0:0:50:Drum-KicK.wav
402,192,8548,1,0,0:0:0:0:
182,192,8548,1,0,0:0:0:0:
109,192,8668,1,0,0:0:0:0:
475,192,8788,5,0,0:0:0:50:Drum-KicK.wav
402,192,8788,1,0,0:0:0:0:
182,192,8788,1,0,0:0:0:0:
329,192,8788,1,0,0:0:0:0:
109,192,8908,1,0,0:0:0:0:
402,192,9028,1,0,0:0:0:70:Drum Roll.wav
36,192,9028,1,0,0:0:0:50:Drum-KicK.wav
256,192,9028,1,0,0:0:0:0:
475,192,9028,1,0,0:0:0:0:
402,192,9148,1,0,0:0:0:70:Drum Roll.wav
182,192,9148,1,0,0:0:0:0:
329,192,9148,1,0,0:0:0:0:
256,192,9268,1,0,0:0:0:0:
475,192,9268,1,0,0:0:0:50:Drum-KicK.wav
36,192,9268,1,0,0:0:0:0:
109,192,9268,1,0,0:0:0:70:Drum Roll.wav
109,192,9388,1,0,0:0:0:70:Drum Roll.wav
329,192,9388,1,0,0:0:0:0:
182,192,9388,1,0,0:0:0:0:
402,192,9508,1,0,0:0:0:0:
36,192,9508,1,0,0:0:0:0:
256,192,9508,1,0,0:0:0:50:Drum-KicK.wav
475,192,9508,1,0,0:0:0:70:Drum Roll.wav
475,192,9628,1,0,0:0:0:70:Drum Roll.wav
182,192,9628,1,0,0:0:0:0:
329,192,9628,1,0,0:0:0:0:
109,192,9748,1,0,0:0:0:0:
402,192,9748,1,0,0:0:0:0:
256,192,9748,1,0,0:0:0:50:Drum-KicK.wav
36,192,9748,1,0,0:0:0:70:Drum Roll.wav
36,192,9868,1,0,0:0:0:70:Drum Roll.wav
329,192,9868,1,0,0:0:0:0:
182,192,9868,1,0,0:0:0:0:
402,192,9988,5,0,0:0:0:50:Drum-KicK.wav
109,192,9988,1,0,0:0:0:0:
256,192,9988,1,0,0:0:0:0:
475,192,9988,1,0,0:0:0:50:Shorted Crash.wav
329,192,10108,1,0,0:0:0:0:
475,192,10168,1,0,0:0:0:50:Drum-Snare.wav
402,192,10168,1,0,0:0:0:0:
256,192,10228,1,0,0:0:0:50:Drum-Snare.wav
36,192,10228,1,0,0:0:0:0:
109,192,10228,1,0,0:0:0:0:
182,192,10348,1,0,0:0:0:0:
36,192,10408,1,0,0:0:0:50:Drum-Snare.wav
109,192,10408,1,0,0:0:0:0:
256,192,10468,5,0,0:0:0:50:Drum-KicK.wav
402,192,10468,1,0,0:0:0:0:
475,192,10468,1,0,0:0:0:0:
182,192,10588,1,0,0:0:0:50:Drum-Snare.wav
109,192,10588,1,0,0:0:0:0:
329,192,10588,1,0,0:0:0:0:
256,192,10708,1,0,0:0:0:50:Drum-Snare.wav
475,192,10708,1,0,0:0:0:0:
36,192,10708,1,0,0:0:0:0:
329,192,10768,1,0,0:0:0:50:Drum-Snare.wav
109,192,10768,1,0,0:0:0:0:
182,192,10828,1,0,0:0:0:0:
402,192,10828,1,0,0:0:0:50:Drum-Snare.wav
475,192,10888,1,0,0:0:0:50:Drum-Snare.wav
256,192,10888,1,0,0:0:0:0:
329,192,10948,1,0,0:0:0:50:Shorted Crash.wav
36,192,10948,128,0,11068:0:0:0:50:Synth.wav
182,192,10948,1,0,0:0:0:50:Drum-KicK.wav
109,192,10948,128,0,11068:0:0:0:0:
36,192,11188,1,0,0:0:0:50:Synth.wav
256,192,11188,1,0,0:0:0:70:Clap(Hey).wav
402,192,11188,1,0,0:0:0:50:Drum-Snare.wav
109,192,11188,1,0,0:0:0:0:
329,192,11308,1,0,0:0:0:0:
475,192,11308,1,0,0:0:0:50:Drum-KicK.wav
109,192,11308,1,0,0:0:0:0:
36,192,11308,1,0,0:0:0:50:Synth.wav
182,192,11428,1,0,0:0:0:50:Drum-KicK.wav
329,192,11548,1,0,0:0:0:0:
36,192,11548,1,0,0:0:0:50:Synth.wav
475,192,11548,1,0,0:0:0:50:Drum-Snare.wav
109,192,11548,1,0,0:0:0:0:
36,192,11668,1,0,0:0:0:50:Synth.wav
256,192,11668,1,0,0:0:0:70:Clap(Hey).wav
402,192,11668,1,0,0:0:0:50:Drum-KicK.wav
109,192,11668,1,0,0:0:0:0:
109,192,11788,128,0,11908:0:0:0:0:
36,192,11788,128,0,11908:0:0:0:50:Synth.wav
402,192,11908,128,0,12028:0:0:0:50:Synth.wav
182,192,11908,1,0,0:0:0:50:Drum-KicK.wav
329,192,11908,128,0,12028:0:0:0:0:
182,192,12148,1,0,0:0:0:50:Drum-Snare.wav
402,192,12148,1,0,0:0:0:50:Synth.wav
109,192,12148,1,0,0:0:0:70:Clap(Hey).wav
329,192,12148,1,0,0:0:0:0:
36,192,12268,1,0,0:0:0:0:
475,192,12268,1,0,0:0:0:50:Drum-KicK.wav
402,192,12268,1,0,0:0:0:50:Synth.wav
329,192,12268,1,0,0:0:0:0:
182,192,12388,1,0,0:0:0:50:Drum-KicK.wav
36,192,12508,1,0,0:0:0:0:
475,192,12508,1,0,0:0:0:50:Drum-Snare.wav
402,192,12508,1,0,0:0:0:50:Synth.wav
329,192,12508,1,0,0:0:0:0:
182,192,12628,1,0,0:0:0:50:Drum-KicK.wav
109,192,12628,1,0,0:0:0:70:Clap(Hey).wav
329,192,12628,1,0,0:0:0:0:
402,192,12628,1,0,0:0:0:50:Synth.wav
329,192,12748,128,0,12868:0:0:0:0:
402,192,12748,128,0,12868:0:0:0:50:Synth.wav
36,192,12868,1,0,0:0:0:0:
256,192,12868,1,0,0:0:0:50:Drum-KicK.wav
475,192,12868,1,0,0:0:0:50:Synth.wav
182,192,12928,1,0,0:0:0:50:Drum-KicK.wav
109,192,12928,1,0,0:0:0:0:
329,192,12988,1,0,0:0:0:50:Drum-KicK.wav
402,192,12988,1,0,0:0:0:0:
256,192,13048,1,0,0:0:0:50:Drum-KicK.wav
182,192,13048,1,0,0:0:0:0:
475,192,13108,1,0,0:0:0:50:Synth.wav
109,192,13108,1,0,0:0:0:50:Drum-Snare.wav
36,192,13108,1,0,0:0:0:70:Clap(Hey).wav
402,192,13108,1,0,0:0:0:0:
402,192,13228,1,0,0:0:0:0:
182,192,13228,1,0,0:0:0:50:Drum-KicK.wav
256,192,13228,1,0,0:0:0:0:
475,192,13228,1,0,0:0:0:50:Synth.wav
36,192,13348,1,0,0:0:0:50:Drum-KicK.wav
256,192,13468,1,0,0:0:0:0:
182,192,13468,1,0,0:0:0:50:Drum-Snare.wav
475,192,13468,1,0,0:0:0:50:Synth.wav
402,192,13468,1,0,0:0:0:0:
109,192,13588,1,0,0:0:0:50:Drum-KicK.wav
36,192,13588,1,0,0:0:0:70:Clap(Hey).wav
475,192,13588,1,0,0:0:0:50:Synth.wav
402,192,13588,1,0,0:0:0:0:
402,192,13708,128,0,13828:0:0:0:0:
475,192,13708,128,0,13828:0:0:0:50:Synth.wav
329,192,13828,1,0,0:0:0:50:Drum-KicK.wav
36,192,13828,128,0,13948:0:0:0:50:Synth.wav
182,192,13828,128,0,13948:0:0:0:0:
402,192,14008,1,0,0:0:0:0:
475,192,14008,1,0,0:0:0:50:Drum-KicK.wav
36,192,14068,1,0,0:0:0:50:Synth.wav
329,192,14068,1,0,0:0:0:70:Clap(Hey).wav
182,192,14068,1,0,0:0:0:0:
182,192,14188,1,0,0:0:0:0:
329,192,14188,1,0,0:0:0:50:Drum-Snare.wav
36,192,14188,1,0,0:0:0:50:Synth.wav
475,192,14188,1,0,0:0:0:0:
402,192,14368,1,0,0:0:0:0:
475,192,14368,1,0,0:0:0:50:Drum-KicK.wav
36,192,14428,1,0,0:0:0:50:Synth.wav
182,192,14428,1,0,0:0:0:0:
329,192,14548,1,0,0:0:0:50:Drum-Snare.wav
36,192,14548,1,0,0:0:0:50:Synth.wav
475,192,14548,1,0,0:0:0:70:Clap(Hey).wav
182,192,14548,1,0,0:0:0:0:
402,192,14668,1,0,0:0:0:0:
256,192,14668,1,0,0:0:0:50:Synth.wav
182,192,14728,1,0,0:0:0:50:Synth.wav
329,192,14788,128,0,14908:0:0:0:0:
109,192,14788,1,0,0:0:0:50:Drum-KicK.wav
475,192,14788,128,0,14908:0:0:0:50:Synth.wav
475,192,15028,1,0,0:0:0:50:Synth.wav
109,192,15028,1,0,0:0:0:50:Drum-Snare.wav
36,192,15028,1,0,0:0:0:70:Clap(Hey).wav
329,192,15028,1,0,0:0:0:0:
329,192,15148,1,0,0:0:0:0:
182,192,15148,1,0,0:0:0:50:Drum-KicK.wav
256,192,15148,1,0,0:0:0:0:
475,192,15148,1,0,0:0:0:50:Synth.wav
36,192,15268,1,0,0:0:0:50:Drum-KicK.wav
329,192,15388,1,0,0:0:0:0:
475,192,15388,1,0,0:0:0:50:Synth.wav
182,192,15388,1,0,0:0:0:50:Drum-Snare.wav
256,192,15388,1,0,0:0:0:0:
475,192,15508,1,0,0:0:0:50:Synth.wav
109,192,15508,1,0,0:0:0:50:Drum-KicK.wav
36,192,15508,1,0,0:0:0:70:Clap(Hey).wav
329,192,15508,1,0,0:0:0:0:
329,192,15628,128,0,15748:0:0:0:0:
475,192,15628,128,0,15748:0:0:0:50:Synth.wav
36,192,15748,128,0,15868:0:0:0:0:
256,192,15748,1,0,0:0:0:50:Drum-KicK.wav
109,192,15748,128,0,15868:0:0:0:50:Synth.wav
109,192,15988,1,0,0:0:0:50:Synth.wav
475,192,15988,1,0,0:0:0:50:Drum-Snare.wav
329,192,15988,1,0,0:0:0:70:Clap(Hey).wav
36,192,15988,1,0,0:0:0:0:
109,192,16108,1,0,0:0:0:50:Synth.wav
256,192,16108,1,0,0:0:0:50:Drum-KicK.wav
36,192,16108,1,0,0:0:0:0:
402,192,16108,1,0,0:0:0:0:
182,192,16228,1,0,0:0:0:50:Drum-KicK.wav
402,192,16348,1,0,0:0:0:0:
109,192,16348,1,0,0:0:0:50:Synth.wav
256,192,16348,1,0,0:0:0:50:Drum-Snare.wav
36,192,16348,1,0,0:0:0:0:
475,192,16468,1,0,0:0:0:70:Clap(Hey).wav
109,192,16468,1,0,0:0:0:50:Synth.wav
329,192,16468,1,0,0:0:0:50:Drum-KicK.wav
36,192,16468,1,0,0:0:0:0:
36,192,16588,128,0,16708:0:0:0:0:
109,192,16588,128,0,16708:0:0:0:50:Synth.wav
256,192,16708,1,0,0:0:0:50:Drum-KicK.wav
402,192,16708,128,0,16828:0:0:0:0:
475,192,16708,128,0,16828:0:0:0:50:Synth.wav
36,192,16828,1,0,0:0:0:50:Drum-Snare.wav
109,192,16828,1,0,0:0:0:0:
475,192,16948,1,0,0:0:0:50:Synth.wav
329,192,16948,1,0,0:0:0:70:Clap(Hey).wav
182,192,16948,1,0,0:0:0:50:Drum-KicK.wav
402,192,16948,1,0,0:0:0:0:
475,192,17068,128,0,17188:0:0:0:50:Synth.wav
36,192,17068,1,0,0:0:0:0:
109,192,17068,1,0,0:0:0:50:Drum-Snare.wav
402,192,17068,128,0,17188:0:0:0:0:
256,192,17188,1,0,0:0:0:50:Drum-KicK.wav
402,192,17308,1,0,0:0:0:0:
475,192,17308,1,0,0:0:0:50:Synth.wav
109,192,17308,1,0,0:0:0:50:Drum-Snare.wav
36,192,17308,1,0,0:0:0:0:
182,192,17428,1,0,0:0:0:50:Drum-KicK.wav
475,192,17428,1,0,0:0:0:50:Synth.wav
329,192,17428,1,0,0:0:0:70:Clap(Hey).wav
402,192,17428,1,0,0:0:0:0:
109,192,17548,1,0,0:0:0:50:Drum-Snare.wav
36,192,17548,1,0,0:0:0:0:
402,192,17548,1,0,0:0:0:0:
475,192,17548,1,0,0:0:0:50:Synth.wav
475,192,17668,1,0,0:0:0:0:
256,192,17668,1,0,0:0:0:50:Synth.wav
402,192,17668,1,0,0:0:0:50:Drum-KicK.wav
36,192,17728,1,0,0:0:0:50:Drum-KicK.wav
109,192,17728,1,0,0:0:0:0:
329,192,17788,1,0,0:0:0:50:Drum-KicK.wav
182,192,17788,1,0,0:0:0:0:
402,192,17848,1,0,0:0:0:50:Drum-KicK.wav
475,192,17848,1,0,0:0:0:0:
109,192,17908,1,0,0:0:0:0:
36,192,17908,1,0,0:0:0:50:Drum-KicK.wav
256,192,17908,1,0,0:0:0:50:Synth.wav
402,192,17968,1,0,0:0:0:50:Drum-KicK.wav
475,192,17968,1,0,0:0:0:0:
329,192,18028,1,0,0:0:0:50:Drum-KicK.wav
182,192,18028,1,0,0:0:0:0:
36,192,18088,1,0,0:0:0:50:Drum-KicK.wav
109,192,18088,1,0,0:0:0:0:
475,192,18148,128,0,18388:0:0:0:50:Sub rhythm.wav
256,192,18148,1,0,0:0:0:0:
329,192,18268,128,0,18388:0:0:0:50:Sub rhythm.wav
182,192,18388,128,0,18448:0:0:0:50:Sub rhythm.wav
402,192,18448,128,0,18508:0:0:0:50:Sub rhythm.wav
256,192,18508,128,0,18568:0:0:0:50:Sub rhythm.wav
475,192,18568,128,0,18628:0:0:0:50:Sub rhythm.wav
182,192,18628,1,0,0:0:0:0:
36,192,18628,1,0,0:0:0:50:Synth.wav
256,192,18748,1,0,0:0:0:0:
109,192,18748,1,0,0:0:0:50:Synth.wav
329,192,18868,1,0,0:0:0:0:
182,192,18868,1,0,0:0:0:50:Synth.wav
402,192,18988,1,0,0:0:0:0:
256,192,18988,1,0,0:0:0:50:Synth.wav
36,192,19228,1,0,0:0:0:0:
329,192,19228,1,0,0:0:0:50:Drum-KicK.wav
182,192,19228,1,0,0:0:0:0:
402,192,19348,1,0,0:0:0:50:Drum-Snare.wav
256,192,19348,1,0,0:0:0:0:
475,192,19348,1,0,0:0:0:0:
109,192,19468,1,0,0:0:0:50:HihaT.wav
182,192,19528,1,0,0:0:0:50:HihaT.wav
256,192,19588,1,0,0:0:0:0:
402,192,19588,1,0,0:0:0:50:Synth.wav
182,192,19708,1,0,0:0:0:0:
329,192,19708,1,0,0:0:0:50:Synth.wav
109,192,19828,1,0,0:0:0:0:
256,192,19828,1,0,0:0:0:50:Synth.wav
36,192,19948,1,0,0:0:0:0:
182,192,19948,1,0,0:0:0:50:Synth.wav
329,192,20188,1,0,0:0:0:0:
182,192,20188,1,0,0:0:0:50:Drum-KicK.wav
475,192,20188,1,0,0:0:0:0:
109,192,20308,1,0,0:0:0:50:Drum-Snare.wav
36,192,20308,1,0,0:0:0:0:
256,192,20308,1,0,0:0:0:0:
402,192,20368,1,0,0:0:0:50:Drum-Snare.wav
475,192,20368,1,0,0:0:0:0:
329,192,20428,1,0,0:0:0:0:
182,192,20428,1,0,0:0:0:50:Drum-Snare.wav
402,192,20488,1,0,0:0:0:50:Drum-KicK.wav
475,192,20488,1,0,0:0:0:0:
36,192,20548,1,0,0:0:0:50:Drum-KicK.wav
109,192,20548,1,0,0:0:0:50:Shorted Crash.wav
256,192,20548,128,0,20668:0:0:0:50:Synth.wav
36,192,20668,1,0,0:0:0:50:Drum-KicK.wav
329,192,20668,128,0,20788:0:0:0:50:Synth.wav
109,192,20668,1,0,0:0:0:0:
109,192,20788,1,0,0:0:0:0:
36,192,20788,1,0,0:0:0:50:Drum-Snare.wav
402,192,20788,128,0,20908:0:0:0:50:Synth.wav
182,192,20788,1,0,0:0:0:0:
256,192,20908,1,0,0:0:0:50:HihaT.wav
475,192,20908,128,0,21028:0:0:0:50:Synth.wav
109,192,20968,1,0,0:0:0:50:HihaT.wav
329,192,21028,1,0,0:0:0:50:HihaT.wav
402,192,21088,1,0,0:0:0:50:HihaT.wav
475,192,21148,1,0,0:0:0:0:
182,192,21148,1,0,0:0:0:50:Drum-KicK.wav
36,192,21148,128,0,21268:0:0:0:50:Synth.wav
109,192,21148,1,0,0:0:0:0:
329,192,21268,1,0,0:0:0:0:
256,192,21268,1,0,0:0:0:0:
402,192,21268,1,0,0:0:0:50:Drum-Snare.wav
109,192,21388,1,0,0:0:0:50:HihaT.wav
475,192,21388,128,0,21508:0:0:0:50:Synth.wav
182,192,21448,1,0,0:0:0:50:HihaT.wav
36,192,21508,1,0,0:0:0:0:
256,192,21508,1,0,0:0:0:50:Drum-KicK.wav
402,192,21508,1,0,0:0:0:0:
109,192,21628,1,0,0:0:0:50:Drum-KicK.wav
182,192,21628,1,0,0:0:0:50:Synth.wav
256,192,21688,1,0,0:0:0:50:Drum-KicK.wav
329,192,21688,1,0,0:0:0:0:
109,192,21748,1,0,0:0:0:0:
36,192,21748,1,0,0:0:0:50:Drum-Snare.wav
402,192,21748,1,0,0:0:0:50:Synth.wav
475,192,21748,1,0,0:0:0:0:
182,192,21868,1,0,0:0:0:50:Drum-KicK.wav
329,192,21868,1,0,0:0:0:0:
402,192,21868,1,0,0:0:0:50:Synth.wav
475,192,21988,1,0,0:0:0:50:Synth.wav
256,192,21988,1,0,0:0:0:0:
36,192,21988,1,0,0:0:0:50:Drum-Snare.wav
109,192,21988,1,0,0:0:0:0:
329,192,22108,1,0,0:0:0:50:Drum-KicK.wav
402,192,22108,1,0,0:0:0:0:
182,192,22228,1,0,0:0:0:50:Shorted Crash.wav
329,192,22228,1,0,0:0:0:50:Drum-KicK.wav
402,192,22228,1,0,0:0:0:0:
36,192,22228,1,0,0:0:0:0:
109,192,22228,1,0,0:0:0:0:
182,192,22468,1,0,0:0:0:0:
36,192,22468,1,0,0:0:0:50:Synth.wav
256,192,22588,1,0,0:0:0:0:
109,192,22588,1,0,0:0:0:50:Synth.wav
329,192,22708,1,0,0:0:0:0:
182,192,22708,1,0,0:0:0:50:Synth.wav
402,192,22828,1,0,0:0:0:0:
256,192,22828,1,0,0:0:0:50:Synth.wav
36,192,23068,1,0,0:0:0:0:
329,192,23068,1,0,0:0:0:50:Drum-KicK.wav
182,192,23068,1,0,0:0:0:0:
402,192,23188,1,0,0:0:0:50:Drum-Snare.wav
256,192,23188,1,0,0:0:0:0:
475,192,23188,1,0,0:0:0:0:
109,192,23308,1,0,0:0:0:50:HihaT.wav
182,192,23368,1,0,0:0:0:50:HihaT.wav
256,192,23428,1,0,0:0:0:0:
402,192,23428,1,0,0:0:0:50:Synth.wav
182,192,23548,1,0,0:0:0:0:
329,192,23548,1,0,0:0:0:50:Synth.wav
109,192,23668,1,0,0:0:0:0:
256,192,23668,1,0,0:0:0:50:Synth.wav
36,192,23788,1,0,0:0:0:0:
182,192,23788,1,0,0:0:0:50:Synth.wav
329,192,24028,1,0,0:0:0:0:
182,192,24028,1,0,0:0:0:50:Drum-KicK.wav
475,192,24028,1,0,0:0:0:0:
109,192,24148,1,0,0:0:0:50:Drum-Snare.wav
36,192,24148,1,0,0:0:0:0:
256,192,24148,1,0,0:0:0:0:
402,192,24208,1,0,0:0:0:50:Drum-Snare.wav
475,192,24208,1,0,0:0:0:0:
329,192,24268,1,0,0:0:0:0:
182,192,24268,1,0,0:0:0:50:Drum-Snare.wav
402,192,24328,1,0,0:0:0:50:Drum-KicK.wav
475,192,24328,1,0,0:0:0:0:
36,192,24388,1,0,0:0:0:50:Drum-KicK.wav
109,192,24388,1,0,0:0:0:50:Shorted Crash.wav
256,192,24388,128,0,24508:0:0:0:50:Synth.wav
36,192,24508,1,0,0:0:0:50:Drum-KicK.wav
329,192,24508,128,0,24628:0:0:0:50:Synth.wav
109,192,24508,1,0,0:0:0:0:
109,192,24628,1,0,0:0:0:0:
36,192,24628,1,0,0:0:0:50:Drum-Snare.wav
402,192,24628,128,0,24748:0:0:0:50:Synth.wav
182,192,24628,1,0,0:0:0:0:
256,192,24748,1,0,0:0:0:50:HihaT.wav
475,192,24748,128,0,24868:0:0:0:50:Synth.wav
109,192,24808,1,0,0:0:0:50:HihaT.wav
329,192,24868,1,0,0:0:0:50:HihaT.wav
402,192,24928,1,0,0:0:0:50:HihaT.wav
475,192,24988,1,0,0:0:0:0:
182,192,24988,1,0,0:0:0:50:Drum-KicK.wav
36,192,24988,128,0,25108:0:0:0:50:Synth.wav
109,192,24988,1,0,0:0:0:0:
402,192,25108,1,0,0:0:0:0:
329,192,25108,1,0,0:0:0:0:
256,192,25108,1,0,0:0:0:50:Drum-Snare.wav
182,192,25228,1,0,0:0:0:50:HihaT.wav
475,192,25228,128,0,25348:0:0:0:50:Synth.wav
109,192,25288,1,0,0:0:0:50:HihaT.wav
36,192,25348,1,0,0:0:0:0:
256,192,25348,1,0,0:0:0:50:Drum-KicK.wav
402,192,25348,1,0,0:0:0:0:
182,192,25468,1,0,0:0:0:50:Drum-KicK.wav
109,192,25468,1,0,0:0:0:50:Synth.wav
256,192,25528,1,0,0:0:0:50:Drum-KicK.wav
329,192,25528,1,0,0:0:0:0:
109,192,25588,1,0,0:0:0:0:
36,192,25588,1,0,0:0:0:50:Drum-Snare.wav
475,192,25588,1,0,0:0:0:0:
402,192,25588,1,0,0:0:0:50:Synth.wav
182,192,25708,1,0,0:0:0:50:Drum-KicK.wav
402,192,25708,1,0,0:0:0:50:Synth.wav
329,192,25708,1,0,0:0:0:0:
109,192,25828,1,0,0:0:0:50:Drum-Snare.wav
256,192,25828,1,0,0:0:0:0:
36,192,25828,1,0,0:0:0:0:
475,192,25828,1,0,0:0:0:50:Synth.wav
182,192,25948,1,0,0:0:0:50:Drum-KicK.wav
329,192,25948,1,0,0:0:0:0:
402,192,26068,1,0,0:0:0:0:
36,192,26068,1,0,0:0:0:50:Drum-Snare.wav
256,192,26068,1,0,0:0:0:0:
475,192,26068,1,0,0:0:0:0:
109,192,26188,1,0,0:0:0:50:Drum-KicK.wav
182,192,26188,1,0,0:0:0:0:
256,192,26308,1,0,0:0:0:0:
36,192,26308,1,0,0:0:0:50:Synth.wav
329,192,26428,1,0,0:0:0:0:
109,192,26428,1,0,0:0:0:50:Synth.wav
182,192,26548,1,0,0:0:0:0:
402,192,26548,1,0,0:0:0:50:Synth.wav
256,192,26668,1,0,0:0:0:0:
475,192,26668,1,0,0:0:0:50:Synth.wav
109,192,26908,1,0,0:0:0:0:
256,192,26908,1,0,0:0:0:50:Drum-KicK.wav
36,192,26908,1,0,0:0:0:0:
182,192,27028,1,0,0:0:0:0:
329,192,27028,1,0,0:0:0:50:Drum-Snare.wav
475,192,27028,1,0,0:0:0:0:
182,192,27148,1,0,0:0:0:0:
329,192,27148,1,0,0:0:0:50:Drum-Snare.wav
109,192,27208,1,0,0:0:0:50:Drum-Snare.wav
36,192,27208,1,0,0:0:0:0:
256,192,27268,1,0,0:0:0:0:
475,192,27268,1,0,0:0:0:50:Synth.wav
182,192,27388,1,0,0:0:0:0:
402,192,27388,1,0,0:0:0:50:Synth.wav
329,192,27508,1,0,0:0:0:0:
109,192,27508,1,0,0:0:0:50:Synth.wav
256,192,27628,1,0,0:0:0:0:
36,192,27628,1,0,0:0:0:50:Synth.wav
36,192,27868,1,0,0:0:0:0:
182,192,27868,1,0,0:0:0:50:Drum-KicK.wav
329,192,27868,1,0,0:0:0:0:
256,192,27988,1,0,0:0:0:0:
402,192,27988,1,0,0:0:0:50:Drum-Snare.wav
475,192,27988,1,0,0:0:0:0:
109,192,28048,1,0,0:0:0:50:Drum-Snare.wav
36,192,28048,1,0,0:0:0:0:
256,192,28108,1,0,0:0:0:0:
402,192,28108,1,0,0:0:0:50:Drum-Snare.wav
109,192,28168,1,0,0:0:0:50:Drum-KicK.wav
182,192,28168,1,0,0:0:0:0:
475,192,28228,1,0,0:0:0:50:Shorted Crash.wav
329,192,28228,1,0,0:0:0:50:Drum-KicK.wav
36,192,28228,128,0,28348:0:0:0:50:Synth.wav
109,192,28348,128,0,28468:0:0:0:50:Synth.wav
475,192,28348,1,0,0:0:0:0:
329,192,28348,1,0,0:0:0:50:Drum-KicK.wav
182,192,28468,128,0,28588:0:0:0:50:Synth.wav
329,192,28468,1,0,0:0:0:50:Drum-Snare.wav
36,192,28468,1,0,0:0:0:0:
475,192,28468,1,0,0:0:0:0:
402,192,28588,1,0,0:0:0:50:HihaT.wav
256,192,28588,128,0,28708:0:0:0:50:Synth.wav
109,192,28648,1,0,0:0:0:50:HihaT.wav
475,192,28708,1,0,0:0:0:50:HihaT.wav
402,192,28768,1,0,0:0:0:50:HihaT.wav
109,192,28828,1,0,0:0:0:50:Drum-KicK.wav
329,192,28828,1,0,0:0:0:50:HihaT.wav
182,192,28828,128,0,28948:0:0:0:50:Synth.wav
36,192,28828,1,0,0:0:0:0:
475,192,28948,1,0,0:0:0:0:
256,192,28948,1,0,0:0:0:0:
402,192,28948,1,0,0:0:0:50:Drum-Snare.wav
329,192,29068,1,0,0:0:0:50:HihaT.wav
109,192,29068,128,0,29188:0:0:0:50:Synth.wav
402,192,29128,1,0,0:0:0:50:HihaT.wav
475,192,29188,1,0,0:0:0:0:
256,192,29188,1,0,0:0:0:0:
36,192,29188,1,0,0:0:0:50:Drum-KicK.wav
402,192,29308,1,0,0:0:0:50:Synth.wav
329,192,29308,1,0,0:0:0:50:Drum-KicK.wav
182,192,29368,1,0,0:0:0:50:Drum-KicK.wav
256,192,29368,1,0,0:0:0:0:
475,192,29428,1,0,0:0:0:0:
109,192,29428,1,0,0:0:0:50:Synth.wav
402,192,29428,1,0,0:0:0:0:
36,192,29428,1,0,0:0:0:50:Drum-Snare.wav
329,192,29548,1,0,0:0:0:50:Drum-KicK.wav
256,192,29548,1,0,0:0:0:0:
109,192,29548,1,0,0:0:0:50:Synth.wav
36,192,29668,1,0,0:0:0:0:
475,192,29668,1,0,0:0:0:50:Drum-Snare.wav
182,192,29668,1,0,0:0:0:50:Synth.wav
402,192,29668,1,0,0:0:0:0:
329,192,29788,1,0,0:0:0:50:Drum-KicK.wav
256,192,29788,1,0,0:0:0:0:
475,192,29908,1,0,0:0:0:50:Shorted Crash.wav
329,192,29908,1,0,0:0:0:50:Drum-KicK.wav
256,192,29908,1,0,0:0:0:0:
36,192,29908,1,0,0:0:0:0:
109,192,29908,1,0,0:0:0:0:
256,192,30148,1,0,0:0:0:0:
36,192,30148,1,0,0:0:0:50:Synth.wav
329,192,30268,1,0,0:0:0:0:
109,192,30268,1,0,0:0:0:50:Synth.wav
182,192,30388,1,0,0:0:0:0:
402,192,30388,1,0,0:0:0:50:Synth.wav
256,192,30508,1,0,0:0:0:0:
475,192,30508,1,0,0:0:0:50:Synth.wav
109,192,30748,1,0,0:0:0:0:
256,192,30748,1,0,0:0:0:50:Drum-KicK.wav
36,192,30748,1,0,0:0:0:0:
182,192,30868,1,0,0:0:0:0:
329,192,30868,1,0,0:0:0:50:Drum-Snare.wav
402,192,30868,1,0,0:0:0:0:
109,192,30928,1,0,0:0:0:0:
36,192,30928,1,0,0:0:0:50:Drum-Snare.wav
402,192,30988,1,0,0:0:0:0:
329,192,30988,1,0,0:0:0:50:Drum-Snare.wav
36,192,31048,1,0,0:0:0:50:Drum-Snare.wav
109,192,31048,1,0,0:0:0:0:
256,192,31108,1,0,0:0:0:0:
475,192,31108,1,0,0:0:0:50:Synth.wav
182,192,31228,1,0,0:0:0:0:
402,192,31228,1,0,0:0:0:50:Synth.wav
329,192,31348,1,0,0:0:0:0:
109,192,31348,1,0,0:0:0:50:Synth.wav
256,192,31468,1,0,0:0:0:0:
36,192,31468,1,0,0:0:0:50:Synth.wav
109,192,31708,1,0,0:0:0:0:
256,192,31708,1,0,0:0:0:50:Drum-KicK.wav
36,192,31708,1,0,0:0:0:0:
329,192,31828,1,0,0:0:0:0:
182,192,31828,1,0,0:0:0:50:Drum-Snare.wav
475,192,31828,1,0,0:0:0:0:
36,192,31888,1,0,0:0:0:50:Drum-Snare.wav
109,192,31888,1,0,0:0:0:0:
402,192,31948,1,0,0:0:0:0:
256,192,31948,1,0,0:0:0:50:Drum-Snare.wav
109,192,32008,1,0,0:0:0:50:Drum-KicK.wav
182,192,32008,1,0,0:0:0:0:
329,192,32068,1,0,0:0:0:50:Drum-KicK.wav
36,192,32068,128,0,32188:0:0:0:50:Synth.wav
475,192,32068,1,0,0:0:0:50:Shorted Crash.wav
475,192,32188,1,0,0:0:0:0:
109,192,32188,128,0,32308:0:0:0:50:Synth.wav
329,192,32188,1,0,0:0:0:50:Drum-KicK.wav
182,192,32308,128,0,32428:0:0:0:50:Synth.wav
329,192,32308,1,0,0:0:0:50:Drum-Snare.wav
36,192,32308,1,0,0:0:0:0:
475,192,32308,1,0,0:0:0:0:
402,192,32428,1,0,0:0:0:50:HihaT.wav
256,192,32428,128,0,32548:0:0:0:50:Synth.wav
109,192,32488,1,0,0:0:0:50:HihaT.wav
475,192,32548,1,0,0:0:0:50:HihaT.wav
402,192,32608,1,0,0:0:0:50:HihaT.wav
109,192,32668,1,0,0:0:0:50:Drum-KicK.wav
329,192,32668,1,0,0:0:0:50:HihaT.wav
182,192,32668,128,0,32788:0:0:0:50:Synth.wav
36,192,32668,1,0,0:0:0:0:
475,192,32788,1,0,0:0:0:0:
256,192,32788,1,0,0:0:0:0:
402,192,32788,1,0,0:0:0:50:Drum-Snare.wav
329,192,32908,1,0,0:0:0:50:HihaT.wav
109,192,32908,128,0,33028:0:0:0:50:Synth.wav
402,192,32968,1,0,0:0:0:50:HihaT.wav
36,192,33028,1,0,0:0:0:0:
256,192,33028,1,0,0:0:0:50:Drum-KicK.wav
475,192,33028,1,0,0:0:0:0:
109,192,33148,1,0,0:0:0:50:Drum-KicK.wav
182,192,33148,1,0,0:0:0:50:Synth.wav
329,192,33208,1,0,0:0:0:50:Drum-KicK.wav
402,192,33208,1,0,0:0:0:0:
256,192,33268,1,0,0:0:0:50:Drum-Snare.wav
475,192,33268,1,0,0:0:0:0:
36,192,33268,1,0,0:0:0:50:Synth.wav
109,192,33268,1,0,0:0:0:0:
402,192,33388,1,0,0:0:0:50:Synth.wav
329,192,33388,1,0,0:0:0:0:
182,192,33388,1,0,0:0:0:50:Drum-KicK.wav
475,192,33508,1,0,0:0:0:50:Drum-Snare.wav
256,192,33508,1,0,0:0:0:50:Synth.wav
36,192,33508,1,0,0:0:0:0:
109,192,33508,1,0,0:0:0:0:
329,192,33628,1,0,0:0:0:0:
402,192,33628,1,0,0:0:0:50:Drum-Snare.wav
475,192,33628,1,0,0:0:0:0:
182,192,33688,1,0,0:0:0:50:Drum-Snare.wav
109,192,33688,1,0,0:0:0:0:
36,192,33688,1,0,0:0:0:0:
329,192,33748,1,0,0:0:0:0:
402,192,33748,1,0,0:0:0:50:Drum-Snare.wav
475,192,33748,1,0,0:0:0:0:
182,192,33868,1,0,0:0:0:50:Drum-Snare.wav
109,192,33868,1,0,0:0:0:0:
36,192,33868,1,0,0:0:0:0:
36,192,33988,5,0,0:0:0:50:Drum-KicK.wav
256,192,33988,1,0,0:0:0:50:Sub rhythm.wav
475,192,33988,1,0,0:0:0:40:Bell.wav
402,192,33988,1,0,0:0:0:0:
109,192,34108,1,0,0:0:0:50:Drum-KicK.wav
402,192,34108,1,0,0:0:0:0:
256,192,34108,1,0,0:0:0:50:Sub rhythm.wav
329,192,34228,1,0,0:0:0:50:Drum-Snare.wav
36,192,34228,1,0,0:0:0:0:
182,192,34228,1,0,0:0:0:50:Sub rhythm.wav
475,192,34228,1,0,0:0:0:0:
36,192,34348,1,0,0:0:0:0:
182,192,34348,1,0,0:0:0:50:Sub rhythm.wav
256,192,34468,1,0,0:0:0:50:Sub rhythm.wav
402,192,34468,1,0,0:0:0:0:
109,192,34588,5,0,0:0:0:50:Drum-KicK.wav
402,192,34588,1,0,0:0:0:0:
256,192,34588,1,0,0:0:0:50:Sub rhythm.wav
36,192,34708,1,0,0:0:0:50:Drum-Snare.wav
475,192,34708,1,0,0:0:0:0:
329,192,34708,1,0,0:0:0:50:Sub rhythm.wav
182,192,34708,1,0,0:0:0:0:
475,192,34828,1,0,0:0:0:0:
329,192,34828,1,0,0:0:0:50:Sub rhythm.wav
36,192,34948,1,0,0:0:0:0:
402,192,34948,1,0,0:0:0:50:Drum-KicK.wav
182,192,34948,1,0,0:0:0:50:Sub rhythm.wav
329,192,35068,1,0,0:0:0:50:Drum-KicK.wav
182,192,35068,1,0,0:0:0:50:Sub rhythm.wav
36,192,35068,1,0,0:0:0:0:
402,192,35188,1,0,0:0:0:0:
256,192,35188,1,0,0:0:0:50:Drum-Snare.wav
109,192,35188,1,0,0:0:0:50:Sub rhythm.wav
475,192,35188,1,0,0:0:0:0:
402,192,35308,1,0,0:0:0:0:
109,192,35308,1,0,0:0:0:50:Sub rhythm.wav
329,192,35428,1,0,0:0:0:0:
182,192,35428,1,0,0:0:0:50:Sub rhythm.wav
329,192,35548,1,0,0:0:0:0:
36,192,35548,1,0,0:0:0:50:Drum-KicK.wav
182,192,35548,1,0,0:0:0:50:Sub rhythm.wav
109,192,35668,1,0,0:0:0:0:
256,192,35668,1,0,0:0:0:50:Drum-Snare.wav
402,192,35668,1,0,0:0:0:50:Sub rhythm.wav
109,192,35788,1,0,0:0:0:0:
402,192,35788,1,0,0:0:0:50:Sub rhythm.wav
36,192,35908,1,0,0:0:0:50:Drum-KicK.wav
475,192,35908,1,0,0:0:0:40:Bell.wav
256,192,35908,1,0,0:0:0:50:Sub rhythm.wav
109,192,36028,1,0,0:0:0:50:Drum-KicK.wav
475,192,36028,1,0,0:0:0:0:
256,192,36028,1,0,0:0:0:50:Sub rhythm.wav
402,192,36148,1,0,0:0:0:0:
182,192,36148,1,0,0:0:0:50:Drum-Snare.wav
329,192,36148,1,0,0:0:0:50:Sub rhythm.wav
36,192,36148,1,0,0:0:0:0:
402,192,36268,1,0,0:0:0:0:
329,192,36268,1,0,0:0:0:50:Sub rhythm.wav
36,192,36388,1,0,0:0:0:0:
182,192,36388,1,0,0:0:0:50:Sub rhythm.wav
402,192,36508,1,0,0:0:0:50:Sub rhythm.wav
182,192,36508,1,0,0:0:0:50:Sub rhythm.wav
329,192,36508,1,0,0:0:0:50:Drum-KicK.wav
36,192,36628,1,0,0:0:0:0:
402,192,36628,1,0,0:0:0:50:Sub rhythm.wav
256,192,36628,1,0,0:0:0:0:
475,192,36628,1,0,0:0:0:50:Drum-Snare.wav
36,192,36748,1,0,0:0:0:0:
109,192,36748,1,0,0:0:0:50:Sub rhythm.wav
475,192,36868,1,0,0:0:0:50:Drum-KicK.wav
256,192,36868,1,0,0:0:0:0:
402,192,36988,1,0,0:0:0:50:Drum-KicK.wav
109,192,36988,1,0,0:0:0:0:
182,192,36988,1,0,0:0:0:50:Sub rhythm.wav
329,192,37108,1,0,0:0:0:50:Drum-Snare.wav
36,192,37108,1,0,0:0:0:0:
475,192,37228,1,0,0:0:0:50:Drum-KicK.wav
256,192,37228,1,0,0:0:0:50:Sub rhythm.wav
182,192,37228,1,0,0:0:0:0:
36,192,37348,1,0,0:0:0:0:
182,192,37468,1,0,0:0:0:0:
402,192,37468,1,0,0:0:0:50:Drum-KicK.wav
256,192,37468,1,0,0:0:0:50:Sub rhythm.wav
329,192,37588,1,0,0:0:0:50:Drum-Snare.wav
109,192,37588,1,0,0:0:0:0:
182,192,37588,1,0,0:0:0:50:Sub rhythm.wav
475,192,37588,1,0,0:0:0:0:
36,192,37708,1,0,0:0:0:0:
256,192,37708,1,0,0:0:0:50:Drum-KicK.wav
109,192,37708,1,0,0:0:0:50:Sub rhythm.wav
182,192,37828,5,0,0:0:0:50:Drum-KicK.wav
329,192,37828,1,0,0:0:0:50:Sub rhythm.wav
475,192,37828,1,0,0:0:0:40:Bell.wav
402,192,37828,1,0,0:0:0:0:
36,192,37948,5,0,0:0:0:50:Drum-KicK.wav
182,192,37948,1,0,0:0:0:0:
329,192,37948,1,0,0:0:0:50:Sub rhythm.wav
475,192,38068,1,0,0:0:0:0:
109,192,38068,1,0,0:0:0:0:
256,192,38068,1,0,0:0:0:50:Drum-Snare.wav
402,192,38068,1,0,0:0:0:50:Sub rhythm.wav
402,192,38188,1,0,0:0:0:50:Sub rhythm.wav
475,192,38188,1,0,0:0:0:0:
329,192,38308,1,0,0:0:0:50:Sub rhythm.wav
182,192,38308,1,0,0:0:0:0:
36,192,38428,5,0,0:0:0:50:Drum-KicK.wav
182,192,38428,1,0,0:0:0:0:
329,192,38428,1,0,0:0:0:50:Sub rhythm.wav
402,192,38548,1,0,0:0:0:0:
109,192,38548,1,0,0:0:0:50:Sub rhythm.wav
256,192,38548,1,0,0:0:0:50:Drum-Snare.wav
475,192,38548,1,0,0:0:0:0:
402,192,38668,1,0,0:0:0:0:
109,192,38668,1,0,0:0:0:50:Sub rhythm.wav
329,192,38788,1,0,0:0:0:0:
475,192,38788,1,0,0:0:0:50:Drum-KicK.wav
182,192,38788,1,0,0:0:0:50:Sub rhythm.wav
329,192,38908,1,0,0:0:0:0:
182,192,38908,1,0,0:0:0:50:Sub rhythm.wav
36,192,38908,1,0,0:0:0:50:Drum-KicK.wav
109,192,39028,1,0,0:0:0:0:
256,192,39028,1,0,0:0:0:50:Sub rhythm.wav
475,192,39028,1,0,0:0:0:0:
402,192,39028,1,0,0:0:0:50:Drum-Snare.wav
109,192,39148,1,0,0:0:0:0:
256,192,39148,1,0,0:0:0:50:Sub rhythm.wav
475,192,39268,1,0,0:0:0:0:
329,192,39268,1,0,0:0:0:50:Sub rhythm.wav
475,192,39388,1,0,0:0:0:0:
109,192,39388,1,0,0:0:0:50:Drum-KicK.wav
329,192,39388,1,0,0:0:0:50:Sub rhythm.wav
182,192,39508,1,0,0:0:0:0:
36,192,39508,1,0,0:0:0:50:Drum-Snare.wav
402,192,39508,1,0,0:0:0:50:Sub rhythm.wav
402,192,39628,1,0,0:0:0:50:Sub rhythm.wav
182,192,39628,1,0,0:0:0:0:
109,192,39748,1,0,0:0:0:50:Sub rhythm.wav
256,192,39748,1,0,0:0:0:40:Bell.wav
475,192,39748,1,0,0:0:0:50:Drum-KicK.wav
109,192,39868,1,0,0:0:0:50:Sub rhythm.wav
256,192,39868,1,0,0:0:0:0:
402,192,39868,1,0,0:0:0:50:Drum-KicK.wav
182,192,39988,1,0,0:0:0:50:Sub rhythm.wav
36,192,39988,1,0,0:0:0:0:
329,192,39988,1,0,0:0:0:0:
475,192,39988,1,0,0:0:0:50:Drum-Snare.wav
182,192,40108,1,0,0:0:0:50:Sub rhythm.wav
329,192,40108,1,0,0:0:0:0:
256,192,40228,1,0,0:0:0:0:
109,192,40228,1,0,0:0:0:50:Sub rhythm.wav
475,192,40348,1,0,0:0:0:50:Drum-KicK.wav
109,192,40348,1,0,0:0:0:50:Sub rhythm.wav
402,192,40348,1,0,0:0:0:50:Sub rhythm.wav
329,192,40468,1,0,0:0:0:0:
182,192,40468,1,0,0:0:0:50:Drum-Snare.wav
36,192,40468,1,0,0:0:0:0:
402,192,40468,1,0,0:0:0:50:Sub rhythm.wav
256,192,40588,1,0,0:0:0:0:
109,192,40588,1,0,0:0:0:50:Sub rhythm.wav
475,192,40708,1,0,0:0:0:0:
402,192,40708,1,0,0:0:0:50:Drum-KicK.wav
109,192,40828,1,0,0:0:0:50:Sub rhythm.wav
36,192,40828,1,0,0:0:0:0:
329,192,40828,1,0,0:0:0:50:Drum-KicK.wav
109,192,40948,1,0,0:0:0:0:
402,192,40948,1,0,0:0:0:50:Drum-Snare.wav
475,192,40948,1,0,0:0:0:0:
182,192,40948,1,0,0:0:0:50:Sub rhythm.wav
36,192,41068,1,0,0:0:0:50:Drum-KicK.wav
256,192,41068,1,0,0:0:0:50:Sub rhythm.wav
182,192,41068,1,0,0:0:0:0:
475,192,41188,1,0,0:0:0:0:
182,192,41308,1,0,0:0:0:50:Sub rhythm.wav
402,192,41308,1,0,0:0:0:50:Drum-KicK.wav
329,192,41308,1,0,0:0:0:0:
256,192,41428,1,0,0:0:0:0:
475,192,41428,1,0,0:0:0:0:
329,192,41428,1,0,0:0:0:50:Drum-Snare.wav
109,192,41428,1,0,0:0:0:50:Sub rhythm.wav
182,192,41548,1,0,0:0:0:0:
256,192,41548,1,0,0:0:0:50:Drum-KicK.wav
36,192,41548,1,0,0:0:0:50:Sub rhythm.wav
109,192,41668,5,0,0:0:0:50:Drum-KicK.wav
402,192,41668,1,0,0:0:0:0:
329,192,41668,1,0,0:0:0:50:Sub rhythm.wav
475,192,41668,1,0,0:0:0:40:Bell.wav
182,192,41788,5,0,0:0:0:50:Drum-KicK.wav
329,192,41788,1,0,0:0:0:50:Sub rhythm.wav
402,192,41788,1,0,0:0:0:0:
36,192,41908,1,0,0:0:0:50:Drum-Snare.wav
256,192,41908,1,0,0:0:0:50:Sub rhythm.wav
109,192,41908,1,0,0:0:0:0:
475,192,41908,1,0,0:0:0:0:
475,192,42028,1,0,0:0:0:0:
256,192,42028,1,0,0:0:0:50:Sub rhythm.wav
329,192,42148,1,0,0:0:0:0:
109,192,42148,1,0,0:0:0:50:Sub rhythm.wav
475,192,42268,5,0,0:0:0:50:Drum-KicK.wav
109,192,42268,1,0,0:0:0:50:Sub rhythm.wav
329,192,42268,1,0,0:0:0:0:
402,192,42388,1,0,0:0:0:50:Drum-Snare.wav
182,192,42388,1,0,0:0:0:0:
256,192,42388,1,0,0:0:0:0:
36,192,42388,1,0,0:0:0:50:Sub rhythm.wav
402,192,42508,1,0,0:0:0:0:
36,192,42508,1,0,0:0:0:50:Sub rhythm.wav
256,192,42628,1,0,0:0:0:0:
475,192,42628,1,0,0:0:0:50:Drum-KicK.wav
109,192,42628,1,0,0:0:0:50:Sub rhythm.wav
402,192,42748,1,0,0:0:0:50:Drum-KicK.wav
109,192,42748,1,0,0:0:0:50:Sub rhythm.wav
256,192,42748,1,0,0:0:0:0:
475,192,42868,1,0,0:0:0:0:
182,192,42868,1,0,0:0:0:50:Drum-Snare.wav
36,192,42868,1,0,0:0:0:0:
329,192,42868,1,0,0:0:0:50:Sub rhythm.wav
329,192,42988,1,0,0:0:0:50:Sub rhythm.wav
475,192,42988,1,0,0:0:0:0:
36,192,43108,1,0,0:0:0:0:
182,192,43108,1,0,0:0:0:50:Sub rhythm.wav
36,192,43228,1,0,0:0:0:0:
402,192,43228,1,0,0:0:0:50:Drum-KicK.wav
182,192,43228,1,0,0:0:0:50:Sub rhythm.wav
109,192,43348,1,0,0:0:0:0:
475,192,43348,1,0,0:0:0:50:Drum-Snare.wav
329,192,43348,1,0,0:0:0:50:Sub rhythm.wav
329,192,43468,1,0,0:0:0:50:Sub rhythm.wav
109,192,43468,1,0,0:0:0:0:
36,192,43588,1,0,0:0:0:50:Drum-KicK.wav
402,192,43588,1,0,0:0:0:40:Bell.wav
256,192,43588,1,0,0:0:0:50:Sub rhythm.wav
109,192,43708,1,0,0:0:0:50:Drum-KicK.wav
402,192,43708,1,0,0:0:0:0:
256,192,43708,1,0,0:0:0:50:Sub rhythm.wav
329,192,43828,1,0,0:0:0:50:Sub rhythm.wav
182,192,43828,1,0,0:0:0:50:Drum-Snare.wav
36,192,43828,1,0,0:0:0:0:
475,192,43828,1,0,0:0:0:0:
329,192,43948,1,0,0:0:0:50:Sub rhythm.wav
475,192,43948,1,0,0:0:0:0:
109,192,44068,1,0,0:0:0:50:Sub rhythm.wav
256,192,44068,1,0,0:0:0:0:
109,192,44188,1,0,0:0:0:50:Sub rhythm.wav
475,192,44188,1,0,0:0:0:0:
402,192,44188,1,0,0:0:0:50:Drum-KicK.wav
36,192,44308,1,0,0:0:0:50:Drum-Snare.wav
182,192,44308,1,0,0:0:0:0:
329,192,44308,1,0,0:0:0:50:Sub rhythm.wav
402,192,44308,1,0,0:0:0:0:
182,192,44428,1,0,0:0:0:0:
329,192,44428,1,0,0:0:0:50:Sub rhythm.wav
36,192,44548,1,0,0:0:0:50:Drum-KicK.wav
475,192,44548,1,0,0:0:0:0:
256,192,44668,1,0,0:0:0:50:Drum-KicK.wav
402,192,44668,1,0,0:0:0:50:Sub rhythm.wav
109,192,44668,1,0,0:0:0:0:
36,192,44788,1,0,0:0:0:50:Drum-Snare.wav
475,192,44788,1,0,0:0:0:0:
402,192,44908,1,0,0:0:0:0:
182,192,44908,1,0,0:0:0:50:Drum-KicK.wav
329,192,44908,1,0,0:0:0:50:Sub rhythm.wav
109,192,45028,1,0,0:0:0:0:
256,192,45148,1,0,0:0:0:0:
475,192,45148,1,0,0:0:0:50:Drum-KicK.wav
329,192,45148,1,0,0:0:0:50:Sub rhythm.wav
402,192,45268,1,0,0:0:0:50:Drum-Snare.wav
182,192,45268,1,0,0:0:0:0:
256,192,45268,1,0,0:0:0:50:Sub rhythm.wav
36,192,45268,1,0,0:0:0:0:
109,192,45388,1,0,0:0:0:0:
329,192,45388,1,0,0:0:0:50:Drum-KicK.wav
182,192,45388,1,0,0:0:0:50:Sub rhythm.wav
475,192,45508,1,0,0:0:0:0:
36,192,45508,128,0,45628:0:0:0:50:Drum-KicK.wav
402,192,45508,1,0,0:0:0:0:
256,192,45508,128,0,45628:0:0:0:0:
109,192,45628,128,0,45748:0:0:0:0:
182,192,45628,128,0,45748:0:0:0:0:
402,192,45748,1,0,0:0:0:50:Drum-Snare.wav
475,192,45748,1,0,0:0:0:0:
36,192,45748,1,0,0:0:0:0:
256,192,45748,1,0,0:0:0:0:
256,192,45868,1,0,0:0:0:0:
402,192,45868,1,0,0:0:0:50:Drum-KicK.wav
475,192,45868,1,0,0:0:0:0:
36,192,45868,1,0,0:0:0:0:
109,192,46228,1,0,0:0:0:0:
36,192,46228,1,0,0:0:0:0:
402,192,46228,128,0,46348:0:0:0:50:Drum-KicK.wav
329,192,46228,128,0,46348:0:0:0:0:
475,192,46348,128,0,46468:0:0:0:0:
256,192,46348,128,0,46468:0:0:0:0:
109,192,46468,1,0,0:0:0:50:Drum-Snare.wav
36,192,46468,1,0,0:0:0:0:
402,192,46468,1,0,0:0:0:0:
329,192,46468,1,0,0:0:0:0:
329,192,46588,1,0,0:0:0:0:
402,192,46588,1,0,0:0:0:50:Drum-KicK.wav
109,192,46588,1,0,0:0:0:0:
36,192,46588,1,0,0:0:0:0:
109,192,46948,5,0,0:0:0:50:Drum-KicK.wav
36,192,46948,1,0,0:0:0:0:
182,192,46948,128,0,47068:0:0:0:0:
329,192,46948,128,0,47068:0:0:0:0:
475,192,47068,128,0,47188:0:0:0:0:
402,192,47068,128,0,47188:0:0:0:0:
329,192,47188,1,0,0:0:0:0:
182,192,47188,1,0,0:0:0:50:Drum-Snare.wav
36,192,47188,1,0,0:0:0:0:
109,192,47188,1,0,0:0:0:0:
256,192,47308,128,0,48028:0:0:0:0:
475,192,47308,1,0,0:0:0:50:Drum-KicK.wav
36,192,47308,1,0,0:0:0:0:
109,192,47368,1,0,0:0:0:0:
402,192,47368,1,0,0:0:0:50:Drum-KicK.wav
329,192,47428,1,0,0:0:0:50:Drum-KicK.wav
182,192,47428,1,0,0:0:0:0:
329,192,47548,1,0,0:0:0:50:Drum-KicK.wav
182,192,47548,1,0,0:0:0:0:
109,192,47668,1,0,0:0:0:0:
475,192,47668,1,0,0:0:0:50:Drum-Snare.wav
36,192,47668,1,0,0:0:0:0:
329,192,47788,1,0,0:0:0:50:Drum-KicK.wav
109,192,47788,1,0,0:0:0:0:
402,192,47788,128,0,48028:0:0:0:0:
475,192,48028,1,0,0:0:0:50:Drum-KicK.wav
182,192,48028,1,0,0:0:0:0:
36,192,48028,128,0,48148:0:0:0:0:
109,192,48148,1,0,0:0:0:0:
329,192,48148,1,0,0:0:0:50:Drum-Snare.wav
475,192,48148,1,0,0:0:0:0:
402,192,48148,1,0,0:0:0:0:
182,192,48208,1,0,0:0:0:0:
256,192,48268,128,0,48388:0:0:0:0:
402,192,48388,1,0,0:0:0:0:
109,192,48388,1,0,0:0:0:50:Drum-KicK.wav
109,192,48508,1,0,0:0:0:50:Drum-KicK.wav
256,192,48508,128,0,48628:0:0:0:0:
402,192,48508,1,0,0:0:0:0:
182,192,48628,1,0,0:0:0:50:Drum-Snare.wav
36,192,48628,1,0,0:0:0:0:
475,192,48658,1,0,0:0:0:0:
402,192,48688,1,0,0:0:0:0:
329,192,48718,1,0,0:0:0:0:
109,192,48748,128,0,48988:0:0:0:50:Drum-KicK.wav
256,192,48748,1,0,0:0:0:0:
182,192,48988,1,0,0:0:0:0:
402,192,48988,1,0,0:0:0:50:Drum-KicK.wav
36,192,48988,1,0,0:0:0:0:
256,192,48988,1,0,0:0:0:0:
475,192,49108,1,0,0:0:0:50:Drum-Snare.wav
256,192,49108,1,0,0:0:0:0:
329,192,49108,1,0,0:0:0:0:
109,192,49108,1,0,0:0:0:0:
329,192,49228,1,0,0:0:0:0:
182,192,49228,1,0,0:0:0:0:
402,192,49228,1,0,0:0:0:0:
402,192,49348,1,0,0:0:0:0:
36,192,49348,1,0,0:0:0:50:Drum-Snare.wav
109,192,49348,1,0,0:0:0:50:Synth.wav
475,192,49348,1,0,0:0:0:0:
256,192,49348,1,0,0:0:0:40:Bell.wav
109,192,49468,128,0,49588:0:0:0:50:Synth.wav
36,192,49468,128,0,49588:0:0:0:0:
475,192,49588,1,0,0:0:0:50:Drum-Snare.wav
329,192,49588,1,0,0:0:0:0:
402,192,49588,1,0,0:0:0:50:Synth.wav
182,192,49588,1,0,0:0:0:0:
256,192,49588,1,0,0:0:0:0:
402,192,49708,128,0,49828:0:0:0:50:Synth.wav
475,192,49708,128,0,49828:0:0:0:0:
36,192,49828,1,0,0:0:0:50:Drum-Snare.wav
182,192,49828,1,0,0:0:0:0:
109,192,49828,1,0,0:0:0:0:
329,192,49828,1,0,0:0:0:0:
256,192,49828,1,0,0:0:0:0:
329,192,49948,1,0,0:0:0:0:
402,192,50068,1,0,0:0:0:0:
256,192,50068,1,0,0:0:0:0:
475,192,50068,1,0,0:0:0:0:
36,192,50068,1,0,0:0:0:50:Drum-Snare.wav
109,192,50068,1,0,0:0:0:50:Synth.wav
109,192,50188,128,0,50308:0:0:0:50:Synth.wav
36,192,50188,128,0,50308:0:0:0:0:
402,192,50308,1,0,0:0:0:50:Synth.wav
329,192,50308,1,0,0:0:0:0:
182,192,50308,1,0,0:0:0:0:
475,192,50308,1,0,0:0:0:50:Drum-Snare.wav
256,192,50308,1,0,0:0:0:0:
402,192,50428,128,0,50548:0:0:0:50:Synth.wav
475,192,50428,128,0,50548:0:0:0:0:
109,192,50548,1,0,0:0:0:0:
256,192,50548,1,0,0:0:0:0:
36,192,50548,1,0,0:0:0:50:Drum-Snare.wav
329,192,50548,1,0,0:0:0:0:
182,192,50548,1,0,0:0:0:50:Synth.wav
182,192,50668,128,0,50788:0:0:0:50:Synth.wav
109,192,50668,128,0,50788:0:0:0:0:
36,192,50788,1,0,0:0:0:50:Drum-Snare.wav
329,192,50788,1,0,0:0:0:50:Synth.wav
402,192,50788,1,0,0:0:0:0:
256,192,50788,1,0,0:0:0:0:
475,192,50788,1,0,0:0:0:0:
329,192,50908,128,0,51028:0:0:0:50:Synth.wav
256,192,50908,128,0,51028:0:0:0:0:
36,192,51028,1,0,0:0:0:50:Drum-Snare.wav
109,192,51028,1,0,0:0:0:40:Bell.wav
402,192,51028,1,0,0:0:0:0:
182,192,51028,1,0,0:0:0:0:
475,192,51028,1,0,0:0:0:50:Synth.wav
402,192,51148,128,0,51268:0:0:0:0:
475,192,51148,128,0,51268:0:0:0:50:Synth.wav
329,192,51268,1,0,0:0:0:70:Drum Roll.wav
36,192,51268,1,0,0:0:0:50:Drum-Snare.wav
109,192,51268,1,0,0:0:0:0:
182,192,51268,1,0,0:0:0:40:Bell.wav
402,192,51328,1,0,0:0:0:70:Drum Roll.wav
256,192,51388,1,0,0:0:0:0:
475,192,51388,1,0,0:0:0:70:Drum Roll.wav
182,192,51448,1,0,0:0:0:70:Drum Roll.wav
36,192,51508,1,0,0:0:0:0:
329,192,51508,1,0,0:0:0:0:
402,192,51508,1,0,0:0:0:50:Drum-Snare.wav
109,192,51508,1,0,0:0:0:70:Drum Roll.wav
475,192,51568,1,0,0:0:0:70:Drum Roll.wav
182,192,51628,1,0,0:0:0:0:
256,192,51628,1,0,0:0:0:70:Drum Roll.wav
329,192,51688,1,0,0:0:0:70:Drum Roll.wav
109,192,51748,1,0,0:0:0:0:
475,192,51748,1,0,0:0:0:40:Bell.wav
36,192,51748,1,0,0:0:0:70:Drum Roll.wav
402,192,51748,1,0,0:0:0:50:Drum-Snare.wav
182,192,51808,1,0,0:0:0:70:Drum Roll.wav
329,192,51868,1,0,0:0:0:70:Drum Roll.wav
256,192,51868,1,0,0:0:0:0:
36,192,51928,1,0,0:0:0:70:Drum Roll.wav
402,192,51988,1,0,0:0:0:70:Drum Roll.wav
109,192,51988,1,0,0:0:0:0:
182,192,51988,1,0,0:0:0:0:
475,192,51988,1,0,0:0:0:50:Drum-Snare.wav
329,192,52048,1,0,0:0:0:70:Drum Roll.wav
256,192,52108,1,0,0:0:0:70:Drum Roll.wav
36,192,52108,1,0,0:0:0:0:
109,192,52168,1,0,0:0:0:70:Drum Roll.wav
475,192,52228,1,0,0:0:0:40:Bell.wav
329,192,52228,1,0,0:0:0:70:Drum Roll.wav
182,192,52228,1,0,0:0:0:50:Drum-Snare.wav
402,192,52228,1,0,0:0:0:0:
109,192,52288,1,0,0:0:0:70:Drum Roll.wav
36,192,52348,1,0,0:0:0:70:Drum Roll.wav
329,192,52348,1,0,0:0:0:0:
256,192,52408,1,0,0:0:0:70:Drum Roll.wav
475,192,52468,1,0,0:0:0:50:Drum-Snare.wav
109,192,52468,1,0,0:0:0:70:Drum Roll.wav
36,192,52468,1,0,0:0:0:0:
182,192,52468,1,0,0:0:0:0:
402,192,52528,1,0,0:0:0:70:Drum Roll.wav
329,192,52588,1,0,0:0:0:70:Drum Roll.wav
182,192,52588,1,0,0:0:0:0:
475,192,52708,128,0,52828:0:0:0:0:
36,192,52948,128,0,53068:0:0:0:0:
36,192,53188,1,0,0:0:0:50:Shorted Crash.wav
475,192,53188,1,0,0:0:0:0:
182,192,53188,1,0,0:0:0:0:
329,192,53188,1,0,0:0:0:50:Drum-KicK.wav
109,192,53188,1,0,0:0:0:0:
402,192,53308,1,0,0:0:0:0:
256,192,53428,1,0,0:0:0:0:
475,192,53428,1,0,0:0:0:50:Drum-Snare.wav
36,192,53428,1,0,0:0:0:0:
109,192,53428,1,0,0:0:0:0:
329,192,53548,1,0,0:0:0:50:Drum-KicK.wav
402,192,53548,1,0,0:0:0:0:
182,192,53548,1,0,0:0:0:0:
256,192,53668,1,0,0:0:0:0:
36,192,53668,1,0,0:0:0:0:
109,192,53668,1,0,0:0:0:50:Drum-KicK.wav
475,192,53668,1,0,0:0:0:0:
182,192,53788,1,0,0:0:0:50:Drum-Snare.wav
109,192,53788,1,0,0:0:0:0:
329,192,53788,1,0,0:0:0:0:
402,192,53908,1,0,0:0:0:0:
475,192,53908,1,0,0:0:0:0:
256,192,53908,1,0,0:0:0:50:Drum-KicK.wav
182,192,53908,1,0,0:0:0:0:
109,192,54028,1,0,0:0:0:0:
36,192,54148,1,0,0:0:0:0:
475,192,54148,1,0,0:0:0:0:
256,192,54148,1,0,0:0:0:50:Drum-KicK.wav
402,192,54148,1,0,0:0:0:0:
329,192,54268,1,0,0:0:0:0:
109,192,54388,1,0,0:0:0:0:
36,192,54388,1,0,0:0:0:50:Drum-Snare.wav
475,192,54388,1,0,0:0:0:0:
182,192,54388,1,0,0:0:0:0:
402,192,54508,1,0,0:0:0:50:Drum-KicK.wav
256,192,54508,1,0,0:0:0:0:
329,192,54508,1,0,0:0:0:0:
36,192,54628,1,0,0:0:0:0:
182,192,54628,1,0,0:0:0:50:Drum-KicK.wav
475,192,54628,1,0,0:0:0:0:
109,192,54628,1,0,0:0:0:0:
329,192,54748,1,0,0:0:0:50:Drum-Snare.wav
182,192,54748,1,0,0:0:0:0:
256,192,54748,1,0,0:0:0:0:
36,192,54868,1,0,0:0:0:0:
475,192,54868,1,0,0:0:0:50:Drum-KicK.wav
402,192,54868,1,0,0:0:0:0:
329,192,54868,1,0,0:0:0:0:
109,192,54988,1,0,0:0:0:0:
475,192,55108,1,0,0:0:0:0:
36,192,55108,1,0,0:0:0:0:
329,192,55108,1,0,0:0:0:50:Drum-KicK.wav
182,192,55108,1,0,0:0:0:0:
256,192,55228,1,0,0:0:0:0:
402,192,55348,1,0,0:0:0:0:
109,192,55348,1,0,0:0:0:50:Drum-Snare.wav
36,192,55348,1,0,0:0:0:0:
475,192,55348,1,0,0:0:0:0:
256,192,55468,1,0,0:0:0:50:Drum-KicK.wav
182,192,55468,1,0,0:0:0:0:
329,192,55468,1,0,0:0:0:0:
475,192,55588,1,0,0:0:0:0:
109,192,55588,1,0,0:0:0:0:
402,192,55588,1,0,0:0:0:50:Drum-KicK.wav
36,192,55588,1,0,0:0:0:0:
402,192,55708,1,0,0:0:0:0:
329,192,55708,1,0,0:0:0:50:Drum-Snare.wav
182,192,55708,1,0,0:0:0:0:
109,192,55828,1,0,0:0:0:0:
256,192,55828,1,0,0:0:0:50:Drum-KicK.wav
36,192,55828,1,0,0:0:0:0:
329,192,55828,1,0,0:0:0:0:
402,192,55948,1,0,0:0:0:0:
475,192,56068,1,0,0:0:0:0:
36,192,56068,1,0,0:0:0:0:
256,192,56068,1,0,0:0:0:50:Drum-KicK.wav
109,192,56068,1,0,0:0:0:0:
182,192,56188,1,0,0:0:0:0:
475,192,56308,1,0,0:0:0:0:
109,192,56308,1,0,0:0:0:50:Drum-KicK.wav
36,192,56308,1,0,0:0:0:0:
329,192,56308,1,0,0:0:0:0:
182,192,56428,1,0,0:0:0:50:Drum-Snare.wav
256,192,56428,1,0,0:0:0:0:
402,192,56428,1,0,0:0:0:0:
329,192,56548,5,0,0:0:0:50:Drum-KicK.wav
109,192,56548,1,0,0:0:0:0:
36,192,56548,1,0,0:0:0:0:
329,192,56668,1,0,0:0:0:50:Drum-KicK.wav
36,192,56668,1,0,0:0:0:0:
109,192,56668,1,0,0:0:0:0:
182,192,56788,1,0,0:0:0:50:Drum-Snare.wav
475,192,56788,1,0,0:0:0:0:
402,192,56788,1,0,0:0:0:0:
256,192,56788,1,0,0:0:0:0:
109,192,56908,1,0,0:0:0:50:Drum-KicK.wav
36,192,56908,1,0,0:0:0:0:
329,192,56908,1,0,0:0:0:0:
182,192,56968,1,0,0:0:0:50:Drum-KicK.wav
402,192,56968,1,0,0:0:0:0:
36,192,57028,1,0,0:0:0:0:
109,192,57028,1,0,0:0:0:50:Drum-KicK.wav
256,192,57028,1,0,0:0:0:50:Shorted Crash.wav
475,192,57028,1,0,0:0:0:0:
402,192,57148,1,0,0:0:0:0:
329,192,57268,1,0,0:0:0:0:
182,192,57268,1,0,0:0:0:50:Drum-Snare.wav
36,192,57268,1,0,0:0:0:0:
109,192,57268,1,0,0:0:0:0:
256,192,57388,5,0,0:0:0:50:Drum-KicK.wav
402,192,57388,1,0,0:0:0:0:
475,192,57388,1,0,0:0:0:0:
329,192,57508,5,0,0:0:0:50:Drum-KicK.wav
182,192,57508,1,0,0:0:0:0:
36,192,57508,1,0,0:0:0:0:
109,192,57508,1,0,0:0:0:0:
402,192,57628,1,0,0:0:0:50:Drum-Snare.wav
329,192,57628,1,0,0:0:0:0:
475,192,57628,1,0,0:0:0:0:
109,192,57748,1,0,0:0:0:0:
475,192,57748,1,0,0:0:0:50:Drum-KicK.wav
36,192,57748,1,0,0:0:0:0:
256,192,57748,1,0,0:0:0:0:
329,192,57868,1,0,0:0:0:0:
36,192,57988,5,0,0:0:0:50:Drum-KicK.wav
475,192,57988,1,0,0:0:0:0:
109,192,57988,1,0,0:0:0:0:
402,192,57988,1,0,0:0:0:0:
182,192,58108,1,0,0:0:0:0:
402,192,58228,1,0,0:0:0:0:
36,192,58228,1,0,0:0:0:50:Drum-Snare.wav
475,192,58228,1,0,0:0:0:0:
256,192,58228,1,0,0:0:0:0:
109,192,58348,5,0,0:0:0:50:Drum-KicK.wav
182,192,58348,1,0,0:0:0:0:
329,192,58348,1,0,0:0:0:0:
475,192,58468,1,0,0:0:0:0:
256,192,58468,1,0,0:0:0:0:
402,192,58468,1,0,0:0:0:50:Drum-KicK.wav
36,192,58468,1,0,0:0:0:0:
36,192,58588,1,0,0:0:0:50:Drum-Snare.wav
182,192,58588,1,0,0:0:0:0:
109,192,58588,1,0,0:0:0:0:
329,192,58708,1,0,0:0:0:0:
475,192,58708,1,0,0:0:0:50:Drum-KicK.wav
182,192,58708,1,0,0:0:0:0:
402,192,58708,1,0,0:0:0:0:
256,192,58828,5,0,0:0:0:0:
329,192,58948,5,0,0:0:0:50:Drum-KicK.wav
36,192,58948,1,0,0:0:0:0:
182,192,58948,1,0,0:0:0:0:
475,192,58948,1,0,0:0:0:0:
402,192,59068,1,0,0:0:0:0:
109,192,59188,1,0,0:0:0:0:
182,192,59188,1,0,0:0:0:50:Drum-Snare.wav
329,192,59188,1,0,0:0:0:0:
36,192,59188,1,0,0:0:0:0:
475,192,59308,5,0,0:0:0:50:Drum-KicK.wav
402,192,59308,1,0,0:0:0:0:
256,192,59308,1,0,0:0:0:0:
36,192,59428,1,0,0:0:0:0:
475,192,59428,1,0,0:0:0:0:
402,192,59428,1,0,0:0:0:50:Drum-KicK.wav
256,192,59428,1,0,0:0:0:0:
329,192,59548,1,0,0:0:0:50:Drum-Snare.wav
109,192,59548,1,0,0:0:0:0:
182,192,59548,1,0,0:0:0:0:
36,192,59668,1,0,0:0:0:0:
402,192,59668,1,0,0:0:0:50:Drum-KicK.wav
475,192,59668,1,0,0:0:0:0:
256,192,59668,1,0,0:0:0:0:
329,192,59788,1,0,0:0:0:50:Drum-Snare.wav
182,192,59788,1,0,0:0:0:0:
109,192,59788,1,0,0:0:0:0:
475,192,59908,1,0,0:0:0:0:
36,192,59908,1,0,0:0:0:0:
402,192,59908,1,0,0:0:0:50:Drum-Snare.wav
256,192,59908,1,0,0:0:0:0:
36,192,60028,1,0,0:0:0:0:
256,192,60148,1,0,0:0:0:50:Drum-Snare.wav
402,192,60148,1,0,0:0:0:0:
109,192,60148,1,0,0:0:0:0:
475,192,60148,1,0,0:0:0:0:
402,192,60268,1,0,0:0:0:0:
182,192,60388,1,0,0:0:0:50:Drum-Snare.wav
329,192,60388,1,0,0:0:0:0:
475,192,60388,1,0,0:0:0:0:
36,192,60388,1,0,0:0:0:0:
475,192,60508,1,0,0:0:0:0:
329,192,60508,1,0,0:0:0:0:
36,192,60508,1,0,0:0:0:0:
182,192,60508,1,0,0:0:0:50:Drum-Snare.wav
109,192,60628,1,0,0:0:0:50:Drum-Snare.wav
256,192,60628,1,0,0:0:0:0:
475,192,60688,1,0,0:0:0:50:Drum-Snare.wav
402,192,60688,1,0,0:0:0:0:
256,192,60748,1,0,0:0:0:0:
109,192,60748,1,0,0:0:0:50:Drum-Snare.wav
475,192,60808,1,0,0:0:0:50:Drum-Snare.wav
402,192,60808,1,0,0:0:0:0:
182,192,60868,1,0,0:0:0:50:Shorted Crash.wav
36,192,60868,128,0,60988:0:0:0:50:Synth.wav
329,192,60868,1,0,0:0:0:50:Drum-KicK.wav
109,192,60868,128,0,60988:0:0:0:0:
36,192,61108,1,0,0:0:0:50:Synth.wav
256,192,61108,1,0,0:0:0:70:Clap(Hey).wav
475,192,61108,1,0,0:0:0:50:Drum-Snare.wav
109,192,61108,1,0,0:0:0:0:
109,192,61228,1,0,0:0:0:0:
402,192,61228,1,0,0:0:0:50:Drum-KicK.wav
329,192,61228,1,0,0:0:0:0:
36,192,61228,1,0,0:0:0:50:Synth.wav
182,192,61348,1,0,0:0:0:50:Drum-KicK.wav
329,192,61468,1,0,0:0:0:0:
36,192,61468,1,0,0:0:0:50:Synth.wav
402,192,61468,1,0,0:0:0:50:Drum-Snare.wav
109,192,61468,1,0,0:0:0:0:
36,192,61588,1,0,0:0:0:50:Synth.wav
256,192,61588,1,0,0:0:0:70:Clap(Hey).wav
475,192,61588,1,0,0:0:0:50:Drum-KicK.wav
109,192,61588,1,0,0:0:0:0:
109,192,61708,128,0,61828:0:0:0:0:
36,192,61708,128,0,61828:0:0:0:50:Synth.wav
182,192,61828,128,0,61948:0:0:0:50:Synth.wav
475,192,61828,1,0,0:0:0:50:Drum-KicK.wav
329,192,61828,128,0,61948:0:0:0:0:
475,192,62068,1,0,0:0:0:50:Drum-Snare.wav
182,192,62068,1,0,0:0:0:50:Synth.wav
329,192,62068,1,0,0:0:0:70:Clap(Hey).wav
402,192,62068,1,0,0:0:0:0:
109,192,62188,1,0,0:0:0:0:
182,192,62188,1,0,0:0:0:50:Synth.wav
329,192,62188,1,0,0:0:0:0:
36,192,62188,1,0,0:0:0:50:Drum-KicK.wav
475,192,62308,1,0,0:0:0:50:Drum-KicK.wav
109,192,62428,1,0,0:0:0:0:
182,192,62428,1,0,0:0:0:50:Synth.wav
329,192,62428,1,0,0:0:0:0:
36,192,62428,1,0,0:0:0:50:Drum-Snare.wav
475,192,62548,1,0,0:0:0:50:Drum-KicK.wav
329,192,62548,1,0,0:0:0:70:Clap(Hey).wav
402,192,62548,1,0,0:0:0:0:
182,192,62548,1,0,0:0:0:50:Synth.wav
329,192,62668,128,0,62788:0:0:0:0:
182,192,62668,128,0,62788:0:0:0:50:Synth.wav
109,192,62788,1,0,0:0:0:50:Drum-KicK.wav
256,192,62788,1,0,0:0:0:0:
475,192,62788,128,0,62908:0:0:0:0:
402,192,62788,128,0,62908:0:0:0:50:Synth.wav
402,192,63028,1,0,0:0:0:50:Synth.wav
256,192,63028,1,0,0:0:0:50:Drum-Snare.wav
109,192,63028,1,0,0:0:0:70:Clap(Hey).wav
475,192,63028,1,0,0:0:0:0:
475,192,63148,1,0,0:0:0:0:
36,192,63148,1,0,0:0:0:50:Drum-KicK.wav
182,192,63148,1,0,0:0:0:0:
402,192,63148,1,0,0:0:0:50:Synth.wav
329,192,63268,1,0,0:0:0:50:Drum-KicK.wav
182,192,63388,1,0,0:0:0:0:
402,192,63388,1,0,0:0:0:50:Synth.wav
36,192,63388,1,0,0:0:0:50:Drum-Snare.wav
475,192,63388,1,0,0:0:0:0:
402,192,63508,1,0,0:0:0:50:Synth.wav
256,192,63508,1,0,0:0:0:50:Drum-KicK.wav
109,192,63508,1,0,0:0:0:70:Clap(Hey).wav
475,192,63508,1,0,0:0:0:0:
402,192,63628,128,0,63748:0:0:0:50:Synth.wav
475,192,63628,128,0,63748:0:0:0:0:
36,192,63748,1,0,0:0:0:50:Drum-KicK.wav
329,192,63748,128,0,63868:0:0:0:50:Synth.wav
182,192,63748,128,0,63868:0:0:0:0:
329,192,63988,1,0,0:0:0:50:Synth.wav
402,192,63988,1,0,0:0:0:50:Drum-Snare.wav
475,192,63988,1,0,0:0:0:70:Clap(Hey).wav
182,192,63988,1,0,0:0:0:0:
182,192,64108,1,0,0:0:0:50:Drum-KicK.wav
109,192,64108,1,0,0:0:0:0:
329,192,64108,1,0,0:0:0:50:Synth.wav
36,192,64108,1,0,0:0:0:0:
475,192,64228,1,0,0:0:0:50:Drum-KicK.wav
109,192,64348,1,0,0:0:0:50:Drum-Snare.wav
36,192,64348,1,0,0:0:0:0:
329,192,64348,1,0,0:0:0:50:Synth.wav
182,192,64348,1,0,0:0:0:0:
402,192,64468,1,0,0:0:0:50:Drum-KicK.wav
475,192,64468,1,0,0:0:0:70:Clap(Hey).wav
329,192,64468,1,0,0:0:0:50:Synth.wav
182,192,64468,1,0,0:0:0:0:
109,192,64588,1,0,0:0:0:0:
256,192,64588,1,0,0:0:0:50:Synth.wav
329,192,64648,1,0,0:0:0:50:Synth.wav
402,192,64708,1,0,0:0:0:50:Shorted Crash.wav
182,192,64708,128,0,64828:0:0:0:0:
475,192,64708,1,0,0:0:0:50:Drum-KicK.wav
36,192,64708,128,0,64828:0:0:0:50:Synth.wav
36,192,64948,1,0,0:0:0:50:Synth.wav
402,192,64948,1,0,0:0:0:50:Drum-Snare.wav
475,192,64948,1,0,0:0:0:70:Clap(Hey).wav
182,192,64948,1,0,0:0:0:0:
256,192,65068,1,0,0:0:0:0:
329,192,65068,1,0,0:0:0:50:Drum-KicK.wav
182,192,65068,1,0,0:0:0:0:
36,192,65068,1,0,0:0:0:50:Synth.wav
475,192,65188,1,0,0:0:0:50:Drum-KicK.wav
182,192,65308,1,0,0:0:0:0:
36,192,65308,1,0,0:0:0:50:Synth.wav
329,192,65308,1,0,0:0:0:50:Drum-Snare.wav
256,192,65308,1,0,0:0:0:0:
36,192,65428,1,0,0:0:0:50:Synth.wav
402,192,65428,1,0,0:0:0:50:Drum-KicK.wav
475,192,65428,1,0,0:0:0:70:Clap(Hey).wav
182,192,65428,1,0,0:0:0:0:
182,192,65548,128,0,65668:0:0:0:0:
36,192,65548,128,0,65668:0:0:0:50:Synth.wav
475,192,65668,1,0,0:0:0:50:Drum-KicK.wav
402,192,65668,128,0,65788:0:0:0:0:
256,192,65668,1,0,0:0:0:0:
109,192,65668,128,0,65788:0:0:0:50:Synth.wav
109,192,65908,1,0,0:0:0:50:Synth.wav
256,192,65908,1,0,0:0:0:50:Drum-Snare.wav
475,192,65908,1,0,0:0:0:70:Clap(Hey).wav
402,192,65908,1,0,0:0:0:0:
402,192,66028,1,0,0:0:0:0:
329,192,66028,1,0,0:0:0:50:Drum-KicK.wav
109,192,66028,1,0,0:0:0:50:Synth.wav
36,192,66028,1,0,0:0:0:0:
182,192,66148,1,0,0:0:0:50:Drum-KicK.wav
402,192,66268,1,0,0:0:0:0:
109,192,66268,1,0,0:0:0:50:Synth.wav
329,192,66268,1,0,0:0:0:50:Drum-Snare.wav
36,192,66268,1,0,0:0:0:0:
475,192,66388,1,0,0:0:0:70:Clap(Hey).wav
109,192,66388,1,0,0:0:0:50:Synth.wav
256,192,66388,1,0,0:0:0:50:Drum-KicK.wav
402,192,66388,1,0,0:0:0:0:
109,192,66508,128,0,66628:0:0:0:50:Synth.wav
402,192,66508,128,0,66628:0:0:0:0:
182,192,66628,1,0,0:0:0:50:Drum-KicK.wav
36,192,66628,1,0,0:0:0:50:Shorted Crash.wav
475,192,66628,128,0,66748:0:0:0:50:Synth.wav
329,192,66628,128,0,66748:0:0:0:0:
109,192,66868,1,0,0:0:0:50:Drum-KicK.wav
329,192,66868,1,0,0:0:0:0:
475,192,66868,1,0,0:0:0:50:Synth.wav
36,192,66868,1,0,0:0:0:70:Clap(Hey).wav
329,192,66988,1,0,0:0:0:0:
256,192,66988,1,0,0:0:0:0:
182,192,66988,1,0,0:0:0:50:Drum-Snare.wav
475,192,66988,1,0,0:0:0:50:Synth.wav
36,192,67108,1,0,0:0:0:50:Shorted Crash.wav
109,192,67108,1,0,0:0:0:50:Drum-KicK.wav
475,192,67228,1,0,0:0:0:50:Synth.wav
329,192,67228,1,0,0:0:0:0:
109,192,67348,1,0,0:0:0:50:Drum-KicK.wav
475,192,67348,1,0,0:0:0:50:Synth.wav
36,192,67348,1,0,0:0:0:70:Clap(Hey).wav
329,192,67348,1,0,0:0:0:0:
475,192,67468,1,0,0:0:0:50:Synth.wav
329,192,67468,1,0,0:0:0:0:
182,192,67468,1,0,0:0:0:0:
109,192,67528,1,0,0:0:0:0:
36,192,67588,1,0,0:0:0:50:Shorted Crash.wav
475,192,67588,1,0,0:0:0:50:Synth.wav
329,192,67588,1,0,0:0:0:50:Drum-KicK.wav
256,192,67648,1,0,0:0:0:0:
182,192,67708,1,0,0:0:0:0:
402,192,67708,1,0,0:0:0:0:
109,192,67768,1,0,0:0:0:0:
36,192,67828,1,0,0:0:0:50:Drum-KicK.wav
475,192,67828,1,0,0:0:0:50:Synth.wav
256,192,67828,1,0,0:0:0:70:Clap(Hey).wav
402,192,67888,1,0,0:0:0:0:
109,192,67948,1,0,0:0:0:0:
329,192,67948,1,0,0:0:0:0:
256,192,68008,1,0,0:0:0:0:
36,192,68068,1,0,0:0:0:0:
182,192,68068,1,0,0:0:0:50:Drum-KicK.wav
475,192,68068,1,0,0:0:0:0:
402,192,68128,1,0,0:0:0:0:
36,192,68188,1,0,0:0:0:0:
329,192,68188,1,0,0:0:0:0:
182,192,68188,1,0,0:0:0:50:Drum-KicK.wav
402,192,68248,1,0,0:0:0:0:
256,192,68308,1,0,0:0:0:50:Drum-KicK.wav
475,192,68308,1,0,0:0:0:70:Clap(Hey).wav
36,192,68368,1,0,0:0:0:50:Drum-KicK.wav
109,192,68368,1,0,0:0:0:0:
256,192,68428,1,0,0:0:0:0:
475,192,68428,1,0,0:0:0:50:Drum-KicK.wav
36,192,68488,1,0,0:0:0:0:
109,192,68488,1,0,0:0:0:50:Drum-KicK.wav
182,192,68548,128,0,69388:0:0:0:0:
329,192,68548,128,0,69268:0:0:0:30:Synth.wav
475,192,68788,128,0,69388:0:0:0:30:Synth.wav
36,192,68908,128,0,69388:0:0:0:30:Synth.wav
402,192,69028,128,0,69388:0:0:0:30:Synth.wav
109,192,69148,128,0,69388:0:0:0:30:Synth.wav
256,192,69268,128,0,69508:0:0:0:30:Synth.wav
329,192,69388,128,0,69508:0:0:0:30:Synth.wav
475,192,69508,1,0,0:0:0:30:Synth.wav
36,192,69508,1,0,0:0:0:0:
109,192,69508,1,0,0:0:0:50:Drum-Snare.wav
182,192,69508,1,0,0:0:0:0:
402,192,69568,1,0,0:0:0:30:Synth.wav
329,192,69628,1,0,0:0:0:30:Synth.wav
256,192,69628,1,0,0:0:0:0:
36,192,69688,1,0,0:0:0:30:Synth.wav
109,192,69748,1,0,0:0:0:30:Synth.wav
182,192,69748,1,0,0:0:0:0:
256,192,69808,1,0,0:0:0:30:Synth.wav
329,192,69868,1,0,0:0:0:0:
36,192,69868,1,0,0:0:0:30:Synth.wav
475,192,69868,1,0,0:0:0:0:
402,192,69868,1,0,0:0:0:50:Drum-Snare.wav
109,192,69928,1,0,0:0:0:30:Synth.wav
182,192,69988,1,0,0:0:0:30:Synth.wav
256,192,69988,1,0,0:0:0:0:
475,192,70048,1,0,0:0:0:30:Synth.wav
329,192,70108,1,0,0:0:0:0:
402,192,70108,1,0,0:0:0:30:Synth.wav
256,192,70168,1,0,0:0:0:30:Synth.wav
36,192,70228,1,0,0:0:0:0:
109,192,70228,1,0,0:0:0:50:Drum-Snare.wav
182,192,70228,1,0,0:0:0:30:Synth.wav
329,192,70288,1,0,0:0:0:30:Synth.wav
402,192,70288,1,0,0:0:0:50:Drum-Snare.wav
182,192,70348,1,0,0:0:0:30:Synth.wav
109,192,70348,1,0,0:0:0:50:Drum-Snare.wav
329,192,70408,1,0,0:0:0:30:Synth.wav
402,192,70408,1,0,0:0:0:50:Drum-Snare.wav
36,192,70468,128,0,70828:0:0:0:0:
475,192,70468,128,0,70708:0:0:0:50:Drum-KicK.wav
109,192,70468,128,0,70828:0:0:0:0:
256,192,70468,128,0,70708:0:0:0:40:Emphasized.wav
402,192,70708,128,0,70828:0:0:0:0:
329,192,70708,128,0,70828:0:0:0:0:
182,192,70708,1,0,0:0:0:0:
329,192,70948,1,0,0:0:0:50:Drum-Snare.wav
182,192,70948,1,0,0:0:0:0:
36,192,70948,1,0,0:0:0:0:
475,192,70948,1,0,0:0:0:0:
475,192,71188,1,0,0:0:0:0:
329,192,71188,1,0,0:0:0:0:
109,192,71308,1,0,0:0:0:0:
36,192,71308,1,0,0:0:0:0:
256,192,71308,1,0,0:0:0:50:Drum-KicK.wav
402,192,71308,1,0,0:0:0:0:
182,192,71548,1,0,0:0:0:0:
329,192,71548,1,0,0:0:0:50:Drum-Snare.wav
475,192,71548,1,0,0:0:0:0:
109,192,71548,1,0,0:0:0:0:
109,192,71668,1,0,0:0:0:0:
36,192,71668,1,0,0:0:0:0:
256,192,71668,1,0,0:0:0:50:Drum-KicK.wav
402,192,71668,1,0,0:0:0:0:
475,192,71788,1,0,0:0:0:0:
329,192,71908,1,0,0:0:0:0:
182,192,71908,1,0,0:0:0:0:
36,192,71908,128,0,72268:0:0:0:50:Drum-Snare.wav
329,192,72028,1,0,0:0:0:0:
182,192,72028,1,0,0:0:0:0:
402,192,72148,1,0,0:0:0:0:
256,192,72148,1,0,0:0:0:0:
402,192,72268,1,0,0:0:0:0:
256,192,72268,1,0,0:0:0:0:
182,192,72388,1,0,0:0:0:40:Emphasized.wav
36,192,72388,1,0,0:0:0:50:Drum-KicK.wav
329,192,72388,1,0,0:0:0:0:
475,192,72388,1,0,0:0:0:0:
109,192,72508,1,0,0:0:0:0:
256,192,72508,1,0,0:0:0:0:
182,192,72628,1,0,0:0:0:0:
329,192,72628,1,0,0:0:0:0:
475,192,72628,1,0,0:0:0:0:
256,192,72748,1,0,0:0:0:0:
402,192,72748,1,0,0:0:0:0:
329,192,72868,1,0,0:0:0:50:Drum-Snare.wav
36,192,72868,1,0,0:0:0:0:
475,192,72868,1,0,0:0:0:0:
182,192,72868,1,0,0:0:0:0:
36,192,73108,1,0,0:0:0:0:
182,192,73108,1,0,0:0:0:0:
475,192,73228,1,0,0:0:0:0:
109,192,73228,1,0,0:0:0:0:
402,192,73228,1,0,0:0:0:50:Drum-KicK.wav
256,192,73228,1,0,0:0:0:0:
329,192,73468,1,0,0:0:0:0:
36,192,73468,1,0,0:0:0:50:Drum-Snare.wav
182,192,73468,1,0,0:0:0:0:
402,192,73468,1,0,0:0:0:0:
475,192,73588,1,0,0:0:0:0:
256,192,73588,1,0,0:0:0:0:
402,192,73588,1,0,0:0:0:50:Drum-KicK.wav
109,192,73588,1,0,0:0:0:0:
36,192,73828,1,0,0:0:0:0:
182,192,73828,1,0,0:0:0:0:
475,192,73828,128,0,74188:0:0:0:50:Drum-Snare.wav
36,192,73948,1,0,0:0:0:0:
182,192,73948,1,0,0:0:0:0:
402,192,74068,1,0,0:0:0:0:
256,192,74068,1,0,0:0:0:0:
256,192,74188,1,0,0:0:0:0:
402,192,74188,1,0,0:0:0:0:
329,192,74308,1,0,0:0:0:40:Emphasized.wav
182,192,74308,1,0,0:0:0:0:
36,192,74308,1,0,0:0:0:50:Drum-KicK.wav
475,192,74308,1,0,0:0:0:0:
256,192,74428,1,0,0:0:0:0:
109,192,74428,1,0,0:0:0:0:
329,192,74488,1,0,0:0:0:0:
475,192,74488,1,0,0:0:0:0:
109,192,74548,1,0,0:0:0:0:
256,192,74548,1,0,0:0:0:0:
182,192,74668,1,0,0:0:0:0:
36,192,74668,1,0,0:0:0:0:
256,192,74788,1,0,0:0:0:50:Drum-Snare.wav
475,192,74788,1,0,0:0:0:0:
109,192,74788,1,0,0:0:0:0:
402,192,74788,1,0,0:0:0:0:
475,192,75028,1,0,0:0:0:0:
329,192,75028,1,0,0:0:0:0:
36,192,75148,1,0,0:0:0:0:
402,192,75148,1,0,0:0:0:0:
109,192,75148,1,0,0:0:0:50:Drum-KicK.wav
256,192,75148,1,0,0:0:0:0:
182,192,75388,1,0,0:0:0:0:
329,192,75388,1,0,0:0:0:50:Drum-Snare.wav
475,192,75388,1,0,0:0:0:0:
402,192,75388,1,0,0:0:0:0:
36,192,75508,1,0,0:0:0:0:
256,192,75508,1,0,0:0:0:0:
109,192,75508,1,0,0:0:0:50:Drum-KicK.wav
475,192,75508,1,0,0:0:0:0:
329,192,75568,1,0,0:0:0:0:
402,192,75628,1,0,0:0:0:0:
36,192,75748,1,0,0:0:0:0:
182,192,75748,1,0,0:0:0:0:
256,192,75748,128,0,76108:0:0:0:50:Drum-Snare.wav
182,192,75868,1,0,0:0:0:0:
36,192,75868,1,0,0:0:0:0:
475,192,75988,1,0,0:0:0:0:
329,192,75988,1,0,0:0:0:0:
329,192,76108,1,0,0:0:0:0:
475,192,76108,1,0,0:0:0:0:
256,192,76228,1,0,0:0:0:50:Drum-KicK.wav
402,192,76228,1,0,0:0:0:70:Drum Roll.wav
109,192,76228,1,0,0:0:0:0:
36,192,76228,1,0,0:0:0:40:Emphasized.wav
402,192,76348,1,0,0:0:0:70:Drum Roll.wav
182,192,76348,1,0,0:0:0:0:
329,192,76468,1,0,0:0:0:70:Drum Roll.wav
182,192,76468,1,0,0:0:0:0:
329,192,76588,1,0,0:0:0:70:Drum Roll.wav
109,192,76588,1,0,0:0:0:0:
109,192,76708,1,0,0:0:0:0:
256,192,76708,1,0,0:0:0:70:Drum Roll.wav
402,192,76708,1,0,0:0:0:50:Drum-Snare.wav
475,192,76708,1,0,0:0:0:0:
256,192,76828,1,0,0:0:0:70:Drum Roll.wav
36,192,76828,1,0,0:0:0:0:
182,192,76948,1,0,0:0:0:70:Drum Roll.wav
36,192,76948,1,0,0:0:0:0:
182,192,77068,1,0,0:0:0:70:Drum Roll.wav
329,192,77068,1,0,0:0:0:50:Drum-KicK.wav
475,192,77068,1,0,0:0:0:0:
402,192,77068,1,0,0:0:0:0:
36,192,77188,1,0,0:0:0:0:
109,192,77188,1,0,0:0:0:70:Drum Roll.wav
256,192,77188,128,0,77428:0:0:0:0:
402,192,77308,1,0,0:0:0:50:Drum-Snare.wav
475,192,77308,1,0,0:0:0:70:Drum Roll.wav
182,192,77308,1,0,0:0:0:0:
329,192,77428,1,0,0:0:0:50:Drum-KicK.wav
109,192,77428,1,0,0:0:0:70:Drum Roll.wav
36,192,77428,128,0,77668:0:0:0:0:
402,192,77428,1,0,0:0:0:0:
329,192,77548,1,0,0:0:0:70:Drum Roll.wav
256,192,77548,1,0,0:0:0:0:
402,192,77668,1,0,0:0:0:50:Drum-Snare.wav
475,192,77668,128,0,77828:0:0:0:0:
109,192,77668,1,0,0:0:0:0:
182,192,77668,1,0,0:0:0:70:Drum Roll.wav
256,192,77788,1,0,0:0:0:0:
182,192,77788,1,0,0:0:0:70:Drum Roll.wav
402,192,77828,128,0,77988:0:0:0:0:
36,192,77908,1,0,0:0:0:0:
109,192,77908,1,0,0:0:0:70:Drum Roll.wav
329,192,77988,128,0,78148:0:0:0:0:
109,192,78028,1,0,0:0:0:70:Drum Roll.wav
182,192,78028,1,0,0:0:0:0:
36,192,78148,1,0,0:0:0:70:Drum Roll.wav
475,192,78148,1,0,0:0:0:0:
256,192,78148,128,0,78308:0:0:0:0:
402,192,78268,1,0,0:0:0:0:
109,192,78268,1,0,0:0:0:70:Drum Roll.wav
36,192,78388,1,0,0:0:0:0:
329,192,78388,1,0,0:0:0:40:Emphasized.wav
475,192,78388,1,0,0:0:0:50:Drum-KicK.wav
182,192,78388,1,0,0:0:0:0:
256,192,78628,1,0,0:0:0:0:
109,192,78628,1,0,0:0:0:50:Drum-Snare.wav
402,192,78628,1,0,0:0:0:0:
36,192,78628,1,0,0:0:0:0:
256,192,78868,1,0,0:0:0:0:
36,192,78868,1,0,0:0:0:0:
182,192,78988,1,0,0:0:0:0:
475,192,78988,1,0,0:0:0:0:
109,192,78988,1,0,0:0:0:50:Drum-KicK.wav
329,192,78988,1,0,0:0:0:0:
36,192,79228,1,0,0:0:0:0:
402,192,79228,1,0,0:0:0:50:Drum-Snare.wav
256,192,79228,1,0,0:0:0:0:
109,192,79228,1,0,0:0:0:0:
475,192,79348,1,0,0:0:0:0:
182,192,79348,1,0,0:0:0:0:
109,192,79348,1,0,0:0:0:50:Drum-KicK.wav
329,192,79348,1,0,0:0:0:0:
182,192,79588,1,0,0:0:0:0:
475,192,79588,1,0,0:0:0:0:
36,192,79588,128,0,79948:0:0:0:50:Drum-Snare.wav
182,192,79708,1,0,0:0:0:0:
475,192,79708,1,0,0:0:0:0:
402,192,79828,1,0,0:0:0:0:
256,192,79828,1,0,0:0:0:0:
402,192,79948,1,0,0:0:0:0:
256,192,79948,1,0,0:0:0:0:
36,192,80068,1,0,0:0:0:40:Emphasized.wav
329,192,80068,128,0,80308:0:0:0:0:
182,192,80068,1,0,0:0:0:50:Drum-KicK.wav
475,192,80068,128,0,80308:0:0:0:0:
109,192,80188,1,0,0:0:0:0:
182,192,80308,1,0,0:0:0:0:
36,192,80308,1,0,0:0:0:0:
475,192,80428,128,0,80668:0:0:0:0:
329,192,80428,128,0,80668:0:0:0:0:
109,192,80428,1,0,0:0:0:0:
36,192,80548,1,0,0:0:0:50:Drum-Snare.wav
182,192,80548,1,0,0:0:0:0:
36,192,80788,128,0,81028:0:0:0:0:
109,192,80788,128,0,81028:0:0:0:0:
329,192,80788,1,0,0:0:0:0:
256,192,80788,1,0,0:0:0:0:
475,192,80908,1,0,0:0:0:0:
182,192,80908,1,0,0:0:0:50:Drum-KicK.wav
402,192,80908,1,0,0:0:0:0:
256,192,80968,1,0,0:0:0:0:
329,192,81028,1,0,0:0:0:0:
36,192,81148,128,0,81388:0:0:0:0:
256,192,81148,1,0,0:0:0:0:
475,192,81148,1,0,0:0:0:0:
402,192,81148,1,0,0:0:0:50:Drum-Snare.wav
109,192,81148,128,0,81388:0:0:0:0:
182,192,81268,1,0,0:0:0:0:
402,192,81268,1,0,0:0:0:50:Drum-KicK.wav
329,192,81268,1,0,0:0:0:0:
36,192,81508,128,0,81868:0:0:0:0:
329,192,81508,1,0,0:0:0:50:Drum-Snare.wav
182,192,81508,1,0,0:0:0:0:
475,192,81508,128,0,81868:0:0:0:0:
329,192,81628,1,0,0:0:0:0:
182,192,81628,1,0,0:0:0:0:
402,192,81748,1,0,0:0:0:0:
109,192,81748,1,0,0:0:0:0:
402,192,81868,1,0,0:0:0:0:
109,192,81868,1,0,0:0:0:0:
475,192,81988,1,0,0:0:0:40:Emphasized.wav
329,192,81988,1,0,0:0:0:50:Drum-KicK.wav
182,192,81988,1,0,0:0:0:0:
36,192,81988,1,0,0:0:0:0:
256,192,82108,1,0,0:0:0:0:
402,192,82108,1,0,0:0:0:0:
475,192,82228,1,0,0:0:0:0:
182,192,82228,1,0,0:0:0:0:
36,192,82228,1,0,0:0:0:0:
256,192,82348,1,0,0:0:0:0:
402,192,82348,1,0,0:0:0:0:
329,192,82468,1,0,0:0:0:50:Drum-Snare.wav
182,192,82468,1,0,0:0:0:0:
36,192,82468,1,0,0:0:0:0:
475,192,82468,1,0,0:0:0:0:
329,192,82708,1,0,0:0:0:0:
182,192,82708,1,0,0:0:0:0:
256,192,82828,1,0,0:0:0:0:
109,192,82828,1,0,0:0:0:0:
36,192,82828,1,0,0:0:0:50:Drum-KicK.wav
475,192,82828,1,0,0:0:0:0:
329,192,83068,1,0,0:0:0:0:
182,192,83068,1,0,0:0:0:50:Drum-Snare.wav
109,192,83068,1,0,0:0:0:0:
402,192,83068,1,0,0:0:0:0:
256,192,83188,1,0,0:0:0:0:
109,192,83188,1,0,0:0:0:0:
36,192,83188,1,0,0:0:0:50:Drum-KicK.wav
475,192,83188,1,0,0:0:0:0:
182,192,83428,1,0,0:0:0:0:
36,192,83428,1,0,0:0:0:0:
475,192,83428,128,0,83788:0:0:0:50:Drum-Snare.wav
182,192,83548,1,0,0:0:0:0:
36,192,83548,1,0,0:0:0:0:
256,192,83668,1,0,0:0:0:0:
402,192,83668,1,0,0:0:0:0:
256,192,83788,1,0,0:0:0:0:
402,192,83788,1,0,0:0:0:0:
329,192,83908,1,0,0:0:0:50:Drum-KicK.wav
475,192,83908,1,0,0:0:0:40:Emphasized.wav
36,192,83908,1,0,0:0:0:70:Drum Roll.wav
182,192,83908,1,0,0:0:0:0:
36,192,84028,1,0,0:0:0:70:Drum Roll.wav
256,192,84028,1,0,0:0:0:0:
109,192,84148,1,0,0:0:0:70:Drum Roll.wav
256,192,84148,1,0,0:0:0:0:
109,192,84268,1,0,0:0:0:70:Drum Roll.wav
329,192,84268,1,0,0:0:0:0:
36,192,84388,1,0,0:0:0:0:
329,192,84388,1,0,0:0:0:70:Drum Roll.wav
182,192,84388,1,0,0:0:0:50:Drum-Snare.wav
475,192,84388,1,0,0:0:0:0:
182,192,84508,1,0,0:0:0:70:Drum Roll.wav
402,192,84508,1,0,0:0:0:0:
256,192,84628,1,0,0:0:0:70:Drum Roll.wav
402,192,84628,1,0,0:0:0:0:
475,192,84748,1,0,0:0:0:0:
109,192,84748,1,0,0:0:0:50:Drum-KicK.wav
256,192,84748,1,0,0:0:0:70:Drum Roll.wav
36,192,84748,1,0,0:0:0:0:
329,192,84868,1,0,0:0:0:70:Drum Roll.wav
475,192,84868,1,0,0:0:0:0:
36,192,84988,1,0,0:0:0:0:
329,192,84988,1,0,0:0:0:70:Drum Roll.wav
182,192,84988,1,0,0:0:0:0:
109,192,84988,1,0,0:0:0:50:Drum-Snare.wav
475,192,85108,1,0,0:0:0:0:
256,192,85108,1,0,0:0:0:50:Drum-KicK.wav
402,192,85108,1,0,0:0:0:70:Drum Roll.wav
182,192,85108,1,0,0:0:0:0:
109,192,85228,1,0,0:0:0:70:Drum Roll.wav
402,192,85228,1,0,0:0:0:0:
182,192,85348,1,0,0:0:0:0:
109,192,85348,1,0,0:0:0:70:Drum Roll.wav
329,192,85348,1,0,0:0:0:50:Drum-Snare.wav
475,192,85348,1,0,0:0:0:0:
182,192,85468,1,0,0:0:0:0:
36,192,85468,1,0,0:0:0:70:Drum Roll.wav
256,192,85468,1,0,0:0:0:0:
256,192,85588,1,0,0:0:0:0:
109,192,85588,1,0,0:0:0:70:Drum Roll.wav
329,192,85588,1,0,0:0:0:0:
182,192,85708,1,0,0:0:0:70:Drum Roll.wav
402,192,85708,1,0,0:0:0:0:
329,192,85708,1,0,0:0:0:0:
475,192,85828,128,0,86188:0:0:0:0:
256,192,85828,128,0,86068:0:0:0:50:Drum-KicK.wav
402,192,85828,128,0,86188:0:0:0:0:
36,192,85828,128,0,86068:0:0:0:40:Emphasized.wav
329,192,86068,128,0,86188:0:0:0:0:
109,192,86068,128,0,86188:0:0:0:0:
182,192,86068,1,0,0:0:0:0:
329,192,86308,1,0,0:0:0:50:Drum-Snare.wav
182,192,86308,1,0,0:0:0:0:
36,192,86308,1,0,0:0:0:0:
475,192,86308,1,0,0:0:0:0:
329,192,86548,1,0,0:0:0:0:
36,192,86548,1,0,0:0:0:0:
475,192,86668,1,0,0:0:0:0:
109,192,86668,1,0,0:0:0:0:
256,192,86668,1,0,0:0:0:50:Drum-KicK.wav
402,192,86668,1,0,0:0:0:0:
402,192,86908,1,0,0:0:0:0:
256,192,86908,1,0,0:0:0:50:Drum-Snare.wav
475,192,86908,1,0,0:0:0:0:
36,192,86908,1,0,0:0:0:0:
329,192,87028,1,0,0:0:0:0:
109,192,87028,1,0,0:0:0:0:
182,192,87028,1,0,0:0:0:50:Drum-KicK.wav
36,192,87028,1,0,0:0:0:0:
402,192,87148,1,0,0:0:0:0:
36,192,87268,1,0,0:0:0:0:
475,192,87268,1,0,0:0:0:0:
256,192,87268,128,0,87628:0:0:0:50:Drum-Snare.wav
36,192,87388,1,0,0:0:0:0:
475,192,87388,1,0,0:0:0:0:
109,192,87508,1,0,0:0:0:0:
402,192,87508,1,0,0:0:0:0:
402,192,87628,1,0,0:0:0:0:
109,192,87628,1,0,0:0:0:0:
182,192,87748,1,0,0:0:0:40:Emphasized.wav
475,192,87748,1,0,0:0:0:50:Drum-KicK.wav
329,192,87748,1,0,0:0:0:0:
36,192,87748,1,0,0:0:0:0:
256,192,87868,1,0,0:0:0:0:
109,192,87868,1,0,0:0:0:0:
475,192,87988,1,0,0:0:0:0:
36,192,87988,1,0,0:0:0:0:
329,192,87988,1,0,0:0:0:0:
109,192,88108,1,0,0:0:0:0:
256,192,88108,1,0,0:0:0:0:
475,192,88228,1,0,0:0:0:50:Drum-Snare.wav
36,192,88228,1,0,0:0:0:0:
329,192,88228,1,0,0:0:0:0:
182,192,88228,1,0,0:0:0:0:
329,192,88468,1,0,0:0:0:0:
182,192,88468,1,0,0:0:0:0:
475,192,88588,1,0,0:0:0:0:
36,192,88588,1,0,0:0:0:0:
109,192,88588,1,0,0:0:0:50:Drum-KicK.wav
402,192,88588,1,0,0:0:0:0:
109,192,88828,1,0,0:0:0:0:
256,192,88828,1,0,0:0:0:50:Drum-Snare.wav
402,192,88828,1,0,0:0:0:0:
475,192,88828,1,0,0:0:0:0:
36,192,88948,1,0,0:0:0:0:
475,192,88948,1,0,0:0:0:0:
182,192,88948,1,0,0:0:0:50:Drum-KicK.wav
329,192,88948,1,0,0:0:0:0:
109,192,89188,1,0,0:0:0:0:
256,192,89188,1,0,0:0:0:50:Drum-Snare.wav
475,192,89188,128,0,89548:0:0:0:0:
109,192,89308,1,0,0:0:0:0:
256,192,89308,1,0,0:0:0:0:
36,192,89428,1,0,0:0:0:0:
329,192,89428,1,0,0:0:0:0:
36,192,89548,1,0,0:0:0:0:
329,192,89548,1,0,0:0:0:0:
109,192,89668,1,0,0:0:0:40:Emphasized.wav
475,192,89668,1,0,0:0:0:0:
256,192,89668,1,0,0:0:0:50:Drum-KicK.wav
402,192,89668,1,0,0:0:0:0:
329,192,89788,1,0,0:0:0:0:
182,192,89788,1,0,0:0:0:0:
36,192,89848,1,0,0:0:0:0:
475,192,89848,1,0,0:0:0:0:
182,192,89908,1,0,0:0:0:0:
329,192,89908,1,0,0:0:0:0:
402,192,90028,1,0,0:0:0:0:
256,192,90028,1,0,0:0:0:0:
182,192,90148,1,0,0:0:0:50:Drum-Snare.wav
475,192,90148,1,0,0:0:0:0:
36,192,90148,1,0,0:0:0:0:
329,192,90148,1,0,0:0:0:0:
109,192,90388,1,0,0:0:0:0:
182,192,90388,1,0,0:0:0:0:
36,192,90508,1,0,0:0:0:0:
475,192,90508,1,0,0:0:0:0:
256,192,90508,1,0,0:0:0:50:Drum-KicK.wav
402,192,90508,1,0,0:0:0:0:
36,192,90748,1,0,0:0:0:0:
109,192,90748,1,0,0:0:0:50:Drum-Snare.wav
182,192,90748,1,0,0:0:0:0:
329,192,90748,1,0,0:0:0:0:
475,192,90868,1,0,0:0:0:0:
36,192,90868,1,0,0:0:0:0:
402,192,90868,1,0,0:0:0:50:Drum-KicK.wav
256,192,90868,1,0,0:0:0:0:
109,192,90928,1,0,0:0:0:0:
182,192,90988,1,0,0:0:0:0:
329,192,91108,1,0,0:0:0:0:
475,192,91108,1,0,0:0:0:0:
36,192,91108,128,0,91468:0:0:0:50:Drum-Snare.wav
475,192,91228,1,0,0:0:0:0:
329,192,91228,1,0,0:0:0:0:
109,192,91348,1,0,0:0:0:0:
256,192,91348,1,0,0:0:0:0:
256,192,91468,1,0,0:0:0:0:
109,192,91468,1,0,0:0:0:0:
475,192,91588,1,0,0:0:0:50:Drum-KicK.wav
36,192,91588,1,0,0:0:0:70:Drum Roll.wav
182,192,91588,1,0,0:0:0:0:
329,192,91588,1,0,0:0:0:40:Emphasized.wav
36,192,91708,1,0,0:0:0:70:Drum Roll.wav
402,192,91708,1,0,0:0:0:0:
109,192,91828,1,0,0:0:0:70:Drum Roll.wav
402,192,91828,1,0,0:0:0:0:
109,192,91948,1,0,0:0:0:70:Drum Roll.wav
329,192,91948,1,0,0:0:0:0:
329,192,92068,1,0,0:0:0:0:
182,192,92068,1,0,0:0:0:70:Drum Roll.wav
36,192,92068,1,0,0:0:0:50:Drum-Snare.wav
475,192,92068,1,0,0:0:0:0:
182,192,92188,1,0,0:0:0:70:Drum Roll.wav
402,192,92188,1,0,0:0:0:0:
256,192,92308,1,0,0:0:0:70:Drum Roll.wav
402,192,92308,1,0,0:0:0:0:
256,192,92428,1,0,0:0:0:70:Drum Roll.wav
36,192,92428,1,0,0:0:0:50:Drum-KicK.wav
475,192,92428,1,0,0:0:0:0:
109,192,92428,1,0,0:0:0:0:
475,192,92548,1,0,0:0:0:0:
182,192,92548,1,0,0:0:0:70:Drum Roll.wav
329,192,92548,128,0,92788:0:0:0:0:
256,192,92668,1,0,0:0:0:50:Drum-Snare.wav
109,192,92668,1,0,0:0:0:70:Drum Roll.wav
36,192,92668,1,0,0:0:0:0:
402,192,92788,1,0,0:0:0:50:Drum-KicK.wav
182,192,92788,1,0,0:0:0:70:Drum Roll.wav
475,192,92788,128,0,93028:0:0:0:0:
36,192,92788,1,0,0:0:0:0:
182,192,92908,1,0,0:0:0:70:Drum Roll.wav
256,192,92908,1,0,0:0:0:0:
109,192,93028,1,0,0:0:0:50:Drum-Snare.wav
36,192,93028,128,0,93188:0:0:0:0:
402,192,93028,1,0,0:0:0:0:
329,192,93028,1,0,0:0:0:70:Drum Roll.wav
256,192,93148,1,0,0:0:0:0:
329,192,93148,1,0,0:0:0:70:Drum Roll.wav
182,192,93188,128,0,93348:0:0:0:0:
475,192,93268,1,0,0:0:0:0:
402,192,93268,1,0,0:0:0:70:Drum Roll.wav
109,192,93348,128,0,93508:0:0:0:0:
402,192,93388,1,0,0:0:0:70:Drum Roll.wav
329,192,93388,1,0,0:0:0:0:
475,192,93508,1,0,0:0:0:70:Drum Roll.wav
36,192,93508,1,0,0:0:0:0:
256,192,93508,128,0,93668:0:0:0:0:
109,192,93628,1,0,0:0:0:0:
402,192,93628,1,0,0:0:0:70:Drum Roll.wav
36,192,93748,1,0,0:0:0:0:
329,192,93748,1,0,0:0:0:40:Emphasized.wav
475,192,93748,1,0,0:0:0:50:Drum-KicK.wav
182,192,93748,1,0,0:0:0:0:
256,192,93988,1,0,0:0:0:0:
109,192,93988,1,0,0:0:0:50:Drum-Snare.wav
402,192,93988,1,0,0:0:0:0:
475,192,93988,1,0,0:0:0:0:
109,192,94228,1,0,0:0:0:0:
182,192,94228,1,0,0:0:0:0:
475,192,94348,1,0,0:0:0:0:
402,192,94348,1,0,0:0:0:0:
256,192,94348,1,0,0:0:0:50:Drum-KicK.wav
36,192,94348,1,0,0:0:0:0:
402,192,94588,1,0,0:0:0:0:
256,192,94588,1,0,0:0:0:50:Drum-Snare.wav
109,192,94588,1,0,0:0:0:0:
36,192,94588,1,0,0:0:0:0:
182,192,94708,1,0,0:0:0:0:
109,192,94708,1,0,0:0:0:0:
475,192,94708,1,0,0:0:0:50:Drum-KicK.wav
329,192,94708,1,0,0:0:0:0:
402,192,94948,1,0,0:0:0:0:
36,192,94948,1,0,0:0:0:0:
256,192,94948,128,0,95308:0:0:0:50:Drum-Snare.wav
402,192,95068,1,0,0:0:0:0:
36,192,95068,1,0,0:0:0:0:
182,192,95188,1,0,0:0:0:0:
475,192,95188,1,0,0:0:0:0:
182,192,95308,1,0,0:0:0:0:
475,192,95308,1,0,0:0:0:0:
256,192,95428,1,0,0:0:0:40:Emphasized.wav
109,192,95428,128,0,95668:0:0:0:0:
402,192,95428,1,0,0:0:0:50:Drum-KicK.wav
36,192,95428,128,0,95668:0:0:0:0:
329,192,95548,1,0,0:0:0:0:
402,192,95668,1,0,0:0:0:0:
256,192,95668,1,0,0:0:0:0:
109,192,95788,128,0,96028:0:0:0:0:
36,192,95788,128,0,96028:0:0:0:0:
329,192,95788,1,0,0:0:0:0:
256,192,95908,1,0,0:0:0:50:Drum-Snare.wav
402,192,95908,1,0,0:0:0:0:
475,192,96148,128,0,96388:0:0:0:0:
36,192,96148,128,0,96388:0:0:0:0:
256,192,96148,1,0,0:0:0:0:
182,192,96148,1,0,0:0:0:0:
402,192,96268,1,0,0:0:0:0:
329,192,96268,1,0,0:0:0:50:Drum-KicK.wav
109,192,96268,1,0,0:0:0:0:
182,192,96328,1,0,0:0:0:0:
256,192,96388,1,0,0:0:0:0:
475,192,96508,128,0,96748:0:0:0:0:
402,192,96508,1,0,0:0:0:0:
109,192,96508,1,0,0:0:0:0:
329,192,96508,1,0,0:0:0:50:Drum-Snare.wav
36,192,96508,128,0,96748:0:0:0:0:
402,192,96628,1,0,0:0:0:0:
182,192,96628,1,0,0:0:0:50:Drum-KicK.wav
109,192,96628,1,0,0:0:0:0:
475,192,96868,128,0,97228:0:0:0:0:
182,192,96868,1,0,0:0:0:0:
36,192,96868,1,0,0:0:0:0:
329,192,96868,128,0,97228:0:0:0:50:Drum-Snare.wav
182,192,96988,1,0,0:0:0:0:
36,192,96988,1,0,0:0:0:0:
256,192,97108,1,0,0:0:0:0:
109,192,97108,1,0,0:0:0:0:
256,192,97228,1,0,0:0:0:0:
109,192,97228,1,0,0:0:0:0:
475,192,97348,1,0,0:0:0:40:Emphasized.wav
36,192,97348,1,0,0:0:0:50:Drum-KicK.wav
329,192,97348,1,0,0:0:0:0:
182,192,97348,1,0,0:0:0:0:
256,192,97468,1,0,0:0:0:0:
402,192,97468,1,0,0:0:0:0:
36,192,97588,1,0,0:0:0:0:
182,192,97588,1,0,0:0:0:0:
329,192,97588,1,0,0:0:0:0:
109,192,97708,1,0,0:0:0:0:
256,192,97708,1,0,0:0:0:0:
329,192,97828,1,0,0:0:0:50:Drum-Snare.wav
182,192,97828,1,0,0:0:0:0:
36,192,97828,1,0,0:0:0:0:
475,192,97828,1,0,0:0:0:0:
36,192,98068,1,0,0:0:0:0:
329,192,98068,1,0,0:0:0:0:
256,192,98188,1,0,0:0:0:0:
109,192,98188,1,0,0:0:0:0:
475,192,98188,1,0,0:0:0:50:Drum-KicK.wav
402,192,98188,1,0,0:0:0:0:
256,192,98428,1,0,0:0:0:0:
109,192,98428,1,0,0:0:0:50:Drum-Snare.wav
402,192,98428,1,0,0:0:0:0:
475,192,98428,1,0,0:0:0:0:
329,192,98548,1,0,0:0:0:0:
402,192,98548,1,0,0:0:0:0:
36,192,98548,1,0,0:0:0:50:Drum-KicK.wav
182,192,98548,1,0,0:0:0:0:
475,192,98788,1,0,0:0:0:0:
109,192,98788,1,0,0:0:0:0:
256,192,98788,128,0,99148:0:0:0:50:Drum-Snare.wav
109,192,98908,1,0,0:0:0:0:
475,192,98908,1,0,0:0:0:0:
402,192,99028,1,0,0:0:0:0:
36,192,99028,1,0,0:0:0:0:
402,192,99148,1,0,0:0:0:0:
36,192,99148,1,0,0:0:0:0:
182,192,99268,1,0,0:0:0:50:Drum-KicK.wav
109,192,99268,1,0,0:0:0:40:Emphasized.wav
329,192,99268,1,0,0:0:0:70:Drum Roll.wav
475,192,99268,1,0,0:0:0:0:
329,192,99388,1,0,0:0:0:70:Drum Roll.wav
36,192,99388,1,0,0:0:0:0:
256,192,99508,1,0,0:0:0:70:Drum Roll.wav
36,192,99508,1,0,0:0:0:0:
256,192,99628,1,0,0:0:0:70:Drum Roll.wav
475,192,99628,1,0,0:0:0:0:
36,192,99748,1,0,0:0:0:0:
329,192,99748,1,0,0:0:0:70:Drum Roll.wav
182,192,99748,1,0,0:0:0:50:Drum-Snare.wav
475,192,99748,1,0,0:0:0:0:
402,192,99868,1,0,0:0:0:70:Drum Roll.wav
182,192,99868,1,0,0:0:0:0:
109,192,99988,1,0,0:0:0:70:Drum Roll.wav
329,192,99988,1,0,0:0:0:0:
475,192,100108,5,0,0:0:0:0:
402,192,100108,1,0,0:0:0:50:Drum-KicK.wav
109,192,100108,1,0,0:0:0:70:Drum Roll.wav
256,192,100108,1,0,0:0:0:0:
36,192,100228,1,0,0:0:0:70:Drum Roll.wav
256,192,100228,1,0,0:0:0:0:
402,192,100348,1,0,0:0:0:0:
36,192,100348,1,0,0:0:0:70:Drum Roll.wav
182,192,100348,1,0,0:0:0:0:
329,192,100348,1,0,0:0:0:50:Drum-Snare.wav
475,192,100468,1,0,0:0:0:0:
402,192,100468,1,0,0:0:0:50:Drum-KicK.wav
109,192,100468,1,0,0:0:0:70:Drum Roll.wav
256,192,100468,1,0,0:0:0:0:
109,192,100588,1,0,0:0:0:70:Drum Roll.wav
329,192,100588,1,0,0:0:0:0:
182,192,100708,1,0,0:0:0:0:
329,192,100708,1,0,0:0:0:70:Drum Roll.wav
36,192,100708,1,0,0:0:0:50:Drum-Snare.wav
475,192,100708,1,0,0:0:0:0:
402,192,100828,1,0,0:0:0:0:
256,192,100828,1,0,0:0:0:70:Drum Roll.wav
475,192,100828,1,0,0:0:0:0:
329,192,100948,1,0,0:0:0:0:
182,192,100948,1,0,0:0:0:70:Drum Roll.wav
402,192,100948,1,0,0:0:0:0:
109,192,101068,1,0,0:0:0:70:Drum Roll.wav
256,192,101068,1,0,0:0:0:0:
329,192,101068,1,0,0:0:0:0:
256,192,101188,1,0,0:0:0:50:Drum-KicK.wav
475,192,101188,1,0,0:0:0:30:HihaT.wav
182,192,101188,128,0,101548:0:0:0:0:
36,192,101188,128,0,101548:0:0:0:0:
402,192,101348,1,0,0:0:0:30:HihaT.wav
329,192,101508,1,0,0:0:0:30:HihaT.wav
256,192,101668,1,0,0:0:0:30:HihaT.wav
182,192,101828,1,0,0:0:0:30:HihaT.wav
109,192,101988,1,0,0:0:0:30:HihaT.wav
475,192,102028,1,0,0:0:0:50:Sub rhythm.wav
402,192,102088,1,0,0:0:0:50:Sub rhythm.wav
329,192,102148,128,0,102448:0:0:0:0:
36,192,102148,1,0,0:0:0:50:Sub rhythm.wav
109,192,102238,1,0,0:0:0:50:Sub rhythm.wav
402,192,102238,128,0,102448:0:0:0:0:
182,192,102328,1,0,0:0:0:50:Sub rhythm.wav
475,192,102328,128,0,102448:0:0:0:0:
36,192,102448,128,0,102568:0:0:0:50:Sub rhythm.wav
182,192,102508,128,0,102628:0:0:0:50:Sub rhythm.wav
329,192,102568,128,0,102688:0:0:0:50:Sub rhythm.wav
109,192,102628,128,0,102688:0:0:0:50:Sub rhythm.wav
256,192,102688,128,0,102748:0:0:0:50:Sub rhythm.wav
475,192,103108,128,0,104908:0:0:0:40:Bell.wav
36,192,103108,1,0,0:0:0:0:
109,192,103168,1,0,0:0:0:0:
256,192,103228,1,0,0:0:0:0:
329,192,103288,1,0,0:0:0:0:
109,192,103348,1,0,0:0:0:0:
182,192,103408,1,0,0:0:0:0:
329,192,103468,1,0,0:0:0:0:
402,192,103528,1,0,0:0:0:0:
182,192,103588,1,0,0:0:0:0:
256,192,103648,1,0,0:0:0:0:
36,192,103708,1,0,0:0:0:0:
109,192,103768,1,0,0:0:0:0:
256,192,103828,1,0,0:0:0:0:
329,192,103888,1,0,0:0:0:0:
109,192,103948,1,0,0:0:0:0:
182,192,104008,1,0,0:0:0:0:
402,192,104068,1,0,0:0:0:0:
329,192,104128,1,0,0:0:0:0:
182,192,104188,1,0,0:0:0:0:
109,192,104248,1,0,0:0:0:0:
329,192,104308,1,0,0:0:0:0:
256,192,104368,1,0,0:0:0:0:
109,192,104428,1,0,0:0:0:0:
36,192,104488,1,0,0:0:0:0:
256,192,104548,1,0,0:0:0:0:
182,192,104608,1,0,0:0:0:0:
402,192,104668,1,0,0:0:0:0:
329,192,104728,1,0,0:0:0:0:
182,192,104788,1,0,0:0:0:0:
109,192,104848,1,0,0:0:0:0:
402,192,104908,1,0,0:0:0:0:
329,192,104968,1,0,0:0:0:0:
256,192,105028,128,0,105868:0:0:0:40:Bell.wav
36,192,105028,1,0,0:0:0:0:
109,192,105088,1,0,0:0:0:0:
402,192,105148,1,0,0:0:0:0:
475,192,105208,1,0,0:0:0:0:
109,192,105268,1,0,0:0:0:0:
182,192,105328,1,0,0:0:0:0:
329,192,105388,1,0,0:0:0:0:
402,192,105448,1,0,0:0:0:0:
36,192,105508,1,0,0:0:0:0:
109,192,105568,1,0,0:0:0:0:
402,192,105628,1,0,0:0:0:0:
475,192,105688,1,0,0:0:0:0:
109,192,105748,1,0,0:0:0:0:
182,192,105808,1,0,0:0:0:0:
329,192,105868,1,0,0:0:0:0:
402,192,105928,1,0,0:0:0:0:
36,192,105988,128,0,106828:0:0:0:40:Bell.wav
256,192,105988,1,0,0:0:0:0:
475,192,105988,128,0,106108:0:0:0:50:Drum-Snare.wav
109,192,106048,1,0,0:0:0:0:
402,192,106108,1,0,0:0:0:50:Drum-KicK.wav
329,192,106108,1,0,0:0:0:0:
182,192,106168,1,0,0:0:0:0:
256,192,106228,1,0,0:0:0:0:
475,192,106228,128,0,106348:0:0:0:50:Drum-Snare.wav
109,192,106288,1,0,0:0:0:0:
329,192,106348,1,0,0:0:0:0:
182,192,106408,1,0,0:0:0:0:
256,192,106468,1,0,0:0:0:0:
475,192,106468,128,0,106588:0:0:0:50:Drum-Snare.wav
109,192,106528,1,0,0:0:0:0:
329,192,106588,1,0,0:0:0:0:
182,192,106648,1,0,0:0:0:0:
256,192,106708,1,0,0:0:0:0:
475,192,106708,128,0,106828:0:0:0:50:Drum-Snare.wav
109,192,106768,1,0,0:0:0:0:
329,192,106828,1,0,0:0:0:0:
182,192,106888,1,0,0:0:0:0:
475,192,106948,1,0,0:0:0:50:Drum-KicK.wav
256,192,106948,1,0,0:0:0:50:Shorted Crash.wav
402,192,106948,1,0,0:0:0:0:
36,192,106948,1,0,0:0:0:50:Synth.wav
109,192,107008,1,0,0:0:0:0:
402,192,107068,1,0,0:0:0:0:
475,192,107068,1,0,0:0:0:50:Drum-KicK.wav
182,192,107068,1,0,0:0:0:50:Synth.wav
256,192,107128,1,0,0:0:0:0:
36,192,107188,1,0,0:0:0:50:Drum-Snare.wav
329,192,107188,1,0,0:0:0:50:Synth.wav
109,192,107188,1,0,0:0:0:0:
402,192,107248,1,0,0:0:0:0:
475,192,107308,1,0,0:0:0:50:Synth.wav
182,192,107308,1,0,0:0:0:0:
329,192,107368,1,0,0:0:0:0:
36,192,107428,1,0,0:0:0:0:
109,192,107488,1,0,0:0:0:0:
402,192,107548,1,0,0:0:0:0:
182,192,107548,1,0,0:0:0:50:Drum-KicK.wav
329,192,107548,1,0,0:0:0:50:Synth.wav
475,192,107608,1,0,0:0:0:0:
36,192,107668,1,0,0:0:0:50:Drum-Snare.wav
109,192,107668,1,0,0:0:0:0:
256,192,107668,1,0,0:0:0:50:Synth.wav
329,192,107728,1,0,0:0:0:0:
402,192,107788,1,0,0:0:0:0:
182,192,107788,1,0,0:0:0:50:Synth.wav
256,192,107848,1,0,0:0:0:0:
109,192,107908,1,0,0:0:0:0:
36,192,107908,1,0,0:0:0:50:Drum-KicK.wav
475,192,107908,1,0,0:0:0:50:Synth.wav
402,192,107968,1,0,0:0:0:0:
109,192,108028,1,0,0:0:0:0:
36,192,108028,1,0,0:0:0:50:Drum-KicK.wav
329,192,108028,1,0,0:0:0:50:Synth.wav
256,192,108088,1,0,0:0:0:0:
182,192,108148,1,0,0:0:0:50:Synth.wav
402,192,108148,1,0,0:0:0:50:Drum-Snare.wav
475,192,108148,1,0,0:0:0:0:
109,192,108208,1,0,0:0:0:0:
329,192,108268,1,0,0:0:0:0:
36,192,108268,1,0,0:0:0:50:Synth.wav
182,192,108328,1,0,0:0:0:0:
475,192,108388,1,0,0:0:0:0:
402,192,108448,1,0,0:0:0:0:
109,192,108508,1,0,0:0:0:0:
329,192,108508,1,0,0:0:0:50:Drum-KicK.wav
182,192,108508,1,0,0:0:0:50:Synth.wav
36,192,108568,1,0,0:0:0:0:
256,192,108628,1,0,0:0:0:50:Synth.wav
402,192,108628,1,0,0:0:0:50:Drum-Snare.wav
475,192,108628,1,0,0:0:0:0:
182,192,108688,1,0,0:0:0:0:
329,192,108748,1,0,0:0:0:50:Synth.wav
109,192,108748,1,0,0:0:0:0:
256,192,108808,1,0,0:0:0:0:
36,192,108868,1,0,0:0:0:50:Synth.wav
402,192,108868,1,0,0:0:0:50:Drum-KicK.wav
475,192,108868,1,0,0:0:0:0:
109,192,108928,1,0,0:0:0:0:
182,192,108988,1,0,0:0:0:50:Synth.wav
402,192,108988,1,0,0:0:0:50:Drum-KicK.wav
475,192,108988,1,0,0:0:0:0:
256,192,109048,1,0,0:0:0:0:
109,192,109108,1,0,0:0:0:0:
36,192,109108,1,0,0:0:0:50:Drum-Snare.wav
329,192,109108,1,0,0:0:0:50:Synth.wav
182,192,109168,1,0,0:0:0:0:
256,192,109228,1,0,0:0:0:0:
475,192,109228,1,0,0:0:0:50:Synth.wav
329,192,109288,1,0,0:0:0:0:
402,192,109348,1,0,0:0:0:0:
256,192,109408,1,0,0:0:0:0:
109,192,109468,1,0,0:0:0:0:
36,192,109468,1,0,0:0:0:50:Drum-KicK.wav
329,192,109468,1,0,0:0:0:50:Synth.wav
402,192,109528,1,0,0:0:0:0:
475,192,109588,1,0,0:0:0:50:Synth.wav
256,192,109588,1,0,0:0:0:50:Drum-Snare.wav
182,192,109588,1,0,0:0:0:0:
36,192,109648,1,0,0:0:0:0:
109,192,109708,1,0,0:0:0:0:
329,192,109708,1,0,0:0:0:50:Synth.wav
182,192,109768,1,0,0:0:0:0:
475,192,109828,1,0,0:0:0:0:
256,192,109828,1,0,0:0:0:50:Drum-KicK.wav
402,192,109828,1,0,0:0:0:50:Synth.wav
36,192,109828,1,0,0:0:0:0:
402,192,109948,1,0,0:0:0:50:Synth.wav
475,192,109948,1,0,0:0:0:0:
256,192,109948,1,0,0:0:0:50:Drum-KicK.wav
182,192,110068,1,0,0:0:0:0:
329,192,110068,1,0,0:0:0:50:Synth.wav
36,192,110068,1,0,0:0:0:50:Drum-Snare.wav
109,192,110068,1,0,0:0:0:0:
256,192,110188,1,0,0:0:0:50:Drum-KicK.wav
475,192,110188,1,0,0:0:0:0:
402,192,110188,1,0,0:0:0:50:Synth.wav
36,192,110308,1,0,0:0:0:0:
109,192,110308,1,0,0:0:0:70:Drum Roll.wav
182,192,110368,1,0,0:0:0:0:
329,192,110368,1,0,0:0:0:70:Drum Roll.wav
402,192,110428,1,0,0:0:0:50:Drum-KicK.wav
475,192,110428,1,0,0:0:0:70:Drum Roll.wav
329,192,110488,1,0,0:0:0:70:Drum Roll.wav
182,192,110488,1,0,0:0:0:0:
36,192,110548,1,0,0:0:0:0:
109,192,110548,1,0,0:0:0:50:Drum-Snare.wav
256,192,110608,1,0,0:0:0:70:Drum Roll.wav
475,192,110608,1,0,0:0:0:0:
182,192,110668,1,0,0:0:0:50:Drum-KicK.wav
402,192,110668,1,0,0:0:0:70:Drum Roll.wav
109,192,110728,1,0,0:0:0:70:Drum Roll.wav
329,192,110728,1,0,0:0:0:0:
36,192,110788,1,0,0:0:0:0:
475,192,110788,1,0,0:0:0:50:Drum-KicK.wav
256,192,110788,1,0,0:0:0:50:Synth.wav
109,192,110848,1,0,0:0:0:0:
402,192,110908,1,0,0:0:0:0:
475,192,110908,1,0,0:0:0:50:Drum-KicK.wav
182,192,110908,1,0,0:0:0:50:Synth.wav
329,192,110968,1,0,0:0:0:0:
256,192,111028,1,0,0:0:0:50:Synth.wav
109,192,111028,1,0,0:0:0:50:Drum-Snare.wav
36,192,111028,1,0,0:0:0:0:
402,192,111088,1,0,0:0:0:0:
182,192,111148,1,0,0:0:0:50:Synth.wav
475,192,111148,1,0,0:0:0:0:
329,192,111208,1,0,0:0:0:0:
402,192,111268,1,0,0:0:0:0:
256,192,111328,1,0,0:0:0:0:
109,192,111388,1,0,0:0:0:50:Drum-KicK.wav
329,192,111388,1,0,0:0:0:50:Synth.wav
36,192,111388,1,0,0:0:0:0:
182,192,111448,1,0,0:0:0:0:
475,192,111508,1,0,0:0:0:0:
256,192,111508,1,0,0:0:0:50:Drum-Snare.wav
402,192,111508,1,0,0:0:0:50:Synth.wav
36,192,111568,1,0,0:0:0:0:
182,192,111628,1,0,0:0:0:50:Synth.wav
109,192,111628,1,0,0:0:0:0:
329,192,111688,1,0,0:0:0:0:
256,192,111748,1,0,0:0:0:50:Synth.wav
36,192,111748,1,0,0:0:0:50:Drum-KicK.wav
475,192,111748,1,0,0:0:0:0:
402,192,111808,1,0,0:0:0:0:
36,192,111868,1,0,0:0:0:50:Drum-KicK.wav
329,192,111868,1,0,0:0:0:50:Synth.wav
109,192,111868,1,0,0:0:0:0:
182,192,111928,1,0,0:0:0:0:
256,192,111988,1,0,0:0:0:50:Synth.wav
402,192,111988,1,0,0:0:0:50:Drum-Snare.wav
475,192,111988,1,0,0:0:0:0:
109,192,112048,1,0,0:0:0:0:
329,192,112108,1,0,0:0:0:50:Synth.wav
36,192,112108,1,0,0:0:0:0:
182,192,112168,1,0,0:0:0:0:
109,192,112228,1,0,0:0:0:0:
256,192,112288,1,0,0:0:0:0:
182,192,112348,1,0,0:0:0:50:Synth.wav
402,192,112348,1,0,0:0:0:50:Drum-KicK.wav
475,192,112348,1,0,0:0:0:0:
329,192,112408,1,0,0:0:0:0:
256,192,112468,1,0,0:0:0:50:Synth.wav
36,192,112468,1,0,0:0:0:50:Drum-Snare.wav
109,192,112468,1,0,0:0:0:0:
475,192,112528,1,0,0:0:0:0:
329,192,112588,1,0,0:0:0:50:Synth.wav
402,192,112588,1,0,0:0:0:0:
182,192,112648,1,0,0:0:0:0:
36,192,112708,1,0,0:0:0:0:
475,192,112708,1,0,0:0:0:50:Drum-KicK.wav
256,192,112708,1,0,0:0:0:50:Synth.wav
109,192,112768,1,0,0:0:0:0:
402,192,112828,1,0,0:0:0:0:
475,192,112828,1,0,0:0:0:50:Drum-KicK.wav
182,192,112828,1,0,0:0:0:50:Synth.wav
329,192,112888,1,0,0:0:0:0:
36,192,112948,1,0,0:0:0:0:
109,192,112948,1,0,0:0:0:50:Drum-Snare.wav
256,192,112948,1,0,0:0:0:50:Synth.wav
475,192,113008,1,0,0:0:0:0:
182,192,113068,1,0,0:0:0:50:Synth.wav
402,192,113068,1,0,0:0:0:0:
329,192,113128,1,0,0:0:0:0:
256,192,113188,1,0,0:0:0:0:
475,192,113248,1,0,0:0:0:0:
36,192,113308,1,0,0:0:0:0:
182,192,113308,1,0,0:0:0:50:Drum-KicK.wav
402,192,113308,1,0,0:0:0:50:Synth.wav
256,192,113368,1,0,0:0:0:0:
109,192,113428,1,0,0:0:0:50:Synth.wav
329,192,113428,1,0,0:0:0:50:Drum-Snare.wav
475,192,113428,1,0,0:0:0:0:
36,192,113488,1,0,0:0:0:0:
182,192,113548,1,0,0:0:0:0:
256,192,113548,1,0,0:0:0:50:Synth.wav
329,192,113608,1,0,0:0:0:0:
109,192,113668,1,0,0:0:0:50:Drum-KicK.wav
36,192,113668,1,0,0:0:0:0:
475,192,113668,1,0,0:0:0:50:Synth.wav
402,192,113728,1,0,0:0:0:0:
109,192,113788,1,0,0:0:0:50:Drum-KicK.wav
36,192,113788,1,0,0:0:0:0:
329,192,113788,1,0,0:0:0:50:Synth.wav
402,192,113848,1,0,0:0:0:0:
256,192,113908,1,0,0:0:0:0:
182,192,113908,1,0,0:0:0:50:Drum-Snare.wav
475,192,113908,1,0,0:0:0:50:Synth.wav
36,192,113968,1,0,0:0:0:0:
109,192,114028,1,0,0:0:0:50:Synth.wav
402,192,114028,1,0,0:0:0:0:
329,192,114028,1,0,0:0:0:50:Drum-KicK.wav
182,192,114088,1,0,0:0:0:0:
475,192,114148,1,0,0:0:0:0:
402,192,114208,1,0,0:0:0:0:
329,192,114268,1,0,0:0:0:50:Synth.wav
36,192,114268,1,0,0:0:0:0:
109,192,114268,1,0,0:0:0:50:Drum-KicK.wav
402,192,114328,1,0,0:0:0:0:
256,192,114388,1,0,0:0:0:0:
182,192,114388,1,0,0:0:0:50:Drum-Snare.wav
475,192,114388,1,0,0:0:0:50:Synth.wav
36,192,114448,1,0,0:0:0:0:
109,192,114508,1,0,0:0:0:0:
329,192,114508,1,0,0:0:0:50:Synth.wav
182,192,114568,1,0,0:0:0:0:
475,192,114628,1,0,0:0:0:0:
402,192,114628,1,0,0:0:0:50:Drum-KicK.wav
256,192,114628,1,0,0:0:0:50:Synth.wav
109,192,114688,1,0,0:0:0:0:
182,192,114748,1,0,0:0:0:50:Synth.wav
402,192,114748,1,0,0:0:0:50:Drum-KicK.wav
475,192,114748,1,0,0:0:0:0:
256,192,114808,1,0,0:0:0:0:
329,192,114868,1,0,0:0:0:50:Synth.wav
109,192,114868,1,0,0:0:0:50:Drum-Snare.wav
36,192,114868,1,0,0:0:0:0:
402,192,114928,1,0,0:0:0:0:
182,192,114988,1,0,0:0:0:0:
475,192,114988,1,0,0:0:0:50:Synth.wav
329,192,115048,1,0,0:0:0:0:
256,192,115108,1,0,0:0:0:0:
402,192,115168,1,0,0:0:0:0:
329,192,115228,1,0,0:0:0:50:Synth.wav
109,192,115228,1,0,0:0:0:50:Drum-KicK.wav
36,192,115228,1,0,0:0:0:0:
475,192,115288,1,0,0:0:0:0:
402,192,115348,1,0,0:0:0:50:Synth.wav
182,192,115348,1,0,0:0:0:50:Drum-Snare.wav
256,192,115348,1,0,0:0:0:0:
36,192,115408,1,0,0:0:0:0:
109,192,115468,1,0,0:0:0:0:
329,192,115468,1,0,0:0:0:50:Synth.wav
182,192,115528,1,0,0:0:0:0:
402,192,115588,1,0,0:0:0:50:Drum-KicK.wav
475,192,115588,1,0,0:0:0:0:
256,192,115588,1,0,0:0:0:50:Synth.wav
109,192,115648,1,0,0:0:0:0:
182,192,115708,1,0,0:0:0:50:Synth.wav
402,192,115708,1,0,0:0:0:50:Drum-KicK.wav
475,192,115708,1,0,0:0:0:0:
256,192,115768,1,0,0:0:0:0:
109,192,115828,1,0,0:0:0:50:Drum-Snare.wav
329,192,115828,1,0,0:0:0:50:Synth.wav
36,192,115828,1,0,0:0:0:0:
402,192,115888,1,0,0:0:0:0:
475,192,115948,1,0,0:0:0:50:Synth.wav
182,192,115948,1,0,0:0:0:0:
109,192,116008,1,0,0:0:0:0:
256,192,116068,1,0,0:0:0:0:
182,192,116128,1,0,0:0:0:0:
329,192,116188,1,0,0:0:0:50:Synth.wav
109,192,116188,1,0,0:0:0:50:Drum-KicK.wav
36,192,116188,1,0,0:0:0:0:
256,192,116248,1,0,0:0:0:0:
402,192,116308,1,0,0:0:0:50:Synth.wav
182,192,116308,1,0,0:0:0:50:Drum-Snare.wav
475,192,116308,1,0,0:0:0:0:
36,192,116368,1,0,0:0:0:0:
109,192,116428,1,0,0:0:0:0:
329,192,116428,1,0,0:0:0:50:Synth.wav
182,192,116488,1,0,0:0:0:0:
256,192,116548,1,0,0:0:0:50:Synth.wav
402,192,116548,1,0,0:0:0:50:Drum-KicK.wav
475,192,116548,1,0,0:0:0:0:
109,192,116608,1,0,0:0:0:0:
182,192,116668,1,0,0:0:0:50:Synth.wav
402,192,116668,1,0,0:0:0:50:Drum-KicK.wav
475,192,116668,1,0,0:0:0:0:
256,192,116728,1,0,0:0:0:0:
36,192,116788,1,0,0:0:0:0:
109,192,116788,1,0,0:0:0:50:Drum-Snare.wav
329,192,116788,1,0,0:0:0:50:Synth.wav
402,192,116848,1,0,0:0:0:0:
475,192,116908,1,0,0:0:0:50:Synth.wav
256,192,116908,1,0,0:0:0:0:
182,192,116968,1,0,0:0:0:0:
329,192,117028,1,0,0:0:0:0:
256,192,117088,1,0,0:0:0:0:
402,192,117148,1,0,0:0:0:50:Synth.wav
109,192,117148,1,0,0:0:0:50:Drum-KicK.wav
36,192,117148,1,0,0:0:0:0:
329,192,117208,1,0,0:0:0:0:
256,192,117268,1,0,0:0:0:0:
182,192,117268,1,0,0:0:0:50:Drum-Snare.wav
475,192,117268,1,0,0:0:0:50:Synth.wav
36,192,117328,1,0,0:0:0:0:
109,192,117388,1,0,0:0:0:0:
329,192,117388,1,0,0:0:0:50:Synth.wav
182,192,117448,1,0,0:0:0:0:
256,192,117508,1,0,0:0:0:0:
402,192,117508,1,0,0:0:0:50:Drum-KicK.wav
475,192,117508,1,0,0:0:0:0:
36,192,117508,1,0,0:0:0:0:
256,192,117628,1,0,0:0:0:0:
402,192,117628,1,0,0:0:0:50:Drum-KicK.wav
475,192,117628,1,0,0:0:0:0:
182,192,117748,1,0,0:0:0:0:
329,192,117748,1,0,0:0:0:50:Drum-Snare.wav
36,192,117748,1,0,0:0:0:0:
109,192,117748,1,0,0:0:0:0:
475,192,117868,1,0,0:0:0:0:
402,192,117868,1,0,0:0:0:50:Drum-KicK.wav
256,192,117868,1,0,0:0:0:0:
109,192,117988,1,0,0:0:0:0:
182,192,117988,1,0,0:0:0:70:Drum Roll.wav
475,192,118048,1,0,0:0:0:70:Drum Roll.wav
402,192,118048,1,0,0:0:0:0:
36,192,118108,1,0,0:0:0:50:Drum-KicK.wav
109,192,118108,1,0,0:0:0:70:Drum Roll.wav
329,192,118168,1,0,0:0:0:70:Drum Roll.wav
402,192,118168,1,0,0:0:0:0:
475,192,118228,1,0,0:0:0:50:Drum-Snare.wav
182,192,118228,1,0,0:0:0:70:Drum Roll.wav
256,192,118288,1,0,0:0:0:70:Drum Roll.wav
36,192,118288,1,0,0:0:0:0:
329,192,118348,1,0,0:0:0:70:Drum Roll.wav
109,192,118348,1,0,0:0:0:50:Drum-KicK.wav
402,192,118408,1,0,0:0:0:70:Drum Roll.wav
182,192,118408,1,0,0:0:0:0:
36,192,118468,1,0,0:0:0:50:Drum-KicK.wav
256,192,118468,1,0,0:0:0:50:Synth.wav
475,192,118468,1,0,0:0:0:50:Shorted Crash.wav
109,192,118468,1,0,0:0:0:0:
329,192,118528,1,0,0:0:0:0:
402,192,118588,1,0,0:0:0:50:Synth.wav
36,192,118588,1,0,0:0:0:50:Drum-KicK.wav
109,192,118588,1,0,0:0:0:0:
475,192,118648,1,0,0:0:0:0:
182,192,118708,1,0,0:0:0:0:
256,192,118708,1,0,0:0:0:50:Drum-Snare.wav
329,192,118708,1,0,0:0:0:50:Synth.wav
36,192,118768,1,0,0:0:0:0:
109,192,118828,1,0,0:0:0:0:
402,192,118828,1,0,0:0:0:50:Synth.wav
182,192,118888,1,0,0:0:0:0:
475,192,118948,1,0,0:0:0:0:
256,192,119008,1,0,0:0:0:0:
36,192,119068,1,0,0:0:0:0:
109,192,119068,1,0,0:0:0:50:Drum-KicK.wav
329,192,119068,1,0,0:0:0:50:Synth.wav
402,192,119128,1,0,0:0:0:0:
475,192,119188,1,0,0:0:0:50:Synth.wav
36,192,119188,1,0,0:0:0:50:Drum-Snare.wav
256,192,119188,1,0,0:0:0:0:
109,192,119248,1,0,0:0:0:0:
329,192,119308,1,0,0:0:0:50:Synth.wav
182,192,119308,1,0,0:0:0:0:
36,192,119368,1,0,0:0:0:0:
402,192,119428,1,0,0:0:0:50:Drum-KicK.wav
256,192,119428,1,0,0:0:0:50:Synth.wav
475,192,119428,1,0,0:0:0:0:
182,192,119488,1,0,0:0:0:0:
475,192,119548,1,0,0:0:0:0:
402,192,119548,1,0,0:0:0:50:Drum-KicK.wav
109,192,119548,1,0,0:0:0:50:Synth.wav
36,192,119608,1,0,0:0:0:0:
182,192,119668,1,0,0:0:0:50:Synth.wav
256,192,119668,1,0,0:0:0:50:Drum-Snare.wav
329,192,119668,1,0,0:0:0:0:
475,192,119728,1,0,0:0:0:0:
109,192,119788,1,0,0:0:0:50:Synth.wav
402,192,119788,1,0,0:0:0:0:
329,192,119848,1,0,0:0:0:0:
36,192,119908,1,0,0:0:0:0:
256,192,119968,1,0,0:0:0:0:
475,192,120028,1,0,0:0:0:0:
402,192,120028,1,0,0:0:0:50:Drum-KicK.wav
182,192,120028,1,0,0:0:0:50:Synth.wav
109,192,120088,1,0,0:0:0:0:
256,192,120148,1,0,0:0:0:0:
475,192,120148,1,0,0:0:0:50:Drum-Snare.wav
36,192,120148,1,0,0:0:0:50:Synth.wav
402,192,120208,1,0,0:0:0:0:
329,192,120268,1,0,0:0:0:0:
182,192,120268,1,0,0:0:0:50:Synth.wav
475,192,120328,1,0,0:0:0:0:
256,192,120388,1,0,0:0:0:50:Synth.wav
109,192,120388,1,0,0:0:0:50:Drum-KicK.wav
36,192,120388,1,0,0:0:0:0:
329,192,120448,1,0,0:0:0:0:
36,192,120508,1,0,0:0:0:0:
109,192,120508,1,0,0:0:0:50:Drum-KicK.wav
402,192,120508,1,0,0:0:0:50:Synth.wav
475,192,120568,1,0,0:0:0:0:
329,192,120628,1,0,0:0:0:50:Synth.wav
256,192,120628,1,0,0:0:0:50:Drum-Snare.wav
182,192,120628,1,0,0:0:0:0:
36,192,120688,1,0,0:0:0:0:
109,192,120748,1,0,0:0:0:0:
402,192,120748,1,0,0:0:0:50:Synth.wav
182,192,120808,1,0,0:0:0:0:
329,192,120868,1,0,0:0:0:0:
402,192,120928,1,0,0:0:0:0:
109,192,120988,1,0,0:0:0:50:Synth.wav
475,192,120988,1,0,0:0:0:50:Drum-KicK.wav
256,192,120988,1,0,0:0:0:0:
36,192,121048,1,0,0:0:0:0:
329,192,121108,1,0,0:0:0:0:
475,192,121108,1,0,0:0:0:50:Drum-Snare.wav
182,192,121108,1,0,0:0:0:50:Synth.wav
109,192,121168,1,0,0:0:0:0:
256,192,121228,1,0,0:0:0:50:Synth.wav
402,192,121228,1,0,0:0:0:0:
182,192,121288,1,0,0:0:0:0:
109,192,121348,1,0,0:0:0:0:
36,192,121348,1,0,0:0:0:50:Drum-KicK.wav
329,192,121348,1,0,0:0:0:50:Synth.wav
402,192,121408,1,0,0:0:0:0:
475,192,121468,1,0,0:0:0:50:Synth.wav
36,192,121468,1,0,0:0:0:50:Drum-KicK.wav
109,192,121468,1,0,0:0:0:0:
402,192,121528,1,0,0:0:0:0:
182,192,121588,1,0,0:0:0:50:Synth.wav
329,192,121588,1,0,0:0:0:50:Drum-Snare.wav
256,192,121588,1,0,0:0:0:0:
36,192,121648,1,0,0:0:0:0:
402,192,121708,1,0,0:0:0:0:
475,192,121708,1,0,0:0:0:50:Drum-KicK.wav
109,192,121708,1,0,0:0:0:50:Synth.wav
182,192,121768,1,0,0:0:0:0:
329,192,121828,1,0,0:0:0:0:
402,192,121888,1,0,0:0:0:0:
475,192,121948,1,0,0:0:0:50:Synth.wav
109,192,121948,1,0,0:0:0:50:Drum-KicK.wav
36,192,121948,1,0,0:0:0:0:
402,192,122008,1,0,0:0:0:0:
329,192,122068,1,0,0:0:0:50:Drum-Snare.wav
182,192,122068,1,0,0:0:0:0:
256,192,122068,1,0,0:0:0:50:Synth.wav
36,192,122128,1,0,0:0:0:0:
402,192,122188,1,0,0:0:0:50:Synth.wav
109,192,122188,1,0,0:0:0:0:
182,192,122248,1,0,0:0:0:0:
256,192,122308,1,0,0:0:0:0:
36,192,122308,1,0,0:0:0:50:Drum-KicK.wav
475,192,122308,1,0,0:0:0:50:Synth.wav
329,192,122368,1,0,0:0:0:0:
402,192,122428,1,0,0:0:0:50:Synth.wav
36,192,122428,1,0,0:0:0:50:Drum-KicK.wav
182,192,122428,1,0,0:0:0:0:
475,192,122488,1,0,0:0:0:0:
329,192,122548,1,0,0:0:0:50:Synth.wav
109,192,122548,1,0,0:0:0:50:Drum-Snare.wav
256,192,122548,1,0,0:0:0:0:
36,192,122608,1,0,0:0:0:0:
182,192,122668,1,0,0:0:0:0:
402,192,122668,1,0,0:0:0:50:Synth.wav
109,192,122728,1,0,0:0:0:0:
256,192,122788,1,0,0:0:0:0:
402,192,122848,1,0,0:0:0:0:
182,192,122908,1,0,0:0:0:0:
36,192,122908,1,0,0:0:0:50:Drum-KicK.wav
329,192,122908,1,0,0:0:0:50:Synth.wav
475,192,122968,1,0,0:0:0:0:
402,192,123028,1,0,0:0:0:50:Synth.wav
36,192,123028,1,0,0:0:0:50:Drum-Snare.wav
182,192,123028,1,0,0:0:0:0:
256,192,123088,1,0,0:0:0:0:
329,192,123148,1,0,0:0:0:50:Synth.wav
109,192,123148,1,0,0:0:0:0:
402,192,123208,1,0,0:0:0:0:
256,192,123268,1,0,0:0:0:0:
475,192,123268,1,0,0:0:0:50:Drum-KicK.wav
36,192,123268,1,0,0:0:0:50:Synth.wav
182,192,123328,1,0,0:0:0:0:
109,192,123388,1,0,0:0:0:50:Synth.wav
475,192,123388,1,0,0:0:0:50:Drum-KicK.wav
329,192,123388,1,0,0:0:0:0:
36,192,123448,1,0,0:0:0:0:
402,192,123508,1,0,0:0:0:0:
256,192,123508,1,0,0:0:0:50:Drum-Snare.wav
182,192,123508,1,0,0:0:0:50:Synth.wav
475,192,123568,1,0,0:0:0:0:
329,192,123628,1,0,0:0:0:0:
109,192,123628,1,0,0:0:0:50:Synth.wav
402,192,123688,1,0,0:0:0:0:
256,192,123748,1,0,0:0:0:0:
109,192,123808,1,0,0:0:0:0:
182,192,123868,1,0,0:0:0:50:Synth.wav
329,192,123868,1,0,0:0:0:50:Drum-KicK.wav
475,192,123868,1,0,0:0:0:0:
36,192,123928,1,0,0:0:0:0:
475,192,123988,1,0,0:0:0:0:
329,192,123988,1,0,0:0:0:50:Drum-Snare.wav
109,192,123988,1,0,0:0:0:50:Synth.wav
256,192,124048,1,0,0:0:0:0:
182,192,124108,1,0,0:0:0:50:Synth.wav
402,192,124108,1,0,0:0:0:0:
109,192,124168,1,0,0:0:0:0:
256,192,124228,1,0,0:0:0:50:Synth.wav
36,192,124228,1,0,0:0:0:50:Drum-KicK.wav
475,192,124228,1,0,0:0:0:0:
329,192,124288,1,0,0:0:0:0:
109,192,124348,1,0,0:0:0:0:
36,192,124348,1,0,0:0:0:50:Drum-KicK.wav
402,192,124348,1,0,0:0:0:50:Synth.wav
475,192,124408,1,0,0:0:0:0:
182,192,124468,1,0,0:0:0:0:
256,192,124468,1,0,0:0:0:50:Drum-Snare.wav
329,192,124468,1,0,0:0:0:50:Synth.wav
36,192,124528,1,0,0:0:0:0:
109,192,124588,1,0,0:0:0:0:
402,192,124588,1,0,0:0:0:50:Synth.wav
182,192,124648,1,0,0:0:0:0:
256,192,124708,1,0,0:0:0:0:
329,192,124768,1,0,0:0:0:0:
402,192,124828,1,0,0:0:0:50:Synth.wav
36,192,124828,1,0,0:0:0:50:Drum-KicK.wav
109,192,124828,1,0,0:0:0:0:
475,192,124888,1,0,0:0:0:0:
109,192,124948,1,0,0:0:0:0:
36,192,124948,1,0,0:0:0:50:Drum-Snare.wav
256,192,124948,1,0,0:0:0:50:Synth.wav
402,192,125008,1,0,0:0:0:0:
182,192,125068,1,0,0:0:0:50:Synth.wav
329,192,125068,1,0,0:0:0:0:
475,192,125128,1,0,0:0:0:0:
256,192,125188,5,0,0:0:0:50:Drum-KicK.wav
109,192,125188,1,0,0:0:0:50:Synth.wav
36,192,125188,1,0,0:0:0:0:
402,192,125188,1,0,0:0:0:0:
109,192,125308,1,0,0:0:0:50:Synth.wav
36,192,125308,1,0,0:0:0:0:
256,192,125308,1,0,0:0:0:50:Drum-KicK.wav
182,192,125428,1,0,0:0:0:50:Synth.wav
402,192,125428,1,0,0:0:0:50:Drum-Snare.wav
475,192,125428,1,0,0:0:0:0:
329,192,125428,1,0,0:0:0:0:
109,192,125548,1,0,0:0:0:50:Synth.wav
36,192,125548,1,0,0:0:0:0:
256,192,125548,1,0,0:0:0:50:Drum-KicK.wav
182,192,125668,1,0,0:0:0:0:
329,192,125668,1,0,0:0:0:70:Drum Roll.wav
402,192,125728,1,0,0:0:0:70:Drum Roll.wav
36,192,125728,1,0,0:0:0:0:
182,192,125788,1,0,0:0:0:70:Drum Roll.wav
109,192,125788,1,0,0:0:0:50:Drum-KicK.wav
402,192,125848,1,0,0:0:0:70:Drum Roll.wav
256,192,125848,1,0,0:0:0:0:
36,192,125908,1,0,0:0:0:50:Drum-Snare.wav
475,192,125908,1,0,0:0:0:70:Drum Roll.wav
109,192,125968,1,0,0:0:0:70:Drum Roll.wav
329,192,125968,1,0,0:0:0:0:
182,192,126028,1,0,0:0:0:70:Drum Roll.wav
402,192,126028,1,0,0:0:0:50:Drum-KicK.wav
256,192,126088,1,0,0:0:0:70:Drum Roll.wav
475,192,126088,1,0,0:0:0:0:
109,192,126148,1,0,0:0:0:0:
329,192,126148,1,0,0:0:0:50:Synth.wav
36,192,126148,1,0,0:0:0:50:Drum-KicK.wav
182,192,126208,1,0,0:0:0:0:
256,192,126268,1,0,0:0:0:50:Synth.wav
36,192,126268,1,0,0:0:0:50:Drum-KicK.wav
475,192,126268,1,0,0:0:0:0:
329,192,126328,1,0,0:0:0:0:
402,192,126388,1,0,0:0:0:50:Synth.wav
109,192,126388,1,0,0:0:0:50:Drum-Snare.wav
182,192,126388,1,0,0:0:0:0:
475,192,126448,1,0,0:0:0:0:
36,192,126508,1,0,0:0:0:0:
329,192,126508,1,0,0:0:0:50:Synth.wav
182,192,126568,1,0,0:0:0:0:
402,192,126628,1,0,0:0:0:0:
256,192,126688,1,0,0:0:0:0:
475,192,126748,1,0,0:0:0:50:Synth.wav
109,192,126748,1,0,0:0:0:50:Drum-KicK.wav
36,192,126748,1,0,0:0:0:0:
329,192,126808,1,0,0:0:0:0:
109,192,126868,1,0,0:0:0:0:
182,192,126868,1,0,0:0:0:50:Drum-Snare.wav
402,192,126868,1,0,0:0:0:50:Synth.wav
256,192,126928,1,0,0:0:0:0:
36,192,126988,1,0,0:0:0:0:
329,192,126988,1,0,0:0:0:50:Synth.wav
109,192,127048,1,0,0:0:0:0:
475,192,127108,1,0,0:0:0:50:Drum-KicK.wav
182,192,127108,1,0,0:0:0:50:Synth.wav
402,192,127108,1,0,0:0:0:0:
329,192,127168,1,0,0:0:0:0:
36,192,127228,1,0,0:0:0:0:
475,192,127228,1,0,0:0:0:50:Drum-KicK.wav
256,192,127228,1,0,0:0:0:50:Synth.wav
182,192,127288,1,0,0:0:0:0:
402,192,127348,1,0,0:0:0:0:
329,192,127348,1,0,0:0:0:50:Drum-Snare.wav
109,192,127348,1,0,0:0:0:50:Synth.wav
36,192,127408,1,0,0:0:0:0:
182,192,127468,1,0,0:0:0:50:Synth.wav
475,192,127468,1,0,0:0:0:0:
329,192,127528,1,0,0:0:0:0:
109,192,127588,1,0,0:0:0:0:
256,192,127648,1,0,0:0:0:0:
36,192,127708,1,0,0:0:0:50:Synth.wav
402,192,127708,1,0,0:0:0:50:Drum-KicK.wav
475,192,127708,1,0,0:0:0:0:
182,192,127768,1,0,0:0:0:0:
329,192,127828,1,0,0:0:0:0:
402,192,127828,1,0,0:0:0:50:Drum-Snare.wav
109,192,127828,1,0,0:0:0:50:Synth.wav
256,192,127888,1,0,0:0:0:0:
182,192,127948,1,0,0:0:0:50:Synth.wav
475,192,127948,1,0,0:0:0:0:
402,192,128008,1,0,0:0:0:0:
109,192,128068,1,0,0:0:0:50:Drum-KicK.wav
36,192,128068,1,0,0:0:0:0:
329,192,128068,1,0,0:0:0:50:Synth.wav
182,192,128128,1,0,0:0:0:0:
475,192,128188,1,0,0:0:0:0:
36,192,128188,1,0,0:0:0:50:Drum-KicK.wav
256,192,128188,1,0,0:0:0:50:Synth.wav
329,192,128248,1,0,0:0:0:0:
402,192,128308,1,0,0:0:0:50:Synth.wav
109,192,128308,1,0,0:0:0:50:Drum-Snare.wav
182,192,128308,1,0,0:0:0:0:
475,192,128368,1,0,0:0:0:0:
256,192,128428,1,0,0:0:0:0:
36,192,128428,1,0,0:0:0:50:Synth.wav
182,192,128488,1,0,0:0:0:0:
329,192,128548,1,0,0:0:0:0:
475,192,128608,1,0,0:0:0:0:
109,192,128668,1,0,0:0:0:0:
36,192,128668,1,0,0:0:0:50:Drum-KicK.wav
256,192,128668,1,0,0:0:0:50:Synth.wav
329,192,128728,1,0,0:0:0:0:
475,192,128788,1,0,0:0:0:0:
36,192,128788,1,0,0:0:0:50:Drum-Snare.wav
402,192,128788,1,0,0:0:0:50:Synth.wav
182,192,128848,1,0,0:0:0:0:
109,192,128908,1,0,0:0:0:0:
329,192,128908,1,0,0:0:0:50:Synth.wav
256,192,128968,1,0,0:0:0:0:
402,192,129028,1,0,0:0:0:50:Drum-KicK.wav
475,192,129028,1,0,0:0:0:0:
36,192,129028,1,0,0:0:0:50:Synth.wav
109,192,129088,1,0,0:0:0:0:
182,192,129148,1,0,0:0:0:50:Synth.wav
402,192,129148,1,0,0:0:0:50:Drum-KicK.wav
475,192,129148,1,0,0:0:0:0:
109,192,129208,1,0,0:0:0:0:
256,192,129268,1,0,0:0:0:0:
329,192,129268,1,0,0:0:0:50:Drum-Snare.wav
36,192,129268,1,0,0:0:0:50:Synth.wav
475,192,129328,1,0,0:0:0:0:
402,192,129388,1,0,0:0:0:50:Synth.wav
109,192,129388,1,0,0:0:0:0:
182,192,129388,1,0,0:0:0:50:Drum-KicK.wav
329,192,129448,1,0,0:0:0:0:
36,192,129508,1,0,0:0:0:0:
109,192,129568,1,0,0:0:0:0:
402,192,129628,1,0,0:0:0:50:Drum-KicK.wav
475,192,129628,1,0,0:0:0:50:Synth.wav
182,192,129628,1,0,0:0:0:0:
109,192,129688,1,0,0:0:0:0:
256,192,129748,1,0,0:0:0:50:Synth.wav
329,192,129748,1,0,0:0:0:50:Drum-Snare.wav
36,192,129748,1,0,0:0:0:0:
475,192,129808,1,0,0:0:0:0:
402,192,129868,1,0,0:0:0:0:
182,192,129868,1,0,0:0:0:50:Synth.wav
329,192,129928,1,0,0:0:0:0:
36,192,129988,1,0,0:0:0:50:Drum-KicK.wav
109,192,129988,1,0,0:0:0:0:
256,192,129988,128,0,130108:0:0:0:0:
475,192,129988,128,0,130108:0:0:0:0:
402,192,130108,128,0,130228:0:0:0:0:
329,192,130108,128,0,130228:0:0:0:0:
109,192,130228,1,0,0:0:0:0:
36,192,130228,1,0,0:0:0:50:Drum-Snare.wav
256,192,130228,1,0,0:0:0:0:
475,192,130228,1,0,0:0:0:0:
109,192,130348,1,0,0:0:0:0:
475,192,130348,1,0,0:0:0:0:
36,192,130348,1,0,0:0:0:50:Drum-KicK.wav
256,192,130348,1,0,0:0:0:0:
475,192,130708,5,0,0:0:0:50:Drum-KicK.wav
402,192,130708,1,0,0:0:0:0:
182,192,130708,128,0,130828:0:0:0:0:
109,192,130708,128,0,130828:0:0:0:0:
36,192,130828,128,0,130948:0:0:0:0:
256,192,130828,128,0,130948:0:0:0:0:
182,192,130948,1,0,0:0:0:0:
109,192,130948,1,0,0:0:0:0:
475,192,130948,1,0,0:0:0:50:Drum-Snare.wav
402,192,130948,1,0,0:0:0:0:
182,192,131068,1,0,0:0:0:0:
109,192,131068,1,0,0:0:0:0:
475,192,131068,1,0,0:0:0:50:Drum-KicK.wav
402,192,131068,1,0,0:0:0:0:
256,192,131428,5,0,0:0:0:50:Drum-KicK.wav
36,192,131428,1,0,0:0:0:0:
402,192,131428,128,0,131548:0:0:0:0:
475,192,131428,128,0,131548:0:0:0:0:
109,192,131548,128,0,131668:0:0:0:0:
182,192,131548,128,0,131668:0:0:0:0:
475,192,131668,1,0,0:0:0:0:
402,192,131668,1,0,0:0:0:0:
36,192,131668,1,0,0:0:0:0:
256,192,131668,1,0,0:0:0:50:Drum-Snare.wav
36,192,131788,128,0,132508:0:0:0:0:
329,192,131788,1,0,0:0:0:50:Drum-KicK.wav
109,192,131788,1,0,0:0:0:0:
182,192,131848,1,0,0:0:0:0:
402,192,131848,1,0,0:0:0:50:Drum-KicK.wav
475,192,131908,1,0,0:0:0:50:Drum-KicK.wav
256,192,131908,1,0,0:0:0:0:
475,192,132028,1,0,0:0:0:50:Drum-KicK.wav
256,192,132028,1,0,0:0:0:0:
109,192,132148,1,0,0:0:0:0:
402,192,132148,1,0,0:0:0:50:Drum-Snare.wav
182,192,132148,1,0,0:0:0:0:
475,192,132268,1,0,0:0:0:50:Drum-KicK.wav
329,192,132268,1,0,0:0:0:0:
256,192,132268,128,0,132508:0:0:0:0:
475,192,132508,1,0,0:0:0:50:Drum-KicK.wav
329,192,132508,1,0,0:0:0:0:
182,192,132508,128,0,132628:0:0:0:0:
256,192,132628,1,0,0:0:0:0:
475,192,132628,1,0,0:0:0:50:Drum-Snare.wav
36,192,132628,1,0,0:0:0:0:
109,192,132628,1,0,0:0:0:0:
402,192,132688,1,0,0:0:0:0:
329,192,132748,128,0,132868:0:0:0:0:
109,192,132868,1,0,0:0:0:50:Drum-KicK.wav
182,192,132868,1,0,0:0:0:0:
109,192,132988,1,0,0:0:0:50:Drum-KicK.wav
329,192,132988,128,0,133108:0:0:0:0:
182,192,132988,1,0,0:0:0:0:
36,192,133108,1,0,0:0:0:50:Drum-Snare.wav
402,192,133108,1,0,0:0:0:0:
182,192,133138,1,0,0:0:0:0:
329,192,133168,1,0,0:0:0:0:
475,192,133198,1,0,0:0:0:0:
109,192,133228,1,0,0:0:0:50:Drum-KicK.wav
256,192,133228,128,0,133468:0:0:0:0:
402,192,133468,1,0,0:0:0:0:
475,192,133468,1,0,0:0:0:50:Drum-KicK.wav
36,192,133468,1,0,0:0:0:0:
109,192,133468,1,0,0:0:0:0:
402,192,133588,1,0,0:0:0:50:Drum-Snare.wav
182,192,133588,1,0,0:0:0:0:
329,192,133588,1,0,0:0:0:0:
109,192,133588,1,0,0:0:0:0:
256,192,133708,1,0,0:0:0:0:
182,192,133708,1,0,0:0:0:0:
329,192,133708,1,0,0:0:0:0:
109,192,133828,1,0,0:0:0:0:
256,192,133828,1,0,0:0:0:50:Drum-Snare.wav
475,192,133828,1,0,0:0:0:50:Synth.wav
402,192,133828,1,0,0:0:0:0:
36,192,133828,1,0,0:0:0:40:Bell.wav
109,192,133948,128,0,134068:0:0:0:0:
36,192,133948,128,0,134068:0:0:0:50:Synth.wav
182,192,134068,1,0,0:0:0:0:
402,192,134068,1,0,0:0:0:0:
329,192,134068,1,0,0:0:0:0:
475,192,134068,1,0,0:0:0:50:Synth.wav
256,192,134068,1,0,0:0:0:50:Drum-Snare.wav
475,192,134188,128,0,134308:0:0:0:50:Synth.wav
402,192,134188,128,0,134308:0:0:0:0:
329,192,134308,1,0,0:0:0:0:
182,192,134308,1,0,0:0:0:0:
109,192,134308,1,0,0:0:0:0:
256,192,134308,1,0,0:0:0:50:Drum-Snare.wav
36,192,134308,1,0,0:0:0:0:
329,192,134428,1,0,0:0:0:0:
475,192,134548,1,0,0:0:0:0:
402,192,134548,1,0,0:0:0:0:
109,192,134548,1,0,0:0:0:0:
256,192,134548,1,0,0:0:0:50:Drum-Snare.wav
36,192,134548,1,0,0:0:0:50:Synth.wav
36,192,134668,128,0,134788:0:0:0:50:Synth.wav
109,192,134668,128,0,134788:0:0:0:0:
182,192,134788,1,0,0:0:0:0:
329,192,134788,1,0,0:0:0:0:
402,192,134788,1,0,0:0:0:0:
256,192,134788,1,0,0:0:0:50:Drum-Snare.wav
475,192,134788,1,0,0:0:0:50:Synth.wav
402,192,134908,128,0,135028:0:0:0:0:
475,192,134908,128,0,135028:0:0:0:50:Synth.wav
109,192,135028,1,0,0:0:0:0:
329,192,135028,1,0,0:0:0:50:Synth.wav
182,192,135028,1,0,0:0:0:0:
36,192,135028,1,0,0:0:0:50:Drum-Snare.wav
256,192,135028,1,0,0:0:0:0:
329,192,135148,128,0,135268:0:0:0:50:Synth.wav
36,192,135148,128,0,135268:0:0:0:0:
182,192,135268,1,0,0:0:0:0:
256,192,135268,1,0,0:0:0:0:
475,192,135268,1,0,0:0:0:0:
109,192,135268,1,0,0:0:0:50:Drum-Snare.wav
402,192,135268,1,0,0:0:0:50:Synth.wav
402,192,135388,128,0,135508:0:0:0:50:Synth.wav
109,192,135388,128,0,135508:0:0:0:0:
182,192,135508,1,0,0:0:0:50:Drum-Snare.wav
36,192,135508,1,0,0:0:0:40:Bell.wav
329,192,135508,1,0,0:0:0:0:
475,192,135508,1,0,0:0:0:50:Synth.wav
256,192,135508,1,0,0:0:0:0:
182,192,135628,128,0,135748:0:0:0:0:
475,192,135628,128,0,135748:0:0:0:50:Synth.wav
36,192,135748,1,0,0:0:0:70:Drum Roll.wav
256,192,135748,1,0,0:0:0:50:Drum-Snare.wav
402,192,135748,1,0,0:0:0:40:Bell.wav
329,192,135748,1,0,0:0:0:0:
109,192,135808,1,0,0:0:0:70:Drum Roll.wav
402,192,135868,1,0,0:0:0:0:
182,192,135868,1,0,0:0:0:70:Drum Roll.wav
256,192,135928,1,0,0:0:0:70:Drum Roll.wav
329,192,135988,1,0,0:0:0:0:
475,192,135988,1,0,0:0:0:0:
36,192,135988,1,0,0:0:0:50:Drum-Snare.wav
109,192,135988,1,0,0:0:0:70:Drum Roll.wav
182,192,136048,1,0,0:0:0:70:Drum Roll.wav
402,192,136108,1,0,0:0:0:0:
256,192,136108,1,0,0:0:0:70:Drum Roll.wav
36,192,136168,1,0,0:0:0:70:Drum Roll.wav
109,192,136228,1,0,0:0:0:50:Drum-Snare.wav
256,192,136228,1,0,0:0:0:0:
475,192,136228,1,0,0:0:0:40:Bell.wav
182,192,136228,1,0,0:0:0:70:Drum Roll.wav
402,192,136288,1,0,0:0:0:70:Drum Roll.wav
109,192,136348,1,0,0:0:0:70:Drum Roll.wav
329,192,136348,1,0,0:0:0:0:
256,192,136408,1,0,0:0:0:70:Drum Roll.wav
402,192,136468,1,0,0:0:0:0:
475,192,136468,1,0,0:0:0:50:Drum-Snare.wav
36,192,136468,1,0,0:0:0:70:Drum Roll.wav
182,192,136468,1,0,0:0:0:0:
329,192,136528,5,0,0:0:0:70:Drum Roll.wav
256,192,136588,1,0,0:0:0:70:Drum Roll.wav
109,192,136588,1,0,0:0:0:0:
475,192,136648,1,0,0:0:0:70:Drum Roll.wav
256,192,136708,1,0,0:0:0:50:Drum-Snare.wav
329,192,136708,1,0,0:0:0:0:
402,192,136708,1,0,0:0:0:40:Bell.wav
36,192,136708,1,0,0:0:0:70:Drum Roll.wav
109,192,136768,1,0,0:0:0:70:Drum Roll.wav
182,192,136828,1,0,0:0:0:70:Drum Roll.wav
402,192,136828,1,0,0:0:0:0:
329,192,136888,1,0,0:0:0:70:Drum Roll.wav
475,192,136948,1,0,0:0:0:70:Drum Roll.wav
109,192,136948,1,0,0:0:0:0:
36,192,136948,1,0,0:0:0:0:
256,192,136948,1,0,0:0:0:50:Drum-Snare.wav
402,192,137008,1,0,0:0:0:70:Drum Roll.wav
182,192,137068,1,0,0:0:0:0:
329,192,137068,1,0,0:0:0:70:Drum Roll.wav
109,192,137128,1,0,0:0:0:70:Drum Roll.wav
36,192,137188,1,0,0:0:0:70:Drum Roll.wav
475,192,137188,128,0,137308:0:0:0:0:
36,192,137428,128,0,137548:0:0:0:0:
256,192,137668,1,0,0:0:0:0:
109,192,137668,1,0,0:0:0:50:Synth.wav
329,192,137788,1,0,0:0:0:0:
182,192,137788,1,0,0:0:0:50:Synth.wav
402,192,137908,1,0,0:0:0:0:
256,192,137908,1,0,0:0:0:50:Synth.wav
475,192,138028,1,0,0:0:0:0:
329,192,138028,1,0,0:0:0:50:Synth.wav
36,192,138268,1,0,0:0:0:0:
256,192,138268,1,0,0:0:0:50:Drum-KicK.wav
109,192,138268,1,0,0:0:0:0:
329,192,138388,1,0,0:0:0:50:Drum-Snare.wav
182,192,138388,1,0,0:0:0:0:
475,192,138388,1,0,0:0:0:0:
36,192,138508,1,0,0:0:0:50:HihaT.wav
182,192,138568,1,0,0:0:0:50:HihaT.wav
329,192,138628,1,0,0:0:0:0:
475,192,138628,1,0,0:0:0:50:Synth.wav
256,192,138748,1,0,0:0:0:0:
402,192,138748,1,0,0:0:0:50:Synth.wav
182,192,138868,1,0,0:0:0:0:
329,192,138868,1,0,0:0:0:50:Synth.wav
109,192,138988,1,0,0:0:0:0:
256,192,138988,1,0,0:0:0:50:Synth.wav
329,192,139228,1,0,0:0:0:0:
182,192,139228,1,0,0:0:0:50:Drum-KicK.wav
36,192,139228,1,0,0:0:0:0:
475,192,139348,1,0,0:0:0:50:Drum-Snare.wav
402,192,139348,1,0,0:0:0:0:
256,192,139348,1,0,0:0:0:0:
109,192,139408,1,0,0:0:0:50:Drum-Snare.wav
36,192,139408,1,0,0:0:0:0:
329,192,139468,1,0,0:0:0:0:
182,192,139468,1,0,0:0:0:50:Drum-Snare.wav
402,192,139528,1,0,0:0:0:50:Drum-KicK.wav
475,192,139528,1,0,0:0:0:0:
36,192,139588,1,0,0:0:0:50:Drum-KicK.wav
109,192,139588,1,0,0:0:0:50:Shorted Crash.wav
256,192,139588,128,0,139708:0:0:0:50:Synth.wav
36,192,139708,1,0,0:0:0:50:Drum-KicK.wav
402,192,139708,128,0,139828:0:0:0:50:Synth.wav
109,192,139708,1,0,0:0:0:0:
109,192,139828,1,0,0:0:0:0:
36,192,139828,1,0,0:0:0:50:Drum-Snare.wav
329,192,139828,128,0,139948:0:0:0:50:Synth.wav
182,192,139828,1,0,0:0:0:0:
256,192,139948,1,0,0:0:0:50:HihaT.wav
475,192,139948,128,0,140068:0:0:0:50:Synth.wav
36,192,140008,1,0,0:0:0:50:HihaT.wav
109,192,140068,1,0,0:0:0:50:HihaT.wav
182,192,140128,1,0,0:0:0:50:HihaT.wav
36,192,140188,1,0,0:0:0:0:
256,192,140188,1,0,0:0:0:50:Drum-KicK.wav
402,192,140188,128,0,140308:0:0:0:50:Synth.wav
109,192,140308,1,0,0:0:0:0:
256,192,140308,1,0,0:0:0:50:Drum-Snare.wav
475,192,140308,1,0,0:0:0:0:
329,192,140428,128,0,140548:0:0:0:50:Synth.wav
182,192,140428,1,0,0:0:0:50:HihaT.wav
109,192,140488,1,0,0:0:0:50:HihaT.wav
475,192,140548,1,0,0:0:0:0:
256,192,140548,1,0,0:0:0:50:Drum-KicK.wav
36,192,140548,1,0,0:0:0:0:
329,192,140668,1,0,0:0:0:50:Drum-KicK.wav
182,192,140668,1,0,0:0:0:50:Synth.wav
402,192,140728,1,0,0:0:0:50:Drum-KicK.wav
475,192,140728,1,0,0:0:0:0:
36,192,140788,1,0,0:0:0:0:
329,192,140788,1,0,0:0:0:50:Drum-Snare.wav
182,192,140788,1,0,0:0:0:50:Synth.wav
109,192,140788,1,0,0:0:0:0:
402,192,140908,1,0,0:0:0:50:Drum-KicK.wav
475,192,140908,1,0,0:0:0:0:
256,192,140908,1,0,0:0:0:50:Synth.wav
36,192,141028,1,0,0:0:0:50:Synth.wav
182,192,141028,1,0,0:0:0:0:
329,192,141028,1,0,0:0:0:50:Drum-Snare.wav
109,192,141028,1,0,0:0:0:0:
402,192,141148,1,0,0:0:0:50:Drum-KicK.wav
475,192,141148,1,0,0:0:0:0:
256,192,141268,1,0,0:0:0:50:Shorted Crash.wav
402,192,141268,1,0,0:0:0:50:Drum-KicK.wav
475,192,141268,1,0,0:0:0:0:
36,192,141268,1,0,0:0:0:0:
109,192,141268,1,0,0:0:0:0:
256,192,141508,1,0,0:0:0:0:
109,192,141508,1,0,0:0:0:50:Synth.wav
329,192,141628,1,0,0:0:0:0:
182,192,141628,1,0,0:0:0:50:Synth.wav
402,192,141748,1,0,0:0:0:0:
256,192,141748,1,0,0:0:0:50:Synth.wav
475,192,141868,1,0,0:0:0:0:
329,192,141868,1,0,0:0:0:50:Synth.wav
36,192,142108,1,0,0:0:0:0:
256,192,142108,1,0,0:0:0:50:Drum-KicK.wav
109,192,142108,1,0,0:0:0:0:
329,192,142228,1,0,0:0:0:50:Drum-Snare.wav
182,192,142228,1,0,0:0:0:0:
475,192,142228,1,0,0:0:0:0:
36,192,142348,1,0,0:0:0:50:HihaT.wav
182,192,142408,1,0,0:0:0:50:HihaT.wav
329,192,142468,1,0,0:0:0:0:
475,192,142468,1,0,0:0:0:50:Synth.wav
256,192,142588,1,0,0:0:0:0:
402,192,142588,1,0,0:0:0:50:Synth.wav
182,192,142708,1,0,0:0:0:0:
329,192,142708,1,0,0:0:0:50:Synth.wav
109,192,142828,1,0,0:0:0:0:
256,192,142828,1,0,0:0:0:50:Synth.wav
329,192,143068,1,0,0:0:0:0:
182,192,143068,1,0,0:0:0:50:Drum-KicK.wav
36,192,143068,1,0,0:0:0:0:
475,192,143188,1,0,0:0:0:50:Drum-Snare.wav
402,192,143188,1,0,0:0:0:0:
256,192,143188,1,0,0:0:0:0:
109,192,143248,1,0,0:0:0:50:Drum-Snare.wav
36,192,143248,1,0,0:0:0:0:
329,192,143308,1,0,0:0:0:0:
182,192,143308,1,0,0:0:0:50:Drum-Snare.wav
402,192,143368,1,0,0:0:0:50:Drum-KicK.wav
475,192,143368,1,0,0:0:0:0:
36,192,143428,1,0,0:0:0:50:Drum-KicK.wav
109,192,143428,1,0,0:0:0:50:Shorted Crash.wav
256,192,143428,128,0,143548:0:0:0:50:Synth.wav
36,192,143548,1,0,0:0:0:50:Drum-KicK.wav
402,192,143548,128,0,143668:0:0:0:50:Synth.wav
109,192,143548,1,0,0:0:0:0:
109,192,143668,1,0,0:0:0:0:
36,192,143668,1,0,0:0:0:50:Drum-Snare.wav
329,192,143668,128,0,143788:0:0:0:50:Synth.wav
182,192,143668,1,0,0:0:0:0:
256,192,143788,1,0,0:0:0:50:HihaT.wav
475,192,143788,128,0,143908:0:0:0:50:Synth.wav
36,192,143848,1,0,0:0:0:50:HihaT.wav
109,192,143908,1,0,0:0:0:50:HihaT.wav
182,192,143968,1,0,0:0:0:50:HihaT.wav
36,192,144028,1,0,0:0:0:0:
256,192,144028,1,0,0:0:0:50:Drum-KicK.wav
402,192,144028,128,0,144148:0:0:0:50:Synth.wav
109,192,144148,1,0,0:0:0:0:
256,192,144148,1,0,0:0:0:50:Drum-Snare.wav
475,192,144148,1,0,0:0:0:0:
329,192,144268,128,0,144388:0:0:0:50:Synth.wav
182,192,144268,1,0,0:0:0:50:HihaT.wav
109,192,144328,1,0,0:0:0:50:HihaT.wav
475,192,144388,1,0,0:0:0:0:
256,192,144388,1,0,0:0:0:50:Drum-KicK.wav
36,192,144388,1,0,0:0:0:0:
329,192,144508,1,0,0:0:0:50:Drum-KicK.wav
182,192,144508,1,0,0:0:0:50:Synth.wav
402,192,144568,1,0,0:0:0:50:Drum-KicK.wav
475,192,144568,1,0,0:0:0:0:
36,192,144628,1,0,0:0:0:0:
329,192,144628,1,0,0:0:0:50:Drum-Snare.wav
182,192,144628,1,0,0:0:0:50:Synth.wav
109,192,144628,1,0,0:0:0:0:
256,192,144748,1,0,0:0:0:50:Drum-KicK.wav
475,192,144748,1,0,0:0:0:50:Synth.wav
402,192,144748,1,0,0:0:0:0:
109,192,144868,1,0,0:0:0:0:
36,192,144868,1,0,0:0:0:0:
329,192,144868,1,0,0:0:0:50:Synth.wav
182,192,144868,1,0,0:0:0:50:Drum-Snare.wav
36,192,144988,1,0,0:0:0:50:Drum-KicK.wav
109,192,144988,1,0,0:0:0:0:
329,192,145108,1,0,0:0:0:50:Drum-Snare.wav
475,192,145108,1,0,0:0:0:0:
402,192,145108,1,0,0:0:0:0:
182,192,145108,1,0,0:0:0:0:
402,192,145228,1,0,0:0:0:50:Drum-KicK.wav
475,192,145228,1,0,0:0:0:0:
256,192,145348,1,0,0:0:0:0:
36,192,145348,1,0,0:0:0:50:Synth.wav
109,192,145468,1,0,0:0:0:0:
329,192,145468,1,0,0:0:0:50:Synth.wav
402,192,145588,1,0,0:0:0:0:
182,192,145588,1,0,0:0:0:50:Synth.wav
256,192,145708,1,0,0:0:0:0:
475,192,145708,1,0,0:0:0:50:Synth.wav
36,192,145948,1,0,0:0:0:0:
256,192,145948,1,0,0:0:0:50:Drum-KicK.wav
109,192,145948,1,0,0:0:0:0:
402,192,146068,1,0,0:0:0:0:
329,192,146068,1,0,0:0:0:50:Drum-Snare.wav
182,192,146068,1,0,0:0:0:0:
402,192,146188,1,0,0:0:0:0:
329,192,146188,1,0,0:0:0:50:Drum-Snare.wav
182,192,146248,1,0,0:0:0:50:Drum-Snare.wav
36,192,146248,1,0,0:0:0:0:
256,192,146308,1,0,0:0:0:0:
475,192,146308,1,0,0:0:0:50:Synth.wav
402,192,146428,1,0,0:0:0:0:
182,192,146428,1,0,0:0:0:50:Synth.wav
109,192,146548,1,0,0:0:0:0:
329,192,146548,1,0,0:0:0:50:Synth.wav
256,192,146668,1,0,0:0:0:0:
36,192,146668,1,0,0:0:0:50:Synth.wav
329,192,146908,1,0,0:0:0:0:
182,192,146908,1,0,0:0:0:50:Drum-KicK.wav
475,192,146908,1,0,0:0:0:0:
109,192,147028,1,0,0:0:0:0:
182,192,147028,1,0,0:0:0:50:Drum-Snare.wav
36,192,147028,1,0,0:0:0:0:
475,192,147088,1,0,0:0:0:50:Drum-Snare.wav
402,192,147088,1,0,0:0:0:0:
329,192,147148,1,0,0:0:0:0:
256,192,147148,1,0,0:0:0:50:Drum-Snare.wav
182,192,147208,1,0,0:0:0:50:Drum-KicK.wav
109,192,147208,1,0,0:0:0:0:
402,192,147268,1,0,0:0:0:50:Shorted Crash.wav
475,192,147268,1,0,0:0:0:50:Drum-KicK.wav
36,192,147268,128,0,147388:0:0:0:50:Synth.wav
182,192,147388,128,0,147508:0:0:0:50:Synth.wav
402,192,147388,1,0,0:0:0:0:
475,192,147388,1,0,0:0:0:50:Drum-KicK.wav
109,192,147508,128,0,147628:0:0:0:50:Synth.wav
475,192,147508,1,0,0:0:0:50:Drum-Snare.wav
329,192,147508,1,0,0:0:0:0:
402,192,147508,1,0,0:0:0:0:
36,192,147628,1,0,0:0:0:50:HihaT.wav
256,192,147628,128,0,147748:0:0:0:50:Synth.wav
182,192,147688,1,0,0:0:0:50:HihaT.wav
475,192,147748,1,0,0:0:0:50:HihaT.wav
402,192,147808,1,0,0:0:0:50:HihaT.wav
109,192,147868,1,0,0:0:0:50:Drum-KicK.wav
329,192,147868,128,0,147988:0:0:0:50:Synth.wav
256,192,147868,1,0,0:0:0:0:
36,192,147868,1,0,0:0:0:0:
182,192,147988,1,0,0:0:0:0:
475,192,147988,1,0,0:0:0:0:
109,192,147988,1,0,0:0:0:50:Drum-Snare.wav
256,192,148108,1,0,0:0:0:50:HihaT.wav
402,192,148108,128,0,148228:0:0:0:50:Synth.wav
182,192,148168,1,0,0:0:0:50:HihaT.wav
475,192,148228,1,0,0:0:0:0:
36,192,148228,1,0,0:0:0:0:
109,192,148228,1,0,0:0:0:50:Drum-KicK.wav
402,192,148348,1,0,0:0:0:50:Synth.wav
329,192,148348,1,0,0:0:0:50:Drum-KicK.wav
182,192,148408,1,0,0:0:0:50:Drum-KicK.wav
109,192,148408,1,0,0:0:0:0:
36,192,148468,1,0,0:0:0:0:
402,192,148468,1,0,0:0:0:50:Synth.wav
475,192,148468,1,0,0:0:0:0:
256,192,148468,1,0,0:0:0:50:Drum-Snare.wav
182,192,148588,1,0,0:0:0:50:Drum-KicK.wav
109,192,148588,1,0,0:0:0:0:
329,192,148588,1,0,0:0:0:50:Synth.wav
475,192,148708,1,0,0:0:0:0:
256,192,148708,1,0,0:0:0:50:Drum-Snare.wav
402,192,148708,1,0,0:0:0:50:Synth.wav
36,192,148708,1,0,0:0:0:0:
182,192,148828,1,0,0:0:0:50:Drum-KicK.wav
109,192,148828,1,0,0:0:0:0:
329,192,148948,1,0,0:0:0:50:Shorted Crash.wav
182,192,148948,1,0,0:0:0:50:Drum-KicK.wav
109,192,148948,1,0,0:0:0:0:
475,192,148948,1,0,0:0:0:0:
402,192,148948,1,0,0:0:0:0:
256,192,149188,1,0,0:0:0:0:
36,192,149188,1,0,0:0:0:50:Synth.wav
109,192,149308,1,0,0:0:0:0:
329,192,149308,1,0,0:0:0:50:Synth.wav
402,192,149428,1,0,0:0:0:0:
182,192,149428,1,0,0:0:0:50:Synth.wav
256,192,149548,1,0,0:0:0:0:
475,192,149548,1,0,0:0:0:50:Synth.wav
329,192,149788,1,0,0:0:0:50:Drum-KicK.wav
36,192,149788,1,0,0:0:0:0:
182,192,149788,1,0,0:0:0:0:
256,192,149908,1,0,0:0:0:0:
475,192,149908,1,0,0:0:0:50:Drum-Snare.wav
402,192,149908,1,0,0:0:0:0:
36,192,149968,1,0,0:0:0:0:
109,192,149968,1,0,0:0:0:50:Drum-Snare.wav
402,192,150028,1,0,0:0:0:0:
329,192,150028,1,0,0:0:0:50:Drum-Snare.wav
109,192,150088,1,0,0:0:0:50:Drum-Snare.wav
182,192,150088,1,0,0:0:0:0:
256,192,150148,1,0,0:0:0:0:
475,192,150148,1,0,0:0:0:50:Synth.wav
402,192,150268,1,0,0:0:0:0:
182,192,150268,1,0,0:0:0:50:Synth.wav
109,192,150388,1,0,0:0:0:0:
329,192,150388,1,0,0:0:0:50:Synth.wav
256,192,150508,1,0,0:0:0:0:
36,192,150508,1,0,0:0:0:50:Synth.wav
36,192,150748,1,0,0:0:0:0:
256,192,150748,1,0,0:0:0:50:Drum-KicK.wav
475,192,150748,1,0,0:0:0:0:
329,192,150868,1,0,0:0:0:0:
182,192,150868,1,0,0:0:0:50:Drum-Snare.wav
109,192,150868,1,0,0:0:0:0:
475,192,150928,1,0,0:0:0:50:Drum-Snare.wav
402,192,150928,1,0,0:0:0:0:
109,192,150988,1,0,0:0:0:0:
182,192,150988,1,0,0:0:0:50:Drum-Snare.wav
256,192,151048,1,0,0:0:0:50:Drum-KicK.wav
329,192,151048,1,0,0:0:0:0:
402,192,151108,1,0,0:0:0:50:Drum-KicK.wav
475,192,151108,1,0,0:0:0:50:Shorted Crash.wav
36,192,151108,128,0,151228:0:0:0:50:Synth.wav
475,192,151228,1,0,0:0:0:0:
402,192,151228,1,0,0:0:0:50:Drum-KicK.wav
182,192,151228,128,0,151348:0:0:0:50:Synth.wav
402,192,151348,1,0,0:0:0:0:
329,192,151348,1,0,0:0:0:0:
475,192,151348,1,0,0:0:0:50:Drum-Snare.wav
109,192,151348,128,0,151468:0:0:0:50:Synth.wav
36,192,151468,1,0,0:0:0:50:HihaT.wav
256,192,151468,128,0,151588:0:0:0:50:Synth.wav
182,192,151528,1,0,0:0:0:50:HihaT.wav
475,192,151588,1,0,0:0:0:50:HihaT.wav
402,192,151648,1,0,0:0:0:50:HihaT.wav
109,192,151708,1,0,0:0:0:0:
36,192,151708,1,0,0:0:0:50:Drum-KicK.wav
329,192,151708,128,0,151828:0:0:0:50:Synth.wav
256,192,151708,1,0,0:0:0:0:
182,192,151828,1,0,0:0:0:0:
109,192,151828,1,0,0:0:0:50:Drum-Snare.wav
475,192,151828,1,0,0:0:0:0:
256,192,151948,1,0,0:0:0:50:HihaT.wav
402,192,151948,128,0,152068:0:0:0:50:Synth.wav
182,192,152008,1,0,0:0:0:50:HihaT.wav
109,192,152068,1,0,0:0:0:0:
36,192,152068,1,0,0:0:0:50:Drum-KicK.wav
36,192,152188,1,0,0:0:0:50:Drum-KicK.wav
109,192,152188,1,0,0:0:0:0:
475,192,152188,128,0,152308:0:0:0:50:Synth.wav
256,192,152308,1,0,0:0:0:0:
36,192,152308,1,0,0:0:0:50:Drum-Snare.wav
109,192,152308,1,0,0:0:0:0:
402,192,152308,128,0,152428:0:0:0:50:Synth.wav
182,192,152428,1,0,0:0:0:50:HihaT.wav
329,192,152428,128,0,152548:0:0:0:50:Synth.wav
36,192,152488,1,0,0:0:0:50:HihaT.wav
256,192,152548,1,0,0:0:0:50:HihaT.wav
182,192,152608,1,0,0:0:0:50:HihaT.wav
36,192,152668,1,0,0:0:0:50:Drum-KicK.wav
109,192,152668,1,0,0:0:0:0:
402,192,152668,128,0,152788:0:0:0:50:Synth.wav
475,192,152668,1,0,0:0:0:0:
256,192,152788,1,0,0:0:0:0:
109,192,152788,1,0,0:0:0:0:
329,192,152788,1,0,0:0:0:50:Drum-Snare.wav
36,192,152908,1,0,0:0:0:50:HihaT.wav
475,192,152908,128,0,153028:0:0:0:50:Synth.wav
109,192,152968,1,0,0:0:0:50:HihaT.wav
402,192,153028,1,0,0:0:0:50:Drum-KicK.wav
182,192,153028,128,0,153148:0:0:0:50:Shorted Crash.wav
329,192,153028,1,0,0:0:0:0:
402,192,153148,1,0,0:0:0:50:Drum-KicK.wav
329,192,153148,1,0,0:0:0:0:
36,192,153148,128,0,153268:0:0:0:50:Synth.wav
402,192,153268,1,0,0:0:0:50:Drum-Snare.wav
475,192,153268,1,0,0:0:0:0:
329,192,153268,1,0,0:0:0:0:
256,192,153268,128,0,153388:0:0:0:50:Synth.wav
36,192,153388,1,0,0:0:0:50:HihaT.wav
109,192,153388,128,0,153508:0:0:0:50:Synth.wav
182,192,153448,1,0,0:0:0:50:HihaT.wav
329,192,153508,1,0,0:0:0:50:HihaT.wav
475,192,153568,1,0,0:0:0:50:HihaT.wav
256,192,153628,1,0,0:0:0:0:
402,192,153628,1,0,0:0:0:50:Drum-KicK.wav
182,192,153628,128,0,153748:0:0:0:50:Synth.wav
36,192,153628,1,0,0:0:0:0:
402,192,153748,1,0,0:0:0:50:Drum-Snare.wav
109,192,153748,1,0,0:0:0:0:
475,192,153748,1,0,0:0:0:0:
182,192,153868,1,0,0:0:0:50:HihaT.wav
256,192,153868,128,0,153988:0:0:0:50:Synth.wav
109,192,153928,1,0,0:0:0:50:HihaT.wav
36,192,153988,1,0,0:0:0:0:
329,192,153988,1,0,0:0:0:50:Drum-KicK.wav
475,192,153988,1,0,0:0:0:0:
109,192,154108,1,0,0:0:0:50:Drum-KicK.wav
182,192,154108,1,0,0:0:0:50:Synth.wav
402,192,154168,1,0,0:0:0:50:Drum-KicK.wav
329,192,154168,1,0,0:0:0:0:
36,192,154228,1,0,0:0:0:50:Drum-Snare.wav
109,192,154228,1,0,0:0:0:50:Synth.wav
256,192,154228,1,0,0:0:0:0:
475,192,154228,1,0,0:0:0:0:
402,192,154348,1,0,0:0:0:50:Drum-KicK.wav
329,192,154348,1,0,0:0:0:50:Synth.wav
182,192,154348,1,0,0:0:0:0:
36,192,154468,1,0,0:0:0:50:Synth.wav
256,192,154468,1,0,0:0:0:50:Drum-Snare.wav
475,192,154468,1,0,0:0:0:0:
109,192,154468,1,0,0:0:0:0:
329,192,154588,1,0,0:0:0:0:
402,192,154588,1,0,0:0:0:50:Drum-KicK.wav
109,192,154708,128,0,154948:0:0:0:50:Shorted Crash.wav
402,192,154708,128,0,154948:0:0:0:50:Drum-KicK.wav
329,192,154708,128,0,154948:0:0:0:0:
36,192,154708,128,0,154948:0:0:0:0:
182,192,154708,128,0,154948:0:0:0:0:
