osu file format v14

[General]
AudioFilename: audio.mp3
AudioLeadIn: 0
PreviewTime: 102748
Countdown: 0
SampleSet: Soft
StackLeniency: 0.7
Mode: 3
LetterboxInBreaks: 0
SpecialStyle: 0
WidescreenStoryboard: 1

[Editor]
Bookmarks: 3268,9988,10948,18628,26308,33988,45508,49348,52468,53188,59908,60868,68548,70468,78388,85828,93748,101188,106948,110308,110788,117988,118468,125668,126148,129988,133828,136948,137668,145348,154708,154948
DistanceSpacing: 0.8
BeatDivisor: 2
GridSize: 4
TimelineZoom: 1.2

[Metadata]
Title:Star of the COME ON!!
TitleUnicode:スター・オブ・ザ・COME ON!!
Artist:Frums
ArtistUnicode:Frums
Creator:Kawawa
Version:HARD!!
Source:osu!
Tags:Mapping Olympiad #7: 1st place FA Featured Artist MG Mappers' Guild Electronic Chiptune Instrumental Chip Rock Fakebit Breakcore Pocket Monsters Pokémon Pokemon ポケモン ポケットモンスター サンダース Evolution EVS eeveelution EVolution!!!!!!!!! ああああ AAAA Jun Kuroda
BeatmapID:2706981
BeatmapSetID:1305627

[Difficulty]
HPDrainRate:7.8
CircleSize:7
OverallDifficulty:7.5
ApproachRate:5
SliderMultiplier:1.4
SliderTickRate:1

[Events]
//Background and Video events
0,0,"BG.jpg",0,0
//Break Periods
//Storyboard Layer 0 (Background)
//Storyboard Layer 1 (Fail)
//Storyboard Layer 2 (Pass)
//Storyboard Layer 3 (Foreground)
//Storyboard Layer 4 (Overlay)
//Storyboard Sound Samples

[TimingPoints]
3268,240,4,2,1,30,1,0
10948,-100,4,2,1,30,0,1
18628,-100,4,2,1,30,0,0
49348,-100,4,2,1,30,0,1
52468,-100,4,2,1,30,0,0
60868,-100,4,2,1,30,0,1
68548,-100,4,2,1,30,0,0
106948,-100,4,2,1,30,0,1
129988,-100,4,2,1,30,0,0
133828,-100,4,2,1,30,0,1
136948,-100,4,2,1,30,0,0
154708,-100,4,2,1,30,0,1
154948,-100,4,2,1,30,0,0

[HitObjects]
256,192,1348,128,0,3268:0:0:0:30:Reversed Cymbal.wav
402,192,3268,5,0,0:0:0:50:Drum-KicK.wav
109,192,3268,1,0,0:0:0:50:Shorted Crash.wav
402,192,3508,5,0,0:0:0:50:Drum-KicK.wav
109,192,3748,1,0,0:0:0:50:Drum-KicK.wav
402,192,3748,1,0,0:0:0:0:
109,192,3988,5,0,0:0:0:50:Drum-KicK.wav
329,192,4228,1,0,0:0:0:50:Drum-KicK.wav
109,192,4228,1,0,0:0:0:0:
329,192,4468,5,0,0:0:0:50:Drum-KicK.wav
36,192,4708,1,0,0:0:0:50:Drum-KicK.wav
329,192,4708,1,0,0:0:0:0:
36,192,4948,5,0,0:0:0:50:Drum-KicK.wav
256,192,5188,1,0,0:0:0:50:Drum-KicK.wav
36,192,5188,1,0,0:0:0:0:
329,192,5308,1,0,0:0:0:50:Drum-KicK.wav
402,192,5428,5,0,0:0:0:50:Drum-KicK.wav
182,192,5668,1,0,0:0:0:50:Drum-KicK.wav
402,192,5668,1,0,0:0:0:0:
182,192,5908,5,0,0:0:0:50:Drum-KicK.wav
475,192,6148,1,0,0:0:0:50:Drum-KicK.wav
182,192,6148,1,0,0:0:0:0:
475,192,6388,5,0,0:0:0:50:Drum-KicK.wav
329,192,6628,1,0,0:0:0:50:Drum-KicK.wav
475,192,6628,1,0,0:0:0:0:
182,192,6748,1,0,0:0:0:50:Drum-KicK.wav
36,192,6868,5,0,0:0:0:50:Drum-KicK.wav
182,192,6988,1,0,0:0:0:50:Drum-KicK.wav
329,192,7108,1,0,0:0:0:50:Drum-KicK.wav
475,192,7108,1,0,0:0:0:0:
329,192,7348,5,0,0:0:0:50:Drum-KicK.wav
109,192,7588,1,0,0:0:0:50:Drum-KicK.wav
329,192,7588,1,0,0:0:0:0:
109,192,7828,5,0,0:0:0:50:Drum-KicK.wav
402,192,8068,1,0,0:0:0:50:Drum-KicK.wav
109,192,8068,1,0,0:0:0:0:
402,192,8308,5,0,0:0:0:50:Drum-KicK.wav
402,192,8548,1,0,0:0:0:0:
182,192,8548,1,0,0:0:0:50:Drum-KicK.wav
182,192,8788,5,0,0:0:0:50:Drum-KicK.wav
329,192,9028,1,0,0:0:0:50:Drum-KicK.wav
182,192,9028,1,0,0:0:0:70:Drum Roll.wav
402,192,9148,1,0,0:0:0:70:Drum Roll.wav
109,192,9268,1,0,0:0:0:50:Drum-KicK.wav
402,192,9388,1,0,0:0:0:70:Drum Roll.wav
109,192,9508,1,0,0:0:0:50:Drum-KicK.wav
329,192,9508,1,0,0:0:0:70:Drum Roll.wav
182,192,9628,1,0,0:0:0:70:Drum Roll.wav
329,192,9748,1,0,0:0:0:50:Drum-KicK.wav
182,192,9868,1,0,0:0:0:70:Drum Roll.wav
475,192,9988,5,0,0:0:0:50:Drum-KicK.wav
36,192,9988,1,0,0:0:0:0:
329,192,10228,1,0,0:0:0:50:Drum-Snare.wav
182,192,10228,1,0,0:0:0:0:
36,192,10468,5,0,0:0:0:50:Drum-KicK.wav
475,192,10468,1,0,0:0:0:0:
182,192,10588,1,0,0:0:0:50:Drum-Snare.wav
329,192,10708,1,0,0:0:0:50:Drum-Snare.wav
475,192,10828,1,0,0:0:0:50:Drum-Snare.wav
109,192,10948,1,0,0:0:0:50:Drum-KicK.wav
256,192,10948,1,0,0:0:0:50:Synth.wav
109,192,11188,1,0,0:0:0:50:Drum-Snare.wav
256,192,11188,1,0,0:0:0:50:Synth.wav
329,192,11308,1,0,0:0:0:50:Synth.wav
109,192,11428,1,0,0:0:0:50:Drum-KicK.wav
329,192,11548,1,0,0:0:0:50:Synth.wav
109,192,11668,1,0,0:0:0:50:Drum-KicK.wav
402,192,11668,1,0,0:0:0:50:Synth.wav
475,192,11788,1,0,0:0:0:50:Synth.wav
329,192,11908,1,0,0:0:0:50:Drum-KicK.wav
182,192,11908,1,0,0:0:0:50:Synth.wav
182,192,12148,1,0,0:0:0:50:Synth.wav
329,192,12148,1,0,0:0:0:50:Drum-Snare.wav
36,192,12268,1,0,0:0:0:50:Synth.wav
329,192,12388,1,0,0:0:0:50:Drum-KicK.wav
36,192,12508,1,0,0:0:0:50:Synth.wav
329,192,12628,1,0,0:0:0:50:Drum-KicK.wav
109,192,12628,1,0,0:0:0:50:Synth.wav
182,192,12748,1,0,0:0:0:50:Synth.wav
36,192,12868,1,0,0:0:0:50:Drum-KicK.wav
402,192,12868,1,0,0:0:0:50:Synth.wav
36,192,13108,1,0,0:0:0:50:Drum-Snare.wav
402,192,13108,1,0,0:0:0:50:Synth.wav
256,192,13228,1,0,0:0:0:50:Synth.wav
36,192,13348,1,0,0:0:0:50:Drum-KicK.wav
256,192,13468,1,0,0:0:0:50:Synth.wav
36,192,13588,1,0,0:0:0:50:Drum-KicK.wav
329,192,13588,1,0,0:0:0:50:Synth.wav
402,192,13708,1,0,0:0:0:50:Synth.wav
475,192,13828,1,0,0:0:0:50:Drum-KicK.wav
182,192,13828,1,0,0:0:0:50:Synth.wav
329,192,14008,1,0,0:0:0:50:Drum-KicK.wav
182,192,14068,1,0,0:0:0:50:Synth.wav
475,192,14188,1,0,0:0:0:50:Drum-Snare.wav
36,192,14188,1,0,0:0:0:50:Synth.wav
329,192,14368,1,0,0:0:0:50:Drum-KicK.wav
36,192,14428,1,0,0:0:0:50:Synth.wav
475,192,14548,1,0,0:0:0:50:Drum-Snare.wav
182,192,14548,1,0,0:0:0:50:Synth.wav
109,192,14668,1,0,0:0:0:50:Synth.wav
36,192,14788,1,0,0:0:0:50:Drum-KicK.wav
256,192,14788,1,0,0:0:0:50:Synth.wav
36,192,15028,1,0,0:0:0:50:Drum-Snare.wav
256,192,15028,1,0,0:0:0:50:Synth.wav
402,192,15148,1,0,0:0:0:50:Synth.wav
36,192,15268,1,0,0:0:0:50:Drum-KicK.wav
402,192,15388,1,0,0:0:0:50:Synth.wav
36,192,15508,1,0,0:0:0:50:Drum-KicK.wav
182,192,15508,1,0,0:0:0:50:Synth.wav
329,192,15628,1,0,0:0:0:50:Synth.wav
475,192,15748,1,0,0:0:0:50:Drum-KicK.wav
109,192,15748,1,0,0:0:0:50:Synth.wav
475,192,15988,1,0,0:0:0:50:Drum-Snare.wav
109,192,15988,1,0,0:0:0:50:Synth.wav
182,192,16108,1,0,0:0:0:50:Synth.wav
475,192,16228,1,0,0:0:0:50:Drum-KicK.wav
182,192,16348,1,0,0:0:0:50:Synth.wav
475,192,16468,1,0,0:0:0:50:Drum-KicK.wav
256,192,16468,1,0,0:0:0:50:Synth.wav
329,192,16588,1,0,0:0:0:50:Synth.wav
109,192,16708,1,0,0:0:0:50:Drum-KicK.wav
402,192,16708,1,0,0:0:0:50:Synth.wav
109,192,16948,1,0,0:0:0:50:Drum-KicK.wav
402,192,16948,1,0,0:0:0:50:Synth.wav
256,192,17068,1,0,0:0:0:50:Synth.wav
109,192,17188,1,0,0:0:0:50:Drum-KicK.wav
256,192,17308,1,0,0:0:0:50:Synth.wav
109,192,17428,1,0,0:0:0:50:Drum-KicK.wav
329,192,17428,1,0,0:0:0:50:Synth.wav
402,192,17548,1,0,0:0:0:50:Synth.wav
475,192,17668,1,0,0:0:0:50:Drum-KicK.wav
182,192,17668,128,0,18148:0:0:0:50:Synth.wav
329,192,17788,1,0,0:0:0:50:Drum-KicK.wav
36,192,17908,128,0,18148:0:0:0:50:Synth.wav
475,192,17908,1,0,0:0:0:50:Drum-KicK.wav
329,192,18028,1,0,0:0:0:50:Drum-KicK.wav
475,192,18148,128,0,18628:0:0:0:50:Sub rhythm-1.wav
329,192,18388,128,0,18628:0:0:0:50:Sub rhythm-1.wav
182,192,18628,1,0,0:0:0:50:Synth.wav
256,192,18748,1,0,0:0:0:50:Synth.wav
329,192,18868,1,0,0:0:0:50:Synth.wav
402,192,18988,1,0,0:0:0:50:Synth.wav
36,192,19228,1,0,0:0:0:50:Drum-KicK.wav
182,192,19348,1,0,0:0:0:50:Drum-Snare.wav
402,192,19588,1,0,0:0:0:50:Synth.wav
329,192,19708,1,0,0:0:0:50:Synth.wav
256,192,19828,1,0,0:0:0:50:Synth.wav
182,192,19948,1,0,0:0:0:50:Synth.wav
36,192,20188,1,0,0:0:0:50:Drum-KicK.wav
182,192,20308,1,0,0:0:0:50:Drum-Snare.wav
329,192,20428,1,0,0:0:0:50:Drum-Snare.wav
109,192,20548,1,0,0:0:0:70:Synth.wav
475,192,20548,1,0,0:0:0:50:Drum-KicK.wav
182,192,20668,1,0,0:0:0:70:Synth.wav
402,192,20788,1,0,0:0:0:50:Drum-Snare.wav
256,192,20788,1,0,0:0:0:70:Synth.wav
36,192,20908,1,0,0:0:0:70:Synth.wav
109,192,21148,1,0,0:0:0:70:Synth.wav
402,192,21268,1,0,0:0:0:50:Drum-Snare.wav
182,192,21388,1,0,0:0:0:70:Synth.wav
256,192,21628,1,0,0:0:0:70:Synth.wav
402,192,21748,1,0,0:0:0:50:Drum-Snare.wav
182,192,21748,1,0,0:0:0:70:Synth.wav
109,192,21868,1,0,0:0:0:70:Synth.wav
402,192,21988,1,0,0:0:0:50:Drum-Snare.wav
36,192,21988,1,0,0:0:0:70:Synth.wav
475,192,22228,1,0,0:0:0:50:Drum-KicK.wav
329,192,22228,1,0,0:0:0:50:Shorted Crash.wav
182,192,22468,1,0,0:0:0:50:Synth.wav
256,192,22588,1,0,0:0:0:50:Synth.wav
329,192,22708,1,0,0:0:0:50:Synth.wav
402,192,22828,1,0,0:0:0:50:Synth.wav
36,192,23068,1,0,0:0:0:50:Drum-KicK.wav
182,192,23188,1,0,0:0:0:50:Drum-Snare.wav
402,192,23428,1,0,0:0:0:50:Synth.wav
329,192,23548,1,0,0:0:0:50:Synth.wav
256,192,23668,1,0,0:0:0:50:Synth.wav
182,192,23788,1,0,0:0:0:50:Synth.wav
36,192,24028,1,0,0:0:0:50:Drum-KicK.wav
182,192,24148,1,0,0:0:0:50:Drum-Snare.wav
329,192,24268,1,0,0:0:0:50:Drum-Snare.wav
475,192,24388,1,0,0:0:0:50:Drum-KicK.wav
109,192,24388,1,0,0:0:0:70:Synth.wav
182,192,24508,1,0,0:0:0:70:Synth.wav
402,192,24628,1,0,0:0:0:50:Drum-Snare.wav
256,192,24628,1,0,0:0:0:70:Synth.wav
36,192,24748,1,0,0:0:0:70:Synth.wav
109,192,24988,1,0,0:0:0:70:Synth.wav
402,192,25108,1,0,0:0:0:50:Drum-Snare.wav
182,192,25228,1,0,0:0:0:70:Synth.wav
256,192,25468,1,0,0:0:0:70:Synth.wav
402,192,25588,1,0,0:0:0:50:Drum-Snare.wav
109,192,25588,1,0,0:0:0:70:Synth.wav
182,192,25708,1,0,0:0:0:70:Synth.wav
402,192,25828,1,0,0:0:0:50:Drum-Snare.wav
36,192,25828,1,0,0:0:0:70:Synth.wav
402,192,26068,1,0,0:0:0:50:Drum-Snare.wav
109,192,26308,1,0,0:0:0:50:Synth.wav
182,192,26428,1,0,0:0:0:50:Synth.wav
256,192,26548,1,0,0:0:0:50:Synth.wav
329,192,26668,1,0,0:0:0:50:Synth.wav
36,192,26908,1,0,0:0:0:50:Drum-KicK.wav
182,192,27028,1,0,0:0:0:50:Drum-Snare.wav
36,192,27148,1,0,0:0:0:50:Drum-Snare.wav
329,192,27268,1,0,0:0:0:50:Synth.wav
256,192,27388,1,0,0:0:0:50:Synth.wav
182,192,27508,1,0,0:0:0:50:Synth.wav
109,192,27628,1,0,0:0:0:50:Synth.wav
475,192,27868,1,0,0:0:0:50:Drum-KicK.wav
329,192,27988,1,0,0:0:0:50:Drum-Snare.wav
475,192,28108,1,0,0:0:0:50:Drum-Snare.wav
36,192,28228,1,0,0:0:0:50:Drum-KicK.wav
182,192,28228,1,0,0:0:0:70:Synth.wav
256,192,28348,1,0,0:0:0:70:Synth.wav
109,192,28468,1,0,0:0:0:50:Drum-Snare.wav
329,192,28468,1,0,0:0:0:70:Synth.wav
402,192,28588,1,0,0:0:0:70:Synth.wav
329,192,28828,1,0,0:0:0:70:Synth.wav
109,192,28948,1,0,0:0:0:50:Drum-Snare.wav
256,192,29068,1,0,0:0:0:70:Synth.wav
329,192,29308,1,0,0:0:0:70:Synth.wav
475,192,29428,1,0,0:0:0:50:Drum-Snare.wav
256,192,29428,1,0,0:0:0:70:Synth.wav
182,192,29548,1,0,0:0:0:70:Synth.wav
475,192,29668,1,0,0:0:0:50:Drum-Snare.wav
109,192,29668,1,0,0:0:0:70:Synth.wav
402,192,29908,1,0,0:0:0:50:Shorted Crash.wav
329,192,29908,1,0,0:0:0:50:Drum-KicK.wav
109,192,30148,1,0,0:0:0:50:Synth.wav
182,192,30268,1,0,0:0:0:50:Synth.wav
256,192,30388,1,0,0:0:0:50:Synth.wav
329,192,30508,1,0,0:0:0:50:Synth.wav
36,192,30748,1,0,0:0:0:50:Drum-KicK.wav
182,192,30868,1,0,0:0:0:50:Drum-Snare.wav
36,192,30988,1,0,0:0:0:50:Drum-Snare.wav
329,192,31108,1,0,0:0:0:50:Synth.wav
256,192,31228,1,0,0:0:0:50:Synth.wav
182,192,31348,1,0,0:0:0:50:Synth.wav
109,192,31468,1,0,0:0:0:50:Synth.wav
475,192,31708,1,0,0:0:0:50:Drum-KicK.wav
329,192,31828,1,0,0:0:0:50:Drum-Snare.wav
475,192,31948,1,0,0:0:0:50:Drum-Snare.wav
182,192,32068,1,0,0:0:0:70:Synth.wav
36,192,32068,1,0,0:0:0:50:Drum-KicK.wav
256,192,32188,1,0,0:0:0:70:Synth.wav
329,192,32308,1,0,0:0:0:70:Synth.wav
109,192,32308,1,0,0:0:0:50:Drum-Snare.wav
402,192,32428,1,0,0:0:0:70:Synth.wav
329,192,32668,1,0,0:0:0:70:Synth.wav
109,192,32788,1,0,0:0:0:50:Drum-Snare.wav
256,192,32908,1,0,0:0:0:70:Synth.wav
329,192,33148,1,0,0:0:0:70:Synth.wav
182,192,33268,1,0,0:0:0:70:Synth.wav
475,192,33268,1,0,0:0:0:50:Drum-Snare.wav
256,192,33388,1,0,0:0:0:70:Synth.wav
109,192,33508,1,0,0:0:0:70:Synth.wav
475,192,33508,1,0,0:0:0:50:Drum-Snare.wav
402,192,33628,1,0,0:0:0:50:Drum-Snare.wav
329,192,33748,1,0,0:0:0:50:Drum-Snare.wav
256,192,33868,1,0,0:0:0:50:Drum-Snare.wav
182,192,33988,1,0,0:0:0:50:Sub rhythm.wav
36,192,33988,1,0,0:0:0:40:Bell.wav
329,192,34108,1,0,0:0:0:50:Sub rhythm.wav
475,192,34228,1,0,0:0:0:50:Drum-Snare.wav
182,192,34228,1,0,0:0:0:50:Sub rhythm.wav
329,192,34348,1,0,0:0:0:50:Sub rhythm.wav
109,192,34468,1,0,0:0:0:50:Sub rhythm.wav
402,192,34588,1,0,0:0:0:50:Sub rhythm.wav
256,192,34708,1,0,0:0:0:50:Drum-Snare.wav
109,192,34708,1,0,0:0:0:50:Sub rhythm.wav
402,192,34828,1,0,0:0:0:50:Sub rhythm.wav
182,192,34948,1,0,0:0:0:50:Sub rhythm.wav
329,192,35068,1,0,0:0:0:50:Sub rhythm.wav
182,192,35188,1,0,0:0:0:50:Sub rhythm.wav
475,192,35188,1,0,0:0:0:50:Drum-Snare.wav
329,192,35308,1,0,0:0:0:50:Sub rhythm.wav
109,192,35428,1,0,0:0:0:50:Sub rhythm.wav
402,192,35548,1,0,0:0:0:50:Sub rhythm.wav
256,192,35668,1,0,0:0:0:50:Drum-Snare.wav
109,192,35668,1,0,0:0:0:50:Sub rhythm.wav
402,192,35788,1,0,0:0:0:50:Sub rhythm.wav
182,192,35908,1,0,0:0:0:50:Sub rhythm.wav
36,192,35908,1,0,0:0:0:40:Bell.wav
329,192,36028,1,0,0:0:0:50:Sub rhythm.wav
475,192,36148,1,0,0:0:0:50:Drum-Snare.wav
182,192,36148,1,0,0:0:0:50:Sub rhythm.wav
329,192,36268,1,0,0:0:0:50:Sub rhythm.wav
109,192,36388,1,0,0:0:0:50:Sub rhythm.wav
256,192,36508,1,0,0:0:0:50:Sub rhythm.wav
475,192,36628,1,0,0:0:0:50:Drum-Snare.wav
36,192,36628,1,0,0:0:0:50:Sub rhythm.wav
182,192,36748,1,0,0:0:0:50:Sub rhythm.wav
109,192,36988,1,0,0:0:0:50:Sub rhythm.wav
475,192,37108,1,0,0:0:0:50:Drum-Snare.wav
36,192,37228,1,0,0:0:0:50:Sub rhythm.wav
36,192,37468,1,0,0:0:0:50:Sub rhythm.wav
182,192,37588,1,0,0:0:0:50:Sub rhythm.wav
475,192,37588,1,0,0:0:0:50:Drum-Snare.wav
329,192,37708,1,0,0:0:0:50:Sub rhythm.wav
475,192,37828,1,0,0:0:0:40:Bell.wav
36,192,37828,1,0,0:0:0:50:Sub rhythm.wav
256,192,37948,1,0,0:0:0:50:Sub rhythm.wav
402,192,38068,1,0,0:0:0:50:Drum-Snare.wav
36,192,38068,1,0,0:0:0:50:Sub rhythm.wav
256,192,38188,1,0,0:0:0:50:Sub rhythm.wav
109,192,38308,1,0,0:0:0:50:Sub rhythm.wav
329,192,38428,1,0,0:0:0:50:Sub rhythm.wav
475,192,38548,1,0,0:0:0:50:Drum-Snare.wav
109,192,38548,1,0,0:0:0:50:Sub rhythm.wav
329,192,38668,1,0,0:0:0:50:Sub rhythm.wav
182,192,38788,1,0,0:0:0:50:Sub rhythm.wav
402,192,38908,1,0,0:0:0:50:Sub rhythm.wav
36,192,39028,1,0,0:0:0:50:Drum-Snare.wav
182,192,39028,1,0,0:0:0:50:Sub rhythm.wav
402,192,39148,1,0,0:0:0:50:Sub rhythm.wav
256,192,39268,1,0,0:0:0:50:Sub rhythm.wav
475,192,39388,1,0,0:0:0:50:Sub rhythm.wav
36,192,39508,1,0,0:0:0:50:Drum-Snare.wav
256,192,39508,1,0,0:0:0:50:Sub rhythm.wav
475,192,39628,1,0,0:0:0:50:Sub rhythm.wav
329,192,39748,1,0,0:0:0:50:Sub rhythm.wav
182,192,39748,1,0,0:0:0:40:Bell.wav
36,192,39868,1,0,0:0:0:50:Sub rhythm.wav
475,192,39988,1,0,0:0:0:50:Drum-Snare.wav
329,192,39988,1,0,0:0:0:50:Sub rhythm.wav
36,192,40108,1,0,0:0:0:50:Sub rhythm.wav
256,192,40228,1,0,0:0:0:50:Sub rhythm.wav
402,192,40348,1,0,0:0:0:50:Sub rhythm.wav
36,192,40468,1,0,0:0:0:50:Drum-Snare.wav
182,192,40468,1,0,0:0:0:50:Sub rhythm.wav
329,192,40588,1,0,0:0:0:50:Sub rhythm.wav
256,192,40828,1,0,0:0:0:50:Sub rhythm.wav
109,192,40948,1,0,0:0:0:50:Drum-Snare.wav
329,192,40948,1,0,0:0:0:50:Sub rhythm.wav
402,192,41068,1,0,0:0:0:50:Sub rhythm.wav
402,192,41308,1,0,0:0:0:50:Sub rhythm.wav
109,192,41428,1,0,0:0:0:50:Drum-Snare.wav
329,192,41428,1,0,0:0:0:50:Sub rhythm.wav
256,192,41548,1,0,0:0:0:50:Sub rhythm.wav
182,192,41668,1,0,0:0:0:50:Sub rhythm.wav
36,192,41668,1,0,0:0:0:40:Bell.wav
475,192,41788,1,0,0:0:0:50:Sub rhythm.wav
182,192,41908,1,0,0:0:0:50:Drum-Snare.wav
329,192,41908,1,0,0:0:0:50:Sub rhythm.wav
36,192,42028,1,0,0:0:0:50:Sub rhythm.wav
256,192,42148,1,0,0:0:0:50:Sub rhythm.wav
402,192,42268,1,0,0:0:0:50:Sub rhythm.wav
256,192,42388,1,0,0:0:0:50:Sub rhythm.wav
109,192,42388,1,0,0:0:0:50:Drum-Snare.wav
402,192,42508,1,0,0:0:0:50:Sub rhythm.wav
182,192,42628,1,0,0:0:0:50:Sub rhythm.wav
475,192,42748,1,0,0:0:0:50:Sub rhythm.wav
182,192,42868,1,0,0:0:0:50:Drum-Snare.wav
329,192,42868,1,0,0:0:0:50:Sub rhythm.wav
36,192,42988,1,0,0:0:0:50:Sub rhythm.wav
256,192,43108,1,0,0:0:0:50:Sub rhythm.wav
402,192,43228,1,0,0:0:0:50:Sub rhythm.wav
109,192,43348,1,0,0:0:0:50:Drum-Snare.wav
256,192,43348,1,0,0:0:0:50:Sub rhythm.wav
402,192,43468,1,0,0:0:0:50:Sub rhythm.wav
182,192,43588,1,0,0:0:0:50:Sub rhythm.wav
36,192,43588,1,0,0:0:0:40:Bell.wav
475,192,43708,1,0,0:0:0:50:Sub rhythm.wav
182,192,43828,1,0,0:0:0:50:Drum-Snare.wav
329,192,43828,1,0,0:0:0:50:Sub rhythm.wav
36,192,43948,1,0,0:0:0:50:Sub rhythm.wav
256,192,44068,1,0,0:0:0:50:Sub rhythm.wav
402,192,44188,1,0,0:0:0:50:Sub rhythm.wav
36,192,44308,1,0,0:0:0:50:Drum-Snare.wav
182,192,44308,1,0,0:0:0:50:Sub rhythm.wav
329,192,44428,1,0,0:0:0:50:Sub rhythm.wav
256,192,44668,1,0,0:0:0:50:Sub rhythm.wav
402,192,44788,1,0,0:0:0:50:Drum-Snare.wav
182,192,44908,1,0,0:0:0:50:Sub rhythm.wav
182,192,45148,1,0,0:0:0:50:Sub rhythm.wav
402,192,45268,1,0,0:0:0:50:Drum-Snare.wav
109,192,45268,1,0,0:0:0:50:Sub rhythm.wav
36,192,45388,1,0,0:0:0:50:Sub rhythm.wav
475,192,45508,1,0,0:0:0:50:Drum-KicK.wav
256,192,45508,128,0,45868:0:0:0:0:
329,192,45628,1,0,0:0:0:0:
182,192,45748,1,0,0:0:0:50:Drum-Snare.wav
36,192,45868,1,0,0:0:0:50:Drum-KicK.wav
36,192,46228,1,0,0:0:0:50:Drum-KicK.wav
256,192,46228,128,0,46588:0:0:0:0:
182,192,46348,1,0,0:0:0:0:
329,192,46468,1,0,0:0:0:50:Drum-Snare.wav
475,192,46588,1,0,0:0:0:50:Drum-KicK.wav
475,192,46948,1,0,0:0:0:50:Drum-KicK.wav
256,192,46948,128,0,47308:0:0:0:0:
329,192,47068,1,0,0:0:0:0:
182,192,47188,1,0,0:0:0:50:Drum-Snare.wav
36,192,47308,128,0,48028:0:0:0:50:Drum-KicK.wav
475,192,47668,1,0,0:0:0:50:Drum-Snare.wav
182,192,48028,1,0,0:0:0:50:Drum-KicK.wav
475,192,48148,1,0,0:0:0:50:Drum-Snare.wav
329,192,48148,1,0,0:0:0:0:
182,192,48268,128,0,48508:0:0:0:0:
36,192,48508,1,0,0:0:0:0:
475,192,48628,1,0,0:0:0:50:Drum-Snare.wav
256,192,48628,128,0,48748:0:0:0:0:
109,192,48748,128,0,48988:0:0:0:50:Drum-KicK.wav
256,192,48988,1,0,0:0:0:50:Drum-KicK.wav
109,192,49108,1,0,0:0:0:50:Drum-Snare.wav
329,192,49108,1,0,0:0:0:0:
402,192,49228,1,0,0:0:0:0:
182,192,49348,1,0,0:0:0:0:
36,192,49348,1,0,0:0:0:50:Drum-Snare.wav
475,192,49348,128,0,50788:0:0:0:40:Bell.wav
182,192,49588,1,0,0:0:0:0:
36,192,49588,1,0,0:0:0:50:Drum-Snare.wav
402,192,49828,1,0,0:0:0:0:
256,192,49828,1,0,0:0:0:50:Drum-Snare.wav
402,192,50068,1,0,0:0:0:0:
256,192,50068,1,0,0:0:0:50:Drum-Snare.wav
36,192,50308,1,0,0:0:0:50:Drum-Snare.wav
182,192,50308,1,0,0:0:0:0:
36,192,50548,1,0,0:0:0:50:Drum-Snare.wav
182,192,50548,1,0,0:0:0:0:
329,192,50788,1,0,0:0:0:50:Drum-Snare.wav
109,192,50788,1,0,0:0:0:0:
329,192,51028,1,0,0:0:0:50:Drum-Snare.wav
475,192,51028,1,0,0:0:0:0:
109,192,51028,128,0,51268:0:0:0:40:Bell.wav
36,192,51268,1,0,0:0:0:50:Drum-Snare.wav
256,192,51268,1,0,0:0:0:70:Drum Roll.wav
475,192,51268,1,0,0:0:0:40:Bell.wav
182,192,51388,1,0,0:0:0:70:Drum Roll.wav
329,192,51508,1,0,0:0:0:50:Drum-Snare.wav
109,192,51508,1,0,0:0:0:70:Drum Roll.wav
402,192,51628,1,0,0:0:0:70:Drum Roll.wav
36,192,51748,1,0,0:0:0:70:Drum Roll.wav
475,192,51748,1,0,0:0:0:50:Drum-Snare.wav
256,192,51748,1,0,0:0:0:40:Bell.wav
109,192,51868,1,0,0:0:0:70:Drum Roll.wav
402,192,51988,1,0,0:0:0:70:Drum Roll.wav
182,192,51988,1,0,0:0:0:50:Drum-Snare.wav
329,192,52108,1,0,0:0:0:70:Drum Roll.wav
36,192,52228,1,0,0:0:0:70:Drum Roll.wav
475,192,52228,1,0,0:0:0:50:Drum-Snare.wav
256,192,52228,1,0,0:0:0:40:Bell.wav
182,192,52348,1,0,0:0:0:70:Drum Roll.wav
329,192,52468,1,0,0:0:0:50:Drum-Snare.wav
402,192,52468,1,0,0:0:0:70:Drum Roll.wav
182,192,52588,1,0,0:0:0:70:Drum Roll.wav
402,192,53188,1,0,0:0:0:50:Drum-KicK.wav
109,192,53188,1,0,0:0:0:50:Shorted Crash.wav
402,192,53428,1,0,0:0:0:50:Drum-Snare.wav
109,192,53668,1,0,0:0:0:50:Drum-KicK.wav
402,192,53668,1,0,0:0:0:0:
182,192,53788,1,0,0:0:0:50:Drum-Snare.wav
256,192,53908,1,0,0:0:0:50:Drum-KicK.wav
36,192,54148,1,0,0:0:0:50:Drum-KicK.wav
329,192,54148,1,0,0:0:0:0:
36,192,54388,1,0,0:0:0:50:Drum-Snare.wav
329,192,54628,1,0,0:0:0:50:Drum-KicK.wav
36,192,54628,1,0,0:0:0:0:
402,192,54748,1,0,0:0:0:50:Drum-Snare.wav
475,192,54868,1,0,0:0:0:50:Drum-KicK.wav
109,192,55108,1,0,0:0:0:50:Drum-KicK.wav
256,192,55108,1,0,0:0:0:0:
109,192,55348,1,0,0:0:0:50:Drum-Snare.wav
256,192,55588,1,0,0:0:0:50:Drum-KicK.wav
109,192,55588,1,0,0:0:0:0:
329,192,55708,1,0,0:0:0:50:Drum-Snare.wav
402,192,55828,1,0,0:0:0:50:Drum-KicK.wav
182,192,56068,1,0,0:0:0:50:Drum-KicK.wav
475,192,56068,1,0,0:0:0:0:
182,192,56308,1,0,0:0:0:50:Drum-KicK.wav
256,192,56428,1,0,0:0:0:50:Drum-Snare.wav
329,192,56548,5,0,0:0:0:50:Drum-KicK.wav
475,192,56548,1,0,0:0:0:0:
329,192,56788,1,0,0:0:0:50:Drum-Snare.wav
182,192,56908,1,0,0:0:0:50:Drum-KicK.wav
36,192,57028,1,0,0:0:0:50:Drum-KicK.wav
475,192,57028,1,0,0:0:0:0:
36,192,57268,1,0,0:0:0:50:Drum-Snare.wav
475,192,57508,5,0,0:0:0:50:Drum-KicK.wav
36,192,57508,1,0,0:0:0:0:
402,192,57628,1,0,0:0:0:50:Drum-Snare.wav
329,192,57748,1,0,0:0:0:50:Drum-KicK.wav
402,192,57988,5,0,0:0:0:50:Drum-KicK.wav
182,192,57988,1,0,0:0:0:0:
402,192,58228,1,0,0:0:0:50:Drum-Snare.wav
182,192,58468,1,0,0:0:0:50:Drum-KicK.wav
402,192,58468,1,0,0:0:0:0:
109,192,58588,1,0,0:0:0:50:Drum-Snare.wav
36,192,58708,1,0,0:0:0:50:Drum-KicK.wav
329,192,58948,5,0,0:0:0:50:Drum-KicK.wav
182,192,58948,1,0,0:0:0:0:
329,192,59188,1,0,0:0:0:50:Drum-Snare.wav
182,192,59428,1,0,0:0:0:50:Drum-KicK.wav
329,192,59428,1,0,0:0:0:0:
36,192,59548,1,0,0:0:0:50:Drum-Snare.wav
182,192,59668,1,0,0:0:0:50:Drum-KicK.wav
36,192,59788,1,0,0:0:0:50:Drum-Snare.wav
256,192,59908,5,0,0:0:0:50:Drum-Snare.wav
402,192,59908,1,0,0:0:0:0:
256,192,60148,5,0,0:0:0:50:Drum-Snare.wav
402,192,60148,1,0,0:0:0:0:
402,192,60388,1,0,0:0:0:0:
256,192,60388,1,0,0:0:0:50:Drum-Snare.wav
36,192,60508,1,0,0:0:0:50:Drum-Snare.wav
182,192,60628,1,0,0:0:0:50:Drum-Snare.wav
329,192,60748,1,0,0:0:0:50:Drum-Snare.wav
109,192,60868,1,0,0:0:0:50:Drum-KicK.wav
475,192,60868,1,0,0:0:0:50:Synth.wav
109,192,61108,1,0,0:0:0:50:Drum-Snare.wav
475,192,61108,1,0,0:0:0:50:Synth.wav
402,192,61228,1,0,0:0:0:50:Synth.wav
109,192,61348,1,0,0:0:0:50:Drum-KicK.wav
402,192,61468,1,0,0:0:0:50:Synth.wav
109,192,61588,1,0,0:0:0:50:Drum-KicK.wav
329,192,61588,1,0,0:0:0:50:Synth.wav
256,192,61708,1,0,0:0:0:50:Synth.wav
402,192,61828,1,0,0:0:0:50:Drum-KicK.wav
182,192,61828,1,0,0:0:0:50:Synth.wav
402,192,62068,1,0,0:0:0:50:Drum-Snare.wav
182,192,62068,1,0,0:0:0:50:Synth.wav
109,192,62188,1,0,0:0:0:50:Synth.wav
402,192,62308,1,0,0:0:0:50:Drum-KicK.wav
109,192,62428,1,0,0:0:0:50:Synth.wav
402,192,62548,1,0,0:0:0:50:Drum-KicK.wav
182,192,62548,1,0,0:0:0:50:Synth.wav
256,192,62668,1,0,0:0:0:50:Synth.wav
36,192,62788,1,0,0:0:0:50:Drum-KicK.wav
329,192,62788,1,0,0:0:0:50:Synth.wav
36,192,63028,1,0,0:0:0:50:Drum-Snare.wav
329,192,63028,1,0,0:0:0:50:Synth.wav
256,192,63148,1,0,0:0:0:50:Synth.wav
36,192,63268,1,0,0:0:0:50:Drum-KicK.wav
256,192,63388,1,0,0:0:0:50:Synth.wav
36,192,63508,1,0,0:0:0:50:Drum-KicK.wav
329,192,63508,1,0,0:0:0:50:Synth.wav
402,192,63628,1,0,0:0:0:50:Synth.wav
475,192,63748,1,0,0:0:0:50:Drum-KicK.wav
182,192,63748,1,0,0:0:0:50:Synth.wav
475,192,63988,1,0,0:0:0:50:Drum-KicK.wav
182,192,63988,1,0,0:0:0:50:Synth.wav
256,192,64108,1,0,0:0:0:50:Synth.wav
475,192,64228,1,0,0:0:0:50:Drum-KicK.wav
256,192,64348,1,0,0:0:0:50:Synth.wav
182,192,64468,1,0,0:0:0:50:Synth.wav
475,192,64468,1,0,0:0:0:50:Drum-Snare.wav
109,192,64588,1,0,0:0:0:50:Synth.wav
36,192,64708,1,0,0:0:0:50:Drum-KicK.wav
329,192,64708,1,0,0:0:0:50:Synth.wav
36,192,64948,1,0,0:0:0:50:Drum-Snare.wav
329,192,64948,1,0,0:0:0:50:Synth.wav
182,192,65068,1,0,0:0:0:50:Synth.wav
36,192,65188,1,0,0:0:0:50:Drum-KicK.wav
182,192,65308,1,0,0:0:0:50:Synth.wav
36,192,65428,1,0,0:0:0:50:Drum-KicK.wav
256,192,65428,1,0,0:0:0:50:Synth.wav
329,192,65548,1,0,0:0:0:50:Synth.wav
402,192,65668,1,0,0:0:0:50:Drum-KicK.wav
109,192,65668,1,0,0:0:0:50:Synth.wav
402,192,65908,1,0,0:0:0:50:Drum-Snare.wav
109,192,65908,1,0,0:0:0:50:Synth.wav
36,192,66028,1,0,0:0:0:50:Synth.wav
402,192,66148,1,0,0:0:0:50:Drum-KicK.wav
36,192,66268,1,0,0:0:0:50:Synth.wav
402,192,66388,1,0,0:0:0:50:Drum-KicK.wav
182,192,66388,1,0,0:0:0:50:Synth.wav
329,192,66508,1,0,0:0:0:50:Synth.wav
109,192,66628,1,0,0:0:0:50:Drum-KicK.wav
475,192,66628,1,0,0:0:0:50:Synth.wav
109,192,66868,1,0,0:0:0:50:Drum-Snare.wav
475,192,66868,1,0,0:0:0:50:Synth.wav
329,192,66988,1,0,0:0:0:50:Synth.wav
109,192,67108,1,0,0:0:0:50:Drum-KicK.wav
329,192,67228,1,0,0:0:0:50:Synth.wav
109,192,67348,1,0,0:0:0:50:Drum-KicK.wav
402,192,67348,1,0,0:0:0:50:Synth.wav
475,192,67468,5,0,0:0:0:50:Synth.wav
182,192,67588,1,0,0:0:0:50:Synth.wav
36,192,67588,1,0,0:0:0:50:Drum-KicK.wav
182,192,67828,1,0,0:0:0:50:Drum-KicK.wav
329,192,67828,1,0,0:0:0:50:Synth.wav
475,192,68068,1,0,0:0:0:0:
329,192,68068,1,0,0:0:0:50:Drum-KicK.wav
256,192,68188,1,0,0:0:0:50:Drum-KicK.wav
182,192,68308,1,0,0:0:0:50:Drum-KicK.wav
36,192,68308,1,0,0:0:0:0:
256,192,68428,1,0,0:0:0:50:Drum-KicK.wav
329,192,68548,128,0,69508:0:0:0:30:Synth.wav
36,192,69028,128,0,69508:0:0:0:30:Synth.wav
182,192,69268,128,0,69508:0:0:0:30:Synth.wav
475,192,69508,128,0,69628:0:0:0:30:Synth.wav
256,192,69628,128,0,69748:0:0:0:30:Synth.wav
402,192,69748,128,0,69868:0:0:0:30:Synth.wav
182,192,69868,128,0,69988:0:0:0:30:Synth.wav
329,192,69988,128,0,70108:0:0:0:30:Synth.wav
109,192,70108,128,0,70228:0:0:0:30:Synth.wav
256,192,70228,128,0,70348:0:0:0:30:Synth.wav
36,192,70348,128,0,70468:0:0:0:30:Synth.wav
329,192,70468,1,0,0:0:0:50:Drum-KicK.wav
475,192,70468,1,0,0:0:0:40:Emphasized.wav
329,192,70708,1,0,0:0:0:0:
182,192,70948,1,0,0:0:0:0:
36,192,70948,1,0,0:0:0:50:Drum-Snare.wav
402,192,71188,1,0,0:0:0:0:
182,192,71308,1,0,0:0:0:50:Drum-KicK.wav
329,192,71308,1,0,0:0:0:0:
109,192,71548,1,0,0:0:0:50:Drum-Snare.wav
182,192,71668,1,0,0:0:0:50:Drum-KicK.wav
329,192,71668,1,0,0:0:0:0:
402,192,71908,128,0,72388:0:0:0:50:Drum-Snare.wav
256,192,72148,128,0,72388:0:0:0:0:
182,192,72388,1,0,0:0:0:40:Emphasized.wav
36,192,72388,1,0,0:0:0:50:Drum-KicK.wav
36,192,72628,1,0,0:0:0:0:
182,192,72868,1,0,0:0:0:50:Drum-Snare.wav
329,192,72868,1,0,0:0:0:0:
475,192,73108,1,0,0:0:0:0:
256,192,73228,1,0,0:0:0:50:Drum-KicK.wav
402,192,73228,1,0,0:0:0:0:
182,192,73468,1,0,0:0:0:50:Drum-Snare.wav
256,192,73588,1,0,0:0:0:50:Drum-KicK.wav
402,192,73588,1,0,0:0:0:0:
36,192,73828,128,0,74308:0:0:0:50:Drum-Snare.wav
182,192,74068,128,0,74308:0:0:0:0:
329,192,74308,1,0,0:0:0:40:Emphasized.wav
475,192,74308,1,0,0:0:0:50:Drum-KicK.wav
475,192,74548,1,0,0:0:0:0:
256,192,74788,1,0,0:0:0:0:
109,192,74788,1,0,0:0:0:50:Drum-Snare.wav
182,192,75028,1,0,0:0:0:0:
36,192,75148,1,0,0:0:0:50:Drum-KicK.wav
329,192,75148,1,0,0:0:0:0:
475,192,75388,1,0,0:0:0:50:Drum-Snare.wav
36,192,75508,1,0,0:0:0:50:Drum-KicK.wav
329,192,75508,1,0,0:0:0:0:
256,192,75748,128,0,76228:0:0:0:50:Drum-Snare.wav
402,192,75988,128,0,76228:0:0:0:0:
182,192,76228,1,0,0:0:0:40:Emphasized.wav
36,192,76228,1,0,0:0:0:50:Drum-KicK.wav
36,192,76468,1,0,0:0:0:0:
475,192,76708,1,0,0:0:0:0:
329,192,76708,1,0,0:0:0:50:Drum-Snare.wav
182,192,76948,1,0,0:0:0:0:
109,192,77068,1,0,0:0:0:50:Drum-KicK.wav
402,192,77068,1,0,0:0:0:0:
329,192,77308,1,0,0:0:0:50:Drum-Snare.wav
109,192,77428,1,0,0:0:0:50:Drum-KicK.wav
402,192,77428,1,0,0:0:0:0:
475,192,77668,128,0,77828:0:0:0:50:Drum-Snare.wav
329,192,77828,128,0,77988:0:0:0:0:
182,192,77988,128,0,78148:0:0:0:0:
36,192,78148,128,0,78308:0:0:0:0:
182,192,78388,1,0,0:0:0:40:Emphasized.wav
329,192,78388,1,0,0:0:0:50:Drum-KicK.wav
475,192,78628,1,0,0:0:0:50:Drum-Snare.wav
329,192,78628,1,0,0:0:0:0:
109,192,78868,1,0,0:0:0:0:
402,192,78988,1,0,0:0:0:50:Drum-KicK.wav
256,192,78988,1,0,0:0:0:0:
402,192,79228,1,0,0:0:0:50:Drum-Snare.wav
109,192,79348,1,0,0:0:0:50:Drum-KicK.wav
256,192,79348,1,0,0:0:0:0:
182,192,79588,128,0,80068:0:0:0:50:Drum-Snare.wav
329,192,79828,128,0,80068:0:0:0:0:
36,192,80068,1,0,0:0:0:40:Emphasized.wav
475,192,80068,128,0,80188:0:0:0:50:Drum-KicK.wav
36,192,80308,1,0,0:0:0:0:
475,192,80428,128,0,80548:0:0:0:0:
109,192,80548,1,0,0:0:0:50:Drum-Snare.wav
256,192,80548,1,0,0:0:0:0:
475,192,80788,128,0,80908:0:0:0:0:
182,192,80908,1,0,0:0:0:50:Drum-KicK.wav
36,192,81148,1,0,0:0:0:50:Drum-Snare.wav
475,192,81148,128,0,81268:0:0:0:0:
182,192,81268,1,0,0:0:0:50:Drum-KicK.wav
36,192,81508,1,0,0:0:0:50:Drum-Snare.wav
475,192,81508,128,0,81988:0:0:0:0:
329,192,81748,128,0,81988:0:0:0:0:
36,192,81988,1,0,0:0:0:40:Emphasized.wav
182,192,81988,1,0,0:0:0:50:Drum-KicK.wav
182,192,82228,1,0,0:0:0:0:
256,192,82468,1,0,0:0:0:50:Drum-Snare.wav
402,192,82468,1,0,0:0:0:0:
36,192,82708,1,0,0:0:0:0:
182,192,82828,1,0,0:0:0:50:Drum-KicK.wav
329,192,82828,1,0,0:0:0:0:
329,192,83068,1,0,0:0:0:50:Drum-Snare.wav
36,192,83188,1,0,0:0:0:50:Drum-KicK.wav
182,192,83188,1,0,0:0:0:0:
256,192,83428,128,0,83908:0:0:0:50:Drum-Snare.wav
109,192,83668,128,0,83908:0:0:0:0:
329,192,83908,1,0,0:0:0:40:Emphasized.wav
475,192,83908,1,0,0:0:0:50:Drum-KicK.wav
475,192,84148,1,0,0:0:0:0:
36,192,84388,1,0,0:0:0:50:Drum-Snare.wav
182,192,84388,1,0,0:0:0:0:
475,192,84628,1,0,0:0:0:0:
182,192,84748,1,0,0:0:0:50:Drum-KicK.wav
329,192,84748,1,0,0:0:0:0:
182,192,84988,1,0,0:0:0:50:Drum-Snare.wav
329,192,85108,1,0,0:0:0:50:Drum-KicK.wav
475,192,85108,1,0,0:0:0:0:
109,192,85348,128,0,85468:0:0:0:50:Drum-Snare.wav
109,192,85588,128,0,85828:0:0:0:0:
402,192,85828,1,0,0:0:0:50:Drum-KicK.wav
256,192,85828,1,0,0:0:0:40:Emphasized.wav
402,192,86068,1,0,0:0:0:0:
36,192,86308,1,0,0:0:0:0:
182,192,86308,1,0,0:0:0:50:Drum-Snare.wav
475,192,86548,1,0,0:0:0:0:
256,192,86668,1,0,0:0:0:50:Drum-KicK.wav
402,192,86668,1,0,0:0:0:0:
36,192,86908,1,0,0:0:0:50:Drum-Snare.wav
256,192,87028,1,0,0:0:0:50:Drum-KicK.wav
109,192,87028,1,0,0:0:0:0:
329,192,87268,128,0,87748:0:0:0:50:Drum-Snare.wav
475,192,87508,128,0,87748:0:0:0:0:
36,192,87748,1,0,0:0:0:40:Emphasized.wav
182,192,87748,1,0,0:0:0:50:Drum-KicK.wav
182,192,87988,1,0,0:0:0:0:
475,192,88228,1,0,0:0:0:0:
329,192,88228,1,0,0:0:0:50:Drum-Snare.wav
402,192,88468,1,0,0:0:0:0:
329,192,88588,1,0,0:0:0:50:Drum-KicK.wav
109,192,88588,1,0,0:0:0:0:
109,192,88828,1,0,0:0:0:50:Drum-Snare.wav
182,192,88948,1,0,0:0:0:50:Drum-KicK.wav
329,192,88948,1,0,0:0:0:0:
402,192,89188,128,0,89668:0:0:0:50:Drum-Snare.wav
256,192,89428,128,0,89668:0:0:0:0:
36,192,89668,1,0,0:0:0:50:Drum-KicK.wav
182,192,89668,1,0,0:0:0:40:Emphasized.wav
36,192,89908,1,0,0:0:0:0:
329,192,90148,1,0,0:0:0:50:Drum-Snare.wav
475,192,90148,1,0,0:0:0:0:
36,192,90388,1,0,0:0:0:0:
256,192,90508,1,0,0:0:0:50:Drum-KicK.wav
109,192,90508,1,0,0:0:0:0:
475,192,90748,1,0,0:0:0:50:Drum-Snare.wav
256,192,90868,1,0,0:0:0:50:Drum-KicK.wav
402,192,90868,1,0,0:0:0:0:
36,192,91108,128,0,91588:0:0:0:50:Drum-Snare.wav
182,192,91348,128,0,91588:0:0:0:0:
475,192,91588,1,0,0:0:0:50:Drum-KicK.wav
329,192,91588,1,0,0:0:0:40:Emphasized.wav
475,192,91828,1,0,0:0:0:0:
329,192,92068,1,0,0:0:0:0:
182,192,92068,1,0,0:0:0:50:Drum-Snare.wav
36,192,92308,1,0,0:0:0:0:
109,192,92428,1,0,0:0:0:50:Drum-KicK.wav
329,192,92428,1,0,0:0:0:0:
329,192,92668,1,0,0:0:0:50:Drum-Snare.wav
256,192,92788,1,0,0:0:0:50:Drum-KicK.wav
109,192,92788,1,0,0:0:0:0:
182,192,93028,128,0,93188:0:0:0:50:Drum-Snare.wav
402,192,93188,128,0,93348:0:0:0:0:
256,192,93348,128,0,93508:0:0:0:0:
475,192,93508,128,0,93668:0:0:0:0:
36,192,93748,1,0,0:0:0:40:Emphasized.wav
182,192,93748,1,0,0:0:0:50:Drum-KicK.wav
329,192,93988,1,0,0:0:0:50:Drum-Snare.wav
182,192,93988,1,0,0:0:0:0:
36,192,94228,1,0,0:0:0:0:
256,192,94348,1,0,0:0:0:50:Drum-KicK.wav
109,192,94348,1,0,0:0:0:0:
256,192,94588,1,0,0:0:0:50:Drum-Snare.wav
475,192,94708,1,0,0:0:0:50:Drum-KicK.wav
329,192,94708,1,0,0:0:0:0:
182,192,94948,128,0,95428:0:0:0:50:Drum-Snare.wav
329,192,95188,128,0,95428:0:0:0:0:
475,192,95428,1,0,0:0:0:50:Drum-KicK.wav
36,192,95428,128,0,95548:0:0:0:40:Emphasized.wav
475,192,95668,1,0,0:0:0:0:
36,192,95788,128,0,95908:0:0:0:0:
182,192,95908,1,0,0:0:0:0:
329,192,95908,1,0,0:0:0:50:Drum-Snare.wav
36,192,96148,128,0,96268:0:0:0:0:
402,192,96268,1,0,0:0:0:50:Drum-KicK.wav
256,192,96508,1,0,0:0:0:50:Drum-Snare.wav
36,192,96508,128,0,96628:0:0:0:0:
402,192,96628,1,0,0:0:0:50:Drum-KicK.wav
256,192,96868,1,0,0:0:0:50:Drum-Snare.wav
36,192,96868,128,0,97348:0:0:0:0:
182,192,97108,128,0,97348:0:0:0:0:
475,192,97348,1,0,0:0:0:40:Emphasized.wav
329,192,97348,1,0,0:0:0:50:Drum-KicK.wav
329,192,97588,1,0,0:0:0:0:
36,192,97828,1,0,0:0:0:0:
182,192,97828,1,0,0:0:0:50:Drum-Snare.wav
402,192,98068,1,0,0:0:0:0:
256,192,98188,1,0,0:0:0:0:
109,192,98188,1,0,0:0:0:50:Drum-KicK.wav
109,192,98428,1,0,0:0:0:50:Drum-Snare.wav
329,192,98548,1,0,0:0:0:0:
182,192,98548,1,0,0:0:0:50:Drum-KicK.wav
402,192,98788,128,0,99268:0:0:0:50:Drum-Snare.wav
256,192,99028,128,0,99268:0:0:0:0:
36,192,99268,1,0,0:0:0:50:Drum-KicK.wav
182,192,99268,1,0,0:0:0:40:Emphasized.wav
182,192,99508,1,0,0:0:0:0:
329,192,99748,1,0,0:0:0:0:
475,192,99748,1,0,0:0:0:50:Drum-Snare.wav
109,192,99988,1,0,0:0:0:0:
402,192,100108,1,0,0:0:0:50:Drum-KicK.wav
256,192,100108,1,0,0:0:0:0:
256,192,100348,1,0,0:0:0:50:Drum-Snare.wav
109,192,100468,1,0,0:0:0:50:Drum-KicK.wav
402,192,100468,1,0,0:0:0:0:
256,192,100708,128,0,100828:0:0:0:50:Drum-Snare.wav
256,192,100948,128,0,101188:0:0:0:0:
36,192,101188,1,0,0:0:0:50:Drum-KicK.wav
475,192,101188,1,0,0:0:0:20:HihaT.wav
402,192,101348,1,0,0:0:0:20:HihaT.wav
329,192,101508,1,0,0:0:0:20:HihaT.wav
256,192,101668,1,0,0:0:0:20:HihaT.wav
182,192,101828,1,0,0:0:0:20:HihaT.wav
109,192,101988,1,0,0:0:0:20:HihaT.wav
36,192,102148,128,0,102748:0:0:0:50:Sub rhythm.wav
36,192,103108,1,0,0:0:0:50:Synth.wav
256,192,103108,128,0,105028:0:0:0:40:Bell.wav
109,192,103228,1,0,0:0:0:50:Synth.wav
109,192,103468,1,0,0:0:0:50:Synth.wav
475,192,103708,1,0,0:0:0:50:Synth.wav
402,192,103948,1,0,0:0:0:50:Synth.wav
36,192,104068,1,0,0:0:0:50:Synth.wav
109,192,104188,1,0,0:0:0:50:Synth.wav
109,192,104428,1,0,0:0:0:50:Synth.wav
402,192,104668,1,0,0:0:0:50:Synth.wav
329,192,104908,1,0,0:0:0:50:Synth.wav
36,192,105028,1,0,0:0:0:50:Synth.wav
475,192,105028,128,0,105988:0:0:0:40:Bell.wav
109,192,105148,1,0,0:0:0:50:Synth.wav
109,192,105388,1,0,0:0:0:50:Synth.wav
329,192,105628,1,0,0:0:0:50:Synth.wav
256,192,105868,1,0,0:0:0:50:Synth.wav
36,192,105988,1,0,0:0:0:50:Drum-Snare.wav
182,192,106108,1,0,0:0:0:50:Drum-KicK.wav
329,192,106228,1,0,0:0:0:50:Drum-Snare.wav
475,192,106228,1,0,0:0:0:0:
182,192,106468,1,0,0:0:0:50:Drum-Snare.wav
329,192,106468,1,0,0:0:0:0:
36,192,106708,1,0,0:0:0:50:Drum-Snare.wav
182,192,106708,1,0,0:0:0:0:
36,192,106948,1,0,0:0:0:50:Drum-KicK.wav
475,192,106948,1,0,0:0:0:50:Shorted Crash.wav
256,192,106948,1,0,0:0:0:0:
182,192,107068,1,0,0:0:0:50:Drum-KicK.wav
329,192,107188,1,0,0:0:0:50:Drum-Snare.wav
109,192,107308,1,0,0:0:0:0:
256,192,107428,1,0,0:0:0:0:
402,192,107548,1,0,0:0:0:50:Drum-KicK.wav
182,192,107668,1,0,0:0:0:50:Drum-Snare.wav
329,192,107788,1,0,0:0:0:0:
475,192,107908,1,0,0:0:0:50:Drum-KicK.wav
36,192,107908,1,0,0:0:0:0:
329,192,108028,1,0,0:0:0:50:Drum-KicK.wav
182,192,108148,1,0,0:0:0:50:Drum-Snare.wav
402,192,108268,1,0,0:0:0:0:
256,192,108388,1,0,0:0:0:0:
109,192,108508,1,0,0:0:0:50:Drum-KicK.wav
329,192,108628,1,0,0:0:0:50:Drum-Snare.wav
182,192,108748,1,0,0:0:0:0:
36,192,108868,1,0,0:0:0:50:Drum-KicK.wav
475,192,108868,1,0,0:0:0:0:
109,192,108988,1,0,0:0:0:50:Drum-KicK.wav
256,192,109108,1,0,0:0:0:50:Drum-Snare.wav
329,192,109228,1,0,0:0:0:0:
109,192,109348,1,0,0:0:0:0:
182,192,109468,1,0,0:0:0:50:Drum-KicK.wav
329,192,109588,1,0,0:0:0:50:Drum-Snare.wav
402,192,109708,1,0,0:0:0:0:
182,192,109828,1,0,0:0:0:50:Drum-KicK.wav
36,192,109828,1,0,0:0:0:0:
256,192,109948,1,0,0:0:0:50:Drum-KicK.wav
402,192,110068,1,0,0:0:0:50:Drum-Snare.wav
475,192,110188,1,0,0:0:0:50:Drum-KicK.wav
182,192,110308,128,0,110428:0:0:0:70:Drum Roll.wav
329,192,110428,128,0,110548:0:0:0:70:Drum Roll.wav
182,192,110548,128,0,110668:0:0:0:70:Drum Roll.wav
329,192,110668,128,0,110788:0:0:0:70:Drum Roll.wav
36,192,110788,1,0,0:0:0:50:Drum-KicK.wav
475,192,110788,1,0,0:0:0:0:
256,192,110908,1,0,0:0:0:50:Drum-KicK.wav
109,192,111028,1,0,0:0:0:50:Drum-Snare.wav
329,192,111148,1,0,0:0:0:0:
182,192,111268,1,0,0:0:0:0:
402,192,111388,1,0,0:0:0:50:Drum-KicK.wav
256,192,111508,1,0,0:0:0:50:Drum-Snare.wav
475,192,111628,1,0,0:0:0:0:
182,192,111748,1,0,0:0:0:50:Drum-KicK.wav
36,192,111748,1,0,0:0:0:0:
475,192,111868,1,0,0:0:0:50:Drum-KicK.wav
256,192,111988,1,0,0:0:0:50:Drum-Snare.wav
402,192,112108,1,0,0:0:0:0:
182,192,112228,1,0,0:0:0:0:
329,192,112348,1,0,0:0:0:50:Drum-KicK.wav
109,192,112468,1,0,0:0:0:50:Drum-Snare.wav
256,192,112588,1,0,0:0:0:0:
36,192,112708,1,0,0:0:0:50:Drum-KicK.wav
475,192,112708,1,0,0:0:0:0:
182,192,112828,1,0,0:0:0:50:Drum-KicK.wav
256,192,112948,1,0,0:0:0:50:Drum-Snare.wav
402,192,113068,1,0,0:0:0:0:
109,192,113188,1,0,0:0:0:0:
256,192,113308,1,0,0:0:0:50:Drum-KicK.wav
329,192,113428,1,0,0:0:0:50:Drum-Snare.wav
475,192,113548,1,0,0:0:0:0:
36,192,113668,1,0,0:0:0:0:
182,192,113668,1,0,0:0:0:50:Drum-KicK.wav
402,192,113788,1,0,0:0:0:50:Drum-KicK.wav
182,192,113908,1,0,0:0:0:50:Drum-Snare.wav
402,192,114028,1,0,0:0:0:50:Drum-KicK.wav
109,192,114148,1,0,0:0:0:0:
329,192,114268,1,0,0:0:0:50:Drum-KicK.wav
109,192,114388,1,0,0:0:0:50:Drum-Snare.wav
329,192,114508,1,0,0:0:0:0:
36,192,114628,1,0,0:0:0:50:Drum-KicK.wav
475,192,114628,1,0,0:0:0:0:
109,192,114748,1,0,0:0:0:50:Drum-KicK.wav
182,192,114868,1,0,0:0:0:50:Drum-Snare.wav
329,192,114988,1,0,0:0:0:0:
109,192,115108,1,0,0:0:0:0:
182,192,115228,1,0,0:0:0:50:Drum-KicK.wav
256,192,115348,1,0,0:0:0:50:Drum-Snare.wav
402,192,115468,1,0,0:0:0:0:
36,192,115588,1,0,0:0:0:0:
182,192,115588,1,0,0:0:0:50:Drum-KicK.wav
256,192,115708,1,0,0:0:0:50:Drum-KicK.wav
329,192,115828,1,0,0:0:0:50:Drum-Snare.wav
475,192,115948,1,0,0:0:0:0:
109,192,116068,1,0,0:0:0:0:
36,192,116188,1,0,0:0:0:50:Drum-KicK.wav
256,192,116308,1,0,0:0:0:50:Drum-Snare.wav
329,192,116428,1,0,0:0:0:0:
182,192,116548,1,0,0:0:0:50:Drum-KicK.wav
475,192,116548,1,0,0:0:0:0:
109,192,116668,1,0,0:0:0:50:Drum-KicK.wav
329,192,116788,1,0,0:0:0:50:Drum-Snare.wav
402,192,116908,1,0,0:0:0:0:
256,192,117028,1,0,0:0:0:0:
182,192,117148,1,0,0:0:0:50:Drum-KicK.wav
402,192,117268,1,0,0:0:0:50:Drum-Snare.wav
475,192,117388,1,0,0:0:0:0:
256,192,117508,1,0,0:0:0:0:
36,192,117508,1,0,0:0:0:50:Drum-KicK.wav
182,192,117628,1,0,0:0:0:50:Drum-KicK.wav
329,192,117748,1,0,0:0:0:50:Drum-Snare.wav
475,192,117868,1,0,0:0:0:50:Drum-KicK.wav
109,192,117988,128,0,118108:0:0:0:70:Drum Roll.wav
402,192,118108,128,0,118228:0:0:0:70:Drum Roll.wav
109,192,118228,128,0,118348:0:0:0:70:Drum Roll.wav
402,192,118348,128,0,118468:0:0:0:70:Drum Roll.wav
475,192,118468,1,0,0:0:0:50:Shorted Crash.wav
256,192,118468,1,0,0:0:0:0:
36,192,118468,1,0,0:0:0:50:Drum-KicK.wav
182,192,118588,1,0,0:0:0:50:Drum-KicK.wav
329,192,118708,1,0,0:0:0:50:Drum-Snare.wav
109,192,118828,1,0,0:0:0:0:
402,192,118948,1,0,0:0:0:0:
36,192,119068,1,0,0:0:0:50:Drum-KicK.wav
475,192,119188,1,0,0:0:0:50:Drum-Snare.wav
329,192,119308,1,0,0:0:0:0:
36,192,119428,1,0,0:0:0:0:
182,192,119428,1,0,0:0:0:50:Drum-KicK.wav
329,192,119548,1,0,0:0:0:50:Drum-KicK.wav
475,192,119668,1,0,0:0:0:50:Drum-Snare.wav
36,192,119788,1,0,0:0:0:0:
402,192,119908,1,0,0:0:0:0:
109,192,120028,1,0,0:0:0:50:Drum-KicK.wav
329,192,120148,1,0,0:0:0:50:Drum-Snare.wav
182,192,120268,1,0,0:0:0:0:
475,192,120388,1,0,0:0:0:50:Drum-KicK.wav
256,192,120388,1,0,0:0:0:0:
36,192,120508,1,0,0:0:0:50:Drum-KicK.wav
182,192,120628,1,0,0:0:0:50:Drum-Snare.wav
329,192,120748,1,0,0:0:0:0:
475,192,120868,1,0,0:0:0:0:
109,192,120988,1,0,0:0:0:50:Drum-KicK.wav
256,192,121108,1,0,0:0:0:50:Drum-Snare.wav
402,192,121228,1,0,0:0:0:0:
182,192,121348,1,0,0:0:0:50:Drum-KicK.wav
36,192,121348,1,0,0:0:0:0:
329,192,121468,1,0,0:0:0:50:Drum-KicK.wav
182,192,121588,1,0,0:0:0:50:Drum-Snare.wav
329,192,121708,1,0,0:0:0:50:Drum-KicK.wav
109,192,121828,1,0,0:0:0:0:
402,192,121948,1,0,0:0:0:50:Drum-KicK.wav
109,192,122068,1,0,0:0:0:50:Drum-Snare.wav
402,192,122188,1,0,0:0:0:0:
36,192,122308,1,0,0:0:0:50:Drum-KicK.wav
256,192,122308,1,0,0:0:0:0:
475,192,122428,1,0,0:0:0:50:Drum-KicK.wav
109,192,122548,1,0,0:0:0:50:Drum-Snare.wav
402,192,122668,1,0,0:0:0:0:
182,192,122788,1,0,0:0:0:0:
329,192,122908,1,0,0:0:0:50:Drum-KicK.wav
109,192,123028,1,0,0:0:0:50:Drum-Snare.wav
475,192,123148,1,0,0:0:0:0:
256,192,123268,1,0,0:0:0:50:Drum-KicK.wav
36,192,123268,1,0,0:0:0:0:
475,192,123388,1,0,0:0:0:50:Drum-KicK.wav
109,192,123508,1,0,0:0:0:50:Drum-Snare.wav
329,192,123628,1,0,0:0:0:0:
182,192,123748,1,0,0:0:0:0:
402,192,123868,1,0,0:0:0:50:Drum-KicK.wav
109,192,123988,1,0,0:0:0:50:Drum-Snare.wav
475,192,124108,1,0,0:0:0:0:
256,192,124228,1,0,0:0:0:50:Drum-KicK.wav
36,192,124228,1,0,0:0:0:0:
402,192,124348,1,0,0:0:0:50:Drum-KicK.wav
182,192,124468,1,0,0:0:0:50:Drum-Snare.wav
329,192,124588,1,0,0:0:0:0:
109,192,124708,1,0,0:0:0:0:
402,192,124828,1,0,0:0:0:50:Drum-KicK.wav
36,192,124948,1,0,0:0:0:50:Drum-Snare.wav
475,192,125068,1,0,0:0:0:0:
182,192,125188,5,0,0:0:0:50:Drum-KicK.wav
329,192,125188,1,0,0:0:0:0:
36,192,125308,1,0,0:0:0:50:Drum-KicK.wav
256,192,125428,1,0,0:0:0:50:Drum-Snare.wav
475,192,125548,1,0,0:0:0:50:Drum-KicK.wav
36,192,125668,128,0,125788:0:0:0:70:Drum Roll.wav
475,192,125788,128,0,125908:0:0:0:70:Drum Roll.wav
36,192,125908,128,0,126028:0:0:0:70:Drum Roll.wav
475,192,126028,128,0,126148:0:0:0:70:Drum Roll.wav
329,192,126148,1,0,0:0:0:50:Drum-KicK.wav
182,192,126148,1,0,0:0:0:0:
36,192,126268,1,0,0:0:0:50:Drum-KicK.wav
402,192,126388,1,0,0:0:0:50:Drum-Snare.wav
109,192,126508,1,0,0:0:0:0:
475,192,126628,1,0,0:0:0:0:
182,192,126748,1,0,0:0:0:50:Drum-KicK.wav
329,192,126868,1,0,0:0:0:50:Drum-Snare.wav
36,192,126988,1,0,0:0:0:0:
256,192,127108,1,0,0:0:0:50:Drum-KicK.wav
402,192,127108,1,0,0:0:0:0:
36,192,127228,1,0,0:0:0:50:Drum-KicK.wav
329,192,127348,1,0,0:0:0:50:Drum-Snare.wav
182,192,127468,1,0,0:0:0:0:
475,192,127588,1,0,0:0:0:0:
109,192,127708,1,0,0:0:0:50:Drum-KicK.wav
402,192,127828,1,0,0:0:0:50:Drum-Snare.wav
36,192,127948,1,0,0:0:0:0:
182,192,128068,1,0,0:0:0:50:Drum-KicK.wav
329,192,128068,1,0,0:0:0:0:
475,192,128188,1,0,0:0:0:50:Drum-KicK.wav
256,192,128308,1,0,0:0:0:50:Drum-Snare.wav
402,192,128428,1,0,0:0:0:0:
36,192,128548,1,0,0:0:0:0:
182,192,128668,1,0,0:0:0:50:Drum-KicK.wav
329,192,128788,1,0,0:0:0:50:Drum-Snare.wav
475,192,128908,1,0,0:0:0:0:
36,192,129028,1,0,0:0:0:50:Drum-KicK.wav
182,192,129028,1,0,0:0:0:0:
402,192,129148,1,0,0:0:0:50:Drum-KicK.wav
182,192,129268,1,0,0:0:0:50:Drum-Snare.wav
402,192,129388,1,0,0:0:0:50:Drum-KicK.wav
109,192,129508,1,0,0:0:0:0:
329,192,129628,1,0,0:0:0:50:Drum-KicK.wav
109,192,129748,1,0,0:0:0:50:Drum-Snare.wav
329,192,129868,1,0,0:0:0:0:
182,192,129988,1,0,0:0:0:50:Drum-KicK.wav
36,192,129988,128,0,130348:0:0:0:0:
256,192,130108,1,0,0:0:0:0:
329,192,130228,1,0,0:0:0:50:Drum-Snare.wav
402,192,130348,1,0,0:0:0:50:Drum-KicK.wav
329,192,130708,1,0,0:0:0:50:Drum-KicK.wav
475,192,130708,128,0,131068:0:0:0:0:
256,192,130828,1,0,0:0:0:0:
182,192,130948,1,0,0:0:0:50:Drum-Snare.wav
109,192,131068,1,0,0:0:0:50:Drum-KicK.wav
182,192,131428,1,0,0:0:0:50:Drum-KicK.wav
36,192,131428,128,0,131788:0:0:0:0:
256,192,131548,1,0,0:0:0:0:
329,192,131668,1,0,0:0:0:50:Drum-Snare.wav
402,192,131788,128,0,132508:0:0:0:50:Drum-KicK.wav
182,192,132148,1,0,0:0:0:50:Drum-Snare.wav
329,192,132508,1,0,0:0:0:50:Drum-KicK.wav
182,192,132628,1,0,0:0:0:50:Drum-Snare.wav
36,192,132628,1,0,0:0:0:0:
329,192,132748,128,0,132988:0:0:0:0:
475,192,132988,1,0,0:0:0:0:
109,192,133108,1,0,0:0:0:50:Drum-Snare.wav
256,192,133108,128,0,133228:0:0:0:0:
402,192,133228,128,0,133468:0:0:0:50:Drum-KicK.wav
36,192,133468,1,0,0:0:0:50:Drum-KicK.wav
475,192,133588,1,0,0:0:0:50:Drum-Snare.wav
182,192,133588,1,0,0:0:0:0:
329,192,133708,1,0,0:0:0:0:
475,192,133828,1,0,0:0:0:0:
36,192,133828,1,0,0:0:0:50:Drum-Snare.wav
256,192,133828,128,0,135268:0:0:0:40:Bell.wav
402,192,134068,1,0,0:0:0:0:
36,192,134068,1,0,0:0:0:50:Drum-Snare.wav
402,192,134308,1,0,0:0:0:0:
109,192,134308,1,0,0:0:0:50:Drum-Snare.wav
329,192,134548,1,0,0:0:0:0:
109,192,134548,1,0,0:0:0:50:Drum-Snare.wav
182,192,134788,1,0,0:0:0:50:Drum-Snare.wav
329,192,134788,1,0,0:0:0:0:
182,192,135028,1,0,0:0:0:50:Drum-Snare.wav
402,192,135028,1,0,0:0:0:0:
109,192,135268,1,0,0:0:0:50:Drum-Snare.wav
402,192,135268,1,0,0:0:0:0:
109,192,135508,1,0,0:0:0:50:Drum-Snare.wav
256,192,135508,1,0,0:0:0:0:
475,192,135508,128,0,135748:0:0:0:40:Bell.wav
402,192,135748,1,0,0:0:0:40:Bell.wav
256,192,135748,1,0,0:0:0:50:Drum-Snare.wav
36,192,135748,1,0,0:0:0:70:Drum Roll.wav
109,192,135868,1,0,0:0:0:70:Drum Roll.wav
329,192,135988,1,0,0:0:0:70:Drum Roll.wav
182,192,135988,1,0,0:0:0:50:Drum-Snare.wav
475,192,136108,1,0,0:0:0:70:Drum Roll.wav
256,192,136228,1,0,0:0:0:70:Drum Roll.wav
402,192,136228,1,0,0:0:0:50:Drum-Snare.wav
36,192,136228,1,0,0:0:0:40:Bell.wav
182,192,136348,1,0,0:0:0:70:Drum Roll.wav
109,192,136468,1,0,0:0:0:50:Drum-Snare.wav
329,192,136468,1,0,0:0:0:70:Drum Roll.wav
402,192,136588,1,0,0:0:0:70:Drum Roll.wav
475,192,136708,1,0,0:0:0:40:Bell.wav
182,192,136708,1,0,0:0:0:70:Drum Roll.wav
36,192,136708,1,0,0:0:0:50:Drum-Snare.wav
329,192,136828,1,0,0:0:0:70:Drum Roll.wav
36,192,136948,1,0,0:0:0:50:Drum-Snare.wav
182,192,136948,1,0,0:0:0:70:Drum Roll.wav
329,192,137068,1,0,0:0:0:70:Drum Roll.wav
256,192,137668,1,0,0:0:0:50:Synth.wav
329,192,137788,1,0,0:0:0:50:Synth.wav
402,192,137908,1,0,0:0:0:50:Synth.wav
475,192,138028,1,0,0:0:0:50:Synth.wav
36,192,138268,1,0,0:0:0:50:Drum-KicK.wav
182,192,138388,1,0,0:0:0:50:Drum-Snare.wav
475,192,138628,1,0,0:0:0:50:Synth.wav
402,192,138748,1,0,0:0:0:50:Synth.wav
329,192,138868,1,0,0:0:0:50:Synth.wav
256,192,138988,1,0,0:0:0:50:Synth.wav
36,192,139228,1,0,0:0:0:50:Drum-KicK.wav
182,192,139348,1,0,0:0:0:50:Drum-Snare.wav
329,192,139468,1,0,0:0:0:50:Drum-Snare.wav
36,192,139588,1,0,0:0:0:70:Synth.wav
475,192,139588,1,0,0:0:0:50:Drum-KicK.wav
109,192,139708,1,0,0:0:0:70:Synth.wav
182,192,139828,1,0,0:0:0:70:Synth.wav
402,192,139828,1,0,0:0:0:50:Drum-Snare.wav
256,192,139948,1,0,0:0:0:70:Synth.wav
36,192,140188,1,0,0:0:0:70:Synth.wav
402,192,140308,1,0,0:0:0:50:Drum-Snare.wav
109,192,140428,1,0,0:0:0:70:Synth.wav
182,192,140668,1,0,0:0:0:70:Synth.wav
402,192,140788,1,0,0:0:0:50:Drum-Snare.wav
109,192,140788,1,0,0:0:0:70:Synth.wav
36,192,140908,1,0,0:0:0:70:Synth.wav
402,192,141028,1,0,0:0:0:50:Drum-Snare.wav
182,192,141028,1,0,0:0:0:70:Synth.wav
475,192,141268,1,0,0:0:0:50:Drum-KicK.wav
329,192,141268,1,0,0:0:0:50:Shorted Crash.wav
256,192,141508,1,0,0:0:0:50:Synth.wav
329,192,141628,1,0,0:0:0:50:Synth.wav
402,192,141748,1,0,0:0:0:50:Synth.wav
475,192,141868,1,0,0:0:0:50:Synth.wav
36,192,142108,1,0,0:0:0:50:Drum-KicK.wav
182,192,142228,1,0,0:0:0:50:Drum-Snare.wav
475,192,142468,1,0,0:0:0:50:Synth.wav
402,192,142588,1,0,0:0:0:50:Synth.wav
329,192,142708,1,0,0:0:0:50:Synth.wav
256,192,142828,1,0,0:0:0:50:Synth.wav
36,192,143068,1,0,0:0:0:50:Drum-KicK.wav
182,192,143188,1,0,0:0:0:50:Drum-Snare.wav
329,192,143308,1,0,0:0:0:50:Drum-Snare.wav
475,192,143428,1,0,0:0:0:50:Drum-KicK.wav
36,192,143428,1,0,0:0:0:70:Synth.wav
109,192,143548,1,0,0:0:0:70:Synth.wav
402,192,143668,1,0,0:0:0:50:Drum-Snare.wav
182,192,143668,1,0,0:0:0:70:Synth.wav
256,192,143788,1,0,0:0:0:70:Synth.wav
36,192,144028,1,0,0:0:0:70:Synth.wav
402,192,144148,1,0,0:0:0:50:Drum-Snare.wav
109,192,144268,1,0,0:0:0:70:Synth.wav
182,192,144508,1,0,0:0:0:70:Synth.wav
402,192,144628,1,0,0:0:0:50:Drum-Snare.wav
36,192,144628,1,0,0:0:0:70:Synth.wav
256,192,144748,1,0,0:0:0:70:Synth.wav
402,192,144868,1,0,0:0:0:50:Drum-Snare.wav
109,192,144868,1,0,0:0:0:70:Synth.wav
402,192,145108,1,0,0:0:0:50:Drum-Snare.wav
36,192,145348,1,0,0:0:0:50:Synth.wav
182,192,145468,1,0,0:0:0:50:Synth.wav
329,192,145588,1,0,0:0:0:50:Synth.wav
475,192,145708,1,0,0:0:0:50:Synth.wav
109,192,145948,1,0,0:0:0:50:Drum-KicK.wav
402,192,146068,1,0,0:0:0:50:Drum-Snare.wav
109,192,146188,1,0,0:0:0:50:Drum-Snare.wav
475,192,146308,1,0,0:0:0:50:Synth.wav
329,192,146428,1,0,0:0:0:50:Synth.wav
182,192,146548,1,0,0:0:0:50:Synth.wav
36,192,146668,1,0,0:0:0:50:Synth.wav
402,192,146908,1,0,0:0:0:50:Drum-KicK.wav
109,192,147028,1,0,0:0:0:50:Drum-Snare.wav
402,192,147148,1,0,0:0:0:50:Drum-Snare.wav
36,192,147268,1,0,0:0:0:50:Drum-KicK.wav
256,192,147268,1,0,0:0:0:70:Synth.wav
329,192,147388,1,0,0:0:0:70:Synth.wav
402,192,147508,1,0,0:0:0:70:Synth.wav
182,192,147508,1,0,0:0:0:50:Drum-Snare.wav
475,192,147628,1,0,0:0:0:70:Synth.wav
402,192,147868,1,0,0:0:0:70:Synth.wav
109,192,147988,1,0,0:0:0:50:Drum-Snare.wav
329,192,148108,1,0,0:0:0:70:Synth.wav
402,192,148348,1,0,0:0:0:70:Synth.wav
329,192,148468,1,0,0:0:0:70:Synth.wav
36,192,148468,1,0,0:0:0:50:Drum-Snare.wav
256,192,148588,1,0,0:0:0:70:Synth.wav
182,192,148708,1,0,0:0:0:70:Synth.wav
36,192,148708,1,0,0:0:0:50:Drum-Snare.wav
475,192,148948,1,0,0:0:0:50:Drum-KicK.wav
329,192,148948,1,0,0:0:0:50:Shorted Crash.wav
36,192,149188,1,0,0:0:0:50:Synth.wav
182,192,149308,1,0,0:0:0:50:Synth.wav
329,192,149428,1,0,0:0:0:50:Synth.wav
475,192,149548,1,0,0:0:0:50:Synth.wav
109,192,149788,1,0,0:0:0:50:Drum-KicK.wav
402,192,149908,1,0,0:0:0:50:Drum-Snare.wav
109,192,150028,1,0,0:0:0:50:Drum-Snare.wav
475,192,150148,1,0,0:0:0:50:Synth.wav
329,192,150268,1,0,0:0:0:50:Synth.wav
182,192,150388,1,0,0:0:0:50:Synth.wav
36,192,150508,1,0,0:0:0:50:Synth.wav
402,192,150748,1,0,0:0:0:50:Drum-KicK.wav
109,192,150868,1,0,0:0:0:50:Drum-Snare.wav
402,192,150988,1,0,0:0:0:50:Drum-Snare.wav
36,192,151108,1,0,0:0:0:50:Drum-KicK.wav
256,192,151108,1,0,0:0:0:70:Synth.wav
329,192,151228,1,0,0:0:0:70:Synth.wav
109,192,151348,1,0,0:0:0:50:Drum-Snare.wav
402,192,151348,1,0,0:0:0:70:Synth.wav
475,192,151468,1,0,0:0:0:70:Synth.wav
402,192,151708,1,0,0:0:0:70:Synth.wav
109,192,151828,1,0,0:0:0:50:Drum-Snare.wav
329,192,151948,1,0,0:0:0:70:Synth.wav
36,192,152188,1,0,0:0:0:70:Synth.wav
402,192,152308,1,0,0:0:0:50:Drum-Snare.wav
109,192,152308,1,0,0:0:0:70:Synth.wav
182,192,152428,1,0,0:0:0:70:Synth.wav
109,192,152668,1,0,0:0:0:70:Synth.wav
402,192,152788,1,0,0:0:0:50:Drum-Snare.wav
36,192,152908,1,0,0:0:0:70:Synth.wav
475,192,153028,1,0,0:0:0:50:Drum-KicK.wav
256,192,153028,1,0,0:0:0:70:Synth.wav
329,192,153148,1,0,0:0:0:70:Synth.wav
109,192,153268,1,0,0:0:0:50:Drum-Snare.wav
402,192,153268,1,0,0:0:0:70:Synth.wav
475,192,153388,1,0,0:0:0:70:Synth.wav
329,192,153628,1,0,0:0:0:70:Synth.wav
109,192,153748,1,0,0:0:0:50:Drum-Snare.wav
182,192,153868,1,0,0:0:0:70:Synth.wav
36,192,154108,1,0,0:0:0:70:Synth.wav
475,192,154228,1,0,0:0:0:50:Drum-Snare.wav
182,192,154228,1,0,0:0:0:70:Synth.wav
329,192,154348,1,0,0:0:0:70:Synth.wav
475,192,154468,1,0,0:0:0:50:Drum-Snare.wav
36,192,154468,1,0,0:0:0:70:Synth.wav
109,192,154708,128,0,154948:0:0:0:50:Shorted Crash.wav
402,192,154708,128,0,154948:0:0:0:50:Drum-KicK.wav
256,192,154708,1,0,0:0:0:0:
