osu file format v14

[General]
AudioFilename: audio.mp3
AudioLeadIn: 0
PreviewTime: 102753
Countdown: 0
SampleSet: Normal
StackLeniency: 0.7
Mode: 3
LetterboxInBreaks: 0
SpecialStyle: 0
WidescreenStoryboard: 1

[Editor]
Bookmarks: 3273,18633,33993,53193,70473,103113,137673
DistanceSpacing: 0.8
BeatDivisor: 4
GridSize: 32
TimelineZoom: 1.9

[Metadata]
Title:Star of the COME ON!!
TitleUnicode:スター・オブ・ザ・COME ON!!
Artist:Frums
ArtistUnicode:Frums
Creator:Toaph Daddy
Version:Normal
Source:
Tags:TheToaphster Mapping Olympiad #7: 1st place FA Featured Artist Electronic Chiptune Instrumental Chip Rock Fakebit Breakcore Pocket Monsters Pokémon Pokemon ポケモン ポケットモンスター サンダース Evolution EVS eeveelution EVolution!!!!!!!!! ああああ AAAA Jun Kuroda SOFT5 sotco
BeatmapID:2721472
BeatmapSetID:1313199

[Difficulty]
HPDrainRate:7
CircleSize:4
OverallDifficulty:7
ApproachRate:5
SliderMultiplier:1.4
SliderTickRate:1

[Events]
//Background and Video events
0,0,"Ridge-Nebula-(1920x1080).jpg",0,0
//Break Periods
//Storyboard Layer 0 (Background)
//Storyboard Layer 1 (Fail)
//Storyboard Layer 2 (Pass)
//Storyboard Layer 3 (Foreground)
//Storyboard Layer 4 (Overlay)
//Storyboard Sound Samples

[TimingPoints]
3267,240,4,1,1,35,1,0
10947,-100,4,1,1,40,0,1
18147,-100,4,1,1,35,0,0
33987,-100,4,1,1,40,0,0
49347,-100,4,1,1,45,0,1
52707,-100,4,1,1,35,0,1
53187,-100,4,1,1,45,0,0
60867,-100,4,1,1,45,0,1
70467,-100,4,1,1,35,0,0
102747,-100,4,1,1,40,0,0
106947,-100,4,1,1,45,0,1
129987,-100,4,1,1,45,0,0
133827,-100,4,1,1,45,0,1
137187,-100,4,1,1,35,0,1
137667,-100,4,1,1,35,0,0

[HitObjects]
192,192,3267,5,0,0:0:0:0:
64,192,3267,1,0,0:0:0:0:
448,192,3507,1,0,0:0:0:0:
192,192,3747,1,0,0:0:0:0:
448,192,3987,1,0,0:0:0:0:
192,192,4227,1,0,0:0:0:0:
448,192,4467,1,0,0:0:0:0:
192,192,4707,1,0,0:0:0:0:
448,192,4947,1,0,0:0:0:0:
192,192,5187,1,0,0:0:0:0:
64,192,5187,1,0,0:0:0:0:
320,192,5307,1,0,0:0:0:0:
192,192,5427,1,0,0:0:0:0:
64,192,5427,1,0,0:0:0:0:
320,192,5667,1,0,0:0:0:0:
64,192,5907,1,0,0:0:0:0:
320,192,6147,1,0,0:0:0:0:
64,192,6387,1,0,0:0:0:0:
192,192,6627,1,0,0:0:0:0:
320,192,6747,1,0,0:0:0:0:
448,192,6747,1,0,0:0:0:0:
192,192,6867,1,0,0:0:0:0:
64,192,6867,1,0,0:0:0:0:
448,192,6987,1,0,0:0:0:0:
192,192,7107,1,0,0:0:0:0:
64,192,7107,1,0,0:0:0:0:
448,192,7347,1,0,0:0:0:0:
192,192,7587,1,0,0:0:0:0:
448,192,7827,1,0,0:0:0:0:
192,192,8067,1,0,0:0:0:0:
448,192,8307,1,0,0:0:0:0:
192,192,8547,1,0,0:0:0:0:
448,192,8787,1,0,0:0:0:0:
192,192,9027,1,0,0:0:0:0:
64,192,9027,1,0,0:0:0:0:
320,192,9147,1,8,0:0:0:0:
448,192,9267,1,0,0:0:0:0:
64,192,9387,1,8,0:0:0:0:
448,192,9507,1,0,0:0:0:0:
320,192,9507,1,0,0:0:0:0:
192,192,9627,1,8,0:0:0:0:
64,192,9747,1,0,0:0:0:0:
448,192,9867,1,8,0:0:0:0:
192,192,9987,1,0,0:0:0:0:
448,192,10107,1,0,0:0:0:0:
320,192,10227,1,0,0:0:0:0:
192,192,10467,1,0,0:0:0:0:
320,192,10587,1,0,0:0:0:0:
64,192,10707,1,0,0:0:0:0:
448,192,10827,1,0,0:0:0:0:
320,192,10947,1,0,0:0:0:0:
192,192,10947,1,0,0:0:0:0:
320,192,11187,1,8,0:0:0:0:
448,192,11187,1,0,0:0:0:0:
64,192,11307,1,0,0:0:0:0:
320,192,11547,1,8,0:0:0:0:
448,192,11547,1,0,0:0:0:0:
64,192,11667,1,0,0:0:0:0:
320,192,11787,1,0,0:0:0:0:
192,192,11907,1,0,0:0:0:0:
448,192,12147,1,8,0:0:0:0:
320,192,12147,1,0,0:0:0:0:
64,192,12267,1,0,0:0:0:0:
448,192,12507,1,8,0:0:0:0:
320,192,12507,1,0,0:0:0:0:
192,192,12747,1,0,0:0:0:0:
320,192,12867,1,0,0:0:0:0:
64,192,13107,1,0,0:0:0:0:
192,192,13107,1,8,0:0:0:0:
320,192,13227,1,0,0:0:0:0:
192,192,13467,1,8,0:0:0:0:
64,192,13467,1,0,0:0:0:0:
448,192,13587,1,0,0:0:0:0:
320,192,13707,1,0,0:0:0:0:
192,192,13827,1,0,0:0:0:0:
448,192,14067,1,0,0:0:0:0:
64,192,14187,1,8,0:0:0:0:
192,192,14187,1,0,0:0:0:0:
320,192,14427,1,0,0:0:0:0:
192,192,14547,1,0,0:0:0:0:
64,192,14547,1,8,0:0:0:0:
448,192,14667,1,0,0:0:0:0:
192,192,14787,1,0,0:0:0:0:
320,192,15027,1,8,0:0:0:0:
448,192,15027,1,0,0:0:0:0:
192,192,15147,1,0,0:0:0:0:
448,192,15387,1,8,0:0:0:0:
320,192,15387,1,0,0:0:0:0:
192,192,15507,1,0,0:0:0:0:
320,192,15627,1,0,0:0:0:0:
448,192,15747,1,0,0:0:0:0:
64,192,15987,1,8,0:0:0:0:
192,192,15987,1,0,0:0:0:0:
320,192,16107,1,0,0:0:0:0:
192,192,16347,1,8,0:0:0:0:
64,192,16347,1,0,0:0:0:0:
320,192,16467,1,0,0:0:0:0:
448,192,16587,1,0,0:0:0:0:
64,192,16707,1,0,0:0:0:0:
320,192,16827,1,0,0:0:0:0:
64,192,16947,1,8,0:0:0:0:
320,192,17067,1,0,0:0:0:0:
192,192,17187,1,0,0:0:0:0:
448,192,17307,1,8,0:0:0:0:
192,192,17427,1,0,0:0:0:0:
448,192,17547,1,0,0:0:0:0:
64,192,17667,1,0,0:0:0:0:
192,192,17667,1,0,0:0:0:0:
320,192,17787,1,0,0:0:0:0:
448,192,17787,1,0,0:0:0:0:
64,192,17907,1,0,0:0:0:0:
192,192,17907,1,0,0:0:0:0:
320,192,18027,1,0,0:0:0:0:
448,192,18027,1,0,0:0:0:0:
64,192,18147,1,0,0:0:0:0:
448,192,18387,1,0,0:0:0:0:
64,192,18627,1,0,0:0:0:0:
320,192,18747,1,0,0:0:0:0:
192,192,18867,1,0,0:0:0:0:
448,192,18987,1,0,0:0:0:0:
320,192,19227,1,8,0:0:0:0:
64,192,19347,1,8,0:0:0:0:
192,192,19347,1,0,0:0:0:0:
448,192,19587,1,0,0:0:0:0:
192,192,19707,1,0,0:0:0:0:
320,192,19827,1,0,0:0:0:0:
64,192,19947,1,0,0:0:0:0:
192,192,20187,1,0,0:0:0:0:
448,192,20307,1,8,0:0:0:0:
320,192,20307,1,0,0:0:0:0:
64,192,20427,1,8,0:0:0:0:
192,192,20547,1,0,0:0:0:0:
64,192,20667,1,0,0:0:0:0:
448,192,20787,1,8,0:0:0:0:
320,192,20787,1,0,0:0:0:0:
192,192,20907,1,0,0:0:0:0:
64,192,21147,1,0,0:0:0:0:
448,192,21387,1,0,0:0:0:0:
320,192,21627,1,0,0:0:0:0:
192,192,21747,1,8,0:0:0:0:
64,192,21747,1,0,0:0:0:0:
448,192,21867,1,0,0:0:0:0:
192,192,21987,1,8,0:0:0:0:
64,192,21987,1,0,0:0:0:0:
448,192,22227,1,8,0:0:0:0:
192,192,22227,1,4,0:0:0:0:
64,192,22467,1,0,0:0:0:0:
320,192,22587,1,0,0:0:0:0:
192,192,22707,1,0,0:0:0:0:
448,192,22827,1,0,0:0:0:0:
320,192,23067,1,0,0:0:0:0:
64,192,23187,1,8,0:0:0:0:
192,192,23187,1,0,0:0:0:0:
448,192,23427,1,0,0:0:0:0:
192,192,23547,1,0,0:0:0:0:
320,192,23667,1,0,0:0:0:0:
64,192,23787,1,0,0:0:0:0:
320,192,24027,1,0,0:0:0:0:
64,192,24147,1,8,0:0:0:0:
192,192,24147,1,0,0:0:0:0:
448,192,24267,1,8,0:0:0:0:
64,192,24387,1,0,0:0:0:0:
192,192,24507,1,0,0:0:0:0:
448,192,24627,1,8,0:0:0:0:
320,192,24627,1,0,0:0:0:0:
64,192,24747,1,0,0:0:0:0:
192,192,24987,1,0,0:0:0:0:
448,192,25227,1,0,0:0:0:0:
192,192,25467,1,0,0:0:0:0:
448,192,25587,1,8,0:0:0:0:
320,192,25587,1,0,0:0:0:0:
64,192,25707,1,0,0:0:0:0:
448,192,25827,1,8,0:0:0:0:
320,192,25827,1,0,0:0:0:0:
448,192,26067,1,8,0:0:0:0:
320,192,26067,1,0,0:0:0:0:
64,192,26307,1,0,0:0:0:0:
448,192,26427,1,0,0:0:0:0:
192,192,26547,1,0,0:0:0:0:
320,192,26667,1,0,0:0:0:0:
64,192,26907,1,0,0:0:0:0:
320,192,27027,1,8,0:0:0:0:
448,192,27027,1,0,0:0:0:0:
448,192,27267,1,0,0:0:0:0:
64,192,27387,1,0,0:0:0:0:
320,192,27507,1,0,0:0:0:0:
192,192,27627,1,0,0:0:0:0:
320,192,27867,1,0,0:0:0:0:
64,192,27987,1,0,0:0:0:0:
192,192,27987,1,8,0:0:0:0:
448,192,28107,1,0,0:0:0:0:
64,192,28227,1,0,0:0:0:0:
192,192,28347,1,0,0:0:0:0:
448,192,28467,1,8,0:0:0:0:
320,192,28467,1,0,0:0:0:0:
192,192,28587,1,0,0:0:0:0:
64,192,28827,1,0,0:0:0:0:
448,192,29067,1,0,0:0:0:0:
320,192,29307,1,0,0:0:0:0:
192,192,29427,1,8,0:0:0:0:
64,192,29427,1,0,0:0:0:0:
448,192,29547,1,0,0:0:0:0:
192,192,29667,1,8,0:0:0:0:
64,192,29667,1,0,0:0:0:0:
448,192,29907,1,8,0:0:0:0:
192,192,29907,1,4,0:0:0:0:
64,192,30147,1,0,0:0:0:0:
320,192,30267,1,0,0:0:0:0:
192,192,30387,1,0,0:0:0:0:
448,192,30507,1,0,0:0:0:0:
64,192,30747,1,0,0:0:0:0:
448,192,30867,1,8,0:0:0:0:
192,192,30867,1,0,0:0:0:0:
64,192,30987,1,8,0:0:0:0:
320,192,30987,1,0,0:0:0:0:
448,192,31107,1,0,0:0:0:0:
192,192,31227,1,0,0:0:0:0:
320,192,31347,1,0,0:0:0:0:
64,192,31467,1,0,0:0:0:0:
448,192,31707,1,0,0:0:0:0:
64,192,31827,1,8,0:0:0:0:
192,192,31827,1,0,0:0:0:0:
448,192,31947,1,8,0:0:0:0:
320,192,31947,1,0,0:0:0:0:
64,192,32067,1,0,0:0:0:0:
192,192,32187,1,0,0:0:0:0:
448,192,32307,1,8,0:0:0:0:
320,192,32307,1,0,0:0:0:0:
192,192,32427,1,0,0:0:0:0:
64,192,32667,1,0,0:0:0:0:
448,192,32907,1,0,0:0:0:0:
64,192,33147,1,0,0:0:0:0:
448,192,33267,1,8,0:0:0:0:
320,192,33267,1,0,0:0:0:0:
192,192,33387,1,0,0:0:0:0:
448,192,33507,1,8,0:0:0:0:
320,192,33507,1,0,0:0:0:0:
64,192,33627,1,0,0:0:0:0:
192,192,33747,1,0,0:0:0:0:
320,192,33867,1,0,0:0:0:0:
64,192,33987,1,0,0:0:0:0:
448,192,34227,1,8,0:0:0:0:
320,192,34227,1,0,0:0:0:0:
64,192,34347,1,0,0:0:0:0:
192,192,34467,1,0,0:0:0:0:
320,192,34587,1,0,0:0:0:0:
64,192,34707,1,8,0:0:0:0:
192,192,34707,1,0,0:0:0:0:
448,192,34827,1,0,0:0:0:0:
320,192,35067,1,0,0:0:0:0:
192,192,35187,1,8,0:0:0:0:
64,192,35187,1,0,0:0:0:0:
448,192,35307,1,0,0:0:0:0:
64,192,35547,1,0,0:0:0:0:
448,192,35667,1,8,0:0:0:0:
320,192,35667,1,0,0:0:0:0:
64,192,35787,1,0,0:0:0:0:
192,192,35907,1,0,0:0:0:0:
64,192,36147,1,8,0:0:0:0:
192,192,36147,1,0,0:0:0:0:
320,192,36267,1,0,0:0:0:0:
448,192,36507,1,0,0:0:0:0:
64,192,36627,1,8,0:0:0:0:
192,192,36627,1,0,0:0:0:0:
320,192,36747,1,0,0:0:0:0:
64,192,36987,1,0,0:0:0:0:
448,192,37107,1,8,0:0:0:0:
320,192,37107,1,0,0:0:0:0:
192,192,37227,1,0,0:0:0:0:
320,192,37467,1,0,0:0:0:0:
64,192,37587,1,8,0:0:0:0:
192,192,37587,1,0,0:0:0:0:
192,192,37827,1,0,0:0:0:0:
448,192,38067,1,8,0:0:0:0:
320,192,38067,1,0,0:0:0:0:
64,192,38187,1,0,0:0:0:0:
192,192,38307,1,0,0:0:0:0:
320,192,38427,1,0,0:0:0:0:
64,192,38547,1,8,0:0:0:0:
192,192,38547,1,0,0:0:0:0:
448,192,38667,1,0,0:0:0:0:
320,192,38907,1,0,0:0:0:0:
64,192,39027,1,8,0:0:0:0:
192,192,39027,1,0,0:0:0:0:
448,192,39147,1,0,0:0:0:0:
64,192,39387,1,0,0:0:0:0:
448,192,39507,1,8,0:0:0:0:
320,192,39507,1,0,0:0:0:0:
64,192,39627,1,0,0:0:0:0:
192,192,39747,1,0,0:0:0:0:
64,192,39987,1,8,0:0:0:0:
192,192,39987,1,0,0:0:0:0:
320,192,40107,1,0,0:0:0:0:
448,192,40347,1,0,0:0:0:0:
192,192,40467,1,8,0:0:0:0:
64,192,40467,1,0,0:0:0:0:
320,192,40587,1,0,0:0:0:0:
192,192,40827,1,0,0:0:0:0:
448,192,40947,1,8,0:0:0:0:
320,192,40947,1,0,0:0:0:0:
64,192,41067,1,0,0:0:0:0:
320,192,41187,1,0,0:0:0:0:
192,192,41307,1,0,0:0:0:0:
320,192,41427,1,8,0:0:0:0:
448,192,41427,1,0,0:0:0:0:
192,192,41547,1,0,0:0:0:0:
64,192,41667,1,0,0:0:0:0:
448,192,41907,1,8,0:0:0:0:
320,192,41907,1,0,0:0:0:0:
64,192,42027,1,0,0:0:0:0:
448,192,42147,1,0,0:0:0:0:
320,192,42267,1,0,0:0:0:0:
64,192,42387,1,8,0:0:0:0:
192,192,42387,1,0,0:0:0:0:
448,192,42507,1,0,0:0:0:0:
320,192,42747,1,0,0:0:0:0:
192,192,42867,1,8,0:0:0:0:
64,192,42867,1,0,0:0:0:0:
448,192,42987,1,0,0:0:0:0:
64,192,43227,1,0,0:0:0:0:
448,192,43347,1,8,0:0:0:0:
320,192,43347,1,0,0:0:0:0:
64,192,43467,1,0,0:0:0:0:
192,192,43587,1,0,0:0:0:0:
448,192,43827,1,8,0:0:0:0:
320,192,43827,1,0,0:0:0:0:
192,192,43947,1,0,0:0:0:0:
192,192,44187,1,0,0:0:0:0:
320,192,44307,1,8,0:0:0:0:
448,192,44307,1,0,0:0:0:0:
64,192,44427,1,0,0:0:0:0:
448,192,44667,1,0,0:0:0:0:
64,192,44787,1,8,0:0:0:0:
192,192,44787,1,0,0:0:0:0:
320,192,44907,1,0,0:0:0:0:
320,192,45147,1,0,0:0:0:0:
192,192,45267,1,8,0:0:0:0:
64,192,45267,1,0,0:0:0:0:
448,192,45387,1,0,0:0:0:0:
64,192,45507,1,8,0:0:0:0:
320,192,45507,1,0,0:0:0:0:
448,192,45627,1,0,0:0:0:0:
64,192,45747,1,0,0:0:0:0:
320,192,45747,1,0,0:0:0:0:
192,192,45867,1,8,0:0:0:0:
192,192,46227,1,8,0:0:0:0:
448,192,46227,1,0,0:0:0:0:
64,192,46347,1,0,0:0:0:0:
192,192,46467,1,0,0:0:0:0:
448,192,46467,1,0,0:0:0:0:
320,192,46587,1,8,0:0:0:0:
320,192,46947,1,8,0:0:0:0:
192,192,46947,1,0,0:0:0:0:
64,192,47067,1,0,0:0:0:0:
320,192,47187,1,0,0:0:0:0:
192,192,47187,1,0,0:0:0:0:
448,192,47307,1,8,0:0:0:0:
448,192,47547,1,0,0:0:0:0:
320,192,47667,1,8,0:0:0:0:
64,192,47667,1,0,0:0:0:0:
192,192,47787,1,0,0:0:0:0:
320,192,48027,1,0,0:0:0:0:
192,192,48147,1,8,0:0:0:0:
448,192,48147,1,0,0:0:0:0:
64,192,48267,1,0,0:0:0:0:
192,192,48507,1,0,0:0:0:0:
320,192,48627,1,8,0:0:0:0:
64,192,48627,1,0,0:0:0:0:
448,192,48747,1,0,0:0:0:0:
320,192,48987,1,0,0:0:0:0:
64,192,49107,1,8,0:0:0:0:
448,192,49107,1,0,0:0:0:0:
320,192,49227,1,0,0:0:0:0:
192,192,49347,1,8,0:0:0:0:
448,192,49347,1,4,0:0:0:0:
192,192,49587,1,8,0:0:0:0:
448,192,49587,1,0,0:0:0:0:
320,192,49827,1,8,0:0:0:0:
64,192,49827,1,4,0:0:0:0:
320,192,50067,1,8,0:0:0:0:
64,192,50067,1,0,0:0:0:0:
192,192,50307,1,8,0:0:0:0:
448,192,50307,1,4,0:0:0:0:
192,192,50547,1,8,0:0:0:0:
448,192,50547,1,0,0:0:0:0:
320,192,50787,1,8,0:0:0:0:
64,192,50787,1,4,0:0:0:0:
320,192,51027,1,8,0:0:0:0:
64,192,51027,1,0,0:0:0:0:
64,192,51267,1,8,0:0:0:0:
320,192,51267,1,4,0:0:0:0:
448,192,51387,1,0,0:0:0:0:
64,192,51507,1,8,0:0:0:0:
192,192,51507,1,0,0:0:0:0:
448,192,51627,1,0,0:0:0:0:
320,192,51747,1,8,0:0:0:0:
64,192,51747,1,4,0:0:0:0:
192,192,51867,1,0,0:0:0:0:
320,192,51987,1,8,0:0:0:0:
448,192,51987,1,0,0:0:0:0:
192,192,52107,1,0,0:0:0:0:
64,192,52227,1,4,0:0:0:0:
448,192,52227,1,8,0:0:0:0:
320,192,52347,1,0,0:0:0:0:
448,192,52467,1,0,0:0:0:0:
192,192,52467,1,8,0:0:0:0:
448,192,52707,1,0,0:0:0:0:
320,192,52947,1,0,0:0:0:0:
64,192,53187,5,8,0:0:0:0:
192,192,53187,1,4,0:0:0:0:
448,192,53427,1,8,0:0:0:0:
320,192,53427,1,0,0:0:0:0:
64,192,53667,1,0,0:0:0:0:
320,192,53787,1,0,0:0:0:0:
448,192,53787,1,8,0:0:0:0:
64,192,53907,1,0,0:0:0:0:
448,192,54147,1,0,0:0:0:0:
64,192,54387,1,8,0:0:0:0:
192,192,54387,1,0,0:0:0:0:
448,192,54627,1,0,0:0:0:0:
192,192,54747,1,0,0:0:0:0:
64,192,54747,1,8,0:0:0:0:
448,192,54867,1,0,0:0:0:0:
64,192,55107,1,0,0:0:0:0:
320,192,55347,1,8,0:0:0:0:
448,192,55347,1,0,0:0:0:0:
64,192,55587,1,0,0:0:0:0:
448,192,55707,1,0,0:0:0:0:
320,192,55707,1,8,0:0:0:0:
64,192,55827,1,0,0:0:0:0:
448,192,56067,1,0,0:0:0:0:
64,192,56307,1,0,0:0:0:0:
320,192,56427,1,0,0:0:0:0:
448,192,56427,1,8,0:0:0:0:
64,192,56547,1,0,0:0:0:0:
448,192,56787,1,8,0:0:0:0:
320,192,56787,1,0,0:0:0:0:
64,192,56907,1,0,0:0:0:0:
320,192,57027,1,0,0:0:0:0:
192,192,57027,1,4,0:0:0:0:
448,192,57267,1,8,0:0:0:0:
320,192,57267,1,0,0:0:0:0:
192,192,57507,1,0,0:0:0:0:
448,192,57627,1,8,0:0:0:0:
320,192,57627,1,0,0:0:0:0:
192,192,57747,1,0,0:0:0:0:
320,192,57987,1,0,0:0:0:0:
64,192,58227,1,8,0:0:0:0:
192,192,58227,1,0,0:0:0:0:
320,192,58467,1,0,0:0:0:0:
64,192,58587,1,8,0:0:0:0:
192,192,58587,1,0,0:0:0:0:
320,192,58707,1,0,0:0:0:0:
192,192,58947,1,0,0:0:0:0:
320,192,59187,1,0,0:0:0:0:
448,192,59187,1,8,0:0:0:0:
192,192,59427,1,0,0:0:0:0:
448,192,59547,1,0,0:0:0:0:
320,192,59547,1,8,0:0:0:0:
192,192,59667,1,0,0:0:0:0:
448,192,59787,1,0,0:0:0:0:
192,192,59907,1,8,0:0:0:0:
64,192,59907,1,0,0:0:0:0:
64,192,60147,1,8,0:0:0:0:
192,192,60147,1,0,0:0:0:0:
448,192,60387,1,8,0:0:0:0:
320,192,60387,1,0,0:0:0:0:
192,192,60507,1,0,0:0:0:0:
448,192,60627,1,8,0:0:0:0:
64,192,60747,1,8,0:0:0:0:
192,192,60867,1,4,0:0:0:0:
320,192,60867,1,0,0:0:0:0:
320,192,61107,1,8,0:0:0:0:
448,192,61107,1,0,0:0:0:0:
192,192,61227,1,0,0:0:0:0:
448,192,61467,1,8,0:0:0:0:
320,192,61467,1,0,0:0:0:0:
64,192,61587,1,0,0:0:0:0:
320,192,61707,1,0,0:0:0:0:
192,192,61827,1,0,0:0:0:0:
448,192,62067,1,8,0:0:0:0:
320,192,62067,1,0,0:0:0:0:
64,192,62187,1,0,0:0:0:0:
448,192,62427,1,8,0:0:0:0:
320,192,62427,1,0,0:0:0:0:
192,192,62667,1,0,0:0:0:0:
320,192,62787,1,0,0:0:0:0:
64,192,62787,1,0,0:0:0:0:
64,192,63027,1,8,0:0:0:0:
192,192,63027,1,0,0:0:0:0:
320,192,63147,1,0,0:0:0:0:
64,192,63387,1,8,0:0:0:0:
192,192,63387,1,0,0:0:0:0:
448,192,63507,1,0,0:0:0:0:
192,192,63627,1,0,0:0:0:0:
320,192,63747,1,0,0:0:0:0:
448,192,63987,1,0,0:0:0:0:
64,192,64107,1,8,0:0:0:0:
192,192,64107,1,0,0:0:0:0:
192,192,64347,1,0,0:0:0:0:
320,192,64467,1,8,0:0:0:0:
448,192,64467,1,0,0:0:0:0:
64,192,64587,1,0,0:0:0:0:
448,192,64707,1,0,0:0:0:0:
192,192,64707,1,0,0:0:0:0:
64,192,64947,1,0,0:0:0:0:
192,192,64947,1,8,0:0:0:0:
320,192,65067,1,0,0:0:0:0:
192,192,65307,1,8,0:0:0:0:
64,192,65307,1,0,0:0:0:0:
448,192,65427,1,0,0:0:0:0:
64,192,65547,1,0,0:0:0:0:
192,192,65667,1,0,0:0:0:0:
320,192,65667,1,0,0:0:0:0:
320,192,65907,1,8,0:0:0:0:
448,192,65907,1,0,0:0:0:0:
192,192,66027,1,0,0:0:0:0:
448,192,66267,1,8,0:0:0:0:
320,192,66267,1,0,0:0:0:0:
64,192,66387,1,0,0:0:0:0:
320,192,66507,1,0,0:0:0:0:
192,192,66627,1,0,0:0:0:0:
448,192,66627,1,0,0:0:0:0:
192,192,66867,1,8,0:0:0:0:
64,192,66867,1,0,0:0:0:0:
448,192,66987,1,0,0:0:0:0:
64,192,67227,1,8,0:0:0:0:
192,192,67227,1,0,0:0:0:0:
320,192,67347,1,0,0:0:0:0:
448,192,67467,1,0,0:0:0:0:
64,192,67587,1,0,0:0:0:0:
320,192,67587,1,0,0:0:0:0:
192,192,67707,1,0,0:0:0:0:
320,192,67827,1,0,0:0:0:0:
64,192,67827,1,0,0:0:0:0:
448,192,67947,1,0,0:0:0:0:
64,192,68067,1,0,0:0:0:0:
320,192,68187,1,0,0:0:0:0:
192,192,68307,1,0,0:0:0:0:
448,192,68427,1,0,0:0:0:0:
64,192,68547,128,0,69507:0:0:0:0:
448,192,69507,1,0,0:0:0:0:
320,192,69507,1,0,0:0:0:0:
64,192,69867,1,0,0:0:0:0:
192,192,69867,1,0,0:0:0:0:
448,192,70227,1,0,0:0:0:0:
320,192,70227,1,0,0:0:0:0:
64,192,70347,1,0,0:0:0:0:
320,192,70467,1,0,0:0:0:0:
448,192,70467,1,0,0:0:0:0:
320,192,70707,1,0,0:0:0:0:
64,192,70947,1,8,0:0:0:0:
320,192,71187,1,0,0:0:0:0:
64,192,71307,1,0,0:0:0:0:
192,192,71307,1,0,0:0:0:0:
448,192,71547,1,8,0:0:0:0:
192,192,71667,1,0,0:0:0:0:
64,192,71667,1,0,0:0:0:0:
448,192,71907,1,8,0:0:0:0:
320,192,72027,1,0,0:0:0:0:
192,192,72147,1,0,0:0:0:0:
64,192,72267,1,0,0:0:0:0:
448,192,72387,1,0,0:0:0:0:
320,192,72387,1,0,0:0:0:0:
64,192,72507,1,0,0:0:0:0:
192,192,72627,1,0,0:0:0:0:
320,192,72747,1,0,0:0:0:0:
448,192,72867,1,8,0:0:0:0:
192,192,73107,1,0,0:0:0:0:
320,192,73227,1,0,0:0:0:0:
448,192,73227,1,0,0:0:0:0:
64,192,73467,1,8,0:0:0:0:
320,192,73587,1,0,0:0:0:0:
448,192,73587,1,0,0:0:0:0:
64,192,73827,1,8,0:0:0:0:
320,192,73947,1,0,0:0:0:0:
192,192,74067,1,0,0:0:0:0:
448,192,74187,1,0,0:0:0:0:
192,192,74307,1,0,0:0:0:0:
64,192,74307,1,0,0:0:0:0:
320,192,74427,1,0,0:0:0:0:
320,192,74667,1,0,0:0:0:0:
64,192,74787,1,8,0:0:0:0:
320,192,75027,1,0,0:0:0:0:
64,192,75147,1,0,0:0:0:0:
192,192,75147,1,0,0:0:0:0:
320,192,75387,1,8,0:0:0:0:
64,192,75507,1,0,0:0:0:0:
192,192,75507,1,0,0:0:0:0:
320,192,75747,1,8,0:0:0:0:
64,192,75867,1,0,0:0:0:0:
448,192,75987,1,0,0:0:0:0:
320,192,76107,1,0,0:0:0:0:
192,192,76227,1,0,0:0:0:0:
64,192,76227,1,0,0:0:0:0:
448,192,76347,1,0,0:0:0:0:
320,192,76587,1,0,0:0:0:0:
64,192,76707,1,8,0:0:0:0:
192,192,76827,1,0,0:0:0:0:
448,192,76947,1,0,0:0:0:0:
320,192,77067,1,0,0:0:0:0:
192,192,77187,1,0,0:0:0:0:
448,192,77307,1,8,0:0:0:0:
64,192,77427,1,0,0:0:0:0:
320,192,77547,1,0,0:0:0:0:
192,192,77667,1,8,0:0:0:0:
64,192,77787,1,0,0:0:0:0:
448,192,77907,1,0,0:0:0:0:
320,192,78027,1,0,0:0:0:0:
192,192,78147,1,0,0:0:0:0:
448,192,78387,1,0,0:0:0:0:
320,192,78387,1,0,0:0:0:0:
64,192,78627,1,8,0:0:0:0:
320,192,78867,1,0,0:0:0:0:
192,192,78987,1,0,0:0:0:0:
64,192,78987,1,0,0:0:0:0:
448,192,79227,1,8,0:0:0:0:
192,192,79347,1,0,0:0:0:0:
448,192,79587,1,8,0:0:0:0:
64,192,79707,1,0,0:0:0:0:
320,192,79827,1,0,0:0:0:0:
192,192,79947,1,0,0:0:0:0:
320,192,80067,1,0,0:0:0:0:
448,192,80067,1,0,0:0:0:0:
192,192,80187,1,0,0:0:0:0:
320,192,80307,1,0,0:0:0:0:
64,192,80427,1,0,0:0:0:0:
448,192,80547,1,8,0:0:0:0:
192,192,80787,1,0,0:0:0:0:
320,192,80907,1,0,0:0:0:0:
448,192,80907,1,0,0:0:0:0:
64,192,81147,1,8,0:0:0:0:
320,192,81267,1,0,0:0:0:0:
448,192,81267,1,0,0:0:0:0:
64,192,81507,1,8,0:0:0:0:
192,192,81627,1,0,0:0:0:0:
320,192,81747,1,0,0:0:0:0:
448,192,81867,1,0,0:0:0:0:
192,192,81987,1,0,0:0:0:0:
64,192,81987,1,0,0:0:0:0:
64,192,82227,1,0,0:0:0:0:
448,192,82347,1,0,0:0:0:0:
192,192,82467,1,8,0:0:0:0:
448,192,82707,1,0,0:0:0:0:
192,192,82827,1,0,0:0:0:0:
64,192,82827,1,0,0:0:0:0:
448,192,83067,1,8,0:0:0:0:
192,192,83187,1,0,0:0:0:0:
64,192,83187,1,0,0:0:0:0:
448,192,83427,1,8,0:0:0:0:
192,192,83547,1,0,0:0:0:0:
320,192,83667,1,0,0:0:0:0:
64,192,83787,1,0,0:0:0:0:
448,192,83907,1,0,0:0:0:0:
320,192,83907,1,0,0:0:0:0:
192,192,84027,1,0,0:0:0:0:
448,192,84267,1,0,0:0:0:0:
192,192,84387,1,8,0:0:0:0:
64,192,84507,1,0,0:0:0:0:
192,192,84627,1,0,0:0:0:0:
320,192,84747,1,0,0:0:0:0:
448,192,84867,1,0,0:0:0:0:
192,192,84987,1,8,0:0:0:0:
320,192,85107,1,0,0:0:0:0:
64,192,85227,1,0,0:0:0:0:
192,192,85347,1,8,0:0:0:0:
320,192,85467,1,0,0:0:0:0:
448,192,85587,1,0,0:0:0:0:
64,192,85707,1,0,0:0:0:0:
320,192,85827,1,0,0:0:0:0:
448,192,85827,1,0,0:0:0:0:
192,192,86067,1,0,0:0:0:0:
448,192,86307,1,8,0:0:0:0:
192,192,86547,1,0,0:0:0:0:
320,192,86667,1,0,0:0:0:0:
448,192,86667,1,0,0:0:0:0:
192,192,86907,1,8,0:0:0:0:
320,192,87027,1,0,0:0:0:0:
448,192,87027,1,0,0:0:0:0:
64,192,87267,1,8,0:0:0:0:
192,192,87387,1,0,0:0:0:0:
320,192,87507,1,0,0:0:0:0:
448,192,87627,1,0,0:0:0:0:
192,192,87747,1,0,0:0:0:0:
64,192,87747,1,0,0:0:0:0:
448,192,87867,1,0,0:0:0:0:
320,192,87987,1,0,0:0:0:0:
192,192,88107,1,0,0:0:0:0:
64,192,88227,1,8,0:0:0:0:
320,192,88467,1,0,0:0:0:0:
192,192,88587,1,0,0:0:0:0:
64,192,88587,1,0,0:0:0:0:
320,192,88827,1,8,0:0:0:0:
192,192,88947,1,0,0:0:0:0:
64,192,88947,1,0,0:0:0:0:
320,192,89187,1,8,0:0:0:0:
192,192,89307,1,0,0:0:0:0:
448,192,89427,1,0,0:0:0:0:
64,192,89547,1,0,0:0:0:0:
320,192,89667,1,0,0:0:0:0:
448,192,89667,1,0,0:0:0:0:
64,192,89787,1,0,0:0:0:0:
448,192,89907,1,0,0:0:0:0:
192,192,90027,1,0,0:0:0:0:
64,192,90147,1,8,0:0:0:0:
192,192,90387,1,0,0:0:0:0:
448,192,90507,1,0,0:0:0:0:
320,192,90507,1,0,0:0:0:0:
192,192,90747,1,8,0:0:0:0:
448,192,90867,1,0,0:0:0:0:
320,192,90867,1,0,0:0:0:0:
192,192,91107,1,8,0:0:0:0:
448,192,91227,1,0,0:0:0:0:
192,192,91347,1,0,0:0:0:0:
448,192,91467,1,0,0:0:0:0:
192,192,91587,1,0,0:0:0:0:
64,192,91587,1,0,0:0:0:0:
320,192,91707,1,0,0:0:0:0:
192,192,91947,1,0,0:0:0:0:
320,192,92067,1,8,0:0:0:0:
448,192,92187,1,0,0:0:0:0:
64,192,92307,1,0,0:0:0:0:
192,192,92427,1,0,0:0:0:0:
320,192,92547,1,0,0:0:0:0:
64,192,92667,1,8,0:0:0:0:
448,192,92787,1,0,0:0:0:0:
192,192,92907,1,0,0:0:0:0:
320,192,93027,1,8,0:0:0:0:
448,192,93147,1,0,0:0:0:0:
64,192,93267,1,0,0:0:0:0:
192,192,93387,1,0,0:0:0:0:
320,192,93507,1,0,0:0:0:0:
448,192,93627,1,0,0:0:0:0:
64,192,93747,1,0,0:0:0:0:
192,192,93747,1,0,0:0:0:0:
320,192,93987,1,8,0:0:0:0:
192,192,94227,1,0,0:0:0:0:
320,192,94347,1,0,0:0:0:0:
448,192,94347,1,0,0:0:0:0:
192,192,94587,1,8,0:0:0:0:
320,192,94707,1,0,0:0:0:0:
448,192,94707,1,0,0:0:0:0:
64,192,94947,1,8,0:0:0:0:
320,192,95067,1,0,0:0:0:0:
192,192,95187,1,0,0:0:0:0:
448,192,95307,1,0,0:0:0:0:
192,192,95427,1,0,0:0:0:0:
64,192,95427,1,0,0:0:0:0:
448,192,95547,1,0,0:0:0:0:
192,192,95667,1,0,0:0:0:0:
320,192,95787,1,0,0:0:0:0:
64,192,95907,1,8,0:0:0:0:
320,192,96147,1,0,0:0:0:0:
192,192,96267,1,0,0:0:0:0:
64,192,96267,1,0,0:0:0:0:
320,192,96507,1,8,0:0:0:0:
192,192,96627,1,0,0:0:0:0:
64,192,96627,1,0,0:0:0:0:
448,192,96867,1,8,0:0:0:0:
320,192,96987,1,0,0:0:0:0:
192,192,97107,1,0,0:0:0:0:
64,192,97227,1,0,0:0:0:0:
320,192,97347,1,0,0:0:0:0:
448,192,97347,1,0,0:0:0:0:
448,192,97587,1,0,0:0:0:0:
64,192,97707,1,0,0:0:0:0:
320,192,97827,1,8,0:0:0:0:
64,192,98067,1,0,0:0:0:0:
320,192,98187,1,0,0:0:0:0:
448,192,98187,1,0,0:0:0:0:
64,192,98427,1,8,0:0:0:0:
320,192,98547,1,0,0:0:0:0:
448,192,98547,1,0,0:0:0:0:
64,192,98787,1,8,0:0:0:0:
320,192,98907,1,0,0:0:0:0:
192,192,99027,1,0,0:0:0:0:
448,192,99147,1,0,0:0:0:0:
64,192,99267,1,0,0:0:0:0:
192,192,99267,1,0,0:0:0:0:
320,192,99387,1,0,0:0:0:0:
64,192,99627,1,0,0:0:0:0:
320,192,99747,1,8,0:0:0:0:
448,192,99867,1,0,0:0:0:0:
320,192,99987,1,0,0:0:0:0:
192,192,100107,1,0,0:0:0:0:
64,192,100227,1,0,0:0:0:0:
320,192,100347,1,8,0:0:0:0:
192,192,100467,1,0,0:0:0:0:
448,192,100587,1,0,0:0:0:0:
320,192,100707,1,8,0:0:0:0:
192,192,100827,1,0,0:0:0:0:
64,192,100947,1,0,0:0:0:0:
448,192,101067,1,0,0:0:0:0:
192,192,101187,1,4,0:0:0:0:
64,192,101187,1,8,0:0:0:0:
320,192,103107,5,0,0:0:0:0:
192,192,103467,1,0,0:0:0:0:
320,192,103587,1,0,0:0:0:0:
64,192,103707,1,0,0:0:0:0:
192,192,103827,1,0,0:0:0:0:
320,192,103947,1,0,0:0:0:0:
192,192,104187,1,0,0:0:0:0:
448,192,104427,1,0,0:0:0:0:
192,192,104667,1,0,0:0:0:0:
448,192,104787,1,0,0:0:0:0:
192,192,104907,1,0,0:0:0:0:
320,192,105027,1,0,0:0:0:0:
320,192,105387,1,0,0:0:0:0:
448,192,105627,1,0,0:0:0:0:
320,192,105747,1,0,0:0:0:0:
192,192,105867,1,0,0:0:0:0:
320,192,106107,1,0,0:0:0:0:
192,192,106347,1,0,0:0:0:0:
320,192,106587,1,0,0:0:0:0:
64,192,106707,1,8,0:0:0:0:
320,192,106947,1,0,0:0:0:0:
448,192,107187,1,8,0:0:0:0:
192,192,107187,1,0,0:0:0:0:
64,192,107307,1,0,0:0:0:0:
320,192,107427,1,0,0:0:0:0:
64,192,107547,1,0,0:0:0:0:
192,192,107667,1,8,0:0:0:0:
448,192,107667,1,0,0:0:0:0:
320,192,107787,1,0,0:0:0:0:
64,192,108027,1,0,0:0:0:0:
192,192,108147,1,8,0:0:0:0:
320,192,108147,1,0,0:0:0:0:
448,192,108267,1,0,0:0:0:0:
192,192,108507,1,0,0:0:0:0:
448,192,108627,1,8,0:0:0:0:
64,192,108627,1,0,0:0:0:0:
192,192,108747,1,0,0:0:0:0:
320,192,108867,1,0,0:0:0:0:
64,192,109107,1,8,0:0:0:0:
448,192,109107,1,0,0:0:0:0:
320,192,109227,1,0,0:0:0:0:
448,192,109467,1,0,0:0:0:0:
320,192,109587,1,8,0:0:0:0:
64,192,109587,1,0,0:0:0:0:
192,192,109707,1,0,0:0:0:0:
64,192,109947,1,0,0:0:0:0:
448,192,110067,1,8,0:0:0:0:
320,192,110067,1,0,0:0:0:0:
192,192,110187,1,0,0:0:0:0:
320,192,110307,1,8,0:0:0:0:
64,192,110427,1,0,0:0:0:0:
320,192,110547,1,8,0:0:0:0:
448,192,110547,1,0,0:0:0:0:
192,192,110667,1,0,0:0:0:0:
64,192,110787,1,0,0:0:0:0:
448,192,111027,1,8,0:0:0:0:
64,192,111027,1,0,0:0:0:0:
320,192,111147,1,0,0:0:0:0:
192,192,111267,1,0,0:0:0:0:
320,192,111387,1,0,0:0:0:0:
64,192,111507,1,8,0:0:0:0:
192,192,111507,1,0,0:0:0:0:
448,192,111627,1,0,0:0:0:0:
192,192,111867,1,0,0:0:0:0:
64,192,111987,1,8,0:0:0:0:
320,192,111987,1,0,0:0:0:0:
448,192,112107,1,0,0:0:0:0:
64,192,112347,1,0,0:0:0:0:
448,192,112467,1,8,0:0:0:0:
192,192,112467,1,0,0:0:0:0:
64,192,112587,1,0,0:0:0:0:
320,192,112707,1,0,0:0:0:0:
448,192,112947,1,0,0:0:0:0:
64,192,112947,1,8,0:0:0:0:
320,192,113067,1,0,0:0:0:0:
448,192,113307,1,0,0:0:0:0:
320,192,113427,1,8,0:0:0:0:
64,192,113427,1,0,0:0:0:0:
192,192,113547,1,0,0:0:0:0:
448,192,113787,1,0,0:0:0:0:
192,192,113907,1,0,0:0:0:0:
64,192,113907,1,8,0:0:0:0:
320,192,114027,1,0,0:0:0:0:
192,192,114267,1,0,0:0:0:0:
64,192,114387,1,8,0:0:0:0:
320,192,114387,1,0,0:0:0:0:
192,192,114627,1,0,0:0:0:0:
64,192,114867,1,8,0:0:0:0:
448,192,114867,1,0,0:0:0:0:
320,192,115107,1,0,0:0:0:0:
64,192,115227,1,0,0:0:0:0:
448,192,115347,1,8,0:0:0:0:
320,192,115347,1,0,0:0:0:0:
192,192,115467,1,0,0:0:0:0:
320,192,115587,1,0,0:0:0:0:
64,192,115707,1,0,0:0:0:0:
320,192,115827,1,8,0:0:0:0:
192,192,115827,1,0,0:0:0:0:
448,192,115947,1,0,0:0:0:0:
320,192,116187,1,0,0:0:0:0:
64,192,116307,1,8,0:0:0:0:
448,192,116307,1,0,0:0:0:0:
192,192,116547,1,0,0:0:0:0:
320,192,116787,1,8,0:0:0:0:
64,192,116787,1,0,0:0:0:0:
448,192,116907,1,0,0:0:0:0:
64,192,117147,1,0,0:0:0:0:
192,192,117267,1,8,0:0:0:0:
448,192,117267,1,0,0:0:0:0:
320,192,117387,1,0,0:0:0:0:
192,192,117627,1,0,0:0:0:0:
64,192,117747,1,8,0:0:0:0:
448,192,117867,1,0,0:0:0:0:
320,192,117987,1,8,0:0:0:0:
192,192,118107,1,0,0:0:0:0:
64,192,118227,1,8,0:0:0:0:
320,192,118347,1,0,0:0:0:0:
192,192,118467,5,0,0:0:0:0:
64,192,118707,1,8,0:0:0:0:
448,192,118707,1,0,0:0:0:0:
320,192,118827,1,0,0:0:0:0:
192,192,118947,1,0,0:0:0:0:
448,192,119067,1,0,0:0:0:0:
320,192,119187,1,8,0:0:0:0:
64,192,119187,1,0,0:0:0:0:
192,192,119307,1,0,0:0:0:0:
320,192,119547,1,0,0:0:0:0:
448,192,119667,1,0,0:0:0:0:
192,192,119667,1,8,0:0:0:0:
64,192,119787,1,0,0:0:0:0:
320,192,120027,1,0,0:0:0:0:
64,192,120147,1,8,0:0:0:0:
448,192,120147,1,0,0:0:0:0:
320,192,120267,1,0,0:0:0:0:
192,192,120387,1,0,0:0:0:0:
448,192,120627,1,8,0:0:0:0:
64,192,120627,1,0,0:0:0:0:
192,192,120747,1,0,0:0:0:0:
64,192,120987,1,0,0:0:0:0:
192,192,121107,1,8,0:0:0:0:
448,192,121107,1,0,0:0:0:0:
320,192,121227,1,0,0:0:0:0:
192,192,121467,1,0,0:0:0:0:
64,192,121587,1,0,0:0:0:0:
448,192,121587,1,8,0:0:0:0:
320,192,121707,1,0,0:0:0:0:
192,192,121947,1,0,0:0:0:0:
448,192,122067,1,8,0:0:0:0:
64,192,122067,1,0,0:0:0:0:
192,192,122307,1,0,0:0:0:0:
320,192,122547,1,0,0:0:0:0:
64,192,122547,1,8,0:0:0:0:
448,192,122667,1,0,0:0:0:0:
192,192,122787,1,0,0:0:0:0:
448,192,122907,1,0,0:0:0:0:
320,192,123027,1,8,0:0:0:0:
64,192,123027,1,0,0:0:0:0:
192,192,123147,1,0,0:0:0:0:
448,192,123387,1,0,0:0:0:0:
320,192,123507,1,0,0:0:0:0:
192,192,123507,1,8,0:0:0:0:
64,192,123627,1,0,0:0:0:0:
320,192,123867,1,0,0:0:0:0:
64,192,123987,1,8,0:0:0:0:
448,192,123987,1,0,0:0:0:0:
320,192,124107,1,0,0:0:0:0:
192,192,124227,1,0,0:0:0:0:
448,192,124467,1,8,0:0:0:0:
64,192,124467,1,0,0:0:0:0:
192,192,124587,1,0,0:0:0:0:
64,192,124827,1,0,0:0:0:0:
192,192,124947,1,8,0:0:0:0:
448,192,124947,1,0,0:0:0:0:
320,192,125067,1,0,0:0:0:0:
448,192,125307,1,0,0:0:0:0:
64,192,125427,1,8,0:0:0:0:
192,192,125427,1,0,0:0:0:0:
320,192,125547,1,0,0:0:0:0:
192,192,125667,1,8,0:0:0:0:
448,192,125787,1,0,0:0:0:0:
192,192,125907,1,8,0:0:0:0:
320,192,126027,1,0,0:0:0:0:
448,192,126147,1,0,0:0:0:0:
64,192,126387,1,8,0:0:0:0:
448,192,126387,1,0,0:0:0:0:
192,192,126507,1,0,0:0:0:0:
320,192,126627,1,0,0:0:0:0:
192,192,126747,1,0,0:0:0:0:
448,192,126867,1,8,0:0:0:0:
320,192,126867,1,0,0:0:0:0:
64,192,126987,1,0,0:0:0:0:
320,192,127227,1,0,0:0:0:0:
448,192,127347,1,0,0:0:0:0:
192,192,127347,1,8,0:0:0:0:
64,192,127467,1,0,0:0:0:0:
448,192,127707,1,0,0:0:0:0:
64,192,127827,1,8,0:0:0:0:
320,192,127827,1,0,0:0:0:0:
448,192,127947,1,0,0:0:0:0:
192,192,128067,1,0,0:0:0:0:
448,192,128307,1,8,0:0:0:0:
64,192,128307,1,0,0:0:0:0:
192,192,128427,1,0,0:0:0:0:
64,192,128667,1,0,0:0:0:0:
192,192,128787,1,8,0:0:0:0:
448,192,128787,1,0,0:0:0:0:
320,192,128907,1,0,0:0:0:0:
64,192,129147,1,0,0:0:0:0:
320,192,129267,1,0,0:0:0:0:
448,192,129267,1,8,0:0:0:0:
192,192,129387,1,0,0:0:0:0:
192,192,129627,1,0,0:0:0:0:
448,192,129747,1,8,0:0:0:0:
64,192,129747,1,0,0:0:0:0:
64,192,129987,1,8,0:0:0:0:
320,192,129987,1,0,0:0:0:0:
448,192,130107,1,0,0:0:0:0:
64,192,130227,1,8,0:0:0:0:
320,192,130227,1,0,0:0:0:0:
192,192,130347,1,8,0:0:0:0:
192,192,130707,1,8,0:0:0:0:
448,192,130707,1,0,0:0:0:0:
64,192,130827,1,0,0:0:0:0:
192,192,130947,1,8,0:0:0:0:
448,192,130947,1,0,0:0:0:0:
320,192,131067,1,8,0:0:0:0:
320,192,131427,1,8,0:0:0:0:
192,192,131427,1,0,0:0:0:0:
64,192,131547,1,0,0:0:0:0:
320,192,131667,1,8,0:0:0:0:
192,192,131667,1,0,0:0:0:0:
448,192,131787,1,8,0:0:0:0:
64,192,131907,1,8,0:0:0:0:
320,192,132027,1,0,0:0:0:0:
192,192,132147,1,8,0:0:0:0:
448,192,132147,1,0,0:0:0:0:
64,192,132267,1,0,0:0:0:0:
448,192,132507,1,0,0:0:0:0:
320,192,132627,1,8,0:0:0:0:
64,192,132627,1,0,0:0:0:0:
192,192,132747,1,0,0:0:0:0:
64,192,132987,1,0,0:0:0:0:
192,192,133107,1,8,0:0:0:0:
448,192,133107,1,0,0:0:0:0:
320,192,133227,1,0,0:0:0:0:
320,192,133467,1,0,0:0:0:0:
64,192,133587,1,8,0:0:0:0:
448,192,133587,1,0,0:0:0:0:
192,192,133707,1,0,0:0:0:0:
320,192,133827,1,8,0:0:0:0:
64,192,133827,1,4,0:0:0:0:
320,192,134067,1,8,0:0:0:0:
448,192,134067,1,0,0:0:0:0:
192,192,134307,1,8,0:0:0:0:
448,192,134307,1,4,0:0:0:0:
192,192,134547,1,8,0:0:0:0:
64,192,134547,1,0,0:0:0:0:
320,192,134787,1,8,0:0:0:0:
64,192,134787,1,4,0:0:0:0:
320,192,135027,1,8,0:0:0:0:
448,192,135027,1,0,0:0:0:0:
192,192,135267,1,8,0:0:0:0:
448,192,135267,1,4,0:0:0:0:
192,192,135507,1,8,0:0:0:0:
64,192,135507,1,0,0:0:0:0:
448,192,135747,1,4,0:0:0:0:
320,192,135747,1,8,0:0:0:0:
192,192,135867,1,0,0:0:0:0:
64,192,135987,1,8,0:0:0:0:
320,192,135987,1,0,0:0:0:0:
448,192,136107,1,0,0:0:0:0:
64,192,136227,1,8,0:0:0:0:
192,192,136227,1,4,0:0:0:0:
320,192,136347,1,0,0:0:0:0:
448,192,136467,1,8,0:0:0:0:
192,192,136467,1,0,0:0:0:0:
64,192,136587,5,0,0:0:0:0:
448,192,136707,1,8,0:0:0:0:
320,192,136707,1,4,0:0:0:0:
192,192,136827,1,0,0:0:0:0:
64,192,136827,1,0,0:0:0:0:
320,192,136947,1,0,0:0:0:0:
448,192,136947,1,8,0:0:0:0:
192,192,137067,1,0,0:0:0:0:
64,192,137067,1,0,0:0:0:0:
320,192,137187,1,0,0:0:0:0:
192,192,137427,1,0,0:0:0:0:
64,192,137667,1,0,0:0:0:0:
320,192,137787,1,0,0:0:0:0:
192,192,137907,1,0,0:0:0:0:
448,192,138027,1,0,0:0:0:0:
320,192,138267,1,0,0:0:0:0:
64,192,138387,1,8,0:0:0:0:
192,192,138387,1,0,0:0:0:0:
448,192,138627,1,0,0:0:0:0:
192,192,138747,1,0,0:0:0:0:
320,192,138867,1,0,0:0:0:0:
64,192,138987,1,0,0:0:0:0:
192,192,139227,1,0,0:0:0:0:
448,192,139347,1,8,0:0:0:0:
320,192,139347,1,0,0:0:0:0:
64,192,139467,1,8,0:0:0:0:
192,192,139587,1,0,0:0:0:0:
64,192,139707,1,0,0:0:0:0:
448,192,139827,1,8,0:0:0:0:
320,192,139827,1,0,0:0:0:0:
192,192,139947,1,0,0:0:0:0:
64,192,140187,1,0,0:0:0:0:
448,192,140427,1,0,0:0:0:0:
320,192,140667,1,0,0:0:0:0:
192,192,140787,1,8,0:0:0:0:
64,192,140787,1,0,0:0:0:0:
448,192,140907,1,0,0:0:0:0:
192,192,141027,1,8,0:0:0:0:
64,192,141027,1,0,0:0:0:0:
448,192,141267,1,8,0:0:0:0:
192,192,141267,1,4,0:0:0:0:
64,192,141507,1,0,0:0:0:0:
320,192,141627,1,0,0:0:0:0:
192,192,141747,1,0,0:0:0:0:
448,192,141867,1,0,0:0:0:0:
320,192,142107,1,0,0:0:0:0:
64,192,142227,1,8,0:0:0:0:
192,192,142227,1,0,0:0:0:0:
448,192,142467,1,0,0:0:0:0:
192,192,142587,1,0,0:0:0:0:
320,192,142707,1,0,0:0:0:0:
64,192,142827,1,0,0:0:0:0:
320,192,143067,1,0,0:0:0:0:
64,192,143187,1,8,0:0:0:0:
192,192,143187,1,0,0:0:0:0:
448,192,143307,1,8,0:0:0:0:
64,192,143427,1,0,0:0:0:0:
192,192,143547,1,0,0:0:0:0:
448,192,143667,1,8,0:0:0:0:
320,192,143667,1,0,0:0:0:0:
64,192,143787,1,0,0:0:0:0:
192,192,144027,1,0,0:0:0:0:
448,192,144267,1,0,0:0:0:0:
192,192,144507,1,0,0:0:0:0:
448,192,144627,1,8,0:0:0:0:
320,192,144627,1,0,0:0:0:0:
64,192,144747,1,0,0:0:0:0:
448,192,144867,1,8,0:0:0:0:
320,192,144867,1,0,0:0:0:0:
448,192,145107,1,8,0:0:0:0:
320,192,145107,1,0,0:0:0:0:
64,192,145347,1,0,0:0:0:0:
448,192,145467,1,0,0:0:0:0:
192,192,145587,1,0,0:0:0:0:
320,192,145707,1,0,0:0:0:0:
64,192,145947,1,0,0:0:0:0:
320,192,146067,1,8,0:0:0:0:
448,192,146067,1,0,0:0:0:0:
448,192,146307,1,0,0:0:0:0:
64,192,146427,1,0,0:0:0:0:
320,192,146547,1,0,0:0:0:0:
192,192,146667,1,0,0:0:0:0:
448,192,146907,1,0,0:0:0:0:
320,192,146907,1,0,0:0:0:0:
64,192,147027,1,0,0:0:0:0:
192,192,147027,1,8,0:0:0:0:
448,192,147147,1,8,0:0:0:0:
64,192,147267,1,0,0:0:0:0:
192,192,147387,1,0,0:0:0:0:
448,192,147507,1,8,0:0:0:0:
320,192,147507,1,0,0:0:0:0:
192,192,147627,1,0,0:0:0:0:
64,192,147867,1,0,0:0:0:0:
448,192,148107,1,0,0:0:0:0:
320,192,148347,1,0,0:0:0:0:
192,192,148467,1,8,0:0:0:0:
64,192,148467,1,0,0:0:0:0:
448,192,148587,1,0,0:0:0:0:
192,192,148707,1,8,0:0:0:0:
64,192,148707,1,0,0:0:0:0:
448,192,148947,1,8,0:0:0:0:
192,192,148947,1,4,0:0:0:0:
64,192,149187,1,0,0:0:0:0:
320,192,149307,1,0,0:0:0:0:
192,192,149427,1,0,0:0:0:0:
448,192,149547,1,0,0:0:0:0:
64,192,149787,1,0,0:0:0:0:
448,192,149907,1,8,0:0:0:0:
192,192,149907,1,0,0:0:0:0:
64,192,150027,1,8,0:0:0:0:
320,192,150027,1,0,0:0:0:0:
448,192,150147,1,0,0:0:0:0:
192,192,150267,1,0,0:0:0:0:
320,192,150387,1,0,0:0:0:0:
64,192,150507,1,0,0:0:0:0:
448,192,150747,1,0,0:0:0:0:
64,192,150867,1,8,0:0:0:0:
192,192,150867,1,0,0:0:0:0:
448,192,150987,1,8,0:0:0:0:
320,192,150987,1,0,0:0:0:0:
64,192,151107,1,0,0:0:0:0:
192,192,151227,1,0,0:0:0:0:
448,192,151347,1,8,0:0:0:0:
320,192,151347,1,0,0:0:0:0:
192,192,151467,1,0,0:0:0:0:
64,192,151707,1,0,0:0:0:0:
192,192,151947,1,0,0:0:0:0:
320,192,152187,1,0,0:0:0:0:
192,192,152307,1,8,0:0:0:0:
64,192,152307,1,0,0:0:0:0:
448,192,152427,1,0,0:0:0:0:
64,192,152667,1,0,0:0:0:0:
192,192,152907,1,0,0:0:0:0:
320,192,153027,1,0,0:0:0:0:
448,192,153147,1,0,0:0:0:0:
64,192,153267,1,8,0:0:0:0:
192,192,153267,1,0,0:0:0:0:
448,192,153387,1,0,0:0:0:0:
64,192,153627,1,0,0:0:0:0:
320,192,153867,1,0,0:0:0:0:
192,192,154107,1,0,0:0:0:0:
64,192,154227,1,8,0:0:0:0:
320,192,154227,1,0,0:0:0:0:
448,192,154347,1,0,0:0:0:0:
64,192,154467,1,8,0:0:0:0:
320,192,154467,1,0,0:0:0:0:
448,192,154707,1,4,0:0:0:0:
320,192,154707,1,0,0:0:0:0:
64,192,154707,1,0,0:0:0:0:
