osu file format v14

[General]
AudioFilename: audio.mp3
AudioLeadIn: 0
PreviewTime: 156558
Countdown: 0
SampleSet: Soft
StackLeniency: 0.7
Mode: 0
LetterboxInBreaks: 0
WidescreenStoryboard: 0

[Editor]
Bookmarks: 22309,38142,66475,76808,87308,108975,129975,156642,177975,209976,233309,254309,275976,297309
DistanceSpacing: 0.7
BeatDivisor: 4
GridSize: 32
TimelineZoom: 2.7

[Metadata]
Title:Salmiakki
TitleUnicode:Salmiakki
Artist:Frums
ArtistUnicode:Frums
Creator:Gibune
Version:Collab Expert
Source:
Tags:PandaHero Electronic dnb Drum and bass Instrumental Featured artist fa mpg mappers' guild vignette
BeatmapID:3046431
BeatmapSetID:1485654

[Difficulty]
HPDrainRate:6
CircleSize:5
OverallDifficulty:9
ApproachRate:9.2
SliderMultiplier:1.4
SliderTickRate:1

[Events]
//Background and Video events
0,0,"frums.jpg",0,0
//Break Periods
2,148642,150558
//Storyboard Layer 0 (Background)
//Storyboard Layer 1 (Fail)
//Storyboard Layer 2 (Pass)
//Storyboard Layer 3 (Foreground)
//Storyboard Layer 4 (Overlay)
//Storyboard Sound Samples

[TimingPoints]
976,333.333333333333,4,2,1,60,1,0
976,-133.333333333333,4,2,1,60,0,0
22309,-100,4,2,1,65,0,0
32975,-83.3333333333333,4,2,1,70,0,0
38142,-133.333333333333,4,2,0,40,0,0
38309,333.333333333333,3,2,0,40,1,0
38309,-200,3,2,0,40,0,0
39309,333.333333333333,4,2,0,50,1,0
39309,-50,4,2,42,50,0,0
39559,-58.8235294117647,4,2,42,50,0,0
39809,-71.4285714285714,4,2,42,50,0,0
40059,-400,4,2,42,50,0,0
42809,-133.333333333333,4,2,42,40,0,0
43447,-200,4,2,42,45,0,0
43725,-100,4,2,42,50,0,0
43975,-200,4,2,42,50,0,0
44308,-100,4,2,2,55,0,0
44642,-66.6666666666667,4,2,2,55,0,0
66308,-33.3333333333333,4,2,2,55,0,0
66475,-33.3333333333333,4,2,2,60,0,0
66642,-66.6666666666667,4,2,2,60,0,0
76642,-80,4,2,2,55,0,0
78142,-66.6666666666667,4,2,2,55,0,0
87308,-50,4,2,2,65,0,0
87642,-66.6666666666667,4,2,2,65,0,0
104308,-66.6666666666667,4,2,2,65,0,0
108975,-50,4,2,2,65,0,0
109308,-66.6666666666667,4,2,2,65,0,0
129642,-40,4,2,58,60,0,0
129808,-200,4,2,58,60,0,0
129975,-200,4,2,58,40,0,0
130225,-333.333333333333,4,2,58,35,0,0
130475,-1000,4,2,58,30,0,0
130808,-333.333333333333,4,2,0,30,0,0
131392,-200,4,2,0,35,0,0
131975,-142.857142857143,4,2,0,40,0,0
132642,-111.111111111111,4,2,0,45,0,0
133308,-90.9090909090908,4,2,42,50,0,0
134308,-142.857142857143,4,2,42,50,0,0
134642,-333.333333333333,4,2,42,50,0,0
135308,-100,4,2,2,50,0,0
135642,-142.857142857143,4,2,2,50,0,0
144975,-333.333333333333,4,2,1,35,0,0
145975,-1000,4,2,0,40,0,0
151308,-200,4,2,5,50,0,0
151975,-250,4,2,5,50,0,0
152308,-333.333333333333,4,2,5,50,0,0
156642,-100,4,2,4,55,0,0
161308,-133.333333333333,4,2,4,55,0,0
161975,-83.3333333333333,4,2,4,55,0,0
164142,-100,4,2,4,55,0,0
164642,-83.3333333333333,4,2,4,55,0,0
164808,-133.333333333333,4,2,4,55,0,0
167642,-83.3333333333333,4,2,4,55,0,0
167975,-100,4,2,4,55,0,0
177308,-133.333333333333,4,2,4,65,0,0
199308,-133.333333333333,4,2,4,5,0,0
208808,-133.333333333333,4,2,4,30,0,0
209142,-100,4,2,1,40,0,0
209475,-76.9230769230769,4,2,1,50,0,0
209976,333.333333333333,3,2,0,57,1,0
209976,-200,3,2,0,55,0,0
210476,-133.333333333333,3,2,0,55,0,0
210809,-133.333333333333,3,2,2,55,0,0
210976,333.333333333333,4,2,2,65,1,0
211643,333.333333333333,4,2,2,70,1,0
211643,-44.4444444444445,4,2,2,70,0,0
211893,-57.1428571428571,4,2,2,70,0,0
254309,-66.6666666666667,4,2,2,65,0,0
281976,-66.6666666666667,4,2,2,65,0,0
285309,-100,4,2,2,65,0,0
285642,-66.6666666666667,4,2,2,65,0,0
287976,-133.333333333333,4,2,2,65,0,0
288309,-100,4,2,2,65,0,0
288642,-76.9230769230769,4,2,2,65,0,0
288976,-66.6666666666667,4,2,2,65,0,0
296976,-66.6666666666667,4,2,42,55,0,0
307142,-66.6666666666667,4,2,42,5,0,0

[Colours]
Combo1 : 133,224,222
Combo2 : 156,172,226
Combo3 : 223,142,193
Combo4 : 227,163,155

[HitObjects]
32,278,975,5,0,1:0:0:0:
85,231,1225,1,2,0:1:0:0:
85,231,1309,1,8,0:0:0:0:
144,269,1475,1,0,1:0:0:0:
116,333,1809,6,0,L|128:369,2,26.2500010013581,2|2|2,0:1|0:1|0:1,0:0:0:0:
184,189,2309,5,0,1:0:0:0:
251,221,2559,1,2,0:1:0:0:
251,221,2643,1,8,0:0:0:0:
294,164,2809,1,0,1:0:0:0:
241,120,2975,1,2,0:1:0:0:
232,114,3059,1,2,0:1:0:0:
222,108,3142,1,2,0:1:0:0:
213,102,3225,1,2,0:1:0:0:
203,97,3309,1,2,0:1:0:0:
237,35,3475,5,2,0:3:0:0:
306,26,3642,2,0,P|360:61|357:84,1,78.7500030040742,0|2,1:0|0:1,0:0:0:0:
352,86,3975,1,8,0:0:0:0:
415,121,4142,1,0,1:0:0:0:
415,121,4475,6,0,L|399:169,2,26.2500010013581,2|2|2,0:1|0:1|0:1,0:0:0:0:
337,203,4975,5,0,1:0:0:0:
296,281,5142,1,0,3:0:0:0:
299,290,5225,1,2,0:1:0:0:
303,299,5309,1,8,0:0:0:0:
230,226,5475,1,0,1:0:0:0:
233,217,5558,1,8,0:0:0:0:
237,208,5642,1,0,1:0:0:0:
390,341,5809,5,2,0:1:0:0:
400,344,5892,1,0,1:0:0:0:
483,327,6059,1,8,0:0:0:0:
473,324,6142,1,2,3:0:0:0:
444,259,6309,6,0,B|410:209|430:147|463:196,1,105.000004005432,0|8,1:0|0:0,0:0:0:0:
508,229,6809,1,0,1:0:0:0:
355,130,7142,6,0,L|363:84,2,26.2500010013581,2|2|2,0:1|0:1|0:1,0:0:0:0:
289,177,7642,5,0,1:0:0:0:
230,139,7892,1,2,0:1:0:0:
230,139,7976,1,8,0:0:0:0:
256,70,8142,1,0,1:0:0:0:
320,86,8309,2,0,L|311:121,1,26.2500010013581,2|2,0:1|0:1,0:0:0:0:
342,67,8475,2,0,L|348:44,4,13.125000500679,2|0|2|0|2,0:1|0:1|0:1|0:1|0:1,0:0:0:0:
125,35,8809,1,2,3:0:0:0:
125,35,8892,1,0,0:0:0:0:
125,35,8975,6,0,P|86:48|54:43,1,52.5000020027161,0|0,1:0|0:0,0:0:0:0:
49,54,9225,2,0,P|88:82|101:93,1,52.5000020027161,2|0,0:1|0:0,0:0:0:0:
104,108,9475,2,0,L|94:130,2,13.125000500679,2|0|0,1:3|0:0|0:0,0:0:0:0:
39,162,9642,2,0,L|35:140,2,13.125000500679,2|0|0,0:3|0:0|0:0,0:0:0:0:
104,191,9809,2,0,L|96:208,4,13.125000500679,2|0|2|0|2,0:1|0:0|0:1|0:0|0:1,0:0:0:0:
31,340,10142,6,0,L|12:336,1,13.125000500679,2|0,3:0|0:0,0:0:0:0:
41,333,10225,2,0,L|22:329,1,13.125000500679
52,359,10309,6,0,B|69:374|69:374|149:355,1,105.000004005432,0|8,1:0|0:0,0:0:0:0:
361,311,10809,5,0,1:0:0:0:
345,297,10892,1,8,0:0:0:0:
325,300,10975,1,8,0:0:0:0:
304,305,11059,1,8,0:0:0:0:
284,310,11142,1,8,0:0:0:0:
263,315,11225,1,8,0:0:0:0:
244,323,11309,2,0,L|202:316,1,26.2500010013581,2|0,1:0|0:0,0:0:0:0:
225,243,11475,2,0,L|262:249,1,26.2500010013581,2|0,1:0|0:0,0:0:0:0:
302,196,11642,6,0,P|301:154|264:126,1,78.7500030040742,0|2,1:0|0:1,0:0:0:0:
261,114,11975,2,0,L|216:128,1,26.2500010013581,8|0,0:0|0:0,0:0:0:0:
293,50,12142,1,0,1:1:0:0:
293,50,12225,1,2,0:0:0:0:
293,50,12309,2,0,L|332:58,3,26.2500010013581,2|2|2|2,0:0|0:0|0:1|0:1,0:0:0:0:
379,19,12642,1,2,0:1:0:0:
389,20,12725,1,2,0:0:0:0:
399,21,12809,1,2,0:0:0:0:
409,22,12892,1,2,0:0:0:0:
419,23,12975,6,0,L|401:110,1,78.7500030040742,0|2,1:0|0:1,0:0:0:0:
399,120,13309,1,8,0:0:0:0:
458,173,13475,2,0,L|471:153,2,13.125000500679,0|0|2,1:0|0:0|0:1,0:0:0:0:
407,234,13642,6,0,L|371:229,1,26.2500010013581,2|0,0:1|0:0,0:0:0:0:
394,241,13809,2,0,L|358:236,1,26.2500010013581,2|0,0:1|0:0,0:0:0:0:
432,308,13975,2,0,L|458:302,3,26.2500010013581,2|2|2|2,0:1|0:0|0:0|0:0,0:0:0:0:
361,350,14309,6,0,P|310:340|306:291,1,105.000004005432,0|8,1:0|0:0,0:0:0:0:
318,226,14809,1,2,1:2:0:0:
318,226,14892,1,2,0:0:0:0:
318,226,14975,2,0,L|357:236,3,26.2500010013581,2|2|2|2,0:0|0:0|0:1|0:1,0:0:0:0:
248,260,15309,1,2,0:1:0:0:
237,261,15392,1,2,0:0:0:0:
226,263,15475,1,2,0:0:0:0:
215,266,15559,1,2,0:0:0:0:
204,268,15642,6,0,L|139:259,1,52.5000020027161,0|0,1:0|0:0,0:0:0:0:
140,249,15892,1,2,0:1:0:0:
140,249,15975,2,0,L|70:265,1,52.5000020027161,8|0,0:0|1:0,0:0:0:0:
69,269,16225,1,8,0:0:0:0:
48,276,16309,1,0,1:0:0:0:
0,199,16475,1,2,0:1:0:0:
20,202,16559,1,0,1:0:0:0:
118,155,16725,1,8,0:0:0:0:
97,157,16809,1,2,3:0:0:0:
48,99,16975,6,0,L|64:13,1,78.7500030040742,0|2,1:0|0:1,0:0:0:0:
62,0,17309,2,0,L|21:13,1,26.2500010013581,8|0,0:0|0:0,0:0:0:0:
134,28,17475,1,2,1:2:0:0:
134,28,17559,1,2,0:0:0:0:
134,28,17642,2,0,L|176:18,1,26.2500010013581,2|2,0:0|0:0,0:0:0:0:
227,52,17809,2,0,L|216:92,1,26.2500010013581,2|2,0:1|0:1,0:0:0:0:
195,148,17975,1,2,0:1:0:0:
199,157,18059,1,2,0:0:0:0:
201,167,18142,1,2,0:0:0:0:
204,176,18225,1,2,0:0:0:0:
208,185,18309,6,0,P|244:201|288:185,1,78.7500030040742,0|2,1:0|0:1,0:0:0:0:
294,175,18642,1,8,0:0:0:0:
350,135,18809,2,0,L|368:142,2,13.125000500679,0|0|2,1:0|0:0|0:1,0:0:0:0:
395,200,18975,2,0,L|430:193,1,26.2500010013581,2|2,0:1|0:1,0:0:0:0:
410,209,19142,2,0,L|445:202,1,26.2500010013581,2|2,0:1|0:1,0:0:0:0:
367,269,19309,2,0,L|324:263,1,26.2500010013581,2|2,0:1|0:0,0:0:0:0:
431,346,19475,1,2,3:0:0:0:
431,346,19559,1,2,0:0:0:0:
431,346,19642,6,0,P|461:341|480:323,1,52.5000020027161,0|0,1:0|0:0,0:0:0:0:
490,303,19892,2,0,P|459:275|435:270,1,52.5000020027161,2|0,0:1|0:0,0:0:0:0:
424,264,20142,2,0,L|441:227,1,26.2500010013581,0|0,1:0|0:0,0:0:0:0:
475,179,20309,1,2,0:0:0:0:
467,165,20392,1,2,0:0:0:0:
461,150,20475,1,2,0:1:0:0:
454,135,20559,1,2,0:1:0:0:
446,121,20642,2,0,L|442:74,1,26.2500010013581,2|2,0:1|0:0,0:0:0:0:
407,34,20809,2,0,L|412:20,2,13.125000500679,2|0|0,3:0|0:0|0:0,0:0:0:0:
354,102,20975,6,0,P|318:100|287:63,1,78.7500030040742,0|2,1:0|0:1,0:0:0:0:
284,55,21309,2,0,L|255:62,1,26.2500010013581,8|0,0:0|0:0,0:0:0:0:
56,126,21475,1,0,1:0:0:0:
56,126,21559,1,8,0:0:0:0:
86,130,21642,1,8,0:0:0:0:
113,145,21725,1,8,0:0:0:0:
135,167,21809,1,8,0:0:0:0:
147,195,21892,1,10,0:0:0:0:
165,220,21975,1,8,0:0:0:0:
195,228,22059,1,8,0:0:0:0:
225,220,22142,2,0,L|240:215,2,13.125000500679,2|0|0,1:0|0:0|0:0,0:0:0:0:
341,119,22309,6,0,B|323:128|323:128|307:201,1,70,4|0,1:2|1:0,0:0:0:0:
316,197,22559,1,2,0:0:0:0:
316,197,22642,1,8,0:0:0:0:
438,291,22809,5,2,0:1:0:0:
434,277,22892,1,2,0:1:0:0:
430,263,22975,1,2,0:1:0:0:
426,249,23059,1,2,0:1:0:0:
423,235,23142,2,0,L|379:253,1,35,0|0,1:0|0:0,0:0:0:0:
330,304,23309,2,0,L|292:294,1,35,8|0,0:0|0:0,0:0:0:0:
195,221,23475,5,2,0:1:0:0:
191,230,23559,1,2,0:1:0:0:
187,239,23642,2,0,P|237:245|259:231,1,70,0|0,1:0|1:0,0:0:0:0:
294,177,23892,1,0,3:0:0:0:
294,177,23975,2,0,L|285:135,1,35,8|0,0:0|0:0,0:0:0:0:
229,79,24142,2,0,L|214:127,1,35,2|2,0:1|0:1,0:0:0:0:
153,148,24309,5,2,0:1:0:0:
139,143,24392,1,2,0:1:0:0:
125,138,24475,1,0,1:0:0:0:
111,133,24559,1,0,3:0:0:0:
97,128,24642,2,0,L|49:145,1,35,8|0,0:0|0:0,0:0:0:0:
122,248,24809,5,2,0:1:0:0:
116,264,24892,1,10,0:1:0:0:
111,280,24975,2,0,L|102:196,2,70,0|0|8,1:0|1:0|0:0,0:0:0:0:
182,357,25475,1,2,0:1:0:0:
182,357,25642,2,0,L|190:312,2,35,2|2|0,0:1|0:1|1:0,0:0:0:0:
241,274,25975,1,8,0:0:0:0:
339,321,26142,5,2,0:1:0:0:
339,321,26225,1,2,0:1:0:0:
339,321,26309,1,0,1:0:0:0:
348,190,26475,1,0,1:0:0:0:
391,251,26642,1,8,0:0:0:0:
271,189,26809,5,2,0:1:0:0:
250,192,26892,1,2,0:1:0:0:
229,196,26975,1,2,0:1:0:0:
208,199,27059,1,2,0:1:0:0:
187,202,27142,2,0,L|176:257,1,35,0|0,1:0|0:0,0:0:0:0:
258,269,27309,1,8,0:0:0:0:
298,113,27475,5,2,0:1:0:0:
298,113,27559,1,10,0:1:0:0:
298,113,27642,2,0,L|371:120,1,70,0|0,1:0|1:0,0:0:0:0:
436,86,27975,1,8,0:0:0:0:
493,156,28142,2,0,L|456:168,1,35,2|2,0:1|0:1,0:0:0:0:
346,209,28309,5,2,0:1:0:0:
350,222,28392,1,2,0:1:0:0:
354,235,28475,1,0,1:0:0:0:
404,368,28642,1,8,0:0:0:0:
421,268,28809,2,0,L|408:314,1,35,2|2,0:1|0:1,0:0:0:0:
317,356,28975,5,0,1:0:0:0:
273,285,29142,1,0,1:0:0:0:
200,325,29309,2,2,B|184:304|184:304|177:244,1,70,10|2,0:0|0:1,0:0:0:0:
188,176,29559,1,2,0:1:0:0:
188,176,29642,2,0,L|196:133,2,35,2|2|0,0:1|0:1|1:0,0:0:0:0:
115,130,29975,1,8,0:0:0:0:
186,65,30142,5,2,0:1:0:0:
186,65,30225,1,2,0:1:0:0:
186,65,30309,2,0,L|263:52,1,70,0|0,1:0|1:0,0:0:0:0:
325,12,30642,1,8,0:0:0:0:
376,79,30809,2,0,L|415:70,1,35,2|2,0:0|0:1,0:0:0:0:
497,117,30975,5,2,0:1:0:0:
497,117,31059,1,2,0:1:0:0:
497,117,31142,2,0,P|463:134|438:171,1,70,0|8,1:0|0:0,0:0:0:0:
450,245,31475,5,2,0:1:0:0:
450,245,31559,1,2,0:1:0:0:
450,245,31642,2,0,L|371:258,1,70,0|0,1:0|1:0,0:0:0:0:
256,274,31975,1,8,0:0:0:0:
304,365,32142,1,2,0:1:0:0:
304,365,32225,1,2,0:1:0:0:
304,365,32309,5,2,0:1:0:0:
305,337,32392,1,2,0:1:0:0:
299,309,32475,1,0,1:0:0:0:
287,283,32559,1,0,1:0:0:0:
279,256,32642,1,8,0:0:0:0:
276,228,32725,1,2,0:1:0:0:
284,200,32809,1,2,0:1:0:0:
298,176,32892,1,2,0:1:0:0:
322,163,32975,5,4,1:0:0:0:
225,54,33142,2,0,L|211:108,1,41.9999987182618,8|0,0:0|0:0,0:0:0:0:
130,165,33309,1,2,0:1:0:0:
130,165,33392,1,8,0:0:0:0:
130,165,33475,2,0,L|139:230,1,41.9999987182618,0|0,1:0|0:0,0:0:0:0:
200,291,33642,1,8,0:0:0:0:
191,314,33725,1,8,0:0:0:0:
182,338,33809,1,0,1:0:0:0:
1,272,33975,2,0,P|49:298|79:291,1,83.9999974365235,4|8,1:0|0:0,0:0:0:0:
83,274,34225,5,8,0:0:0:0:
83,274,34309,2,0,L|71:219,1,41.9999987182618,2|8,0:1|0:0,0:0:0:0:
207,207,34475,1,0,1:0:0:0:
204,364,34642,1,8,0:0:0:0:
197,339,34725,1,8,0:0:0:0:
191,314,34809,1,0,1:0:0:0:
131,163,34975,2,0,L|145:109,1,41.9999987182618,4|0,1:0|0:0,0:0:0:0:
214,11,35142,1,8,0:0:0:0:
221,20,35225,1,8,0:0:0:0:
228,30,35309,1,4,1:0:0:0:
380,41,35475,2,8,L|385:20,2,20.9999993591309,8|0|0,0:0|0:0|0:0,0:0:0:0:
331,95,35642,5,4,1:0:0:0:
338,123,35725,1,8,0:0:0:0:
346,151,35809,1,2,0:1:0:0:
354,179,35892,1,0,1:0:0:0:
362,207,35975,2,0,L|353:254,1,41.9999987182618,8|0,0:0|0:0,0:0:0:0:
427,367,36142,2,0,L|411:311,1,41.9999987182618,0|0,1:0|0:0,0:0:0:0:
306,309,36309,5,8,0:0:0:0:
267,326,36392,1,8,0:0:0:0:
229,343,36475,2,0,L|245:290,1,41.9999987182618,0|0,1:0|0:0,0:0:0:0:
95,224,36642,5,8,0:0:0:0:
134,238,36725,1,8,0:0:0:0:
173,253,36809,2,0,L|160:203,1,41.9999987182618,4|0,1:0|0:0,0:0:0:0:
78,73,38142,6,0,L|124:66,1,26.2500010013581,2|0,3:0|0:0,0:0:0:0:
151,16,38309,6,0,L|119:128,1,105,2|2,0:1|0:1,0:1:0:0:
337,355,39309,6,0,B|294:320|294:320|326:215,1,140,6|0,0:1|0:0,0:0:0:0:
370,187,39559,6,0,B|413:222|413:222|382:318,1,119.000002269745,2|0,0:1|0:0,0:0:0:0:
346,350,39809,6,0,B|303:315|303:315|328:238,1,97.9999970092774,2|0,0:1|0:0,0:0:0:0:
379,182,40059,6,0,B|422:217|422:217|402:291,1,131.25,6|0,0:1|0:0,0:0:0:0:
256,192,41392,12,0,42642,0:0:0:0:
263,106,42809,6,0,L|243:102,1,17.500000667572,2|0,0:0|0:0,0:0:0:0:
277,97,42920,2,0,L|252:86,1,26.2500010013581,2|0,0:0|0:0,0:0:0:0:
287,87,43058,2,0,L|262:76,1,26.2500010013581,2|0,0:0|0:0,0:0:0:0:
350,28,43225,6,0,L|389:38,1,35.0000013351441,2|0,0:0|0:0,0:0:0:0:
351,46,43447,2,0,L|387:57,1,35,2|0,0:0|0:0,0:0:0:0:
457,75,43725,6,0,L|462:55,2,17.5,2|0|0,0:0|0:0|0:0,0:0:0:0:
412,147,43975,6,0,L|419:168,2,17.5,2|0|0,0:0|0:0|0:0,0:0:0:0:
305,208,44308,5,8,0:1:0:0:
274,225,44392,1,8,0:1:0:0:
264,258,44475,1,8,0:1:0:0:
276,290,44558,1,8,0:1:0:0:
303,312,44642,6,0,B|380:278|358:397|461:361,1,157.500006008148,4|0,1:0|0:0,0:0:0:0:
486,321,44975,2,0,P|481:300|452:266,2,52.5000020027161,2|2|2,0:0|0:0|0:0,0:0:0:0:
445,209,45308,1,2,0:0:0:0:
445,193,45392,1,2,0:0:0:0:
446,177,45475,1,2,0:0:0:0:
447,161,45558,1,2,0:0:0:0:
451,145,45642,2,0,P|463:118|482:80,1,52.5000020027161,0|0,1:0|0:0,0:0:0:0:
389,27,45808,5,8,0:0:0:0:
389,27,45892,1,8,0:0:0:0:
389,27,45975,2,0,P|333:62|318:65,1,52.5000020027161,8|0,0:1|0:0,0:0:0:0:
270,96,46142,2,0,P|214:61|199:58,1,52.5000020027161,8|0,0:1|0:0,0:0:0:0:
41,123,46308,2,0,P|125:139|129:211,1,157.500006008148,0|0,1:0|0:0,0:0:0:0:
75,244,46642,2,0,L|85:312,1,52.5000020027161,2|0,0:0|1:0,0:0:0:0:
172,362,46808,2,0,L|187:286,1,52.5000020027161,8|0,0:0|0:0,0:0:0:0:
283,201,46975,5,8,0:1:0:0:
303,248,47058,1,8,0:1:0:0:
342,283,47142,1,8,0:1:0:0:
392,296,47225,1,8,0:1:0:0:
441,278,47308,6,0,L|423:131,1,105.000004005432,4|0,1:2|1:0,0:0:0:0:
410,147,47558,1,2,0:0:0:0:
410,147,47642,2,0,L|425:79,1,52.5000020027161,8|0,0:0|0:0,0:0:0:0:
482,58,47808,2,0,L|467:-10,1,52.5000020027161,8|0,0:1|0:0,0:0:0:0:
317,73,47975,1,2,1:0:0:0:
320,88,48058,1,2,0:0:0:0:
322,103,48142,1,2,1:0:0:0:
325,118,48225,1,2,0:0:0:0:
328,133,48308,2,0,L|324:163,2,26.2500010013581,10|0|0,0:0|0:0|0:0,0:0:0:0:
230,187,48475,5,2,1:0:0:0:
244,193,48558,1,10,0:0:0:0:
258,199,48642,1,2,0:0:0:0:
162,157,48808,1,8,0:1:0:0:
112,225,48975,5,2,1:0:0:0:
133,247,49058,1,2,0:0:0:0:
155,269,49142,1,2,0:0:0:0:
44,152,49308,1,10,0:0:0:0:
114,348,49475,5,8,0:1:0:0:
165,357,49558,1,8,0:1:0:0:
217,364,49642,1,8,0:1:0:0:
268,372,49725,1,8,0:1:0:0:
320,374,49808,2,0,L|381:359,1,52.5000020027161,8|8,0:1|0:1,0:0:0:0:
487,229,49975,5,0,1:0:0:0:
292,169,50142,1,2,0:3:0:0:
376,130,50308,1,8,0:0:0:0:
379,114,50392,1,2,0:0:0:0:
382,98,50475,1,2,0:3:0:0:
385,82,50558,1,2,0:0:0:0:
387,66,50642,6,0,L|372:10,1,52.5000020027161,2|2,0:3|0:3,0:0:0:0:
479,96,50808,2,0,L|464:40,1,52.5000020027161,8|8,0:0|0:0,0:0:0:0:
341,198,50975,6,0,L|326:280,1,52.5000020027161,0|0,1:0|0:0,0:0:0:0:
255,131,51142,2,0,L|241:223,1,52.5000020027161,8|8,0:0|0:1,0:0:0:0:
2,304,51308,5,8,0:1:0:0:
197,250,51475,1,8,0:1:0:0:
110,244,51642,1,0,1:0:0:0:
108,259,51725,1,8,0:0:0:0:
106,274,51808,1,8,0:0:0:0:
103,289,51892,1,2,0:0:0:0:
103,304,51975,2,0,L|114:385,1,52.5000020027161,2|0,0:3|1:0,0:0:0:0:
188,380,52142,2,0,L|177:299,1,52.5000020027161,8|0,0:0|0:0,0:0:0:0:
165,173,52308,5,8,0:1:0:0:
151,121,52392,1,8,0:1:0:0:
104,97,52475,1,8,0:1:0:0:
51,96,52558,1,8,0:1:0:0:
24,141,52642,6,0,L|99:184,1,52.5000020027161,2|0,1:3|0:0,0:0:0:0:
37,24,52808,1,0,1:0:0:0:
37,24,52892,1,0,1:0:0:0:
37,24,52975,2,0,L|77:86,1,52.5000020027161,8|0,0:0|0:0,0:0:0:0:
155,80,53142,2,0,L|121:11,1,52.5000020027161,8|0,0:1|0:0,0:0:0:0:
253,151,53308,1,0,1:0:0:0:
249,166,53392,1,8,0:0:0:0:
245,181,53475,1,8,0:0:0:0:
241,196,53558,1,2,0:0:0:0:
237,211,53642,2,0,L|319:204,1,52.5000020027161,8|0,0:1|0:0,0:0:0:0:
353,175,53808,2,0,L|428:195,1,52.5000020027161,0|0,1:0|0:0,0:0:0:0:
504,210,53975,5,2,0:0:0:0:
392,71,54142,2,0,L|369:11,1,52.5000020027161,8|0,0:1|0:0,0:0:0:0:
489,133,54308,5,0,1:0:0:0:
429,283,54475,2,0,L|456:341,1,52.5000020027161,8|0,0:0|0:0,0:0:0:0:
403,188,54642,5,4,0:0:0:0:
353,175,54725,1,8,0:0:0:0:
302,189,54808,1,8,0:0:0:0:
271,232,54892,1,8,0:0:0:0:
265,284,54975,1,8,0:1:0:0:
229,322,55058,1,8,0:1:0:0:
180,342,55142,1,8,0:1:0:0:
128,330,55225,1,8,0:1:0:0:
95,288,55308,6,0,B|147:292|149:344|114:385,1,105.000004005432,2|2,3:0|0:0,0:0:0:0:
39,228,55558,1,2,0:0:0:0:
39,228,55642,2,0,P|15:253|17:293,1,52.5000020027161,8|0,0:0|0:0,0:0:0:0:
89,167,55808,2,0,P|113:192|111:232,1,52.5000020027161,2|0,0:0|0:0,0:0:0:0:
58,31,55975,1,2,0:0:0:0:
110,28,56058,1,2,0:0:0:0:
158,48,56142,1,8,0:0:0:0:
193,86,56225,1,2,0:0:0:0:
201,137,56308,5,0,1:0:0:0:
216,133,56392,1,8,0:0:0:0:
231,130,56475,1,8,0:0:0:0:
246,126,56558,1,8,0:0:0:0:
261,123,56642,6,0,L|250:195,1,52.5000020027161,8|8,0:0|0:0,0:0:0:0:
334,86,56808,1,8,0:1:0:0:
334,86,56975,6,0,L|317:7,1,52.5000020027161,0|0,1:0|0:0,0:0:0:0:
419,109,57142,1,8,0:0:0:0:
419,109,57308,6,0,B|404:138|404:138|416:170,1,52.5000020027161,2|0,0:3|1:0,0:0:0:0:
471,192,57475,2,0,B|486:221|486:221|474:253,1,52.5000020027161,8|0,0:0|0:0,0:0:0:0:
425,288,57642,1,8,0:1:0:0:
394,279,57725,1,8,0:1:0:0:
363,274,57808,1,8,0:1:0:0:
331,279,57892,1,8,0:1:0:0:
305,296,57975,6,0,P|275:319|244:352,1,52.5000020027161,2|0,1:3|0:0,0:0:0:0:
268,232,58142,2,0,P|238:255|207:288,1,52.5000020027161,0|0,1:0|1:0,0:0:0:0:
215,117,58308,1,8,0:0:0:0:
215,117,58392,1,2,0:0:0:0:
215,117,58475,2,0,P|245:140|276:173,1,52.5000020027161,8|0,0:1|0:0,0:0:0:0:
244,33,58642,2,0,P|274:56|305:89,1,52.5000020027161,0|0,1:0|0:0,0:0:0:0:
141,53,58808,1,8,0:0:0:0:
141,53,58892,1,2,0:0:0:0:
141,53,58975,1,8,0:0:0:0:
115,71,59058,1,8,0:0:0:0:
88,88,59142,1,8,0:0:0:0:
58,98,59225,1,8,0:0:0:0:
26,96,59308,6,0,P|14:88|-4:31,2,52.5000020027161,8|8|8,0:0|0:0|0:0,0:0:0:0:
74,152,59558,1,2,0:0:0:0:
74,152,59642,2,0,P|104:128|140:127,1,52.5000020027161,0|0,1:0|0:0,0:0:0:0:
186,113,59808,2,0,P|216:137|252:138,1,52.5000020027161,8|0,0:0|0:0,0:0:0:0:
324,178,59975,2,0,P|354:154|390:153,1,52.5000020027161,8|0,0:1|0:0,0:0:0:0:
432,126,60142,2,0,P|462:150|498:151,1,52.5000020027161,8|0,0:0|0:0,0:0:0:0:
497,247,60308,1,8,0:1:0:0:
488,277,60392,1,8,0:1:0:0:
475,305,60475,1,8,0:1:0:0:
466,335,60558,1,8,0:1:0:0:
453,364,60642,6,0,B|396:350|405:322|434:233,1,157.500006008148,0|0,1:0|0:0,0:0:0:0:
366,219,60975,2,0,P|355:257|340:284,1,52.5000020027161,8|0,0:0|0:0,0:0:0:0:
280,253,61142,2,0,P|291:215|306:188,1,52.5000020027161,2|0,0:3|0:0,0:0:0:0:
276,136,61308,5,2,0:3:0:0:
346,129,61420,5,2,0:3:0:0:
367,62,61531,5,2,0:3:0:0:
308,23,61642,5,8,0:0:0:0:
304,38,61725,1,8,0:0:0:0:
301,53,61808,1,8,0:0:0:0:
296,68,61892,1,0,1:0:0:0:
292,83,61975,6,0,P|323:58|349:44,1,52.5000020027161,8|8,0:0|0:0,0:0:0:0:
203,106,62142,2,0,P|215:68|229:42,1,52.5000020027161,8|0,0:1|0:0,0:0:0:0:
113,185,62308,6,0,P|100:147|86:121,1,52.5000020027161,0|0,1:0|0:0,0:0:0:0:
178,247,62475,2,0,P|188:208|190:179,1,52.5000020027161,8|0,0:0|0:0,0:0:0:0:
42,226,62642,2,0,P|49:298|62:331,1,105.000004005432,8|8,0:1|0:0,0:0:0:0:
75,356,62892,1,2,0:0:0:0:
105,363,62975,2,0,L|130:353,6,26.2500010013581,0|0|0|0|0|0|0,1:0|0:0|1:0|0:0|1:0|0:0|1:0,0:0:0:0:
195,329,63308,6,0,B|279:304|268:385|364:355,1,157.500006008148,2|0,1:3|0:0,0:0:0:0:
373,349,63642,1,8,0:0:0:0:
396,327,63725,1,2,0:0:0:0:
396,295,63808,1,8,0:1:0:0:
379,267,63892,1,2,0:0:0:0:
331,245,63975,5,0,1:0:0:0:
310,220,64058,1,2,0:0:0:0:
299,190,64142,1,8,0:0:0:0:
307,159,64225,1,2,0:0:0:0:
349,128,64308,5,8,0:1:0:0:
401,127,64392,1,8,0:1:0:0:
431,84,64475,1,8,0:1:0:0:
409,36,64558,1,8,0:1:0:0:
357,25,64642,5,8,0:0:0:0:
364,38,64725,1,8,0:0:0:0:
371,51,64808,1,8,0:0:0:0:
379,64,64892,1,8,0:0:0:0:
415,101,64975,5,0,1:0:0:0:
408,114,65058,1,2,0:0:0:0:
401,127,65141,1,8,0:0:0:0:
393,140,65225,1,2,0:0:0:0:
377,189,65308,6,0,L|403:266,1,52.5000020027161,8|0,0:0|0:0,0:0:0:0:
464,303,65475,2,0,L|490:226,1,52.5000020027161,8|0,0:1|0:0,0:0:0:0:
395,340,65642,2,0,L|408:375,4,26.2500010013581,0|0|0|0|0,1:0|0:0|1:0|0:0|1:0,0:0:0:0:
335,297,65892,1,0,1:0:0:0:
335,297,65975,2,0,L|304:313,2,26.2500010013581,10|2|2,0:1|0:0|0:0,0:0:0:0:
248,273,66142,2,0,L|229:301,2,26.2500010013581,10|2|2,0:1|0:0|0:0,0:0:0:0:
142,213,66308,6,0,B|171:258|171:258|123:357,1,157.500006008148,4|0,0:1|0:0,0:0:0:0:
125,351,66475,5,4,1:2:0:0:
58,218,66642,1,0,1:0:0:0:
58,218,66725,1,0,1:0:0:0:
58,218,66808,2,0,L|69:159,1,52.5000020027161,8|0,0:0|0:0,0:0:0:0:
131,76,66975,1,8,0:0:0:0:
145,81,67058,1,8,0:0:0:0:
159,86,67142,1,8,0:0:0:0:
173,90,67225,1,8,0:0:0:0:
187,96,67308,6,0,L|158:157,1,52.5000020027161,8|0,0:0|0:0,0:0:0:0:
314,125,67475,2,0,P|262:132|246:190,1,105.000004005432,0|0,1:0|0:0,0:0:0:0:
243,176,67725,1,0,1:0:0:0:
243,176,67808,1,8,0:0:0:0:
223,327,67975,5,2,1:3:0:0:
223,327,68058,1,0,1:0:0:0:
223,327,68142,2,0,L|212:275,1,52.5000020027161,8|0,0:0|0:0,0:0:0:0:
130,241,68308,5,8,0:1:0:0:
130,241,68392,1,8,0:1:0:0:
130,241,68475,2,0,L|140:292,1,52.5000020027161,8|0,0:1|0:0,0:0:0:0:
55,226,68642,6,0,L|31:51,1,157.500006008148,0|0,1:0|1:0,0:0:0:0:
160,95,68975,2,0,L|107:106,1,52.5000020027161,8|0,0:0|0:0,0:0:0:0:
219,147,69142,2,0,L|276:157,1,52.5000020027161,8|0,0:1|0:0,0:0:0:0:
347,228,69308,5,0,1:0:0:0:
399,234,69392,1,0,1:0:0:0:
449,219,69475,1,8,0:0:0:0:
479,176,69558,1,2,0:0:0:0:
484,123,69642,5,8,0:0:0:0:
462,100,69725,1,8,0:0:0:0:
450,70,69808,1,8,0:0:0:0:
454,38,69892,1,8,0:0:0:0:
472,12,69975,6,0,L|410:29,1,52.5000020027161,8|8,0:0|0:0,0:0:0:0:
352,83,70142,2,0,L|232:58,1,105.000004005432,0|0,1:0|0:0,0:0:0:0:
163,118,70392,1,0,1:0:0:0:
163,118,70475,2,0,L|175:176,1,52.5000020027161,8|0,0:0|0:0,0:0:0:0:
231,240,70642,5,0,1:0:0:0:
225,270,70725,1,0,1:0:0:0:
218,300,70808,1,8,0:0:0:0:
212,331,70892,1,2,0:0:0:0:
206,361,70975,2,0,L|190:319,3,35.0000013351441,8|8|8|8,0:1|0:1|0:1|0:1,0:0:0:0:
340,358,71308,6,0,B|392:328|445:348|445:348|411:333|405:297,1,157.500006008148,0|0,1:0|1:0,0:0:0:0:
362,251,71642,2,0,L|370:188,1,52.5000020027161,8|0,0:0|0:0,0:0:0:0:
440,161,71808,2,0,L|446:222,1,52.5000020027161,2|0,1:3|0:0,0:0:0:0:
297,199,71975,5,0,1:0:0:0:
246,185,72058,1,0,1:0:0:0:
208,147,72142,1,8,0:0:0:0:
201,95,72225,1,8,0:0:0:0:
222,47,72308,5,8,0:0:0:0:
203,21,72392,1,8,0:0:0:0:
172,13,72475,1,8,0:0:0:0:
141,18,72558,1,8,0:0:0:0:
114,35,72642,1,8,0:0:0:0:
99,62,72725,1,8,0:0:0:0:
90,92,72808,6,0,L|118:149,1,52.5000020027161,0|0,1:0|0:0,0:0:0:0:
109,241,72975,1,0,1:0:0:0:
109,241,73058,1,0,1:0:0:0:
109,241,73142,2,0,L|57:257,1,52.5000020027161,8|0,0:0|0:0,0:0:0:0:
149,319,73308,5,2,1:3:0:0:
149,319,73392,1,0,1:0:0:0:
149,319,73475,2,0,L|209:301,1,52.5000020027161,8|0,0:0|0:0,0:0:0:0:
314,341,73642,5,8,0:1:0:0:
331,291,73725,1,8,0:1:0:0:
349,242,73808,1,8,0:1:0:0:
298,225,73892,1,8,0:1:0:0:
246,215,73975,6,0,L|257:278,1,52.5000020027161,0|0,1:0|0:0,0:0:0:0:
298,156,74142,2,0,L|290:91,1,52.5000020027161,0|0,1:0|1:0,0:0:0:0:
180,28,74308,2,0,P|205:48|231:55,1,52.5000020027161,8|0,0:0|0:0,0:0:0:0:
324,10,74475,1,8,0:1:0:0:
498,128,74642,5,0,1:0:0:0:
469,113,74725,1,0,1:0:0:0:
438,109,74808,1,8,0:0:0:0:
408,115,74892,1,2,0:0:0:0:
380,130,74975,5,8,0:1:0:0:
385,145,75058,1,8,0:0:0:0:
389,160,75142,1,8,0:0:0:0:
394,174,75225,1,8,0:0:0:0:
399,188,75308,1,8,0:0:0:0:
404,202,75392,1,8,0:0:0:0:
410,216,75475,6,0,L|472:231,1,52.5000020027161,0|0,1:0|0:0,0:0:0:0:
391,305,75642,1,0,1:0:0:0:
391,305,75725,1,0,1:0:0:0:
391,305,75808,2,0,L|338:318,1,52.5000020027161,8|0,0:0|0:0,0:0:0:0:
226,278,75975,5,0,1:0:0:0:
226,278,76058,1,0,1:0:0:0:
226,278,76142,2,0,L|140:258,1,52.5000020027161,8|0,0:0|0:0,0:0:0:0:
295,222,76308,6,0,L|302:181,2,35.0000013351441,8|8|8,0:0|0:0|0:0,0:0:0:0:
228,201,76475,1,8,0:0:0:0:
341,121,76642,6,0,P|385:105|402:20,1,131.25,0|0,1:0|1:0,0:0:0:0:
405,29,76975,1,8,0:0:0:0:
505,152,77142,2,0,L|450:164,1,43.75,0|0,1:0|0:0,0:0:0:0:
417,232,77308,1,0,1:0:0:0:
373,227,77392,1,0,1:0:0:0:
329,222,77475,1,8,0:0:0:0:
285,217,77558,1,8,0:0:0:0:
241,208,77642,6,0,P|255:229|258:258,1,43.75,8|0,0:0|0:0,0:0:0:0:
222,309,77808,2,0,P|216:331|216:364,1,43.75,8|0,0:0|0:0,0:0:0:0:
160,259,77975,2,0,P|155:235|145:209,1,43.75,8|0,0:0|0:0,0:0:0:0:
85,170,78142,6,0,P|83:147|92:120,1,52.5000020027161,0|0,1:0|0:0,0:0:0:0:
174,56,78308,1,0,1:0:0:0:
174,56,78392,1,0,1:0:0:0:
174,56,78475,2,0,L|187:118,1,52.5000020027161,8|0,0:0|0:0,0:0:0:0:
273,178,78642,5,2,1:3:0:0:
273,178,78725,1,0,1:0:0:0:
273,178,78808,2,0,L|254:253,1,52.5000020027161,8|0,0:0|0:0,0:0:0:0:
326,316,78975,2,0,L|334:356,3,35.0000013351441,8|8|8|8,0:1|0:1|0:1|0:1,0:0:0:0:
259,361,79225,5,2,0:0:0:0:
259,361,79308,2,0,L|148:373,1,105.000004005432,0|0,1:0|1:0,0:0:0:0:
36,317,79558,1,0,1:0:0:0:
36,317,79642,2,0,L|96:326,1,52.5000020027161,8|0,0:0|0:0,0:0:0:0:
147,266,79808,1,8,0:1:0:0:
75,197,79975,5,0,1:0:0:0:
61,146,80058,1,0,1:0:0:0:
77,95,80142,1,8,0:0:0:0:
123,71,80225,1,2,0:0:0:0:
174,77,80308,1,8,0:1:0:0:
199,95,80392,5,8,0:0:0:0:
228,104,80475,1,8,0:0:0:0:
259,101,80558,1,8,0:0:0:0:
287,87,80642,1,8,0:0:0:0:
309,65,80725,1,8,0:0:0:0:
323,37,80808,6,0,L|258:16,1,52.5000020027161,0|0,1:0|0:0,0:0:0:0:
412,13,80975,1,0,1:0:0:0:
412,13,81058,1,0,1:0:0:0:
412,13,81142,2,0,L|467:7,1,52.5000020027161,8|0,0:0|0:0,0:0:0:0:
415,93,81308,1,0,1:0:0:0:
415,93,81391,1,0,1:0:0:0:
415,93,81475,2,0,L|470:87,1,52.5000020027161,8|0,0:0|0:0,0:0:0:0:
505,165,81642,2,0,L|515:209,2,35.0000013351441,8|8|8,0:1|0:1|0:1,0:0:0:0:
440,199,81808,1,8,0:1:0:0:
290,310,81975,6,0,B|337:291|337:291|439:320,1,157.500006008148,0|0,1:0|1:0,0:0:0:0:
472,379,82308,1,8,0:0:0:0:
375,231,82475,2,0,L|302:211,1,52.5000020027161,2|0,1:3|0:0,0:0:0:0:
140,286,82642,5,2,1:3:0:0:
191,280,82725,1,0,1:0:0:0:
230,245,82808,1,8,0:0:0:0:
243,193,82892,1,2,0:0:0:0:
231,142,82975,5,0,1:0:0:0:
200,150,83058,1,8,0:0:0:0:
168,156,83142,1,8,0:0:0:0:
137,163,83225,1,0,1:0:0:0:
107,172,83308,1,8,0:0:0:0:
76,181,83392,1,8,0:0:0:0:
46,190,83475,6,0,L|71:243,1,52.5000020027161,0|0,1:0|0:0,0:0:0:0:
117,97,83642,1,0,1:0:0:0:
117,97,83725,1,0,1:0:0:0:
117,97,83808,2,8,L|126:34,1,52.5000020027161,8|0,0:0|0:0,0:0:0:0:
208,19,83975,5,0,1:0:0:0:
208,19,84058,1,0,1:0:0:0:
208,19,84142,2,0,L|220:83,1,52.5000020027161,8|0,0:0|0:0,0:0:0:0:
309,149,84308,5,8,0:1:0:0:
302,180,84392,1,8,0:1:0:0:
295,210,84475,1,8,0:1:0:0:
287,240,84558,1,8,0:1:0:0:
278,270,84642,1,0,1:0:0:0:
189,369,84808,5,0,1:0:0:0:
189,369,84892,1,0,1:0:0:0:
189,369,84975,2,0,P|176:347|175:315,1,52.5000020027161,8|0,0:0|0:0,0:0:0:0:
109,266,85142,2,0,L|167:254,1,52.5000020027161,8|0,0:1|0:0,0:0:0:0:
227,177,85308,5,0,1:0:0:0:
227,177,85392,1,0,1:0:0:0:
227,177,85475,1,8,0:0:0:0:
104,175,85642,1,8,0:0:0:0:
90,182,85725,1,8,0:0:0:0:
75,188,85808,1,8,0:0:0:0:
61,195,85892,1,8,0:0:0:0:
47,203,85975,1,8,0:0:0:0:
33,211,86058,1,8,0:0:0:0:
19,219,86142,6,0,L|30:288,1,52.5000020027161,0|0,1:0|0:0,0:0:0:0:
171,356,86308,1,0,1:0:0:0:
166,324,86392,1,0,1:0:0:0:
159,293,86475,1,8,0:0:0:0:
281,176,86642,5,0,1:0:0:0:
272,206,86725,1,0,1:0:0:0:
266,236,86808,1,8,0:0:0:0:
355,311,86975,2,0,L|363:355,2,35.0000013351441,0|0|0,1:0|1:0|1:0,0:0:0:0:
403,253,87142,2,0,L|461:267,1,52.5000020027161,8|0,0:0|0:0,0:0:0:0:
509,206,87308,6,0,B|462:203|452:157|452:157|443:103|490:18,1,210,4|0,1:0|1:0,0:0:0:0:
407,21,87642,2,0,P|397:49|386:94,1,52.5000020027161,8|0,0:0|0:0,0:0:0:0:
337,149,87808,2,0,P|327:121|316:76,1,52.5000020027161,2|0,1:3|0:0,0:0:0:0:
269,50,87975,5,0,1:0:0:0:
238,58,88058,1,0,1:0:0:0:
208,70,88142,1,8,0:0:0:0:
180,85,88225,1,2,0:0:0:0:
154,130,88308,5,8,0:0:0:0:
138,129,88392,1,8,0:0:0:0:
122,130,88475,1,8,0:0:0:0:
106,129,88558,1,0,1:0:0:0:
90,129,88642,6,0,L|7:117,1,52.5000020027161,8|8,0:0|0:0,0:0:0:0:
102,55,88808,2,0,L|19:43,1,52.5000020027161,0|0,1:0|0:0,0:0:0:0:
150,204,88975,5,2,0:0:0:0:
150,204,89058,1,0,1:0:0:0:
150,204,89142,2,0,L|231:210,1,52.5000020027161,8|0,0:0|0:0,0:0:0:0:
129,274,89308,2,0,L|210:280,1,52.5000020027161,2|0,1:3|1:0,0:0:0:0:
76,220,89475,2,0,L|-5:214,1,52.5000020027161,8|0,0:0|0:0,0:0:0:0:
19,305,89642,1,8,0:1:0:0:
29,316,89725,1,8,0:1:0:0:
39,327,89808,1,8,0:1:0:0:
50,337,89892,1,8,0:1:0:0:
62,346,89975,6,0,B|135:305|140:392|238:346,1,157.500006008148,0|0,1:0|1:0,0:0:0:0:
270,307,90308,2,0,P|267:283|233:232,1,52.5000020027161,8|0,0:0|0:0,0:0:0:0:
338,359,90475,2,0,P|352:316|353:283,1,52.5000020027161,0|0,1:0|0:0,0:0:0:0:
356,220,90642,1,0,1:0:0:0:
356,220,90725,1,0,1:0:0:0:
356,220,90808,2,0,P|385:232|437:246,1,52.5000020027161,8|0,0:0|0:0,0:0:0:0:
475,192,90975,5,8,0:1:0:0:
495,168,91058,1,8,0:1:0:0:
491,136,91142,1,8,0:1:0:0:
471,111,91225,1,8,0:1:0:0:
419,104,91308,5,8,0:0:0:0:
398,79,91392,1,8,0:0:0:0:
388,36,91475,6,0,L|508:59,1,105.000004005432,0|0,1:0|0:0,0:0:0:0:
314,73,91725,1,0,1:0:0:0:
314,73,91808,2,0,L|242:60,1,52.5000020027161,8|0,0:0|0:0,0:0:0:0:
169,113,91975,2,0,L|220:122,1,52.5000020027161,0|0,1:0|1:0,0:0:0:0:
304,177,92142,1,8,0:0:0:0:
304,177,92225,1,2,0:0:0:0:
304,177,92308,6,0,P|329:229|320:237,1,52.5000020027161,8|8,0:1|0:1,0:0:0:0:
269,270,92475,2,0,P|244:218|253:210,1,52.5000020027161,8|2,0:1|0:3,0:0:0:0:
297,346,92642,5,0,1:0:0:0:
140,297,92808,1,2,0:3:0:0:
202,360,92975,1,8,0:0:0:0:
60,272,93142,6,0,B|36:294|36:294|35:328,1,52.5000020027161,2|0,1:3|0:0,0:0:0:0:
39,187,93308,2,0,B|31:155|31:155|3:137,1,52.5000020027161,2|0,0:3|1:0,0:0:0:0:
124,216,93475,1,8,0:0:0:0:
124,216,93558,1,2,0:3:0:0:
124,216,93642,2,0,B|155:225|155:225|184:209,1,52.5000020027161,8|8,0:0|0:0,0:0:0:0:
224,159,93808,5,8,0:0:0:0:
215,128,93892,1,8,0:0:0:0:
203,98,93975,1,8,0:0:0:0:
191,68,94058,1,8,0:0:0:0:
181,37,94142,6,0,B|221:39|221:39|264:155,1,157.500006008148,0|0,1:0|1:0,0:0:0:0:
334,149,94475,2,0,B|325:119|325:119|345:82,1,52.5000020027161,8|0,0:0|0:0,0:0:0:0:
403,60,94642,1,2,1:3:0:0:
403,60,94725,1,0,1:0:0:0:
403,60,94808,2,0,L|473:89,1,52.5000020027161,8|0,0:0|0:0,0:0:0:0:
487,143,94975,1,8,0:1:0:0:
458,156,95058,1,8,0:1:0:0:
432,174,95142,1,8,0:1:0:0:
416,201,95225,1,8,0:1:0:0:
419,232,95308,6,0,L|439:359,1,105.000004005432,0|0,1:0|0:0,0:0:0:0:
435,335,95558,1,0,1:0:0:0:
435,335,95642,1,8,0:0:0:0:
320,264,95808,1,0,1:0:0:0:
328,166,95975,1,0,1:0:0:0:
328,166,96058,1,0,1:0:0:0:
328,166,96142,1,8,0:0:0:0:
214,295,96308,1,8,0:0:0:0:
182,295,96392,1,8,0:0:0:0:
150,291,96475,1,8,0:0:0:0:
119,282,96558,1,8,0:0:0:0:
92,264,96642,6,0,P|115:243|139:212,1,52.5000020027161,8|8,0:0|0:0,0:0:0:0:
15,307,96808,2,0,P|17:212|-4:158,1,105.000004005432,0|0,1:0|0:0,0:0:0:0:
31,86,97058,5,0,1:0:0:0:
31,86,97142,2,0,P|54:113|65:149,1,52.5000020027161,8|0,0:0|0:0,0:0:0:0:
68,13,97308,1,0,1:0:0:0:
95,28,97392,1,0,1:0:0:0:
123,42,97475,1,8,0:0:0:0:
153,49,97558,1,2,0:0:0:0:
184,51,97642,2,0,L|225:38,2,26.2500010013581,8|0|8,0:1|0:0|0:1,0:0:0:0:
267,95,97808,2,0,L|241:102,2,26.2500010013581,8|0|8,0:1|0:0|0:1,0:0:0:0:
325,64,97975,6,0,L|402:72,1,52.5000020027161,0|0,1:0|0:0,0:0:0:0:
416,126,98142,2,0,L|493:134,1,52.5000020027161,2|0,0:3|0:0,0:0:0:0:
350,173,98308,1,8,0:0:0:0:
309,244,98475,6,0,L|232:236,1,52.5000020027161,0|0,1:0|0:0,0:0:0:0:
196,278,98642,1,0,1:0:0:0:
164,275,98725,1,0,1:0:0:0:
133,272,98808,1,8,0:0:0:0:
101,268,98892,1,2,0:3:0:0:
64,305,98975,5,8,0:0:0:0:
78,312,99058,1,8,0:0:0:0:
92,320,99142,1,8,0:0:0:0:
106,327,99225,1,8,0:0:0:0:
119,335,99308,6,0,L|95:405,1,52.5000020027161,8|8,0:0|0:0,0:0:0:0:
164,275,99475,2,0,L|134:125,1,105.000004005432,0|0,1:0|0:0,0:0:0:0:
143,172,99725,1,0,1:0:0:0:
143,172,99808,1,8,0:0:0:0:
35,84,99975,1,2,1:3:0:0:
49,88,100058,1,0,1:0:0:0:
64,90,100142,1,8,0:0:0:0:
78,94,100225,1,8,0:0:0:0:
129,103,100308,5,8,0:1:0:0:
160,60,100392,1,8,0:1:0:0:
131,16,100475,1,8,0:1:0:0:
78,13,100558,1,8,0:1:0:0:
50,57,100642,6,0,L|66:124,1,52.5000020027161,0|0,1:0|0:0,0:0:0:0:
110,170,100808,1,0,1:0:0:0:
110,170,100892,1,0,1:0:0:0:
110,170,100975,2,0,L|93:236,1,52.5000020027161,8|0,0:0|0:0,0:0:0:0:
188,150,101142,2,0,L|171:216,1,52.5000020027161,0|0,1:0|0:0,0:0:0:0:
159,275,101308,1,0,1:0:0:0:
129,286,101392,1,0,1:0:0:0:
99,296,101475,1,8,0:0:0:0:
223,348,101642,1,8,0:1:0:0:
254,350,101725,1,8,0:1:0:0:
285,354,101808,1,8,0:0:0:0:
316,358,101892,1,8,0:0:0:0:
359,328,101975,5,8,0:1:0:0:
374,329,102058,1,8,0:1:0:0:
389,330,102142,1,0,1:0:0:0:
404,331,102225,1,2,0:0:0:0:
419,332,102308,2,0,L|410:262,1,52.5000020027161,2|0,0:0|1:0,0:0:0:0:
492,324,102475,2,0,L|486:376,1,52.5000020027161,8|0,0:0|0:0,0:0:0:0:
475,225,102642,5,0,1:0:0:0:
504,181,102725,1,0,1:0:0:0:
480,134,102808,1,8,0:0:0:0:
428,120,102892,1,2,0:0:0:0:
387,152,102975,2,0,L|401:187,2,26.2500010013581,8|0|8,0:1|0:0|0:1,0:0:0:0:
331,97,103142,2,0,L|316:54,2,26.2500010013581,8|0|8,0:1|0:0|0:1,0:0:0:0:
265,140,103308,6,0,L|174:133,1,52.5000020027161,0|0,1:0|0:0,0:0:0:0:
171,195,103475,2,0,L|86:189,1,52.5000020027161,2|0,0:3|1:0,0:0:0:0:
43,107,103642,1,8,0:0:0:0:
74,110,103725,1,2,0:0:0:0:
105,112,103808,1,2,1:3:0:0:
157,31,103975,2,0,L|130:28,2,26.2500010013581,0|0|0,1:0|0:0|1:0,0:0:0:0:
223,68,104142,2,0,L|265:64,1,26.2500010013581,2|0,3:0|0:0,0:0:0:0:
246,80,104225,2,0,L|288:76,1,26.2500010013581,2|0,3:0|0:0,0:0:0:0:
262,102,104308,5,8,0:1:0:0:
279,151,104392,1,8,0:1:0:0:
250,195,104475,1,8,0:1:0:0:
197,195,104558,1,8,0:1:0:0:
155,161,104642,5,8,0:0:0:0:
169,154,104725,1,8,0:0:0:0:
189,149,104808,2,0,L|175:286,1,105.000004005432,0|0,1:0|0:0,0:0:0:0:
178,253,105058,1,0,1:0:0:0:
178,253,105142,1,8,0:0:0:0:
320,328,105308,2,0,L|330:257,1,52.5000020027161,0|0,1:0|1:0,0:0:0:0:
264,222,105475,2,0,L|255:291,1,52.5000020027161,8|0,0:0|0:0,0:0:0:0:
406,369,105642,1,8,0:1:0:0:
436,360,105725,1,8,0:1:0:0:
463,345,105808,1,8,0:1:0:0:
478,317,105892,1,8,0:1:0:0:
484,286,105975,6,0,L|423:273,1,52.5000020027161,0|0,1:0|0:0,0:0:0:0:
417,205,106142,2,0,L|356:218,1,52.5000020027161,2|0,0:0|1:0,0:0:0:0:
474,151,106308,1,8,0:0:0:0:
182,29,106475,6,0,L|243:42,1,52.5000020027161,0|0,1:0|0:0,0:0:0:0:
249,110,106642,2,0,L|310:97,1,52.5000020027161,0|0,1:0|1:0,0:0:0:0:
141,172,106808,5,8,0:0:0:0:
88,167,106892,1,8,0:0:0:0:
40,189,106975,1,8,0:1:0:0:
21,238,107058,1,8,0:1:0:0:
33,289,107142,1,8,0:1:0:0:
77,316,107225,1,8,0:1:0:0:
128,308,107308,6,0,L|118:249,1,52.5000020027161,8|8,0:1|0:1,0:0:0:0:
207,334,107475,2,0,B|140:328|140:328|45:380,1,157.500006008148,0|0,1:0|1:0,0:0:0:0:
60,371,107808,1,8,0:0:0:0:
275,213,107975,1,0,1:0:0:0:
327,218,108058,1,0,1:0:0:0:
379,221,108142,1,8,0:0:0:0:
431,225,108225,1,2,0:0:0:0:
456,270,108308,6,0,L|445:295,2,26.2500010013581,8|0|8,0:1|0:0|0:1,0:0:0:0:
504,211,108475,2,0,L|498:194,4,13.125000500679,8|0|0|0|0,0:1|0:0|0:0|0:0|0:0,0:0:0:0:
448,142,108642,5,8,0:1:0:0:
499,84,108753,5,8,0:0:0:0:
448,30,108864,5,8,0:0:0:0:
448,30,108920,1,8,0:0:0:0:
448,30,108975,2,0,B|375:18|375:18|344:33|345:87,1,140,4|0,1:0|1:0,0:0:0:0:
373,167,109308,1,0,1:0:0:0:
373,167,109392,1,0,1:0:0:0:
373,167,109475,2,0,L|384:227,1,52.5000020027161,8|0,0:0|0:0,0:0:0:0:
312,304,109642,2,0,P|335:293|371:290,1,52.5000020027161,8|0,0:1|0:0,0:0:0:0:
293,229,109808,2,0,P|271:216|230:214,1,52.5000020027161,8|0,0:1|0:0,0:0:0:0:
181,253,109975,6,0,L|165:316,1,52.5000020027161,8|0,0:1|0:0,0:0:0:0:
240,363,110142,1,0,1:0:0:0:
109,226,110308,1,0,1:0:0:0:
109,226,110392,1,0,1:0:0:0:
109,226,110475,2,0,L|55:212,1,52.5000020027161,8|0,0:0|0:0,0:0:0:0:
166,148,110642,5,0,1:0:0:0:
171,117,110725,1,0,1:0:0:0:
170,85,110808,1,8,0:0:0:0:
162,54,110892,1,2,0:0:0:0:
147,26,110975,2,0,L|134:72,4,35.0000013351441,8|8|8|8|8,0:0|0:0|0:0|0:0|0:0,0:0:0:0:
77,111,111308,5,0,1:0:0:0:
269,67,111475,1,0,1:0:0:0:
269,67,111558,1,0,1:0:0:0:
269,67,111642,1,8,0:0:0:0:
422,156,111808,1,0,1:0:0:0:
334,215,111975,5,0,1:0:0:0:
334,215,112058,1,0,1:0:0:0:
334,215,112142,2,0,L|387:230,1,52.5000020027161,8|0,0:0|0:0,0:0:0:0:
497,322,112308,5,8,0:1:0:0:
466,330,112392,1,8,0:1:0:0:
435,337,112475,1,8,0:0:0:0:
404,345,112558,1,8,0:0:0:0:
373,352,112642,1,8,0:0:0:0:
342,360,112725,1,8,0:0:0:0:
311,368,112808,6,0,L|328:313,1,52.5000020027161,0|0,1:0|0:0,0:0:0:0:
263,253,112975,1,0,1:0:0:0:
263,253,113058,1,0,1:0:0:0:
263,253,113142,2,0,L|190:270,1,52.5000020027161,8|0,0:0|0:0,0:0:0:0:
155,322,113308,2,0,L|81:303,1,52.5000020027161,0|0,1:0|0:0,0:0:0:0:
55,249,113475,1,8,0:0:0:0:
226,371,113642,2,0,L|231:336,4,35.0000013351441,8|8|8|8|8,0:1|0:1|0:1|0:1|0:1,0:0:0:0:
311,368,113975,5,0,1:0:0:0:
416,207,114142,1,2,0:3:0:0:
416,207,114225,1,0,1:0:0:0:
416,207,114308,2,0,L|408:280,1,52.5000020027161,8|0,0:0|0:0,0:0:0:0:
293,171,114475,2,0,P|317:162|347:159,1,52.5000020027161,2|0,1:3|0:0,0:0:0:0:
465,69,114642,6,0,L|429:61,2,35.0000013351441,0|0|0,1:0|1:0|1:0,0:0:0:0:
424,38,114808,2,0,L|376:50,2,35.0000013351441,8|8|8,0:0|0:0|0:0,0:0:0:0:
321,83,114975,5,0,1:0:0:0:
294,99,115058,1,8,0:0:0:0:
263,107,115142,1,8,0:0:0:0:
231,104,115225,1,8,0:0:0:0:
200,98,115308,1,8,0:0:0:0:
173,80,115392,1,8,0:0:0:0:
156,53,115475,6,0,L|217:40,1,52.5000020027161,0|0,1:0|0:0,0:0:0:0:
213,179,115642,1,2,0:0:0:0:
213,179,115725,1,0,1:0:0:0:
213,179,115808,2,0,L|202:254,1,52.5000020027161,8|0,0:0|0:0,0:0:0:0:
173,354,115975,2,0,L|162:301,2,52.5000020027161,2|0|8,1:3|1:0|0:0,0:0:0:0:
260,298,116308,1,8,0:0:0:0:
134,237,116475,5,8,0:0:0:0:
134,237,116558,1,8,0:0:0:0:
134,237,116642,2,0,L|60:225,1,52.5000020027161,0|0,1:0|0:0,0:0:0:0:
103,103,116808,1,0,1:0:0:0:
103,103,116892,1,0,1:0:0:0:
103,103,116975,2,0,L|110:162,1,52.5000020027161,8|0,0:0|0:0,0:0:0:0:
187,31,117142,2,0,L|175:83,1,52.5000020027161,0|0,1:0|0:0,0:0:0:0:
296,76,117308,6,0,P|290:47|270:18,1,52.5000020027161,0|0,1:0|1:0,0:0:0:0:
239,126,117475,2,0,P|226:155|228:197,1,52.5000020027161,8|0,0:0|0:0,0:0:0:0:
363,174,117642,1,8,0:1:0:0:
392,215,117725,1,8,0:1:0:0:
387,266,117808,1,8,0:1:0:0:
348,301,117891,1,8,0:1:0:0:
297,300,117975,5,8,0:0:0:0:
302,285,118058,1,8,0:0:0:0:
309,270,118142,2,0,L|325:333,1,52.5000020027161,0|0,1:0|0:0,0:0:0:0:
413,356,118308,5,2,0:0:0:0:
413,356,118392,1,0,1:0:0:0:
413,356,118475,2,0,L|472:349,1,52.5000020027161,8|0,0:0|0:0,0:0:0:0:
512,275,118642,1,0,1:0:0:0:
512,275,118725,1,0,1:0:0:0:
512,275,118808,2,0,L|459:281,1,52.5000020027161,8|0,0:0|0:0,0:0:0:0:
407,175,118975,6,0,L|452:168,2,35.0000013351441,8|8|8,0:0|0:0|0:0,0:0:0:0:
378,147,119142,2,0,L|333:140,2,35.0000013351441,8|8|8,0:1|0:1|0:1,0:0:0:0:
398,111,119308,6,0,L|388:242,1,105.000004005432,0|2,1:0|0:3,0:0:0:0:
332,287,119558,1,0,1:0:0:0:
332,287,119642,2,0,L|323:227,1,52.5000020027161,8|0,0:0|0:0,0:0:0:0:
257,202,119808,2,0,P|226:204|193:213,1,52.5000020027161,0|0,1:0|0:0,0:0:0:0:
106,347,119975,5,0,1:0:0:0:
69,309,120058,1,0,1:0:0:0:
61,256,120142,1,8,0:0:0:0:
73,205,120225,1,2,0:0:0:0:
107,165,120308,5,8,0:1:0:0:
121,136,120392,1,8,0:1:0:0:
126,105,120475,1,8,0:1:0:0:
121,73,120558,1,8,0:1:0:0:
103,46,120642,6,0,L|46:62,1,52.5000020027161,8|0,0:1|0:0,0:0:0:0:
185,7,120808,2,0,P|205:17|227:46,1,52.5000020027161,0|0,1:0|0:0,0:0:0:0:
262,133,120975,1,2,0:0:0:0:
262,133,121058,1,0,1:0:0:0:
262,133,121142,2,0,L|245:208,1,52.5000020027161,8|0,0:0|0:0,0:0:0:0:
318,261,121308,1,2,1:3:0:0:
318,261,121391,1,0,1:0:0:0:
318,261,121475,2,0,L|335:186,1,52.5000020027161,8|0,0:0|0:0,0:0:0:0:
424,151,121642,2,0,L|431:106,2,35.0000013351441,8|8|8,0:1|0:1|0:1,0:0:0:0:
453,95,121808,2,0,L|448:57,2,35.0000013351441,8|8|8,0:0|0:0|0:0,0:0:0:0:
422,42,121975,6,0,P|372:43|307:96,1,105.000004005432,0|0,1:0|0:0,0:0:0:0:
282,137,122225,1,0,1:0:0:0:
282,137,122308,2,0,P|256:139|223:131,1,52.5000020027161,8|0,0:0|0:0,0:0:0:0:
79,21,122475,1,0,1:0:0:0:
162,41,122642,1,0,1:0:0:0:
154,71,122725,1,0,1:0:0:0:
148,101,122808,1,8,0:0:0:0:
55,189,122975,5,8,0:1:0:0:
44,218,123058,1,8,0:1:0:0:
40,249,123142,1,8,0:1:0:0:
48,279,123225,1,8,0:1:0:0:
72,299,123308,1,8,0:1:0:0:
102,306,123392,1,8,0:1:0:0:
132,298,123475,6,0,L|120:237,1,52.5000020027161,0|0,1:0|0:0,0:0:0:0:
257,316,123642,1,2,0:0:0:0:
257,316,123725,1,0,1:0:0:0:
257,316,123808,2,0,L|197:334,1,52.5000020027161,8|0,0:0|0:0,0:0:0:0:
349,360,123975,1,0,1:0:0:0:
349,360,124058,1,0,1:0:0:0:
349,360,124142,2,0,L|409:346,1,52.5000020027161,8|0,0:0|0:0,0:0:0:0:
490,262,124308,2,0,L|503:223,2,35.0000013351441,8|8|8,0:1|0:1|0:1,0:0:0:0:
493,197,124475,2,0,L|479:156,2,35.0000013351441,8|8|8,0:0|0:0|0:0,0:0:0:0:
456,137,124642,6,0,B|430:130|430:130|332:161,1,105.000004005432,0|2,1:0|0:3,0:0:0:0:
334,233,124892,1,0,1:0:0:0:
334,233,124975,2,0,L|394:218,1,52.5000020027161,8|0,0:0|0:0,0:0:0:0:
285,114,125142,2,0,L|230:128,1,52.5000020027161,2|0,1:3|0:0,0:0:0:0:
229,239,125308,1,0,1:0:0:0:
229,239,125392,1,0,1:0:0:0:
229,239,125475,1,8,0:0:0:0:
341,369,125642,5,8,0:1:0:0:
359,320,125725,1,8,0:1:0:0:
359,267,125808,1,8,0:1:0:0:
334,233,125892,1,8,0:1:0:0:
304,189,125975,1,8,0:1:0:0:
304,136,126058,1,8,0:1:0:0:
338,95,126142,2,0,L|395:112,1,52.5000020027161,0|0,1:0|0:0,0:0:0:0:
454,216,126308,5,2,0:0:0:0:
454,216,126392,1,0,1:0:0:0:
454,216,126475,2,0,L|436:293,1,52.5000020027161,8|0,0:0|0:0,0:0:0:0:
227,278,126642,1,2,1:3:0:0:
257,285,126725,1,0,1:0:0:0:
287,291,126808,1,8,0:0:0:0:
236,159,126975,1,8,0:0:0:0:
220,161,127058,1,8,0:0:0:0:
204,164,127142,1,8,0:0:0:0:
188,166,127225,1,8,0:0:0:0:
172,168,127308,6,0,L|196:222,1,52.5000020027161,0|0,1:0|0:0,0:0:0:0:
158,312,127475,1,0,1:0:0:0:
158,312,127558,1,0,1:0:0:0:
158,312,127642,2,0,P|125:320|91:319,1,52.5000020027161,8|0,0:0|0:0,0:0:0:0:
13,366,127808,2,0,P|25:338|29:311,1,52.5000020027161,0|0,1:0|0:0,0:0:0:0:
98,123,127975,1,0,1:0:0:0:
50,145,128058,1,0,1:0:0:0:
34,195,128142,1,8,0:0:0:0:
52,243,128225,1,8,0:0:0:0:
102,256,128308,6,0,L|86:205,1,52.5000020027161,8|0,0:1|0:0,0:0:0:0:
2,74,128475,2,0,L|12:20,1,52.5000020027161,8|0,0:1|0:0,0:0:0:0:
125,23,128642,5,8,0:1:0:0:
111,73,128725,1,8,0:1:0:0:
98,123,128808,1,0,1:0:0:0:
237,182,128975,5,0,1:0:0:0:
231,151,129058,1,0,1:0:0:0:
223,120,129142,1,8,0:0:0:0:
324,32,129308,5,0,1:0:0:0:
321,47,129392,1,0,1:0:0:0:
318,62,129475,1,8,0:0:0:0:
415,172,129642,6,0,B|443:130|443:130|431:74,1,87.5,2|0,0:1|0:0,0:0:0:0:
404,67,129808,2,0,L|411:96,1,17.5,2|0,0:0|0:0,0:0:0:0:
333,199,129975,6,0,L|290:190,1,35,2|0,0:3|0:0,0:0:0:0:
254,241,130225,6,0,L|228:235,1,20.9999993591309,2|0,0:3|0:0,0:0:0:0:
211,217,130475,6,0,L|203:215,1,7,2|0,0:3|0:0,0:0:0:0:
32,265,130808,6,0,L|41:264,12,5.24999983978272,2|0|0|0|0|0|0|0|0|0|0|0|0,0:1|0:0|0:0|0:0|0:0|0:0|0:0|0:0|0:0|0:0|0:0|0:0|0:0,0:0:0:0:
95,220,131392,6,0,L|110:222,12,8.75,2|0|0|0|0|0|0|0|0|0|0|0|0,0:1|0:0|0:0|0:0|0:0|0:0|0:0|0:0|0:0|0:0|0:0|0:0|0:0,0:0:0:0:
161,261,131975,6,0,L|166:277,14,12.2499996261597,2|0|0|0|0|0|0|0|0|0|0|0|0|0|0,0:1|0:0|0:0|0:0|0:0|0:0|0:0|0:0|0:0|0:0|0:0|0:0|0:0|0:0|0:0,0:0:0:0:
139,338,132642,6,0,L|122:343,14,15.7499995193482,2|0|0|0|0|0|0|0|0|0|0|0|0|0|0,0:1|0:0|0:0|0:0|0:0|0:0|0:0|0:0|0:0|0:0|0:0|0:0|0:0|0:0|0:0,0:0:0:0:
218,194,133308,6,0,L|239:228,1,25.6666674499512,2|0,0:0|0:0,0:0:0:0:
230,178,133420,2,0,L|236:217,1,25.6666674499512,2|0,0:0|0:0,0:0:0:0:
247,172,133531,2,0,L|238:211,1,25.6666674499512,2|0,0:0|0:0,0:0:0:0:
273,145,133642,6,0,L|252:179,1,25.6666674499512,2|0,0:0|0:0,0:0:0:0:
261,129,133754,2,0,L|254:168,1,25.6666674499512,2|0,0:0|0:0,0:0:0:0:
244,123,133865,2,0,L|252:162,1,25.6666674499512,2|0,0:0|0:0,0:0:0:0:
237,85,133975,6,0,L|258:119,1,25.6666674499512,2|0,0:0|0:0,0:0:0:0:
249,69,134087,2,0,L|255:108,1,25.6666674499512,2|0,0:0|0:0,0:0:0:0:
266,63,134198,2,0,L|257:102,1,25.6666674499512,2|0,0:0|0:0,0:0:0:0:
295,28,134308,6,0,L|341:41,1,32.6666656697591,2|0,0:0|0:0,0:0:0:0:
392,20,134475,2,0,L|438:33,1,32.6666656697591,2|0,0:0|0:0,0:0:0:0:
488,126,134642,6,0,L|449:127,1,34.9999989318848,2|0,0:0|0:0,0:0:0:0:
404,179,134975,5,0,0:0:0:0:
404,179,135031,2,0,L|373:175,1,27.9999991455078,2|0,0:0|0:0,0:0:0:0:
315,200,135308,6,0,B|334:195|334:195|417:213,1,105,4|0,1:0|0:0,0:0:0:0:
431,223,135642,2,0,L|418:276,2,32.6666656697591,8|8|8,0:0|0:0|0:0,0:0:0:0:
366,294,135975,2,0,L|378:361,1,48.9999985046387,8|0,0:0|1:0,0:0:0:0:
366,351,136225,2,0,L|325:345,1,24.4999992523194,2|2,0:0|0:0,0:0:0:0:
285,310,136392,1,0,1:0:0:0:
285,310,136475,2,0,L|245:315,1,24.4999992523194,8|0,0:0|0:0,0:0:0:0:
188,279,136642,6,0,L|134:310,1,48.9999985046387,0|0,1:0|0:0,0:0:0:0:
145,303,136892,1,0,1:0:0:0:
145,303,136975,1,8,0:0:0:0:
225,202,137142,1,8,0:0:0:0:
225,202,137225,1,8,0:0:0:0:
225,202,137308,2,0,P|261:210|275:169,1,73.4999977569581,0|0,1:0|0:0,0:0:0:0:
283,158,137642,2,0,L|268:140,4,12.2499996261597,8|0|0|0|8,0:0|0:0|0:0|0:0|0:0,0:0:0:0:
259,82,137892,5,2,0:0:0:0:
259,82,137975,2,0,L|183:95,1,73.4999977569581,0|0,1:0|0:0,0:0:0:0:
132,46,138308,2,0,L|106:56,1,16.3333328348796,2|0,0:0|0:0,0:0:0:0:
100,49,138420,2,0,L|73:57,3,16.3333328348796,8|0|0|0,0:0|0:0|0:0|0:0,0:0:0:0:
44,112,138642,5,0,1:0:0:0:
75,118,138753,5,0,1:0:0:0:
91,146,138864,5,0,1:0:0:0:
76,175,138975,6,0,L|37:181,1,24.4999992523194,8|0,0:0|0:0,0:0:0:0:
134,221,139142,1,2,0:0:0:0:
134,221,139225,1,2,0:0:0:0:
134,221,139308,2,0,P|156:208|170:169,1,48.9999985046387,0|0,1:0|0:0,0:0:0:0:
178,166,139558,2,0,L|200:277,1,97.9999970092774,8|0,0:0|0:0,0:0:0:0:
226,323,139975,6,0,L|256:310,1,24.4999992523194,2|8,0:0|0:0,0:0:0:0:
292,262,140142,2,0,L|324:267,1,24.4999992523194,2|8,0:0|0:0,0:0:0:0:
373,232,140308,2,0,L|397:254,1,24.4999992523194,2|0,0:0|1:0,0:0:0:0:
444,294,140475,1,2,0:0:0:0:
449,304,140558,1,2,0:0:0:0:
454,314,140642,1,0,1:0:0:0:
458,325,140725,1,0,1:0:0:0:
462,336,140808,6,0,L|450:372,1,24.4999992523194,8|0,0:0|0:0,0:0:0:0:
382,364,140975,1,2,0:0:0:0:
382,364,141058,2,0,L|394:335,1,24.4999992523194,8|0,0:0|1:0,0:0:0:0:
361,284,141225,5,8,0:0:0:0:
361,284,141308,2,0,P|308:298|286:306,1,73.4999977569581,2|0,0:0|1:0,0:0:0:0:
240,253,141642,1,0,1:0:0:0:
250,246,141725,1,8,0:0:0:0:
260,240,141808,2,0,P|223:280|209:299,1,73.4999977569581,2|0,0:0|0:0,0:0:0:0:
153,335,142142,2,0,L|138:299,1,24.4999992523194,8|0,0:0|0:0,0:0:0:0:
79,285,142308,5,2,0:0:0:0:
79,285,142392,2,0,L|35:289,1,24.4999992523194,0|0,1:0|0:0,0:0:0:0:
111,212,142558,2,0,L|67:216,1,24.4999992523194,0|0,1:0|0:0,0:0:0:0:
26,175,142725,1,2,0:0:0:0:
26,175,142808,2,0,L|21:148,4,16.3333328348796,8|0|0|0|0,0:0|0:0|0:0|0:0|1:0,0:0:0:0:
113,72,143142,6,0,L|145:92,1,32.6666656697591,8|0,0:0|0:0,0:0:0:0:
149,102,143308,2,0,L|194:107,1,32.6666656697591,8|0,0:0|0:0,0:0:0:0:
194,115,143475,2,0,L|234:103,2,32.6666656697591,2|0|0,0:0|1:0|0:0,0:0:0:0:
268,35,143808,5,8,0:0:0:0:
472,130,144086,5,8,0:0:0:0:
402,275,144308,5,8,0:0:0:0:
206,220,144531,6,0,L|214:214,14,8.16666641743979,8|0|0|0|0|0|0|0|0|0|0|0|0|0|0,0:0|0:0|0:0|0:0|0:0|0:0|0:0|0:0|0:0|0:0|0:0|0:0|0:0|0:0|0:0,0:0:0:0:
193,232,144975,6,0,L|198:269,1,31.4999990386963,2|0,0:0|0:0,0:0:0:0:
207,276,145308,2,0,L|199:310,1,31.4999990386963,2|0,0:0|0:0,0:0:0:0:
145,351,145642,1,2,0:0:0:0:
151,354,145697,1,2,0:0:0:0:
157,357,145753,1,2,0:0:0:0:
162,361,145808,2,0,L|164:367,2,6.99999978637696,8|8|8,0:0|0:0|0:0,0:0:0:0:
120,293,145975,6,2,L|40:317,1,84,2|0,0:1|0:0,0:1:0:0:
228,65,151308,5,8,0:0:0:0:
284,122,151559,1,8,0:0:0:0:
284,122,151642,2,0,L|275:144,3,17.5,8|0|0|0,0:0|0:0|0:0|0:0,0:0:0:0:
221,192,151975,6,0,L|216:177,3,14,8|0|0|0,0:0|0:0|0:0|0:0,0:0:0:0:
274,245,152308,6,0,L|269:260,3,10.4999996795654,8|0|0|0,0:0|0:0|0:0|0:0,0:0:0:0:
256,192,152808,12,0,156642,1:0:0:0:
299,124,156975,6,0,P|311:160|317:200,1,70,0|0,3:0|1:0,0:0:0:0:
300,214,157308,2,0,P|294:258|292:299,1,70,8|0,0:0|3:0,0:0:0:0:
339,373,157642,1,0,1:0:0:0:
339,373,157975,1,0,1:0:0:0:
339,373,158308,1,0,1:0:0:0:
141,242,158642,5,2,3:0:0:0:
58,298,158808,2,0,L|213:328,1,140,0|0,1:0|3:0,0:0:0:0:
279,293,159308,6,0,P|288:253|287:210,1,70,0|0,1:0|0:0,0:0:0:0:
197,197,159642,1,0,3:0:0:0:
179,151,159808,1,0,1:0:0:0:
191,103,159975,1,8,0:0:0:0:
226,69,160142,2,0,P|266:58|366:93,1,140,0|0,1:0|3:0,0:0:0:0:
392,162,160642,5,0,1:0:0:0:
392,162,160975,1,0,1:0:0:0:
392,162,161308,2,0,B|304:157|333:208|235:210,1,157.500006008148,8|0,0:0|1:0,0:0:0:0:
230,237,161892,5,0,1:0:0:0:
230,237,161975,2,0,L|224:288,1,41.9999987182618,0|0,1:0|0:0,0:0:0:0:
241,294,162142,2,0,L|234:348,1,41.9999987182618
222,352,162308,2,0,L|177:338,3,41.9999987182618,0|0|0|0,3:0|0:0|1:0|0:0,0:0:0:0:
165,323,162642,1,8,0:0:0:0:
107,261,162808,1,0,3:0:0:0:
37,305,162975,1,0,1:0:0:0:
62,63,163308,5,0,1:0:0:0:
62,63,163642,1,0,1:0:0:0:
62,63,163975,1,2,3:0:0:0:
13,155,164142,2,0,L|169:115,1,140,0|0,1:0|3:0,0:0:0:0:
223,63,164642,6,0,L|173:56,1,41.9999987182618,0|0,1:0|0:0,0:0:0:0:
229,143,164808,2,0,P|276:152|307:207,1,105.000004005432,0|0,0:0|1:0,0:0:0:0:
285,269,165308,1,8,0:0:0:0:
306,197,165475,1,0,1:0:0:0:
306,197,165808,1,0,3:0:0:0:
427,291,165975,5,0,1:0:0:0:
427,291,166308,1,0,1:0:0:0:
427,291,166642,1,8,0:0:0:0:
427,291,167142,5,0,0:0:0:0:
491,188,167308,2,0,P|458:184|420:220,1,78.7500030040742,0|0,1:0|0:0,0:0:0:0:
410,228,167642,2,0,L|425:140,1,83.9999974365235,0|0,3:0|1:0,0:0:0:0:
368,73,167975,2,0,P|357:35|351:-2,2,70,8|0|0,0:0|3:0|1:0,0:0:0:0:
219,234,168642,5,0,1:0:0:0:
219,234,168975,1,0,1:0:0:0:
219,234,169308,1,2,3:0:0:0:
274,313,169475,2,0,L|135:286,1,140,0|0,1:0|3:0,0:0:0:0:
92,204,169975,5,0,1:0:0:0:
92,204,170308,1,0,3:0:0:0:
129,142,170475,1,0,1:0:0:0:
74,32,170642,1,8,0:0:0:0:
130,72,170808,1,0,1:0:0:0:
200,68,170975,1,0,0:0:0:0:
255,25,171142,1,0,3:0:0:0:
255,25,171808,5,0,0:0:0:0:
295,138,171975,2,0,P|301:100|313:59,1,70,8|0,0:0|0:0,0:0:0:0:
237,213,172308,2,0,P|231:173|222:141,1,70,0|0,1:0|0:0,0:0:0:0:
198,131,172558,5,0,1:0:0:0:
198,131,172642,1,0,1:0:0:0:
84,275,172975,1,0,3:0:0:0:
118,336,173142,1,0,1:0:0:0:
184,312,173308,2,0,P|219:319|257:328,2,70,8|0|0,0:0|3:0|1:0,0:0:0:0:
370,371,173975,5,0,1:0:0:0:
370,371,174308,1,0,1:0:0:0:
446,282,174475,1,0,3:0:0:0:
381,303,174642,2,0,L|338:290,1,35,8|0,0:0|0:0,0:0:0:0:
300,244,174808,1,0,1:0:0:0:
384,156,174975,1,8,0:0:0:0:
378,228,175142,1,0,3:0:0:0:
303,162,175308,5,0,1:0:0:0:
303,162,175642,1,0,3:0:0:0:
249,122,175808,1,0,1:0:0:0:
182,139,175975,1,8,0:0:0:0:
129,184,176142,2,0,P|103:128|88:42,1,140,0|0,1:0|3:0,0:0:0:0:
163,20,176642,5,0,1:0:0:0:
163,20,176975,1,0,1:0:0:0:
163,20,177308,2,0,B|268:23|250:82|363:91,1,210.000008010865,8|2,0:0|0:1,0:0:0:0:
424,102,178308,5,0,1:0:0:0:
465,162,178475,1,2,1:0:0:0:
422,222,178642,2,0,L|351:211,1,52.5000020027161,8|0,0:0|3:0,0:0:0:0:
357,190,178975,2,0,L|298:198,1,52.5000020027161,2|2,1:2|0:0,0:0:0:0:
194,145,179308,6,0,L|258:138,2,52.5000020027161,0|2|0,1:0|0:1|1:0,0:0:0:0:
140,195,179808,1,2,0:1:0:0:
140,195,179892,2,0,L|70:184,1,52.5000020027161,2|0,0:0|0:0,0:0:0:0:
76,179,180142,2,0,L|92:219,1,26.2500010013581,0|0,1:0|0:0,0:0:0:0:
45,260,180308,2,0,L|33:249,6,13.125000500679,8|0|0|0|0|0|8,0:0|0:0|0:0|0:0|0:0|0:0|0:0,0:0:0:0:
104,299,180642,6,0,B|144:290|153:254|135:197,1,105.000004005432,0|2,1:0|0:1,0:0:0:0:
139,214,181142,1,0,1:0:0:0:
211,193,181308,2,0,L|215:251,1,52.5000020027161,8|0,0:0|1:0,0:0:0:0:
273,282,181642,2,0,L|285:226,1,52.5000020027161,2|2,0:1|1:2,0:0:0:0:
341,189,181975,5,0,1:0:0:0:
410,214,182142,1,2,0:1:0:0:
438,281,182308,1,0,1:0:0:0:
404,346,182475,1,2,0:1:0:0:
368,281,182642,5,8,0:0:0:0:
388,251,182808,1,2,0:1:0:0:
424,245,182975,1,2,0:1:0:0:
459,255,183142,2,0,L|486:280,1,26.2500010013581,2|0,0:0|0:0,0:0:0:0:
491,337,183308,6,0,P|468:353|425:357,1,52.5000020027161,0|2,1:0|0:1,0:0:0:0:
390,315,183642,2,0,B|340:292|351:344|273:312,1,105.000004005432,0|8,3:0|0:0,0:0:0:0:
288,317,184142,1,0,3:0:0:0:
231,272,184308,2,0,P|243:235|255:218,1,52.5000020027161,0|2,1:0|0:1,0:0:0:0:
301,170,184642,2,0,P|294:144|281:121,2,52.5000020027161,0|2|0,1:0|0:1|1:0,0:0:0:0:
368,200,185142,1,2,0:1:0:0:
368,200,185308,2,0,P|382:164|385:139,1,52.5000020027161,8|0,0:0|1:0,0:0:0:0:
430,93,185642,2,0,L|451:100,6,13.125000500679,8|0|0|0|0|0|0,0:0|0:0|0:0|0:0|0:0|0:0|0:0,0:0:0:0:
383,35,185975,5,0,1:0:0:0:
383,35,186142,2,0,B|337:41|337:41|323:98,1,105.000004005432,2|0,0:0|1:0,0:0:0:0:
270,149,186642,2,0,L|206:135,1,52.5000020027161,8|0,0:0|1:0,0:0:0:0:
161,88,186975,2,0,L|96:101,1,52.5000020027161,2|2,0:1|0:0,0:0:0:0:
39,121,187308,5,0,1:0:0:0:
96,167,187475,1,2,0:0:0:0:
25,144,187642,5,8,0:0:0:0:
85,199,187808,1,2,0:1:0:0:
85,199,187892,1,2,0:1:0:0:
85,199,187975,1,8,0:0:0:0:
47,263,188142,1,2,0:0:0:0:
47,263,188225,1,2,0:1:0:0:
96,323,188392,1,2,0:1:0:0:
96,323,188475,1,0,1:0:0:0:
35,365,188642,5,0,1:0:0:0:
35,365,188975,2,0,P|28:317|25:287,1,78.7500030040742,0|0,3:0|0:0,0:0:0:0:
36,281,189308,2,0,L|29:224,1,52.5000020027161,8|2,0:0|0:1,0:0:0:0:
50,157,189642,1,0,1:0:0:0:
119,179,189808,1,2,0:1:0:0:
163,120,189975,6,0,L|135:57,2,52.5000020027161,0|2|0,1:0|0:1|1:0,0:0:0:0:
227,164,190475,1,2,0:1:0:0:
227,164,190642,2,0,L|235:91,1,52.5000020027161,8|0,0:0|1:0,0:0:0:0:
276,52,190975,2,0,L|270:28,6,13.125000500679,8|0|0|0|0|0|0,0:0|0:0|0:0|0:0|0:0|0:0|0:0,0:0:0:0:
334,88,191308,6,0,B|382:64|395:110|443:86,1,105.000004005432,0|2,1:0|0:1,0:0:0:0:
485,143,191808,1,0,1:0:0:0:
414,165,191975,2,0,L|410:198,1,26.2500010013581,8|0,0:0|0:0,0:0:0:0:
382,215,192142,2,0,L|390:249,1,26.2500010013581,2|0,0:1|0:0,0:0:0:0:
450,268,192308,2,0,L|453:294,1,26.2500010013581,2|0,0:1|0:0,0:0:0:0:
482,318,192475,2,0,L|475:343,1,26.2500010013581,2|0,0:1|0:0,0:0:0:0:
408,371,192642,6,0,P|341:364|317:318,1,105.000004005432,0|0,1:0|1:0,0:0:0:0:
310,268,193142,1,2,0:1:0:0:
243,236,193308,1,8,0:0:0:0:
188,285,193475,1,2,0:1:0:0:
211,354,193642,1,2,0:1:0:0:
223,350,193725,1,2,0:1:0:0:
235,346,193808,1,2,0:1:0:0:
247,342,193892,1,2,0:1:0:0:
259,338,193975,6,0,L|232:212,1,105.000004005432,0|2,1:0|0:1,0:0:0:0:
236,235,194475,1,0,1:0:0:0:
185,182,194642,2,0,L|123:211,1,52.5000020027161,8|2,0:0|0:1,0:0:0:0:
69,176,194975,2,0,L|110:138,1,52.5000020027161,0|2,1:0|0:1,0:0:0:0:
152,81,195308,5,0,1:0:0:0:
109,20,195475,1,2,0:1:0:0:
37,39,195642,1,0,1:0:0:0:
40,112,195808,1,2,0:1:0:0:
107,140,195975,2,0,L|154:129,1,26.2500010013581,8|0,0:0|0:0,0:0:0:0:
163,113,196142,2,0,L|210:124,1,26.2500010013581,0|0,1:0|0:0,0:0:0:0:
239,73,196308,2,0,L|286:84,1,26.2500010013581,8|0,0:0|0:0,0:0:0:0:
295,100,196475,2,0,L|342:89,1,26.2500010013581,2|0,0:1|0:0,0:0:0:0:
382,136,196642,6,0,L|488:149,1,105.000004005432,0|2,1:0|0:1,0:0:0:0:
486,148,197142,1,0,1:0:0:0:
343,235,197308,2,0,L|410:228,1,52.5000020027161,8|0,0:0|1:0,0:0:0:0:
299,313,197642,1,2,0:1:0:0:
403,343,197808,1,0,3:0:0:0:
235,242,197975,5,0,1:0:0:0:
166,302,198142,1,8,0:0:0:0:
225,371,198308,1,8,0:0:0:0:
138,211,198475,6,0,L|103:219,1,26.2500010013581,2|0,0:1|0:0,0:0:0:0:
46,207,198642,2,0,L|21:232,1,26.2500010013581,8|0,0:0|0:0,0:0:0:0:
2,288,198808,2,0,L|15:321,1,26.2500010013581,2|0,0:1|0:0,0:0:0:0:
71,355,198975,2,0,L|76:331,6,13.125000500679,8|0|0|0|0|0|0,0:0|0:0|0:0|0:0|0:0|0:0|0:0,0:0:0:0:
256,192,199308,12,0,203308,0:0:0:0:
256,192,203392,12,0,208475,0:0:0:0:
278,201,208808,6,0,L|298:204,6,13.125000500679
227,149,209142,6,0,L|200:153,6,17.5
284,99,209475,6,0,L|321:107,10,22.7499989585877
218,10,209976,6,0,L|203:83,1,70,2|0,0:3|0:0,0:0:0:0:
136,81,210476,2,2,L|195:66,1,52.5000020027161,2|0,0:1|0:0,0:1:0:0:
310,150,210809,1,0,1:0:0:0:
291,161,210892,1,0,1:0:0:0:
268,162,210976,1,0,1:0:0:0:
433,325,211309,5,0,1:0:0:0:
442,277,211392,1,0,1:0:0:0:
449,228,211476,1,0,1:0:0:0:
456,179,211559,1,0,1:0:0:0:
466,131,211643,6,0,P|432:130|371:235,1,157.500006008148,4|2,1:0|0:0,0:0:0:0:
327,299,211893,1,0,1:0:0:0:
327,299,211976,2,0,L|338:360,1,61.2500005841255,8|0,0:0|0:0,0:0:0:0:
255,257,212143,2,0,L|264:187,1,61.2500005841255,0|0,1:0|0:0,0:0:0:0:
58,203,212309,5,0,1:0:0:0:
128,227,212393,1,0,1:0:0:0:
188,185,212476,1,8,0:0:0:0:
194,112,212559,1,2,0:0:0:0:
130,73,212643,5,8,0:1:0:0:
120,57,212726,1,8,0:1:0:0:
119,38,212809,1,8,0:1:0:0:
125,20,212893,1,8,0:1:0:0:
140,10,212976,1,8,0:1:0:0:
157,4,213059,1,8,0:1:0:0:
174,9,213143,2,0,L|238:23,1,61.2500005841255,0|0,1:0|0:0,0:0:0:0:
415,38,213309,5,2,1:0:0:0:
368,95,213393,2,0,B|348:122|348:122|246:145,1,122.500001168251,0|0,1:0|0:0,0:0:0:0:
456,211,213643,5,2,1:0:0:0:
387,185,213726,2,0,L|304:209,1,61.2500005841255,0|8,1:0|0:0,0:0:0:0:
248,248,213893,5,2,0:0:0:0:
312,284,213976,2,0,L|370:266,1,61.2500005841255,8|0,0:0|0:0,0:0:0:0:
510,321,214143,6,0,P|486:311|451:307,1,61.2500005841255,8|0,0:0|0:0,0:0:0:0:
387,342,214309,1,2,1:0:0:0:
320,375,214393,2,0,B|257:362|265:340|194:326,1,122.500001168251,2|0,0:0|1:0,0:0:0:0:
65,327,214643,6,0,P|52:355|53:390,1,61.2500005841255,0|0,1:0|0:0,0:0:0:0:
142,262,214809,2,0,P|147:236|168:209,1,61.2500005841255,0|0,1:0|0:0,0:0:0:0:
95,142,214976,5,0,1:0:0:0:
95,142,215059,1,0,1:0:0:0:
95,142,215143,2,0,P|66:152|27:169,1,61.2500005841255,8|0,0:0|0:0,0:0:0:0:
160,82,215309,5,8,0:0:0:0:
143,74,215393,1,8,0:0:0:0:
126,66,215476,2,0,P|101:63|59:62,1,61.2500005841255,8|0,0:0|0:0,0:0:0:0:
267,113,215643,5,8,0:0:0:0:
250,80,215726,1,8,0:0:0:0:
233,47,215809,2,0,P|216:23|186:2,1,61.2500005841255,0|0,1:0|0:0,0:0:0:0:
346,180,215976,5,0,1:0:0:0:
347,131,216059,1,0,1:0:0:0:
347,81,216143,2,0,P|338:57|314:25,1,61.2500005841255,8|0,0:0|0:0,0:0:0:0:
491,232,216309,5,0,1:0:0:0:
454,228,216393,1,0,1:0:0:0:
419,241,216476,1,8,0:0:0:0:
393,267,216559,1,8,0:0:0:0:
361,287,216643,1,8,0:0:0:0:
329,305,216726,1,8,0:0:0:0:
292,304,216809,1,8,0:0:0:0:
257,290,216893,1,8,0:0:0:0:
233,261,216976,6,0,P|237:233|249:200,1,61.2500005841255,0|0,1:0|0:0,0:0:0:0:
325,128,217143,1,2,0:0:0:0:
325,128,217226,1,0,1:0:0:0:
325,128,217309,2,0,P|318:85|303:49,1,61.2500005841255,8|0,0:0|0:0,0:0:0:0:
453,9,217476,1,2,1:0:0:0:
405,64,217559,6,0,L|395:197,1,122.500001168251,2|0,0:0|1:0,0:0:0:0:
484,291,217809,6,0,L|494:159,1,122.500001168251,8|0,0:0|0:0,0:0:0:0:
384,266,218059,6,0,L|250:290,1,122.500001168251,2|0,0:0|0:0,0:0:0:0:
135,346,218309,6,0,L|281:373,1,122.500001168251,2|0,0:0|1:0,0:0:0:0:
168,259,218559,6,0,L|47:279,1,122.500001168251,2|0,0:0|1:0,0:0:0:0:
11,133,218809,5,8,0:0:0:0:
11,133,218893,1,2,0:0:0:0:
11,133,218976,5,0,1:0:0:0:
77,103,219059,1,0,1:0:0:0:
147,125,219143,1,8,0:0:0:0:
199,175,219226,1,2,0:0:0:0:
272,179,219309,5,8,0:1:0:0:
302,158,219393,1,8,0:1:0:0:
315,123,219476,1,8,0:1:0:0:
306,87,219559,1,8,0:1:0:0:
282,56,219643,6,0,L|150:30,1,122.500001168251,0|0,1:0|0:0,0:0:0:0:
77,103,219893,1,0,1:0:0:0:
77,103,219976,2,0,P|80:138|90:181,1,61.2500005841255,8|0,0:0|0:0,0:0:0:0:
212,236,220143,2,0,P|182:225|138:226,1,61.2500005841255,0|0,1:0|0:0,0:0:0:0:
39,299,220309,5,0,1:0:0:0:
68,320,220393,1,0,1:0:0:0:
98,340,220476,2,0,L|162:329,1,61.2500005841255,8|0,0:0|0:0,0:0:0:0:
252,375,220643,5,8,0:1:0:0:
268,366,220726,1,8,0:1:0:0:
284,357,220809,2,0,L|359:370,1,61.2500005841255,8|0,0:1|0:0,0:0:0:0:
441,323,220976,5,8,0:1:0:0:
441,323,221059,1,8,0:1:0:0:
441,323,221143,1,0,1:0:0:0:
441,323,221226,2,0,B|456:272|442:241|442:241|463:192,1,122.500001168251,2|0,0:0|1:0,0:0:0:0:
328,38,221476,5,8,0:0:0:0:
293,102,221559,2,0,P|316:167|380:181,1,122.500001168251,2|0,0:0|1:0,0:0:0:0:
273,227,221809,1,8,0:0:0:0:
273,227,221893,1,2,0:0:0:0:
273,227,221976,2,0,B|230:259|230:259|86:236,1,183.750001752377,2|0,0:0|0:0,0:0:0:0:
231,328,222309,6,0,B|302:330|289:364|378:363,1,122.500001168251,0|2,1:0|0:0,0:0:0:0:
468,315,222559,1,0,1:0:0:0:
468,315,222643,2,0,L|389:331,1,61.2500005841255,8|0,0:0|0:0,0:0:0:0:
500,241,222809,2,0,L|431:245,1,61.2500005841255,2|0,1:0|0:0,0:0:0:0:
373,133,222976,5,0,1:0:0:0:
328,113,223059,1,0,1:0:0:0:
278,110,223143,1,8,0:0:0:0:
231,124,223226,1,2,0:0:0:0:
171,167,223309,5,8,0:0:0:0:
133,165,223393,1,8,0:0:0:0:
97,158,223476,1,8,0:0:0:0:
60,154,223559,1,8,0:0:0:0:
11,209,223643,5,8,0:1:0:0:
28,213,223726,1,8,0:1:0:0:
45,217,223809,2,0,P|53:242|54:281,1,61.2500005841255,0|0,1:0|0:0,0:0:0:0:
114,375,223976,5,2,0:0:0:0:
156,315,224059,2,0,L|140:234,1,61.2500005841255,0|0,1:0|0:0,0:0:0:0:
225,358,224226,5,2,0:0:0:0:
252,290,224309,2,0,L|260:209,1,61.2500005841255,0|0,1:0|1:0,0:0:0:0:
333,365,224476,5,8,0:0:0:0:
361,297,224559,2,0,L|391:164,1,122.500001168251,2|0,0:0|0:0,0:0:0:0:
460,184,224809,2,0,L|445:251,1,61.2500005841255,8|0,0:0|0:0,0:0:0:0:
311,168,224976,5,0,1:0:0:0:
248,129,225059,2,0,P|215:119|137:157,1,122.500001168251,2|0,0:0|1:0,0:0:0:0:
40,243,225309,2,0,P|51:283|54:319,1,61.2500005841255,8|0,0:0|0:0,0:0:0:0:
151,364,225476,2,0,P|155:333|164:292,1,61.2500005841255,0|0,1:0|0:0,0:0:0:0:
121,231,225643,5,0,1:0:0:0:
121,231,225726,1,0,1:0:0:0:
121,231,225809,2,0,P|107:191|83:154,1,61.2500005841255,8|0,0:0|0:0,0:0:0:0:
200,228,225976,5,8,0:0:0:0:
203,210,226059,1,8,0:0:0:0:
207,192,226142,2,0,P|211:164|206:122,1,61.2500005841255,8|0,0:0|0:0,0:0:0:0:
274,263,226309,5,8,0:0:0:0:
291,230,226392,1,8,0:0:0:0:
306,196,226476,2,0,P|315:158|313:119,1,61.2500005841255,0|0,1:0|0:0,0:0:0:0:
345,318,226642,5,0,1:0:0:0:
374,278,226726,1,0,1:0:0:0:
402,238,226809,2,0,P|411:208|416:167,1,61.2500005841255,8|0,0:0|0:0,0:0:0:0:
376,383,226976,5,0,1:0:0:0:
442,351,227059,1,0,1:0:0:0:
500,307,227142,2,0,P|507:275|508:232,1,61.2500005841255,8|0,0:0|0:0,0:0:0:0:
489,102,227309,6,0,P|467:105|448:116,2,40.8333337227503,8|0|8,0:1|0:0|0:1,0:0:0:0:
474,91,227476,2,0,P|455:81|435:79,2,40.8333337227503,8|0|8,0:1|0:0|0:1,0:0:0:0:
461,72,227642,6,0,B|404:91|404:91|335:79,1,122.500001168251,0|2,1:0|0:0,0:0:0:0:
184,21,227892,6,0,B|243:5|243:5|318:19,1,122.500001168251,0|0,1:0|0:0,0:0:0:0:
320,152,228142,6,0,B|261:175|261:175|191:159,1,122.500001168251,2|0,1:0|0:0,0:0:0:0:
359,229,228392,6,0,B|418:210|418:210|473:235,1,122.500001168251,0|0,1:0|0:0,0:0:0:0:
277,254,228642,6,0,B|218:277|218:277|148:261,1,122.500001168251,2|0,0:0|0:0,0:0:0:0:
13,209,228892,6,0,B|73:185|73:185|135:198,1,122.500001168251,2|0,0:0|0:0,0:0:0:0:
137,329,229142,6,0,B|78:352|78:352|8:336,1,122.500001168251,2|0,1:0|0:0,0:0:0:0:
201,359,229392,6,0,B|260:340|260:340|319:367,1,122.500001168251,2|0,1:0|0:0,0:0:0:0:
421,240,229642,5,0,1:0:0:0:
374,222,229726,1,0,1:0:0:0:
325,219,229809,1,8,0:0:0:0:
280,238,229892,1,2,0:0:0:0:
218,279,229976,5,8,0:1:0:0:
169,275,230059,1,8,0:1:0:0:
123,257,230142,1,8,0:1:0:0:
96,215,230226,1,8,0:1:0:0:
97,166,230309,6,0,L|159:152,1,61.2500005841255,0|0,1:0|0:0,0:0:0:0:
228,104,230476,1,0,1:0:0:0:
228,104,230559,1,0,1:0:0:0:
228,104,230642,2,0,L|295:119,1,61.2500005841255,8|0,0:0|0:0,0:0:0:0:
361,62,230809,2,0,L|287:47,1,61.2500005841255,0|0,1:0|0:0,0:0:0:0:
364,145,230976,5,0,1:0:0:0:
374,180,231059,1,0,1:0:0:0:
384,215,231142,1,8,0:0:0:0:
467,331,231309,1,8,0:0:0:0:
469,312,231392,1,8,0:0:0:0:
472,293,231476,1,8,0:0:0:0:
474,274,231559,1,8,0:0:0:0:
478,256,231642,6,0,L|418:275,1,61.2500005841255,0|0,1:0|0:0,0:0:0:0:
344,350,231809,1,8,0:0:0:0:
308,340,231892,1,8,0:0:0:0:
272,329,231976,1,0,1:0:0:0:
115,316,232142,5,8,0:0:0:0:
150,303,232226,1,8,0:0:0:0:
184,290,232309,1,0,1:0:0:0:
345,210,232476,5,0,1:0:0:0:
303,157,232559,1,2,1:0:0:0:
239,134,232642,1,0,1:0:0:0:
176,159,232726,1,0,1:0:0:0:
111,178,232809,1,0,1:0:0:0:
56,139,232892,1,0,1:0:0:0:
46,71,232976,6,0,L|51:49,6,15.3125001460314,8|0|0|0|0|0|0,0:1|0:0|0:0|0:0|0:0|0:0|0:0,0:0:0:0:
66,50,233142,2,0,L|61:28,6,15.3125001460314,8|0|0|0|0|0|0,0:1|0:0|0:0|0:0|0:0|0:0|0:0,0:0:0:0:
136,40,233309,5,4,1:0:0:0:
169,75,233392,1,2,0:0:0:0:
174,124,233476,1,0,1:0:0:0:
146,164,233559,1,2,0:0:0:0:
81,198,233642,5,0,1:0:0:0:
54,267,233726,1,0,1:0:0:0:
93,328,233809,1,8,0:0:0:0:
165,336,233892,2,0,L|268:309,1,61.2500005841255,2|0,0:0|0:0,0:0:0:0:
389,215,234059,5,8,0:0:0:0:
343,272,234142,1,8,0:0:0:0:
271,252,234226,2,0,L|196:219,1,61.2500005841255,2|8,0:0|0:0,0:0:0:0:
174,124,234392,5,8,0:0:0:0:
247,115,234476,2,0,L|322:148,1,61.2500005841255,0|0,1:0|0:0,0:0:0:0:
222,24,234642,5,2,0:0:0:0:
294,38,234726,2,0,L|399:110,1,122.500001168251,0|0,1:0|0:0,0:0:0:0:
453,60,234976,5,0,1:0:0:0:
487,124,235059,2,0,L|512:197,1,61.2500005841255,0|0,1:0|0:0,0:0:0:0:
478,305,235226,5,2,0:0:0:0:
443,241,235309,2,0,L|417:167,1,61.2500005841255,8|0,0:0|0:0,0:0:0:0:
377,292,235476,5,2,0:0:0:0:
311,325,235559,2,0,B|233:300|256:358|161:328,1,122.500001168251,2|0,0:0|0:0,0:0:0:0:
123,308,235809,5,0,1:0:0:0:
146,279,235892,1,0,1:0:0:0:
151,242,235976,2,0,P|148:204|132:177,1,61.2500005841255,8|0,0:0|0:0,0:0:0:0:
10,165,236142,5,0,1:0:0:0:
80,140,236226,1,2,0:0:0:0:
96,73,236309,5,0,1:0:0:0:
96,73,236393,1,0,1:0:0:0:
96,73,236476,2,0,P|72:45|44:21,1,61.2500005841255,8|0,0:0|0:0,0:0:0:0:
193,92,236642,5,8,0:0:0:0:
190,73,236726,1,8,0:0:0:0:
182,56,236809,2,0,P|163:23|140:-5,1,61.2500005841255,8|0,0:0|0:0,0:0:0:0:
271,158,236976,5,8,0:0:0:0:
293,124,237059,1,8,0:0:0:0:
298,87,237142,2,0,P|286:52|269:19,1,61.2500005841255,0|0,1:0|0:0,0:0:0:0:
357,231,237309,5,0,1:0:0:0:
388,193,237393,1,0,1:0:0:0:
411,150,237476,2,0,P|406:113|395:78,1,61.2500005841255,8|0,0:0|0:0,0:0:0:0:
464,249,237642,5,0,1:0:0:0:
481,321,237726,1,0,1:0:0:0:
420,361,237809,2,0,B|382:359|382:359|305:293,1,122.500001168251,8|0,0:0|0:0,0:0:0:0:
175,294,238059,6,0,B|209:278|209:278|255:189,1,122.500001168251,2|0,0:0|0:0,0:0:0:0:
309,131,238309,6,0,B|278:109|278:109|249:12,1,122.500001168251,0|2,1:0|0:0,0:0:0:0:
153,15,238559,5,0,1:0:0:0:
153,15,238642,2,0,L|164:102,1,61.2500005841255,8|0,0:0|0:0,0:0:0:0:
115,134,238809,2,0,L|44:160,1,61.2500005841255,2|0,1:0|0:0,0:0:0:0:
13,286,238976,5,0,1:0:0:0:
74,245,239059,2,0,P|142:278|152:355,1,122.500001168251,0|0,1:0|0:0,0:0:0:0:
213,185,239309,6,0,P|252:249|215:305,1,122.500001168251,2|0,0:0|0:0,0:0:0:0:
343,261,239559,6,0,P|325:336|270:347,1,122.500001168251,2|0,0:0|0:0,0:0:0:0:
489,205,239809,5,0,1:0:0:0:
418,185,239892,2,0,P|368:155|335:74,1,122.500001168251,2|0,0:0|1:0,0:0:0:0:
335,32,240142,5,8,0:0:0:0:
377,23,240226,1,2,0:0:0:0:
413,45,240309,1,0,1:0:0:0:
421,86,240392,1,0,1:0:0:0:
391,117,240476,1,8,0:0:0:0:
348,111,240559,1,2,0:0:0:0:
308,128,240642,1,8,0:0:0:0:
297,169,240726,1,8,0:0:0:0:
269,230,240809,5,8,0:0:0:0:
341,246,240892,1,8,0:0:0:0:
351,313,240976,2,0,L|333:394,1,61.2500005841255,0|0,1:0|0:0,0:0:0:0:
267,384,241142,1,2,0:0:0:0:
244,319,241226,2,0,B|236:271|236:271|155:202,1,122.500001168251,0|0,1:0|0:0,0:0:0:0:
126,265,241476,2,0,L|137:340,1,61.2500005841255,0|0,1:0|0:0,0:0:0:0:
39,247,241642,5,0,1:0:0:0:
40,173,241726,1,0,1:0:0:0:
89,119,241809,2,0,L|195:125,1,61.2500005841255,8|0,0:0|0:0,0:0:0:0:
265,26,241976,5,8,0:1:0:0:
235,48,242059,1,8,0:1:0:0:
198,52,242142,2,0,L|113:42,1,61.2500005841255,8|0,0:1|0:0,0:0:0:0:
238,125,242309,6,0,B|280:129|280:129|377:89,1,122.500001168251,2|0,0:0|1:0,0:0:0:0:
444,106,242559,5,2,0:0:0:0:
493,160,242642,2,0,L|480:237,1,61.2500005841255,8|0,0:0|1:0,0:0:0:0:
405,181,242809,5,8,0:0:0:0:
356,235,242892,2,0,L|377:376,1,122.500001168251,2|0,0:0|1:0,0:0:0:0:
313,166,243142,5,8,0:0:0:0:
261,217,243226,2,0,L|184:204,1,61.2500005841255,2|0,0:0|0:0,0:0:0:0:
30,267,243392,6,0,B|57:247|57:247|161:267,1,122.500001168251,2|0,0:0|0:0,0:0:0:0:
121,163,243642,6,0,L|106:90,1,61.2500005841255,0|0,1:0|0:0,0:0:0:0:
53,45,243809,2,0,L|29:133,1,61.2500005841255,2|0,0:0|0:0,0:0:0:0:
23,179,243976,1,8,0:0:0:0:
23,179,244059,1,8,0:0:0:0:
23,179,244142,1,0,1:0:0:0:
23,179,244226,1,2,0:0:0:0:
23,179,244309,5,0,1:0:0:0:
64,205,244392,1,0,1:0:0:0:
113,202,244476,1,8,0:0:0:0:
155,178,244559,1,2,0:0:0:0:
170,131,244642,5,8,0:1:0:0:
160,122,244726,1,8,0:1:0:0:
149,116,244809,1,8,0:1:0:0:
139,108,244892,1,8,0:1:0:0:
157,36,244976,5,8,0:1:0:0:
167,45,245060,1,8,0:1:0:0:
178,51,245142,1,0,1:1:0:0:
188,59,245226,1,2,0:0:0:0:
245,104,245309,5,2,0:0:0:0:
314,80,245392,2,0,L|383:60,1,61.2500005841255,0|8,1:0|0:0,0:0:0:0:
344,153,245559,5,2,0:0:0:0:
416,155,245642,2,0,L|487:162,1,61.2500005841255,0|0,1:0|1:0,0:0:0:0:
285,214,245809,5,8,0:0:0:0:
351,242,245892,2,0,L|477:311,1,122.500001168251,2|0,0:0|0:0,0:0:0:0:
229,275,246142,6,0,L|276:334,1,61.2500005841255,2|0,0:0|0:0,0:0:0:0:
181,207,246309,5,0,1:0:0:0:
220,145,246392,2,0,P|214:81|175:2,1,122.500001168251,2|0,0:0|1:0,0:0:0:0:
64,52,246642,2,0,P|69:84|83:134,1,61.2500005841255,8|0,0:0|0:0,0:0:0:0:
104,180,246809,5,8,0:1:0:0:
128,249,246892,1,8,0:1:0:0:
69,294,246976,5,0,1:0:0:0:
69,294,247059,1,0,1:0:0:0:
69,294,247142,2,0,P|45:255|34:217,1,61.2500005841255,8|0,0:0|0:0,0:0:0:0:
180,300,247309,5,8,0:0:0:0:
165,289,247392,1,8,0:0:0:0:
151,274,247476,2,0,P|134:231|131:191,1,61.2500005841255,8|0,0:0|0:0,0:0:0:0:
292,304,247642,5,8,0:0:0:0:
266,277,247726,1,8,0:0:0:0:
252,242,247809,2,0,P|244:196|248:157,1,61.2500005841255,0|0,1:0|0:0,0:0:0:0:
394,304,247976,5,0,1:0:0:0:
376,251,248059,1,0,1:0:0:0:
368,196,248142,2,0,P|369:150|380:112,1,61.2500005841255,8|0,0:0|0:0,0:0:0:0:
487,13,248309,5,0,1:0:0:0:
460,81,248392,1,0,1:0:0:0:
387,66,248476,2,0,B|304:55|304:55|266:17,1,122.500001168251,8|0,0:0|0:0,0:0:0:0:
138,169,248726,6,0,B|221:158|221:158|259:120,1,122.500001168251,2|0,0:0|0:0,0:0:0:0:
413,264,248976,6,0,B|330:253|330:253|292:215,1,122.500001168251,0|2,1:0|0:0,0:0:0:0:
147,355,249226,6,0,B|230:344|230:344|268:306,1,122.500001168251,0|0,1:0|0:0,0:0:0:0:
413,264,249476,6,0,B|330:253|330:253|292:215,1,122.500001168251,0|0,1:0|1:0,0:0:0:0:
138,169,249726,6,0,B|221:158|221:158|259:120,1,122.500001168251,0|0,1:0|0:0,0:0:0:0:
387,66,249976,6,0,B|304:55|304:55|266:17,1,122.500001168251,8|0,0:0|0:0,0:0:0:0:
138,169,250226,6,0,B|221:158|221:158|259:120,1,122.500001168251,2|0,0:0|0:0,0:0:0:0:
413,264,250476,6,0,B|330:253|330:253|292:215,1,122.500001168251,0|0,1:0|0:0,0:0:0:0:
147,355,250726,6,0,B|230:344|230:344|268:306,1,122.500001168251,0|0,1:0|0:0,0:0:0:0:
119,257,250976,5,0,1:0:0:0:
52,226,251059,1,0,1:0:0:0:
0,278,251142,1,8,0:0:0:0:
36,342,251226,1,2,0:0:0:0:
107,326,251309,5,8,0:1:0:0:
94,312,251392,1,8,0:1:0:0:
82,297,251476,1,8,0:1:0:0:
71,282,251559,1,8,0:1:0:0:
36,217,251642,5,0,1:0:0:0:
110,219,251726,1,0,1:0:0:0:
139,152,251809,1,8,0:0:0:0:
84,102,251892,1,2,0:0:0:0:
20,140,251976,5,8,0:1:0:0:
35,149,252059,1,8,0:1:0:0:
51,156,252142,1,8,0:1:0:0:
67,164,252226,1,8,0:1:0:0:
139,152,252309,6,0,L|161:70,1,61.2500005841255,8|8,0:1|0:1,0:0:0:0:
258,25,252476,2,0,L|236:107,1,61.2500005841255,8|8,0:1|0:1,0:0:0:0:
269,224,252642,6,0,L|291:142,1,61.2500005841255,8|8,0:1|0:1,0:0:0:0:
388,97,252809,2,0,L|366:179,1,61.2500005841255,8|8,0:1|0:1,0:0:0:0:
337,314,252976,6,0,L|323:318,14,15.3125001460314,8|0|0|0|0|0|0|0|0|0|0|0|0|0|0,0:1|0:0|0:0|0:0|0:0|0:0|0:0|0:0|0:0|0:0|0:0|0:0|0:0|0:0|0:0,0:0:0:0:
243,352,253309,2,0,L|258:356,12,15.3125001460314,8|0|0|0|0|0|0|0|0|0|0|0|0,0:1|0:0|0:0|0:0|0:0|0:0|0:0|0:0|0:0|0:0|0:0|0:0|0:0,0:0:0:0:
167,308,253642,6,0,L|185:304,14,15.3125001460314,8|0|0|0|0|0|0|0|0|0|0|0|0|0|0,0:1|0:0|0:0|0:0|0:0|0:0|0:0|0:0|0:0|0:0|0:0|0:0|0:0|0:0|0:0,0:0:0:0:
109,353,253976,2,0,L|91:349,12,15.3125001460314,8|0|0|0|0|0|0|0|0|0|0|0|0,0:1|0:0|0:0|0:0|0:0|0:0|0:0|0:0|0:0|0:0|0:0|0:0|0:0,0:0:0:0:
74,330,254309,5,4,1:0:0:0:
109,212,254476,1,2,0:0:0:0:
112,227,254559,1,0,1:0:0:0:
115,242,254642,1,8,0:0:0:0:
203,192,254809,1,0,1:0:0:0:
198,160,254892,1,2,0:0:0:0:
192,128,254976,6,0,L|74:110,1,105.000004005432,0|8,1:0|0:0,0:0:0:0:
42,28,255226,1,2,0:0:0:0:
42,28,255309,2,0,L|106:46,1,52.5000020027161,0|0,1:0|0:0,0:0:0:0:
191,10,255476,6,0,P|256:14|286:98,1,157.500006008148,2|0,0:0|0:0,0:0:0:0:
317,158,255809,1,0,1:0:0:0:
426,39,255976,1,2,0:0:0:0:
426,39,256059,1,2,0:0:0:0:
426,39,256142,1,8,0:0:0:0:
381,140,256309,5,0,1:0:0:0:
401,188,256392,1,0,1:0:0:0:
453,179,256476,1,8,0:0:0:0:
343,239,256642,5,8,0:1:0:0:
326,289,256726,1,8,0:1:0:0:
352,334,256809,2,0,P|293:294|217:337,1,157.500006008148,10|0,0:1|0:0,0:0:0:0:
86,336,257142,5,0,1:0:0:0:
133,360,257226,1,0,1:0:0:0:
159,314,257309,1,8,0:0:0:0:
249,220,257476,5,8,0:0:0:0:
207,187,257559,1,2,0:0:0:0:
161,212,257642,1,0,1:0:0:0:
0,144,257809,5,8,0:0:0:0:
40,177,257892,1,2,0:0:0:0:
85,150,257976,1,8,0:1:0:0:
97,121,258059,1,8,0:1:0:0:
94,89,258142,1,8,0:1:0:0:
118,68,258226,1,8,0:1:0:0:
149,66,258309,6,0,P|179:71|213:100,2,70.0000026702882,10|2|2,0:1|0:0|0:0,0:0:0:0:
271,58,258642,5,2,0:0:0:0:
278,128,258754,1,2,0:0:0:0:
220,168,258865,1,2,0:0:0:0:
270,219,258976,6,0,P|308:228|352:255,2,70.0000026702882,2|2|2,1:0|0:0|0:0,0:0:0:0:
220,268,259309,2,0,P|191:271|149:290,2,70.0000026702882,10|2|2,0:0|0:0|0:0,0:0:0:0:
279,312,259642,6,0,L|388:326,1,105.000004005432,0|2,1:0|0:0,0:0:0:0:
465,301,259892,1,0,1:0:0:0:
465,301,259976,2,0,P|473:273|472:242,1,52.5000020027161,8|0,0:0|0:0,0:0:0:0:
408,200,260142,2,0,P|399:221|401:252,1,52.5000020027161,8|0,0:0|0:0,0:0:0:0:
493,144,260309,5,0,1:0:0:0:
463,132,260392,1,0,1:0:0:0:
433,120,260476,1,8,0:0:0:0:
356,44,260642,1,0,1:0:0:0:
325,53,260726,1,0,1:0:0:0:
295,63,260809,1,8,0:0:0:0:
265,73,260892,1,8,0:0:0:0:
235,84,260976,1,0,1:0:0:0:
205,95,261059,1,8,0:0:0:0:
175,106,261142,6,0,L|228:123,1,52.5000020027161,0|0,1:0|0:0,0:0:0:0:
300,148,261309,1,2,0:0:0:0:
227,289,261476,2,0,P|226:259|233:233,1,52.5000020027161,8|0,0:0|0:0,0:0:0:0:
307,276,261642,1,0,1:0:0:0:
321,326,261726,1,2,0:0:0:0:
334,376,261809,2,0,B|308:359|308:359|221:358,1,105.000004005432,8|8,0:0|0:0,0:0:0:0:
148,276,262059,5,8,0:0:0:0:
148,276,262142,1,8,0:0:0:0:
148,276,262226,1,2,0:0:0:0:
148,276,262309,2,0,P|104:310|110:362,1,105.000004005432,0|0,1:0|0:0,0:0:0:0:
225,277,262559,1,0,1:0:0:0:
225,277,262642,2,0,L|211:218,1,52.5000020027161,8|0,0:0|0:0,0:0:0:0:
157,175,262809,1,0,1:0:0:0:
275,37,262976,6,0,L|294:170,1,105.000004005432,0|8,1:0|0:0,0:0:0:0:
381,181,263226,1,2,0:0:0:0:
381,181,263309,2,0,L|368:121,1,52.5000020027161,8|0,0:0|0:0,0:0:0:0:
456,104,263476,1,8,0:0:0:0:
450,233,263642,5,8,0:1:0:0:
450,233,263726,1,8,0:1:0:0:
450,233,263809,2,0,L|511:242,1,52.5000020027161,2|0,1:0|0:0,0:0:0:0:
404,292,263976,2,0,L|346:300,1,52.5000020027161,2|0,0:0|1:0,0:0:0:0:
287,354,264142,1,8,0:0:0:0:
181,217,264309,6,0,L|191:284,1,52.5000020027161,0|0,1:0|1:0,0:0:0:0:
261,224,264476,2,0,L|251:165,1,52.5000020027161,8|0,0:0|0:0,0:0:0:0:
178,102,264642,1,2,0:0:0:0:
173,117,264726,1,2,0:0:0:0:
169,132,264809,1,2,0:0:0:0:
85,195,264976,6,0,L|111:344,1,105.000004005432,0|0,1:0|0:0,0:0:0:0:
166,357,265226,1,0,1:0:0:0:
166,357,265309,1,8,0:0:0:0:
254,292,265476,2,0,L|319:306,1,52.5000020027161,0|0,1:0|0:0,0:0:0:0:
380,365,265642,1,0,1:0:0:0:
432,356,265726,1,0,1:0:0:0:
470,320,265809,1,8,0:0:0:0:
473,267,265892,1,8,0:0:0:0:
441,224,265976,5,8,0:1:0:0:
430,212,266059,1,8,0:1:0:0:
421,198,266142,1,8,0:1:0:0:
418,182,266226,1,8,0:1:0:0:
421,166,266309,1,8,0:1:0:0:
428,152,266392,1,8,0:1:0:0:
440,142,266476,1,8,0:1:0:0:
320,18,266642,5,0,1:0:0:0:
306,46,266726,1,0,1:0:0:0:
301,76,266809,1,8,0:0:0:0:
311,105,266892,1,2,0:0:0:0:
329,130,266976,1,0,1:0:0:0:
338,159,267059,1,0,1:0:0:0:
337,190,267142,1,8,0:0:0:0:
327,220,267226,1,2,0:0:0:0:
305,243,267309,6,0,L|291:205,2,26.2500010013581,8|0|0,0:1|0:0|0:0,0:0:0:0:
355,327,267476,2,0,L|369:289,2,26.2500010013581,8|0|0,0:1|0:0|0:0,0:0:0:0:
278,343,267642,6,0,L|161:363,1,105.000004005432,0|0,1:0|0:0,0:0:0:0:
101,328,267892,1,0,1:0:0:0:
101,328,267976,1,8,0:0:0:0:
101,328,268059,1,2,0:0:0:0:
101,328,268142,1,0,1:0:0:0:
25,205,268309,5,0,1:0:0:0:
25,205,268392,1,0,1:0:0:0:
25,205,268476,2,0,B|35:241|74:246|74:246|184:222,1,157.500006008148,8|0,0:0|0:0,0:0:0:0:
216,163,268809,2,0,P|243:166|271:177,1,52.5000020027161,10|0,0:0|0:0,0:0:0:0:
312,234,268976,2,0,P|334:238|368:236,1,52.5000020027161,8|0,0:0|0:0,0:0:0:0:
430,197,269142,5,0,1:0:0:0:
383,54,269309,1,2,0:0:0:0:
376,84,269392,1,2,0:0:0:0:
369,115,269476,2,0,L|436:104,1,52.5000020027161,8|0,0:0|0:0,0:0:0:0:
311,45,269642,5,0,1:0:0:0:
279,38,269726,1,0,1:0:0:0:
248,33,269809,1,8,0:0:0:0:
150,96,269976,2,0,P|144:114|147:130,3,35.0000013351441,8|0|0|8,0:1|0:0|0:0|0:1,0:0:0:0:
206,171,270226,5,2,0:0:0:0:
206,171,270309,2,0,P|255:187|318:166,1,105.000004005432,0|0,1:0|0:0,0:0:0:0:
377,211,270559,1,0,1:0:0:0:
377,211,270642,2,0,L|358:282,1,52.5000020027161,8|0,0:0|0:0,0:0:0:0:
390,340,270809,1,0,1:0:0:0:
292,312,270976,5,0,1:0:0:0:
261,307,271059,1,0,1:0:0:0:
230,314,271142,2,0,P|202:302|176:298,3,35.0000013351441,8|0|0|0,0:0|0:0|0:0|0:0,0:0:0:0:
157,245,271392,1,2,0:0:0:0:
157,245,271476,2,0,P|149:218|154:183,1,52.5000020027161,2|0,0:0|0:0,0:0:0:0:
261,126,271642,6,0,P|268:93|276:75,2,35.0000013351441,2|0|0,0:0|0:0|0:0,0:0:0:0:
250,116,271809,2,0,P|248:82|251:62,2,35.0000013351441,2|0|0,1:0|0:0|0:0,0:0:0:0:
241,108,271976,2,0,P|230:75|228:56,2,35.0000013351441,2|0|0,0:0|0:0|0:0,0:0:0:0:
231,105,272142,2,0,P|212:76|205:58,2,35.0000013351441,10|0|0,0:0|0:0|0:0,0:0:0:0:
160,121,272309,5,0,1:0:0:0:
108,130,272392,1,0,1:0:0:0:
67,164,272476,1,8,0:0:0:0:
51,213,272559,1,2,0:0:0:0:
76,258,272642,5,8,0:0:0:0:
88,287,272726,1,8,0:0:0:0:
85,318,272809,2,0,L|29:301,1,52.5000020027161,8|0,0:0|0:0,0:0:0:0:
142,363,272976,6,0,P|196:356|226:302,1,105.000004005432,0|0,1:0|0:0,0:0:0:0:
209,246,273226,1,0,1:0:0:0:
209,246,273309,1,8,0:0:0:0:
361,170,273476,1,0,1:0:0:0:
268,120,273642,5,0,1:0:0:0:
272,151,273726,1,0,1:0:0:0:
276,181,273809,1,8,0:0:0:0:
282,211,273892,1,2,0:0:0:0:
288,242,273976,2,0,L|352:266,1,52.5000020027161,8|0,0:0|0:0,0:0:0:0:
452,225,274142,2,0,L|394:232,1,52.5000020027161,8|0,0:0|0:0,0:0:0:0:
410,319,274309,5,8,0:0:0:0:
410,319,274392,1,8,0:0:0:0:
410,319,274476,2,0,L|486:334,1,52.5000020027161,0|0,1:0|0:0,0:0:0:0:
297,374,274642,1,2,0:0:0:0:
297,374,274726,1,2,0:0:0:0:
297,374,274809,2,0,L|362:361,1,52.5000020027161,8|0,0:0|0:0,0:0:0:0:
219,304,274976,5,0,1:0:0:0:
189,314,275059,1,0,1:0:0:0:
160,326,275142,1,8,0:0:0:0:
56,243,275309,6,0,P|86:251|109:258,3,35.0000013351441,0|0|0|8,1:0|0:0|0:0|0:0,0:0:0:0:
163,214,275642,1,8,0:0:0:0:
121,157,275754,1,2,0:0:0:0:
155,95,275865,2,0,L|165:57,1,35.0000013351441,2|2,0:0|0:0,0:0:0:0:
230,26,275976,5,0,1:0:0:0:
297,79,276087,1,2,0:0:0:0:
297,79,276142,1,0,1:0:0:0:
468,47,276309,1,0,1:0:0:0:
468,47,276392,2,0,L|333:22,1,105.000004005432,0|0,1:0|0:0,0:0:0:0:
297,79,276642,2,0,B|303:109|303:109|364:121,1,70.0000026702882,2|0,0:0|0:0,0:0:0:0:
474,164,276865,2,0,B|467:133|467:133|406:121,1,70.0000026702882,2|0,0:0|0:0,0:0:0:0:
366,217,277087,5,2,0:0:0:0:
366,217,277142,2,0,L|347:327,1,105.000004005432,0|0,1:0|0:0,0:0:0:0:
348,320,277392,1,0,1:0:0:0:
348,320,277476,1,8,0:0:0:0:
422,360,277642,1,0,1:0:0:0:
422,360,277726,2,0,B|400:294|370:292|250:317,1,157.500006008148,0|2,1:0|0:0,0:0:0:0:
72,185,278142,1,8,0:0:0:0:
90,222,278225,1,8,0:0:0:0:
126,241,278309,1,0,1:0:0:0:
168,241,278392,1,2,0:0:0:0:
210,231,278476,6,0,B|170:142|247:166|197:47,1,157.500006008148,2|0,0:0|0:0,0:0:0:0:
208,78,278809,1,0,1:0:0:0:
127,13,278976,1,0,1:0:0:0:
20,99,279142,1,8,0:0:0:0:
72,185,279309,2,0,L|99:103,1,52.5000020027161,8|8,0:0|0:0,0:0:0:0:
126,222,279476,1,8,0:0:0:0:
30,283,279642,2,0,L|39:355,1,52.5000020027161,8|0,0:0|0:0,0:0:0:0:
94,366,279809,5,0,1:0:0:0:
135,367,279892,1,2,0:0:0:0:
173,348,279976,1,2,0:0:0:0:
205,321,280059,1,0,1:0:0:0:
215,280,280142,1,8,0:0:0:0:
252,131,280309,5,0,1:0:0:0:
298,222,280476,1,8,0:0:0:0:
398,238,280642,1,8,0:1:0:0:
474,77,280809,5,8,0:1:0:0:
410,41,280920,1,8,0:1:0:0:
410,41,280976,2,0,L|385:157,1,105.000004005432,0|0,1:0|0:0,0:0:0:0:
361,160,281226,1,0,1:0:0:0:
329,164,281309,1,8,0:0:0:0:
224,151,281476,1,0,1:0:0:0:
233,30,281642,6,0,L|272:44,1,26.2500010013581,0|0,1:0|0:0,0:0:0:0:
216,42,281726,2,0,L|253:43,1,26.2500010013581,0|0,1:0|0:0,0:0:0:0:
200,59,281809,2,0,L|235:55,1,26.2500010013581,8|0,0:0|0:0,0:0:0:0:
195,81,281892,2,0,L|228:74,1,26.2500010013581,2|0,0:0|0:0,0:0:0:0:
224,151,281976,5,8,0:0:0:0:
244,175,282059,1,8,0:0:0:0:
252,205,282142,2,0,P|248:233|225:263,1,52.5000020027161,8|0,0:0|0:0,0:0:0:0:
146,171,282309,5,8,0:0:0:0:
116,180,282392,1,8,0:0:0:0:
84,177,282476,2,0,P|48:168|27:147,1,52.5000020027161,0|0,1:0|0:0,0:0:0:0:
0,250,282642,2,0,P|19:271|34:300,1,52.5000020027161,2|0,0:0|1:0,0:0:0:0:
95,367,282809,2,0,P|108:335|128:309,1,52.5000020027161,8|0,0:0|0:0,0:0:0:0:
173,249,282976,5,0,1:0:0:0:
173,217,283059,1,0,1:0:0:0:
164,186,283142,1,8,0:0:0:0:
151,156,283226,1,2,0:0:0:0:
134,129,283309,2,0,L|107:113,2,26.2500010013581,8|0|0,0:1|0:0|0:0,0:0:0:0:
43,97,283476,2,0,L|16:113,2,26.2500010013581,8|0|0,0:1|0:0|0:0,0:0:0:0:
103,39,283642,6,0,B|134:24|134:24|275:62,1,157.500006008148,0|0,1:0|0:0,0:0:0:0:
291,75,283976,2,0,L|373:64,1,52.5000020027161,8|0,0:0|0:0,0:0:0:0:
427,106,284142,2,0,L|509:95,1,52.5000020027161,0|0,1:0|0:0,0:0:0:0:
380,217,284309,1,0,1:0:0:0:
348,213,284392,1,0,1:0:0:0:
316,210,284476,1,8,0:0:0:0:
284,206,284559,1,2,0:0:0:0:
251,246,284642,5,8,0:1:0:0:
301,228,284726,1,8,0:1:0:0:
304,175,284809,1,8,0:1:0:0:
255,155,284892,1,8,0:1:0:0:
220,195,284976,6,0,L|238:275,1,52.5000020027161,8|8,0:1|0:1,0:0:0:0:
264,358,285142,2,0,L|272:298,1,52.5000020027161,0|0,1:0|0:0,0:0:0:0:
128,253,285309,6,0,L|145:296,1,35,2|0,0:0|0:0,0:0:0:0:
158,344,285476,2,0,L|163:296,1,35,8|0,0:0|0:0,0:0:0:0:
64,217,285642,5,0,1:0:0:0:
16,240,285726,1,0,1:0:0:0:
1,290,285809,1,8,0:0:0:0:
6,341,285892,1,2,0:0:0:0:
52,365,285976,5,8,0:1:0:0:
62,340,286059,1,8,0:1:0:0:
72,316,286142,1,8,0:1:0:0:
82,291,286226,1,8,0:1:0:0:
92,266,286309,6,0,L|74:187,1,52.5000020027161,0|0,1:0|0:0,0:0:0:0:
112,155,286476,2,0,L|99:100,1,52.5000020027161,2|0,0:0|1:0,0:0:0:0:
118,29,286642,5,8,0:0:0:0:
167,51,286726,1,2,0:0:0:0:
216,33,286809,1,0,1:0:0:0:
259,62,286892,1,2,0:0:0:0:
261,114,286976,5,2,1:0:0:0:
320,150,287087,5,2,0:0:0:0:
318,219,287198,5,2,0:0:0:0:
378,253,287309,5,8,0:0:0:0:
393,250,287392,1,8,0:0:0:0:
408,248,287476,1,8,0:0:0:0:
423,245,287559,1,8,0:0:0:0:
458,222,287642,5,8,0:0:0:0:
443,219,287725,1,8,0:0:0:0:
428,217,287809,1,0,1:0:0:0:
413,214,287892,1,2,0:0:0:0:
389,178,287976,6,0,L|401:145,2,35.0000013351441,2|2|2,1:0|0:0|0:0,0:0:0:0:
343,89,288309,6,0,L|322:145,2,46.6666666666667,2|2|2,1:0|0:0|0:0,0:0:0:0:
259,87,288642,6,0,L|290:5,2,60.6666638895672,10|2|2,0:0|0:0|0:0,0:0:0:0:
202,134,288976,5,2,1:0:0:0:
141,99,289087,1,2,0:0:0:0:
76,125,289198,1,2,0:0:0:0:
145,125,289309,5,10,0:0:0:0:
195,173,289420,1,2,0:0:0:0:
200,242,289531,1,2,0:0:0:0:
149,193,289642,5,2,1:0:0:0:
78,200,289754,1,2,0:0:0:0:
42,260,289865,1,2,0:0:0:0:
50,271,289920,1,2,0:0:0:0:
97,322,290031,1,2,0:0:0:0:
128,259,290142,6,0,B|137:224|137:224|70:90,1,157.500006008148,2|0,0:0|0:0,0:0:0:0:
109,34,290476,5,0,1:0:0:0:
150,31,290559,1,2,0:0:0:0:
187,48,290642,1,2,0:0:0:0:
212,81,290726,1,0,1:0:0:0:
218,122,290809,2,0,B|270:53|295:115|395:109,1,157.500006008148,8|0,0:0|0:0,0:0:0:0:
479,161,291142,5,8,0:0:0:0:
438,158,291225,1,2,0:0:0:0:
401,175,291309,1,8,0:1:0:0:
376,208,291392,1,8,0:1:0:0:
370,249,291476,2,0,B|318:180|293:242|193:236,1,157.500006008148,2|0,0:0|0:0,0:0:0:0:
138,287,291809,6,0,L|158:342,1,52.5000020027161,2|0,0:0|1:0,0:0:0:0:
28,237,291976,2,0,L|48:292,1,52.5000020027161,8|0,0:0|0:0,0:0:0:0:
135,307,292142,2,0,L|155:362,1,52.5000020027161,0|0,1:0|0:0,0:0:0:0:
50,222,292309,5,0,1:0:0:0:
37,193,292392,1,0,1:0:0:0:
25,163,292476,1,8,0:0:0:0:
33,21,292642,5,8,0:0:0:0:
85,23,292726,1,8,0:0:0:0:
116,65,292809,1,8,0:0:0:0:
233,132,292976,5,8,0:0:0:0:
285,130,293060,1,8,0:0:0:0:
316,88,293142,1,0,1:0:0:0:
453,123,293309,5,2,0:0:0:0:
475,250,293476,2,0,L|493:201,1,52.5000020027161,8|0,0:0|0:0,0:0:0:0:
339,244,293642,5,0,1:0:0:0:
399,353,293809,2,0,L|396:282,1,52.5000020027161,8|0,0:0|0:0,0:0:0:0:
241,196,293976,6,0,L|176:243,1,52.5000020027161,8|0,0:1|0:0,0:0:0:0:
133,241,294142,2,0,L|59:220,1,52.5000020027161,8|0,0:1|0:0,0:0:0:0:
201,104,294309,6,0,B|147:149|147:149|37:115,1,157.500006008148,0|0,1:0|0:0,0:0:0:0:
0,99,294642,1,8,0:0:0:0:
230,38,294809,1,0,1:0:0:0:
295,235,294976,1,0,1:0:0:0:
295,235,295059,1,0,1:0:0:0:
295,235,295142,1,8,0:0:0:0:
55,307,295309,1,8,0:1:0:0:
81,261,295392,1,8,0:1:0:0:
108,215,295476,1,8,0:1:0:0:
137,172,295559,1,8,0:1:0:0:
164,127,295642,6,0,L|137:208,1,52.5000020027161,8|8,0:1|0:1,0:0:0:0:
276,22,295809,2,0,L|242:152,1,105.000004005432,0|0,1:0|1:0,0:0:0:0:
238,197,296059,1,0,1:0:0:0:
238,197,296142,1,8,0:0:0:0:
337,360,296309,2,0,L|315:235,1,105.000004005432,0|0,1:0|0:0,0:0:0:0:
318,189,296559,1,2,0:0:0:0:
357,175,296642,1,2,0:0:0:0:
398,183,296726,1,2,0:0:0:0:
421,217,296809,1,2,0:0:0:0:
425,258,296892,1,2,0:0:0:0:
458,283,296976,6,0,L|462:246,1,26.2500010013581,2|0,0:0|0:0,0:0:0:0:
469,292,297059,2,0,L|473:255,1,26.2500010013581,2|0,0:0|0:0,0:0:0:0:
441,325,297142,6,0,L|437:288,1,26.2500010013581,2|0,0:0|0:0,0:0:0:0:
430,334,297225,2,0,L|426:297,1,26.2500010013581,2|0,0:0|0:0,0:0:0:0:
469,358,297309,5,2,0:0:0:0:
256,192,297351,12,0,307142,0:0:0:0:
