osu file format v14

[General]
AudioFilename: audio.mp3
AudioLeadIn: 0
PreviewTime: 49575
Countdown: 0
SampleSet: Normal
StackLeniency: 0.7
Mode: 1
LetterboxInBreaks: 0
WidescreenStoryboard: 0

[Editor]
Bookmarks: 45181,151286,194233,201654,242285,251075
DistanceSpacing: 1.5
BeatDivisor: 8
GridSize: 32
TimelineZoom: 2.6

[Metadata]
Title:Pictured as Perfect and Plus
TitleUnicode:Pictured as Perfect and Plus
Artist:Frums
ArtistUnicode:Frums
Creator:woosungko
Version:Quintessential
Source:osu!
Tags:fa featured artist BMS Groundbreaking GdbG G2R2018 GO BACK 2 YOUR ROOTS 2018 CLIMAX COMPILATION ALBUM VII END DREAMS Seville Film Studio electronic instrumental breakcore ambient sv
BeatmapID:2806049
BeatmapSetID:1355838

[Difficulty]
HPDrainRate:5.5
CircleSize:2
OverallDifficulty:7.7
ApproachRate:10
SliderMultiplier:1.4
SliderTickRate:1

[Events]
//Background and Video events
0,0,"bg.jpg",0,0
//Break Periods
2,91918,99677
2,310644,313151
//Storyboard Layer 0 (Background)
//Storyboard Layer 1 (Fail)
//Storyboard Layer 2 (Pass)
//Storyboard Layer 3 (Foreground)
//Storyboard Layer 4 (Overlay)
//Storyboard Sound Samples

[TimingPoints]
3497,315.789473684211,4,1,0,20,1,0
3497,-28.5714285714286,4,1,0,20,0,0
4733,-100,4,1,0,70,0,0
4839,-102.040816326531,4,1,0,70,0,0
4891,-103.092783505155,4,1,0,70,0,0
4944,-104.166666666667,4,1,0,70,0,0
5049,-106.382978723404,4,1,0,70,0,0
5154,-108.695652173913,4,1,0,70,0,0
5260,-111.111111111111,4,1,0,70,0,0
5365,-113.636363636364,4,1,0,70,0,0
5575,-119.047619047619,4,1,0,70,0,0
5786,-125,4,1,0,70,0,0
5891,-128.205128205128,4,1,0,70,0,0
5997,-131.578947368421,4,1,0,70,0,0
6207,-138.888888888889,4,1,0,70,0,0
6418,-147.058823529412,4,1,0,70,0,0
6523,-151.515151515152,4,1,0,70,0,0
6628,-50,4,1,0,70,0,0
6681,-100,4,1,0,70,0,0
7312,-101.010101010101,4,1,0,70,0,0
7365,-102.040816326531,4,1,0,70,0,0
7470,-104.166666666667,4,1,0,70,0,0
7575,-106.382978723404,4,1,0,70,0,0
7681,-108.695652173913,4,1,0,70,0,0
7786,-111.111111111111,4,1,0,70,0,0
7891,-113.636363636364,4,1,0,70,0,0
7944,-114.942528735632,4,1,0,70,0,0
7997,-116.279069767442,4,1,0,70,0,0
8102,-119.047619047619,4,1,0,70,0,0
8154,-120.481927710843,4,1,0,70,0,0
8207,-121.951219512195,4,1,0,70,0,0
8312,-125,4,1,0,70,0,0
8418,-128.205128205128,4,1,0,70,0,0
8523,-131.578947368421,4,1,0,70,0,0
8628,-135.135135135135,4,1,0,70,0,0
8839,-142.857142857143,4,1,0,70,0,0
9049,-151.515151515152,4,1,0,70,0,0
9154,-50,4,1,0,70,0,0
9207,-100,4,1,0,70,0,0
9891,-102.040816326531,4,1,0,70,0,0
9997,-104.166666666667,4,1,0,70,0,0
10049,-105.263157894737,4,1,0,70,0,0
10102,-106.382978723404,4,1,0,70,0,0
10207,-108.695652173913,4,1,0,70,0,0
10312,-111.111111111111,4,1,0,70,0,0
10418,-113.636363636364,4,1,0,70,0,0
10523,-116.279069767442,4,1,0,70,0,0
10628,-119.047619047619,4,1,0,70,0,0
10681,-120.481927710843,4,1,0,70,0,0
10733,-121.951219512195,4,1,0,70,0,0
10839,-125,4,1,0,70,0,0
10944,-128.205128205128,4,1,0,70,0,0
11049,-131.578947368421,4,1,0,70,0,0
11154,-135.135135135135,4,1,0,70,0,0
11365,-142.857142857143,4,1,0,70,0,0
11470,-147.058823529412,4,1,0,70,0,0
11575,-151.515151515152,4,1,0,70,0,0
11681,-50,4,1,0,70,0,0
11733,-100,4,1,0,70,0,0
12365,-101.010101010101,4,1,0,70,0,0
12418,-102.040816326531,4,1,0,70,0,0
12470,-103.092783505155,4,1,0,70,0,0
12523,-104.166666666667,4,1,0,70,0,0
12628,-106.382978723404,4,1,0,70,0,0
12733,-108.695652173913,4,1,0,70,0,0
12839,-111.111111111111,4,1,0,70,0,0
12944,-113.636363636364,4,1,0,70,0,0
13049,-116.279069767442,4,1,0,70,0,0
13154,-119.047619047619,4,1,0,70,0,0
13207,-120.481927710843,4,1,0,70,0,0
13260,-121.951219512195,4,1,0,70,0,0
13365,-125,4,1,0,70,0,0
13470,-128.205128205128,4,1,0,70,0,0
13575,-131.578947368421,4,1,0,70,0,0
13681,-135.135135135135,4,1,0,70,0,0
13891,-142.857142857143,4,1,0,70,0,0
13997,-147.058823529412,4,1,0,70,0,0
14102,-151.515151515152,4,1,0,70,0,0
14207,-156.25,4,1,0,70,0,0
14418,-138.888888888889,4,1,0,70,0,0
14523,-135.135135135135,4,1,0,70,0,0
14628,-131.578947368421,4,1,0,70,0,0
14733,-128.205128205128,4,1,0,70,0,0
14839,-100,4,1,0,70,0,0
14944,-102.040816326531,4,1,0,70,0,0
14997,-103.092783505155,4,1,0,70,0,0
15049,-104.166666666667,4,1,0,70,0,0
15154,-106.382978723404,4,1,0,70,0,0
15260,-108.695652173913,4,1,0,70,0,0
15365,-111.111111111111,4,1,0,70,0,0
15470,-113.636363636364,4,1,0,70,0,0
15575,-116.279069767442,4,1,0,70,0,0
15628,-117.647058823529,4,1,0,70,0,0
15681,-119.047619047619,4,1,0,70,0,0
15786,-121.951219512195,4,1,0,70,0,0
15891,-125,4,1,0,70,0,0
15997,-128.205128205128,4,1,0,70,0,0
16102,-131.578947368421,4,1,0,70,0,0
16312,-138.888888888889,4,1,0,70,0,0
16470,-144.927536231884,4,1,0,70,0,0
16523,-147.058823529412,4,1,0,70,0,0
16628,-151.515151515152,4,1,0,70,0,0
16733,-50,4,1,0,70,0,0
16786,-100,4,1,0,70,0,0
17418,-101.010101010101,4,1,0,70,0,0
17470,-102.040816326531,4,1,0,70,0,0
17523,-103.092783505155,4,1,0,70,0,0
17575,-104.166666666667,4,1,0,70,0,0
17681,-106.382978723404,4,1,0,70,0,0
17786,-108.695652173913,4,1,0,70,0,0
17891,-111.111111111111,4,1,0,70,0,0
17997,-113.636363636364,4,1,0,70,0,0
18049,-114.942528735632,4,1,0,70,0,0
18102,-116.279069767442,4,1,0,70,0,0
18207,-119.047619047619,4,1,0,70,0,0
18260,-120.481927710843,4,1,0,70,0,0
18312,-121.951219512195,4,1,0,70,0,0
18418,-125,4,1,0,70,0,0
18523,-128.205128205128,4,1,0,70,0,0
18628,-131.578947368421,4,1,0,70,0,0
18733,-135.135135135135,4,1,0,70,0,0
18944,-142.857142857143,4,1,0,70,0,0
19154,-151.515151515152,4,1,0,70,0,0
19260,-50,4,1,0,70,0,0
19312,-100,4,1,0,70,0,0
19944,-101.010101010101,4,1,0,70,0,0
19997,-102.040816326531,4,1,0,70,0,0
20102,-104.166666666667,4,1,0,70,0,0
20154,-105.263157894737,4,1,0,70,0,0
20207,-106.382978723404,4,1,0,70,0,0
20312,-108.695652173913,4,1,0,70,0,0
20418,-111.111111111111,4,1,0,70,0,0
20523,-113.636363636364,4,1,0,70,0,0
20575,-114.942528735632,4,1,0,70,0,0
20628,-116.279069767442,4,1,0,70,0,0
20733,-119.047619047619,4,1,0,70,0,0
20839,-121.951219512195,4,1,0,70,0,0
20944,-125,4,1,0,70,0,0
21049,-128.205128205128,4,1,0,70,0,0
21154,-131.578947368421,4,1,0,70,0,0
21279,-136.986301369863,4,1,0,70,0,0
21398,-142.857142857143,4,1,0,70,0,0
21516,-149.253731343284,4,1,0,70,0,0
21575,-151.515151515152,4,1,0,70,0,0
21674,-158.730158730159,4,1,0,70,0,0
21786,-50,4,1,0,70,0,0
21839,-100,4,1,0,70,0,0
22470,-101.010101010101,4,1,0,70,0,0
22523,-102.040816326531,4,1,0,70,0,0
22575,-103.092783505155,4,1,0,70,0,0
22628,-104.166666666667,4,1,0,70,0,0
22733,-106.382978723404,4,1,0,70,0,0
22786,-107.52688172043,4,1,0,70,0,0
22839,-108.695652173913,4,1,0,70,0,0
22944,-111.111111111111,4,1,0,70,0,0
22997,-112.359550561798,4,1,0,70,0,0
23049,-113.636363636364,4,1,0,70,0,0
23154,-116.279069767442,4,1,0,70,0,0
23260,-119.047619047619,4,1,0,70,0,0
23312,-120.481927710843,4,1,0,70,0,0
23365,-121.951219512195,4,1,0,70,0,0
23470,-125,4,1,0,70,0,0
23575,-128.205128205128,4,1,0,70,0,0
23681,-131.578947368421,4,1,0,70,0,0
23845,-136.986301369863,4,1,0,70,0,0
24003,-142.857142857143,4,1,0,70,0,0
24161,-149.253731343284,4,1,0,70,0,0
24319,-142.857142857143,4,1,0,70,0,0
24365,-140.845070422535,4,1,0,70,0,0
24418,-138.888888888889,4,1,0,70,0,0
24470,-136.986301369863,4,1,0,70,0,0
24523,-135.135135135135,4,1,0,70,0,0
24628,-131.578947368421,4,1,0,70,0,0
24681,-129.87012987013,4,1,0,70,0,0
24733,-128.205128205128,4,1,0,70,0,0
24865,-123.456790123457,4,1,0,70,0,0
24944,-100,4,1,0,70,0,0
24997,-101.010101010101,4,1,0,70,0,0
25049,-102.040816326531,4,1,0,70,0,0
25102,-103.092783505155,4,1,0,70,0,0
25154,-104.166666666667,4,1,0,70,0,0
25260,-106.382978723404,4,1,0,70,0,0
25365,-108.695652173913,4,1,0,70,0,0
25470,-111.111111111111,4,1,0,70,0,0
25575,-113.636363636364,4,1,0,70,0,0
25628,-114.942528735632,4,1,0,70,0,0
25681,-116.279069767442,4,1,0,70,0,0
25786,-119.047619047619,4,1,0,70,0,0
25839,-120.481927710843,4,1,0,70,0,0
25891,-121.951219512195,4,1,0,70,0,0
25997,-125,4,1,0,70,0,0
26102,-128.205128205128,4,1,0,70,0,0
26207,-131.578947368421,4,1,0,70,0,0
26260,-133.333333333333,4,1,0,70,0,0
26312,-135.135135135135,4,1,0,70,0,0
26418,-138.888888888889,4,1,0,70,0,0
26523,-142.857142857143,4,1,0,70,0,0
26628,-147.058823529412,4,1,0,70,0,0
26733,-151.515151515152,4,1,0,70,0,0
26839,-50,4,1,0,70,0,0
26891,-100,4,1,0,70,0,0
27523,-101.010101010101,4,1,0,70,0,0
27575,-102.040816326531,4,1,0,70,0,0
27628,-103.092783505155,4,1,0,70,0,0
27681,-104.166666666667,4,1,0,70,0,0
27786,-106.382978723404,4,1,0,70,0,0
27891,-108.695652173913,4,1,0,70,0,0
27997,-111.111111111111,4,1,0,70,0,0
28049,-112.359550561798,4,1,0,70,0,0
28102,-113.636363636364,4,1,0,70,0,0
28207,-116.279069767442,4,1,0,70,0,0
28312,-119.047619047619,4,1,0,70,0,0
28365,-120.481927710843,4,1,0,70,0,0
28418,-121.951219512195,4,1,0,70,0,0
28470,-123.456790123457,4,1,0,70,0,0
28523,-125,4,1,0,70,0,0
28628,-128.205128205128,4,1,0,70,0,0
28733,-131.578947368421,4,1,0,70,0,0
28839,-135.135135135135,4,1,0,70,0,0
28891,-136.986301369863,4,1,0,70,0,0
28944,-138.888888888889,4,1,0,70,0,0
29049,-142.857142857143,4,1,0,70,0,0
29102,-144.927536231884,4,1,0,70,0,0
29154,-147.058823529412,4,1,0,70,0,0
29260,-151.515151515152,4,1,0,70,0,0
29365,-50,4,1,0,70,0,0
29549,-57.1428571428571,4,1,0,70,0,0
29602,-100,4,1,0,70,0,0
30049,-101.010101010101,4,1,0,70,0,0
30102,-102.040816326531,4,1,0,70,0,0
30207,-104.166666666667,4,1,0,70,0,0
30260,-105.263157894737,4,1,0,70,0,0
30312,-106.382978723404,4,1,0,70,0,0
30418,-108.695652173913,4,1,0,70,0,0
30523,-111.111111111111,4,1,0,70,0,0
30628,-113.636363636364,4,1,0,70,0,0
30681,-114.942528735632,4,1,0,70,0,0
30733,-116.279069767442,4,1,0,70,0,0
30839,-119.047619047619,4,1,0,70,0,0
30944,-121.951219512195,4,1,0,70,0,0
31049,-125,4,1,0,70,0,0
31154,-128.205128205128,4,1,0,70,0,0
31260,-131.578947368421,4,1,0,70,0,0
31365,-135.135135135135,4,1,0,70,0,0
31418,-136.986301369863,4,1,0,70,0,0
31470,-138.888888888889,4,1,0,70,0,0
31575,-142.857142857143,4,1,0,70,0,0
31681,-147.058823529412,4,1,0,70,0,0
31786,-151.515151515152,4,1,0,70,0,0
31891,-50,4,1,0,70,0,0
31944,-100,4,1,0,70,0,0
32575,-101.010101010101,4,1,0,70,0,0
32628,-102.040816326531,4,1,0,70,0,0
32681,-103.092783505155,4,1,0,70,0,0
32733,-104.166666666667,4,1,0,70,0,0
32839,-106.382978723404,4,1,0,70,0,0
32944,-108.695652173913,4,1,0,70,0,0
33049,-111.111111111111,4,1,0,70,0,0
33102,-112.359550561798,4,1,0,70,0,0
33154,-113.636363636364,4,1,0,70,0,0
33260,-116.279069767442,4,1,0,70,0,0
33365,-119.047619047619,4,1,0,70,0,0
33418,-120.481927710843,4,1,0,70,0,0
33470,-121.951219512195,4,1,0,70,0,0
33575,-125,4,1,0,70,0,0
33681,-128.205128205128,4,1,0,70,0,0
33786,-131.578947368421,4,1,0,70,0,0
33891,-135.135135135135,4,1,0,70,0,0
33944,-136.986301369863,4,1,0,70,0,0
33997,-138.888888888889,4,1,0,70,0,0
34102,-142.857142857143,4,1,0,70,0,0
34154,-144.927536231884,4,1,0,70,0,0
34207,-147.058823529412,4,1,0,70,0,0
34312,-151.515151515152,4,1,0,70,0,0
34418,-147.058823529412,4,1,0,70,0,0
34470,-144.927536231884,4,1,0,70,0,0
34523,-142.857142857143,4,1,0,70,0,0
34575,-140.845070422535,4,1,0,70,0,0
34628,-138.888888888889,4,1,0,70,0,0
34733,-135.135135135135,4,1,0,70,0,0
34839,-131.578947368421,4,1,0,70,0,0
34944,-128.205128205128,4,1,0,70,0,0
35049,-100,4,1,0,70,0,0
35102,-101.010101010101,4,1,0,70,0,0
35154,-102.040816326531,4,1,0,70,0,0
35207,-103.092783505155,4,1,0,70,0,0
35260,-104.166666666667,4,1,0,70,0,0
35365,-106.382978723404,4,1,0,70,0,0
35470,-108.695652173913,4,1,0,70,0,0
35523,-109.89010989011,4,1,0,70,0,0
35575,-111.111111111111,4,1,0,70,0,0
35681,-113.636363636364,4,1,0,70,0,0
35733,-114.942528735632,4,1,0,70,0,0
35786,-116.279069767442,4,1,0,70,0,0
35891,-119.047619047619,4,1,0,70,0,0
35997,-121.951219512195,4,1,0,70,0,0
36049,-123.456790123457,4,1,0,70,0,0
36102,-125,4,1,0,70,0,0
36207,-128.205128205128,4,1,0,70,0,0
36260,-129.87012987013,4,1,0,70,0,0
36312,-131.578947368421,4,1,0,70,0,0
36418,-135.135135135135,4,1,0,70,0,0
36523,-138.888888888889,4,1,0,70,0,0
36628,-142.857142857143,4,1,0,70,0,0
36733,-147.058823529412,4,1,0,70,0,0
36839,-151.515151515152,4,1,0,70,0,0
36944,-50,4,1,0,70,0,0
36997,-100,4,1,0,70,0,0
37628,-101.010101010101,4,1,0,70,0,0
37681,-102.040816326531,4,1,0,70,0,0
37733,-103.092783505155,4,1,0,70,0,0
37786,-104.166666666667,4,1,0,70,0,0
37891,-106.382978723404,4,1,0,70,0,0
37997,-108.695652173913,4,1,0,70,0,0
38102,-111.111111111111,4,1,0,70,0,0
38207,-113.636363636364,4,1,0,70,0,0
38260,-114.942528735632,4,1,0,70,0,0
38312,-116.279069767442,4,1,0,70,0,0
38418,-119.047619047619,4,1,0,70,0,0
38523,-121.951219512195,4,1,0,70,0,0
38575,-123.456790123457,4,1,0,70,0,0
38628,-125,4,1,0,70,0,0
38733,-128.205128205128,4,1,0,70,0,0
38786,-129.87012987013,4,1,0,70,0,0
38839,-131.578947368421,4,1,0,70,0,0
38944,-135.135135135135,4,1,0,70,0,0
39049,-138.888888888889,4,1,0,70,0,0
39154,-142.857142857143,4,1,0,70,0,0
39260,-147.058823529412,4,1,0,70,0,0
39365,-151.515151515152,4,1,0,70,0,0
39470,-50,4,1,0,70,0,0
39523,-100,4,1,0,70,0,0
40154,-101.010101010101,4,1,0,70,0,0
40207,-102.040816326531,4,1,0,70,0,0
40260,-103.092783505155,4,1,0,70,0,0
40312,-104.166666666667,4,1,0,70,0,0
40418,-106.382978723404,4,1,0,70,0,0
40523,-108.695652173913,4,1,0,70,0,0
40628,-111.111111111111,4,1,0,70,0,0
40733,-113.636363636364,4,1,0,70,0,0
40786,-114.942528735632,4,1,0,70,0,0
40839,-116.279069767442,4,1,0,70,0,0
40944,-119.047619047619,4,1,0,70,0,0
41049,-121.951219512195,4,1,0,70,0,0
41102,-123.456790123457,4,1,0,70,0,0
41154,-125,4,1,0,70,0,0
41260,-128.205128205128,4,1,0,70,0,0
41312,-129.87012987013,4,1,0,70,0,0
41365,-131.578947368421,4,1,0,70,0,0
41470,-135.135135135135,4,1,0,70,0,0
41575,-138.888888888889,4,1,0,70,0,0
41681,-142.857142857143,4,1,0,70,0,0
41786,-147.058823529412,4,1,0,70,0,0
41891,-151.515151515152,4,1,0,70,0,0
41997,-50,4,1,0,70,0,0
42049,-100,4,1,0,70,0,0
42681,-101.010101010101,4,1,0,70,0,0
42733,-102.040816326531,4,1,0,70,0,0
42786,-103.092783505155,4,1,0,70,0,0
42839,-104.166666666667,4,1,0,70,0,0
42944,-106.382978723404,4,1,0,70,0,0
43049,-108.695652173913,4,1,0,70,0,0
43154,-111.111111111111,4,1,0,70,0,0
43260,-113.636363636364,4,1,0,70,0,0
43312,-114.942528735632,4,1,0,70,0,0
43365,-116.279069767442,4,1,0,70,0,0
43470,-119.047619047619,4,1,0,70,0,0
43575,-121.951219512195,4,1,0,70,0,0
43628,-123.456790123457,4,1,0,70,0,0
43681,-125,4,1,0,70,0,0
43786,-128.205128205128,4,1,0,70,0,0
43839,-129.87012987013,4,1,0,70,0,0
43891,-131.578947368421,4,1,0,70,0,0
43997,-135.135135135135,4,1,0,70,0,0
44102,-138.888888888889,4,1,0,70,0,0
44207,-142.857142857143,4,1,0,70,0,0
44312,-147.058823529412,4,1,0,70,0,0
44418,-151.515151515152,4,1,0,70,0,0
44523,-147.058823529412,4,1,0,70,0,0
44628,-142.857142857143,4,1,0,70,0,0
44681,-140.845070422535,4,1,0,70,0,0
44733,-138.888888888889,4,1,0,70,0,0
44839,-135.135135135135,4,1,0,70,0,0
44944,-131.578947368421,4,1,0,70,0,0
45075,-126.582278481013,4,1,0,70,0,0
45154,-125,4,1,0,75,0,0
45207,-123.456790123457,4,1,0,75,0,0
45260,-121.951219512195,4,1,0,75,0,0
45365,-119.047619047619,4,1,0,75,0,0
45418,-117.647058823529,4,1,0,75,0,0
45470,-116.279069767442,4,1,0,75,0,0
45575,-113.636363636364,4,1,0,75,0,0
45628,-112.359550561798,4,1,0,75,0,0
45681,-111.111111111111,4,1,0,75,0,0
45786,-108.695652173913,4,1,0,75,0,0
45839,-107.52688172043,4,1,0,75,0,0
45891,-106.382978723404,4,1,0,75,0,0
45997,-104.166666666667,4,1,0,75,0,0
46049,-103.092783505155,4,1,0,75,0,0
46102,-102.040816326531,4,1,0,75,0,0
46207,-100,4,1,0,75,0,0
46260,-99.009900990099,4,1,0,75,0,0
46312,-98.0392156862745,4,1,0,75,0,0
46418,-96.1538461538461,4,1,0,75,0,0
46470,-95.2380952380952,4,1,0,75,0,0
46523,-94.3396226415094,4,1,0,75,0,0
46628,-92.5925925925926,4,1,0,75,0,0
46681,-91.743119266055,4,1,0,75,0,0
46733,-90.9090909090909,4,1,0,75,0,0
46839,-89.2857142857143,4,1,0,75,0,0
46891,-88.4955752212389,4,1,0,75,0,0
46944,-87.719298245614,4,1,0,75,0,0
47049,-86.2068965517241,4,1,0,75,0,0
47102,-85.4700854700855,4,1,0,75,0,0
47154,-84.7457627118644,4,1,0,75,0,0
47260,-83.3333333333333,4,1,0,75,0,0
47312,-82.6446280991736,4,1,0,75,0,0
47365,-81.9672131147541,4,1,0,75,0,0
47470,-80.6451612903226,4,1,0,75,0,0
47523,-80,4,1,0,75,0,0
47575,-79.3650793650794,4,1,0,75,0,0
47681,-78.125,4,1,0,75,0,0
47733,-77.5193798449612,4,1,0,75,0,0
47786,-76.9230769230769,4,1,0,75,0,0
47839,-76.3358778625954,4,1,0,75,0,0
47891,-75.7575757575758,4,1,0,75,0,0
47944,-75.187969924812,4,1,0,75,0,0
47997,-74.6268656716418,4,1,0,75,0,0
48049,-74.0740740740741,4,1,0,75,0,0
48102,-73.5294117647059,4,1,0,75,0,0
48154,-72.992700729927,4,1,0,75,0,0
48207,-72.463768115942,4,1,0,75,0,0
48260,-71.9424460431655,4,1,0,75,0,0
48312,-71.4285714285714,4,1,0,75,0,0
48365,-70.9219858156028,4,1,0,75,0,0
48418,-70.4225352112676,4,1,0,75,0,0
48470,-69.9300699300699,4,1,0,75,0,0
48523,-69.4444444444444,4,1,0,75,0,0
48575,-68.9655172413793,4,1,0,75,0,0
48628,-33.3333333333333,4,1,0,80,0,0
49575,-66.6666666666667,4,1,0,85,0,0
49681,-68.4931506849315,4,1,0,85,0,0
49786,-70.4225352112676,4,1,0,85,0,0
49839,-71.4285714285714,4,1,0,85,0,0
49891,-72.463768115942,4,1,0,85,0,0
49944,-73.5294117647059,4,1,0,85,0,0
49997,-74.6268656716418,4,1,0,85,0,0
50049,-75.7575757575758,4,1,0,85,0,0
50102,-76.9230769230769,4,1,0,85,0,0
50154,-78.125,4,1,0,85,0,0
50207,-79.3650793650794,4,1,0,85,0,0
50233,315.789473684211,4,1,0,85,1,8
50233,-79.3650793650794,4,1,0,85,0,0
50825,-90.9090909090909,4,1,0,90,0,0
50865,315.789473684211,4,1,0,90,1,1
50865,-92.5925925925926,4,1,0,90,0,1
50891,-100,4,1,0,90,0,1
51259,-98.0392156862745,4,1,0,90,0,1
51286,-100,4,1,0,90,0,1
52128,-92.5925925925926,4,1,0,90,0,1
52154,-100,4,1,0,90,0,1
52522,-98.0392156862745,4,1,0,90,0,1
52549,-100,4,1,0,90,0,1
53391,-92.5925925925926,4,1,0,90,0,1
53417,-100,4,1,0,90,0,1
53786,-98.0392156862745,4,1,0,90,0,1
53812,-100,4,1,0,90,0,1
54654,-92.5925925925926,4,1,0,90,0,1
54680,-100,4,1,0,90,0,1
55049,-98.0392156862745,4,1,0,90,0,1
55075,-100,4,1,0,90,0,1
55917,-92.5925925925926,4,1,0,90,0,1
55943,-100,4,1,0,90,0,1
56312,-98.0392156862745,4,1,0,90,0,1
56338,-100,4,1,0,90,0,1
57180,-92.5925925925926,4,1,0,90,0,1
57207,-100,4,1,0,90,0,1
57575,-98.0392156862745,4,1,0,90,0,1
57601,-100,4,1,0,90,0,1
58443,-92.5925925925926,4,1,0,90,0,1
58470,-100,4,1,0,90,0,1
58838,-98.0392156862745,4,1,0,90,0,1
58865,-100,4,1,0,90,0,1
59707,-92.5925925925926,4,1,0,90,0,1
59733,-100,4,1,0,90,0,1
60101,-98.0392156862745,4,1,0,90,0,1
60128,-100,4,1,0,90,0,1
60970,-92.5925925925926,4,1,0,90,0,1
60996,-100,4,1,0,90,0,1
61365,-98.0392156862745,4,1,0,90,0,1
61391,-100,4,1,0,90,0,1
62233,-92.5925925925926,4,1,0,90,0,1
62259,-100,4,1,0,90,0,1
62628,-98.0392156862745,4,1,0,90,0,1
62654,-100,4,1,0,90,0,1
63496,-92.5925925925926,4,1,0,90,0,1
63522,-100,4,1,0,90,0,1
63891,-98.0392156862745,4,1,0,90,0,1
63917,-100,4,1,0,90,0,1
64759,-92.5925925925926,4,1,0,90,0,1
64786,-100,4,1,0,90,0,1
65154,-98.0392156862745,4,1,0,90,0,1
65180,-100,4,1,0,90,0,1
66022,-92.5925925925926,4,1,0,90,0,1
66049,-100,4,1,0,90,0,1
66417,-98.0392156862745,4,1,0,90,0,1
66443,-100,4,1,0,90,0,1
67286,-98.0392156862745,4,1,0,90,0,1
67345,-96.1538461538461,4,1,0,90,0,1
67443,-94.3396226415094,4,1,0,90,0,1
67522,-91.743119266055,4,1,0,90,0,1
67621,-90.4977375565611,4,1,0,90,0,1
67680,-89.6860986547085,4,1,0,90,0,1
67707,-100,4,1,0,90,0,1
67898,-25.0000000000001,4,1,0,90,0,1
67917,-25.0000000000001,4,1,0,90,0,0
68522,-28.5714285714286,4,1,0,90,0,0
69161,-32.2580645161291,4,1,0,90,0,0
69786,-35.7142857142857,4,1,0,90,0,0
70424,-75.7575757575758,4,1,0,90,0,0
70470,-76.9230769230769,4,1,0,90,0,0
70523,-78.125,4,1,0,90,0,0
70575,-79.3650793650794,4,1,0,90,0,0
70628,-80.6451612903226,4,1,0,90,0,0
70681,-81.9672131147541,4,1,0,90,0,0
70733,-83.3333333333333,4,1,0,90,0,0
70786,-84.7457627118644,4,1,0,90,0,0
70839,-86.2068965517241,4,1,0,90,0,0
70891,-87.719298245614,4,1,0,90,0,0
70944,-89.2857142857143,4,1,0,90,0,0
70997,-90.9090909090909,4,1,0,90,0,0
71075,-92.5925925925926,4,1,0,90,0,1
71101,-100,4,1,0,90,0,1
71469,-98.0392156862745,4,1,0,90,0,1
71496,-100,4,1,0,90,0,1
72338,-92.5925925925926,4,1,0,90,0,1
72364,-100,4,1,0,90,0,1
72732,-98.0392156862745,4,1,0,90,0,1
72759,-100,4,1,0,90,0,1
73601,-92.5925925925926,4,1,0,90,0,1
73627,-100,4,1,0,90,0,1
73996,-98.0392156862745,4,1,0,90,0,1
74022,-100,4,1,0,90,0,1
74864,-92.5925925925926,4,1,0,90,0,1
74890,-100,4,1,0,90,0,1
75259,-98.0392156862745,4,1,0,90,0,1
75285,-100,4,1,0,90,0,1
76127,-92.5925925925926,4,1,0,90,0,1
76153,-100,4,1,0,90,0,1
76522,-98.0392156862745,4,1,0,90,0,1
76548,-100,4,1,0,90,0,1
77390,-92.5925925925926,4,1,0,90,0,1
77417,-100,4,1,0,90,0,1
77785,-98.0392156862745,4,1,0,90,0,1
77811,-100,4,1,0,90,0,1
78653,-92.5925925925926,4,1,0,90,0,1
78680,-100,4,1,0,90,0,1
79048,-98.0392156862745,4,1,0,90,0,1
79075,-100,4,1,0,90,0,1
79917,-92.5925925925926,4,1,0,90,0,1
79943,-100,4,1,0,90,0,1
80311,-98.0392156862745,4,1,0,90,0,1
80338,-100,4,1,0,90,0,1
81180,-92.5925925925926,4,1,0,90,0,1
81206,-100,4,1,0,90,0,1
81575,-98.0392156862745,4,1,0,90,0,1
81601,-100,4,1,0,90,0,1
82443,-92.5925925925926,4,1,0,90,0,1
82469,-100,4,1,0,90,0,1
82838,-98.0392156862745,4,1,0,90,0,1
82864,-100,4,1,0,90,0,1
83706,-92.5925925925926,4,1,0,90,0,1
83732,-100,4,1,0,90,0,1
84101,-98.0392156862745,4,1,0,90,0,1
84127,-100,4,1,0,90,0,1
84969,-92.5925925925926,4,1,0,90,0,1
84996,-100,4,1,0,90,0,1
85364,-98.0392156862745,4,1,0,90,0,1
85390,-100,4,1,0,90,0,1
86232,-92.5925925925926,4,1,0,90,0,1
86259,-100,4,1,0,90,0,1
86627,-98.0392156862745,4,1,0,90,0,1
86653,-100,4,1,0,90,0,1
87496,-98.0392156862745,4,1,0,90,0,1
87555,-96.1538461538461,4,1,0,90,0,1
87653,-94.3396226415094,4,1,0,90,0,1
87732,-91.743119266055,4,1,0,90,0,1
87831,-90.4977375565611,4,1,0,90,0,1
87890,-89.6860986547085,4,1,0,90,0,1
87917,-100,4,1,0,90,0,1
88108,-62.5,4,1,0,90,0,1
88733,-47.6190476190476,4,1,0,90,0,1
89372,-38.4615384615385,4,1,0,90,0,1
89996,-32.258064516129,4,1,0,90,0,1
90635,-50,4,1,0,80,0,1
90654,315.789473684211,4,1,0,80,1,0
90654,-50,4,1,0,80,0,0
91266,-55.5555555555556,4,1,0,70,0,0
91891,-100,4,1,0,5,0,0
100102,-41.6666666666667,4,1,0,90,0,0
100732,-58.8235294117647,4,1,0,80,0,0
101364,-66.6666666666667,4,1,0,80,0,0
101470,-68.4931506849315,4,1,0,80,0,0
101575,-70.4225352112676,4,1,0,80,0,0
101681,-72.463768115942,4,1,0,80,0,0
101786,-74.6268656716418,4,1,0,80,0,0
101891,-76.9230769230769,4,1,0,80,0,0
101997,-79.3650793650794,4,1,0,80,0,0
102102,-81.9672131147541,4,1,0,80,0,0
102207,-84.7457627118644,4,1,0,80,0,0
102312,-87.719298245614,4,1,0,80,0,0
102418,-90.9090909090909,4,1,0,80,0,0
102523,-94.3396226415094,4,1,0,80,0,0
102628,-98.0392156862745,4,1,0,80,0,0
102733,-102.040816326531,4,1,0,80,0,0
102839,-106.382978723404,4,1,0,80,0,0
102944,-111.111111111111,4,1,0,80,0,0
103049,-116.279069767442,4,1,0,80,0,0
103154,-121.951219512195,4,1,0,80,0,0
103260,-58.8235294117647,4,1,0,80,0,0
103890,-66.6666666666667,4,1,0,80,0,0
103997,-68.4931506849315,4,1,0,80,0,0
104102,-70.4225352112676,4,1,0,80,0,0
104207,-72.463768115942,4,1,0,80,0,0
104312,-74.6268656716418,4,1,0,80,0,0
104418,-76.9230769230769,4,1,0,80,0,0
104523,-79.3650793650794,4,1,0,80,0,0
104628,-81.9672131147541,4,1,0,80,0,0
104733,-84.7457627118644,4,1,0,80,0,0
104839,-87.719298245614,4,1,0,80,0,0
104944,-90.9090909090909,4,1,0,80,0,0
105049,-94.3396226415094,4,1,0,80,0,0
105154,-98.0392156862745,4,1,0,80,0,0
105260,-102.040816326531,4,1,0,80,0,0
105365,-106.382978723404,4,1,0,80,0,0
105470,-111.111111111111,4,1,0,80,0,0
105575,-116.279069767442,4,1,0,80,0,0
105628,-119.047619047619,4,1,0,80,0,0
105681,-121.951219512195,4,1,0,80,0,0
105786,-58.8235294117647,4,1,0,80,0,0
106417,-66.6666666666667,4,1,0,80,0,0
106523,-68.4931506849315,4,1,0,80,0,0
106628,-70.4225352112676,4,1,0,80,0,0
106733,-72.463768115942,4,1,0,80,0,0
106839,-74.6268656716418,4,1,0,80,0,0
106944,-76.9230769230769,4,1,0,80,0,0
107049,-79.3650793650794,4,1,0,80,0,0
107154,-81.9672131147541,4,1,0,80,0,0
107260,-84.7457627118644,4,1,0,80,0,0
107365,-87.719298245614,4,1,0,80,0,0
107470,-90.9090909090909,4,1,0,80,0,0
107575,-94.3396226415094,4,1,0,80,0,0
107681,-98.0392156862745,4,1,0,80,0,0
107786,-102.040816326531,4,1,0,80,0,0
107891,-106.382978723404,4,1,0,80,0,0
107997,-111.111111111111,4,1,0,80,0,0
108102,-116.279069767442,4,1,0,80,0,0
108207,-121.951219512195,4,1,0,80,0,0
108312,-66.6666666666667,4,1,0,80,0,0
108418,-68.4931506849315,4,1,0,80,0,0
108523,-70.4225352112676,4,1,0,80,0,0
108628,-72.463768115942,4,1,0,80,0,0
108733,-74.6268656716418,4,1,0,80,0,0
108839,-76.9230769230769,4,1,0,80,0,0
108944,-79.3650793650794,4,1,0,80,0,0
109049,-66.6666666666667,4,1,0,80,0,0
109154,-68.4931506849315,4,1,0,80,0,0
109260,-70.4225352112676,4,1,0,80,0,0
109365,-72.463768115942,4,1,0,80,0,0
109470,-74.6268656716418,4,1,0,80,0,0
109575,-66.6666666666667,4,1,0,80,0,0
109681,-68.4931506849315,4,1,0,80,0,0
109786,-70.4225352112676,4,1,0,80,0,0
109891,-66.6666666666667,4,1,0,80,0,0
109997,-68.4931506849315,4,1,0,80,0,0
110102,-70.4225352112676,4,1,0,80,0,0
110207,-66.6666666666667,4,1,0,80,0,0
110312,-68.4931506849315,4,1,0,80,0,0
110418,-64.9350649350649,4,1,0,80,0,0
110523,-63.2911392405063,4,1,0,80,0,0
110628,-61.7283950617284,4,1,0,80,0,0
110733,-60.2409638554217,4,1,0,80,0,0
110839,-58.8235294117647,4,1,0,80,0,0
111470,-66.6666666666667,4,1,0,80,0,0
111575,-68.4931506849315,4,1,0,80,0,0
111681,-70.4225352112676,4,1,0,80,0,0
111786,-72.463768115942,4,1,0,80,0,0
111891,-74.6268656716418,4,1,0,80,0,0
111997,-76.9230769230769,4,1,0,80,0,0
112102,-79.3650793650794,4,1,0,80,0,0
112207,-81.9672131147541,4,1,0,80,0,0
112312,-84.7457627118644,4,1,0,80,0,0
112418,-87.719298245614,4,1,0,80,0,0
112523,-90.9090909090909,4,1,0,80,0,0
112628,-94.3396226415094,4,1,0,80,0,0
112681,-96.1538461538461,4,1,0,80,0,0
112733,-98.0392156862745,4,1,0,80,0,0
112839,-102.040816326531,4,1,0,80,0,0
112944,-106.382978723404,4,1,0,80,0,0
113049,-111.111111111111,4,1,0,80,0,0
113154,-116.279069767442,4,1,0,80,0,0
113260,-121.951219512195,4,1,0,80,0,0
113365,-58.8235294117647,4,1,0,80,0,0
113996,-66.6666666666667,4,1,0,80,0,0
114102,-68.4931506849315,4,1,0,80,0,0
114154,-69.4444444444444,4,1,0,80,0,0
114207,-70.4225352112676,4,1,0,80,0,0
114312,-72.463768115942,4,1,0,80,0,0
114418,-74.6268656716418,4,1,0,80,0,0
114523,-76.9230769230769,4,1,0,80,0,0
114628,-79.3650793650794,4,1,0,80,0,0
114733,-81.9672131147541,4,1,0,80,0,0
114839,-84.7457627118644,4,1,0,80,0,0
114944,-87.719298245614,4,1,0,80,0,0
115049,-90.9090909090909,4,1,0,80,0,0
115154,-94.3396226415094,4,1,0,80,0,0
115260,-98.0392156862745,4,1,0,80,0,0
115365,-102.040816326531,4,1,0,80,0,0
115470,-106.382978723404,4,1,0,80,0,0
115523,-108.695652173913,4,1,0,80,0,0
115575,-111.111111111111,4,1,0,80,0,0
115681,-116.279069767442,4,1,0,80,0,0
115786,-121.951219512195,4,1,0,80,0,0
115891,-58.8235294117647,4,1,0,80,0,0
116522,-66.6666666666667,4,1,0,80,0,0
116575,-67.5675675675676,4,1,0,80,0,0
116628,-68.4931506849315,4,1,0,80,0,0
116681,-69.4444444444444,4,1,0,80,0,0
116733,-70.4225352112676,4,1,0,80,0,0
116839,-72.463768115942,4,1,0,80,0,0
116944,-74.6268656716418,4,1,0,80,0,0
117049,-76.9230769230769,4,1,0,80,0,0
117154,-79.3650793650794,4,1,0,80,0,0
117260,-81.9672131147541,4,1,0,80,0,0
117365,-84.7457627118644,4,1,0,80,0,0
117470,-87.719298245614,4,1,0,80,0,0
117575,-90.9090909090909,4,1,0,80,0,0
117628,-92.5925925925926,4,1,0,80,0,0
117681,-94.3396226415094,4,1,0,80,0,0
117786,-98.0392156862745,4,1,0,80,0,0
117891,-102.040816326531,4,1,0,80,0,0
117997,-106.382978723404,4,1,0,80,0,0
118102,-111.111111111111,4,1,0,80,0,0
118207,-116.279069767442,4,1,0,80,0,0
118312,-121.951219512195,4,1,0,80,0,0
118365,-125,4,1,0,80,0,0
118418,-66.6666666666667,4,1,0,80,0,0
118523,-68.4931506849315,4,1,0,80,0,0
118628,-70.4225352112676,4,1,0,80,0,0
118733,-72.463768115942,4,1,0,80,0,0
118839,-74.6268656716418,4,1,0,80,0,0
118944,-76.9230769230769,4,1,0,80,0,0
119049,-66.6666666666667,4,1,0,80,0,0
119154,-68.4931506849315,4,1,0,80,0,0
119260,-70.4225352112676,4,1,0,80,0,0
119365,-72.463768115942,4,1,0,80,0,0
119418,-73.5294117647059,4,1,0,80,0,0
119470,-74.6268656716418,4,1,0,80,0,0
119523,-75.7575757575758,4,1,0,80,0,0
119575,-76.9230769230769,4,1,0,80,0,0
119681,-66.6666666666667,4,1,0,80,0,0
119997,-60.6060606060606,4,1,0,80,0,0
120312,-55.5555555555556,4,1,0,80,0,0
120523,-52.6315789473684,4,1,0,80,0,0
120733,-50,4,1,0,80,0,0
120839,-48.780487804878,4,1,0,80,0,0
120944,-47.6190476190476,4,1,0,80,0,0
121365,-63.2911392405063,4,1,0,80,0,0
121575,-66.6666666666667,4,1,0,80,0,0
121628,-67.5675675675676,4,1,0,80,0,0
121681,-68.4931506849315,4,1,0,80,0,0
121786,-70.4225352112676,4,1,0,80,0,0
121891,-72.463768115942,4,1,0,80,0,0
121997,-74.6268656716418,4,1,0,80,0,0
122102,-76.9230769230769,4,1,0,80,0,0
122207,-79.3650793650794,4,1,0,80,0,0
122312,-81.9672131147541,4,1,0,80,0,0
122418,-84.7457627118644,4,1,0,80,0,0
122523,-87.719298245614,4,1,0,80,0,0
122628,-90.9090909090909,4,1,0,80,0,0
122733,-94.3396226415094,4,1,0,80,0,0
122839,-98.0392156862745,4,1,0,80,0,0
122944,-102.040816326531,4,1,0,80,0,0
123049,-106.382978723404,4,1,0,80,0,0
123154,-111.111111111111,4,1,0,80,0,0
123260,-116.279069767442,4,1,0,80,0,0
123365,-121.951219512195,4,1,0,80,0,0
123470,-58.8235294117647,4,1,0,80,0,0
123890,-66.6666666666667,4,1,0,80,0,0
123997,-68.4931506849315,4,1,0,80,0,0
124102,-70.4225352112676,4,1,0,80,0,0
124207,-72.463768115942,4,1,0,80,0,0
124312,-74.6268656716418,4,1,0,80,0,0
124418,-76.9230769230769,4,1,0,80,0,0
124523,-79.3650793650794,4,1,0,80,0,0
124628,-81.9672131147541,4,1,0,80,0,0
124733,-84.7457627118644,4,1,0,80,0,0
124839,-87.719298245614,4,1,0,80,0,0
124944,-90.9090909090909,4,1,0,80,0,0
124997,-92.5925925925926,4,1,0,80,0,0
125049,-94.3396226415094,4,1,0,80,0,0
125154,-98.0392156862745,4,1,0,80,0,0
125260,-102.040816326531,4,1,0,80,0,0
125365,-106.382978723404,4,1,0,80,0,0
125470,-111.111111111111,4,1,0,80,0,0
125575,-116.279069767442,4,1,0,80,0,0
125681,-121.951219512195,4,1,0,80,0,0
125786,-128.205128205128,4,1,0,80,0,0
125839,-131.578947368421,4,1,0,80,0,0
125891,-135.135135135135,4,1,0,80,0,0
125997,-58.8235294117647,4,1,0,80,0,0
126417,-66.6666666666667,4,1,0,80,0,0
126523,-68.4931506849315,4,1,0,80,0,0
126628,-70.4225352112676,4,1,0,80,0,0
126681,-71.4285714285714,4,1,0,80,0,0
126733,-72.463768115942,4,1,0,80,0,0
126839,-74.6268656716418,4,1,0,80,0,0
126944,-76.9230769230769,4,1,0,80,0,0
127049,-79.3650793650794,4,1,0,80,0,0
127102,-80.6451612903226,4,1,0,80,0,0
127154,-81.9672131147541,4,1,0,80,0,0
127260,-84.7457627118644,4,1,0,80,0,0
127365,-87.719298245614,4,1,0,80,0,0
127470,-90.9090909090909,4,1,0,80,0,0
127575,-94.3396226415094,4,1,0,80,0,0
127681,-98.0392156862745,4,1,0,80,0,0
127786,-102.040816326531,4,1,0,80,0,0
127891,-106.382978723404,4,1,0,80,0,0
127944,-108.695652173913,4,1,0,80,0,0
127997,-111.111111111111,4,1,0,80,0,0
128102,-116.279069767442,4,1,0,80,0,0
128207,-121.951219512195,4,1,0,80,0,0
128312,-128.205128205128,4,1,0,80,0,0
128365,-131.578947368421,4,1,0,80,0,0
128418,-135.135135135135,4,1,0,80,0,0
128523,-63.2911392405063,4,1,0,80,0,0
128733,-66.6666666666667,4,1,0,80,0,0
128839,-68.4931506849315,4,1,0,80,0,0
128944,-70.4225352112676,4,1,0,80,0,0
129049,-72.463768115942,4,1,0,80,0,0
129154,-74.6268656716418,4,1,0,80,0,0
129260,-63.2911392405063,4,1,0,80,0,0
129470,-66.6666666666667,4,1,0,80,0,0
129575,-68.4931506849315,4,1,0,80,0,0
129628,-69.4444444444444,4,1,0,80,0,0
129681,-70.4225352112676,4,1,0,80,0,0
129786,-63.2911392405063,4,1,0,80,0,0
129997,-66.6666666666667,4,1,0,80,0,0
130102,-64.9350649350649,4,1,0,80,0,0
130312,-61.7283950617284,4,1,0,80,0,0
130418,-60.2409638554217,4,1,0,80,0,0
130628,-57.4712643678161,4,1,0,80,0,0
130733,-56.1797752808989,4,1,0,80,0,0
130839,-54.9450549450549,4,1,0,80,0,0
130891,-54.3478260869565,4,1,0,80,0,0
130944,-53.763440860215,4,1,0,80,0,0
130997,-53.1914893617021,4,1,0,80,0,0
131049,-52.6315789473684,4,1,0,80,0,0
131365,-56.1797752808989,4,1,0,80,0,0
131470,-57.4712643678161,4,1,0,80,0,0
131575,-58.8235294117647,4,1,0,80,0,0
131681,-60.2409638554217,4,1,0,80,0,0
131733,-60.9756097560976,4,1,0,80,0,0
131786,-61.7283950617284,4,1,0,80,0,0
131891,-63.2911392405063,4,1,0,80,0,0
131997,-64.9350649350649,4,1,0,80,0,0
132102,-66.6666666666667,4,1,0,80,0,0
132207,-68.4931506849315,4,1,0,80,0,0
132312,-70.4225352112676,4,1,0,80,0,0
132418,-72.463768115942,4,1,0,80,0,0
132470,-73.5294117647059,4,1,0,80,0,0
132523,-74.6268656716418,4,1,0,80,0,0
132628,-76.9230769230769,4,1,0,80,0,0
132733,-79.3650793650794,4,1,0,80,0,0
132839,-81.9672131147541,4,1,0,80,0,0
132944,-84.7457627118644,4,1,0,80,0,0
132997,-86.2068965517241,4,1,0,80,0,0
133049,-87.719298245614,4,1,0,80,0,0
133154,-90.9090909090909,4,1,0,80,0,0
133260,-94.3396226415094,4,1,0,80,0,0
133365,-98.0392156862745,4,1,0,80,0,0
133470,-102.040816326531,4,1,0,80,0,0
133575,-52.6315789473684,4,1,0,80,0,0
133891,-56.1797752808989,4,1,0,80,0,0
133997,-57.4712643678161,4,1,0,80,0,0
134102,-58.8235294117647,4,1,0,80,0,0
134207,-60.2409638554217,4,1,0,80,0,0
134260,-60.9756097560976,4,1,0,80,0,0
134312,-61.7283950617284,4,1,0,80,0,0
134418,-63.2911392405063,4,1,0,80,0,0
134523,-64.9350649350649,4,1,0,80,0,0
134628,-66.6666666666667,4,1,0,80,0,0
134733,-68.4931506849315,4,1,0,80,0,0
134839,-70.4225352112676,4,1,0,80,0,0
134944,-72.463768115942,4,1,0,80,0,0
134997,-73.5294117647059,4,1,0,80,0,0
135049,-74.6268656716418,4,1,0,80,0,0
135154,-76.9230769230769,4,1,0,80,0,0
135260,-79.3650793650794,4,1,0,80,0,0
135365,-81.9672131147541,4,1,0,80,0,0
135470,-84.7457627118644,4,1,0,80,0,0
135523,-86.2068965517241,4,1,0,80,0,0
135575,-87.719298245614,4,1,0,80,0,0
135681,-90.9090909090909,4,1,0,80,0,0
135786,-94.3396226415094,4,1,0,80,0,0
135891,-98.0392156862745,4,1,0,80,0,0
135944,-100,4,1,0,80,0,0
135997,-102.040816326531,4,1,0,80,0,0
136102,-52.6315789473684,4,1,0,80,0,0
136207,-53.763440860215,4,1,0,80,0,0
136312,-54.9450549450549,4,1,0,80,0,0
136418,-56.1797752808989,4,1,0,80,0,0
136523,-57.4712643678161,4,1,0,80,0,0
136628,-58.8235294117647,4,1,0,80,0,0
136733,-60.2409638554217,4,1,0,80,0,0
136839,-61.7283950617284,4,1,0,80,0,0
136944,-63.2911392405063,4,1,0,80,0,0
137049,-64.9350649350649,4,1,0,80,0,0
137154,-66.6666666666667,4,1,0,80,0,0
137260,-68.4931506849315,4,1,0,80,0,0
137365,-70.4225352112676,4,1,0,80,0,0
137470,-72.463768115942,4,1,0,80,0,0
137575,-74.6268656716418,4,1,0,80,0,0
137681,-76.9230769230769,4,1,0,80,0,0
137786,-79.3650793650794,4,1,0,80,0,0
137891,-81.9672131147541,4,1,0,80,0,0
137997,-84.7457627118644,4,1,0,80,0,0
138102,-87.719298245614,4,1,0,80,0,0
138207,-90.9090909090909,4,1,0,80,0,0
138312,-94.3396226415094,4,1,0,80,0,0
138365,-96.1538461538461,4,1,0,80,0,0
138418,-98.0392156862745,4,1,0,80,0,0
138470,-100,4,1,0,80,0,0
138523,-102.040816326531,4,1,0,80,0,0
138628,-52.6315789473684,4,1,0,80,0,0
138839,-54.9450549450549,4,1,0,80,0,0
138944,-56.1797752808989,4,1,0,80,0,0
139049,-57.4712643678161,4,1,0,80,0,0
139154,-58.8235294117647,4,1,0,80,0,0
139260,-60.2409638554217,4,1,0,80,0,0
139365,-52.6315789473684,4,1,0,80,0,0
139575,-54.9450549450549,4,1,0,80,0,0
139681,-56.1797752808989,4,1,0,80,0,0
139786,-57.4712643678161,4,1,0,80,0,0
139891,-52.6315789473684,4,1,0,80,0,0
140102,-50.5050505050505,4,1,0,80,0,0
140207,-49.5049504950495,4,1,0,80,0,0
140418,-47.6190476190476,4,1,0,80,0,0
140523,-46.7289719626168,4,1,0,80,0,0
140733,-45.045045045045,4,1,0,80,0,0
140839,-46.7289719626168,4,1,0,80,0,0
140944,-48.5436893203883,4,1,0,80,0,0
140997,-49.5049504950495,4,1,0,80,0,0
141049,-50.5050505050505,4,1,0,80,0,0
141102,-51.5463917525773,4,1,0,80,0,0
141154,-52.6315789473684,4,1,0,80,0,0
141365,-35.7142857142857,4,1,0,90,0,0
141469,-25,4,1,0,90,0,0
142418,-27.7777777777778,4,1,0,90,0,0
143681,-31.25,4,1,0,90,0,0
144944,-35.7142857142857,4,1,0,90,0,0
146207,-41.6666666666667,4,1,0,90,0,0
147470,-50,4,1,0,90,0,0
148733,-62.5,4,1,0,90,0,0
149997,-76.9230769230769,4,1,0,90,0,0
151260,-95.2380952380952,4,1,0,70,0,0
151890,-133.333333333334,4,1,0,70,0,0
152523,-142.857142857143,4,1,0,70,0,0
153154,-153.846153846153,4,1,0,70,0,0
153786,-100,4,1,0,60,0,0
154207,-117.64705882353,4,1,0,60,0,0
155056,-100,4,1,0,60,0,0
155194,-105.263157894737,4,1,0,60,0,0
155332,-111.111111111111,4,1,0,60,0,0
155470,-117.64705882353,4,1,0,60,0,0
156319,-100,4,1,0,60,0,0
156733,-117.64705882353,4,1,0,60,0,0
157575,-100,4,1,0,60,0,0
157720,-105.263157894737,4,1,0,60,0,0
157858,-111.111111111111,4,1,0,60,0,0
157977,-116.279069767442,4,1,0,60,0,0
158056,-120.481927710843,4,1,0,60,0,0
158135,-125,4,1,0,60,0,0
158214,-129.87012987013,4,1,0,60,0,0
158839,-100,4,1,0,60,0,0
159260,-117.64705882353,4,1,0,60,0,0
160102,-100,4,1,0,60,0,0
160233,-105.263157894737,4,1,0,60,0,0
160365,-111.111111111111,4,1,0,60,0,0
160497,-117.64705882353,4,1,0,60,0,0
160622,-123.456790123457,4,1,0,60,0,0
160700,-128.205128205129,4,1,0,60,0,0
160779,-133.333333333333,4,1,0,60,0,0
160858,-138.888888888889,4,1,0,60,0,0
160937,-144.927536231884,4,1,0,60,0,0
161372,-100,4,1,0,60,0,0
161786,-117.64705882353,4,1,0,60,0,0
162207,-142.857142857143,4,1,0,60,0,0
162628,-100,4,1,0,60,0,0
162773,-105.263157894737,4,1,0,60,0,0
162911,-111.111111111111,4,1,0,60,0,0
163049,-117.64705882353,4,1,0,60,0,0
163187,-125,4,1,0,60,0,0
163325,-133.333333333333,4,1,0,60,0,0
163464,-142.857142857143,4,1,0,60,0,0
163602,-153.846153846153,4,1,0,60,0,0
163740,-166.666666666667,4,1,0,60,0,0
163878,-100,4,1,0,60,0,0
164312,-117.64705882353,4,1,0,60,0,0
165161,-100,4,1,0,60,0,0
165299,-105.263157894737,4,1,0,60,0,0
165437,-111.111111111111,4,1,0,60,0,0
165575,-117.64705882353,4,1,0,60,0,0
166424,-100,4,1,0,60,0,0
166839,-117.64705882353,4,1,0,60,0,0
167687,-100,4,1,0,60,0,0
167825,-105.263157894737,4,1,0,60,0,0
167964,-111.111111111111,4,1,0,60,0,0
168082,-116.279069767442,4,1,0,60,0,0
168161,-120.481927710843,4,1,0,60,0,0
168240,-125,4,1,0,60,0,0
168319,-129.87012987013,4,1,0,60,0,0
168950,-100,4,1,0,60,0,0
169365,-117.64705882353,4,1,0,60,0,0
170207,-100,4,1,0,60,0,0
170339,-105.263157894737,4,1,0,60,0,0
170470,-111.111111111111,4,1,0,60,0,0
170602,-117.64705882353,4,1,0,60,0,0
170727,-123.456790123457,4,1,0,60,0,0
170806,-128.205128205129,4,1,0,60,0,0
170885,-133.333333333333,4,1,0,60,0,0
170964,-138.888888888889,4,1,0,60,0,0
171043,-144.927536231884,4,1,0,60,0,0
171470,-100,4,1,0,60,0,0
171891,-117.64705882353,4,1,0,60,0,0
172312,-142.857142857143,4,1,0,60,0,0
172740,-100,4,1,0,60,0,0
172878,-105.263157894737,4,1,0,60,0,0
173016,-111.111111111111,4,1,0,60,0,0
173154,-117.64705882353,4,1,0,60,0,0
173233,-121.951219512195,4,1,0,60,0,0
173312,-126.582278481013,4,1,0,60,0,0
173391,-131.578947368421,4,1,0,60,0,0
173510,-138.888888888889,4,1,0,60,0,0
173648,-149.253731343284,4,1,0,60,0,0
173786,-161.290322580645,4,1,0,60,0,0
173865,-169.491525423729,4,1,0,60,0,0
173944,-178.571428571429,4,1,0,60,0,0
174003,-90.9090909090908,4,1,0,60,0,0
174424,-105.263157894737,4,1,0,60,0,0
175273,-90.9090909090908,4,1,0,60,0,0
175411,-95.238095238095,4,1,0,60,0,0
175549,-100,4,1,0,60,0,0
175687,-105.263157894737,4,1,0,60,0,0
176536,-90.9090909090908,4,1,0,60,0,0
176950,-105.263157894737,4,1,0,60,0,0
177792,-90.9090909090908,4,1,0,60,0,0
177937,-95.238095238095,4,1,0,60,0,0
178075,-100,4,1,0,60,0,0
178194,-104.166666666667,4,1,0,60,0,0
178273,-107.52688172043,4,1,0,60,0,0
178352,-111.111111111111,4,1,0,60,0,0
178431,-114.942528735632,4,1,0,60,0,0
179056,-90.9090909090908,4,1,0,60,0,0
179477,-105.263157894737,4,1,0,60,0,0
180319,-90.9090909090908,4,1,0,60,0,0
180450,-95.238095238095,4,1,0,60,0,0
180582,-100,4,1,0,60,0,0
180714,-105.263157894737,4,1,0,60,0,0
180839,-109.89010989011,4,1,0,60,0,0
180917,-113.636363636364,4,1,0,60,0,0
180996,-117.647058823529,4,1,0,60,0,0
181075,-121.951219512195,4,1,0,60,0,0
181154,-126.582278481013,4,1,0,60,0,0
181589,-90.9090909090909,4,1,0,60,0,0
182003,-105.263157894737,4,1,0,60,0,0
182424,-125,4,1,0,60,0,0
182845,-90.9090909090909,4,1,0,60,0,0
182990,-95.2380952380952,4,1,0,60,0,0
183128,-100,4,1,0,60,0,0
183266,-105.263157894737,4,1,0,60,0,0
183404,-111.111111111111,4,1,0,60,0,0
183542,-117.647058823529,4,1,0,60,0,0
183681,-125,4,1,0,60,0,0
183819,-133.333333333333,4,1,0,60,0,0
183957,-142.857142857143,4,1,0,60,0,0
184095,-90.9090909090909,4,1,0,60,0,0
184529,-105.263157894737,4,1,0,60,0,0
185378,-90.9090909090909,4,1,0,60,0,0
185516,-95.2380952380952,4,1,0,60,0,0
185654,-100,4,1,0,60,0,0
185792,-105.263157894737,4,1,0,60,0,0
186641,-90.9090909090909,4,1,0,60,0,0
187056,-105.263157894737,4,1,0,60,0,0
187904,-90.9090909090909,4,1,0,60,0,0
188042,-95.2380952380952,4,1,0,60,0,0
188181,-100,4,1,0,60,0,0
188299,-104.166666666667,4,1,0,60,0,0
188378,-107.52688172043,4,1,0,60,0,0
188457,-111.111111111111,4,1,0,60,0,0
188536,-114.942528735632,4,1,0,60,0,0
189167,-90.9090909090909,4,1,0,60,0,0
189582,-105.263157894737,4,1,0,60,0,0
190424,-90.9090909090909,4,1,0,60,0,0
190556,-95.2380952380952,4,1,0,60,0,0
190687,-100,4,1,0,60,0,0
190819,-105.263157894737,4,1,0,60,0,0
190944,-109.89010989011,4,1,0,60,0,0
191023,-113.636363636364,4,1,0,60,0,0
191102,-117.647058823529,4,1,0,60,0,0
191181,-121.951219512195,4,1,0,60,0,0
191260,-126.582278481013,4,1,0,60,0,0
191687,-90.9090909090909,4,1,0,60,0,0
192108,-105.263157894737,4,1,0,60,0,0
192529,-125,4,1,0,60,0,0
192957,-90.9090909090909,4,1,0,60,0,0
193095,-95.2380952380952,4,1,0,60,0,0
193233,-100,4,1,0,60,0,0
193371,-105.263157894737,4,1,0,60,0,0
193450,-108.695652173913,4,1,0,60,0,0
193529,-112.359550561798,4,1,0,60,0,0
193608,-116.279069767442,4,1,0,60,0,0
193727,-121.951219512195,4,1,0,60,0,0
193865,-129.87012987013,4,1,0,60,0,0
194003,-138.888888888889,4,1,0,60,0,0
194082,-144.927536231884,4,1,0,60,0,0
194161,-151.515151515152,4,1,0,60,0,0
194214,-156.25,4,1,0,60,0,0
195154,-114.942528735632,4,1,0,60,0,0
195470,-120.481927710843,4,1,0,60,0,0
195786,-126.582278481013,4,1,0,60,0,0
196102,-133.333333333333,4,1,0,60,0,0
196733,-149.253731343284,4,1,0,60,0,0
197681,-181.818181818182,4,1,0,60,0,0
197997,-196.078431372549,4,1,0,60,0,0
198207,-185.185185185185,4,1,0,60,0,0
198418,-175.438596491228,4,1,0,60,0,0
198628,-166.666666666667,4,1,0,60,0,0
199260,-147.058823529412,4,1,0,60,0,0
200207,-125,4,1,0,60,0,0
200523,-119.047619047619,4,1,0,60,0,0
200839,-113.636363636364,4,1,0,60,0,0
201154,-108.695652173913,4,1,0,60,0,0
201470,-104.166666666667,4,1,0,60,0,0
201786,-100.000000000003,4,1,0,40,0,0
201891,-105.596620908131,4,1,0,40,0,0
201997,-111.482720178372,4,1,0,40,0,0
202102,-117.785630153121,4,1,0,40,0,0
202207,-124.378109452736,4,1,0,40,0,0
202311,-131.406044678055,4,1,0,40,0,0
202418,-138.69625520111,4,1,0,40,0,0
202523,-146.412884333821,4,1,0,40,0,0
202628,-154.559505409583,4,1,0,40,0,0
202733,-163.398692810458,4,1,0,40,0,0
202838,-172.413793103448,4,1,0,40,0,0
202943,-182.149362477231,4,1,0,40,0,0
203049,-192.307692307692,4,1,0,40,0,0
203154,-182.149362477231,4,1,0,40,0,0
203260,-172.413793103448,4,1,0,40,0,0
203365,-163.398692810458,4,1,0,40,0,0
203470,-154.559505409583,4,1,0,40,0,0
203575,-146.412884333821,4,1,0,40,0,0
203681,-138.69625520111,4,1,0,40,0,0
203786,-131.406044678055,4,1,0,40,0,0
203891,-124.378109452736,4,1,0,40,0,0
203996,-117.785630153121,4,1,0,40,0,0
204102,-111.482720178372,4,1,0,40,0,0
204206,-105.596620908131,4,1,0,40,0,0
204312,-100.000000000003,4,1,0,40,0,0
204417,-105.596620908131,4,1,0,40,0,0
204523,-111.482720178372,4,1,0,40,0,0
204628,-117.785630153121,4,1,0,40,0,0
204733,-124.378109452736,4,1,0,40,0,0
204837,-131.406044678055,4,1,0,40,0,0
204944,-138.69625520111,4,1,0,40,0,0
205049,-146.412884333821,4,1,0,40,0,0
205154,-154.559505409583,4,1,0,40,0,0
205259,-163.398692810458,4,1,0,40,0,0
205364,-172.413793103448,4,1,0,40,0,0
205469,-182.149362477231,4,1,0,40,0,0
205575,-192.307692307692,4,1,0,40,0,0
205680,-182.149362477231,4,1,0,40,0,0
205786,-172.413793103448,4,1,0,40,0,0
205891,-163.398692810458,4,1,0,40,0,0
205996,-154.559505409583,4,1,0,40,0,0
206101,-146.412884333821,4,1,0,40,0,0
206207,-138.69625520111,4,1,0,40,0,0
206312,-131.406044678055,4,1,0,40,0,0
206417,-124.378109452736,4,1,0,40,0,0
206522,-117.785630153121,4,1,0,40,0,0
206628,-111.482720178372,4,1,0,40,0,0
206732,-105.596620908131,4,1,0,40,0,0
206838,-100.000000000003,4,1,0,40,0,0
206943,-105.596620908131,4,1,0,40,0,0
207049,-111.482720178372,4,1,0,40,0,0
207154,-117.785630153121,4,1,0,40,0,0
207259,-124.378109452736,4,1,0,40,0,0
207363,-131.406044678055,4,1,0,40,0,0
207470,-138.69625520111,4,1,0,40,0,0
207575,-146.412884333821,4,1,0,40,0,0
207680,-154.559505409583,4,1,0,40,0,0
207785,-163.398692810458,4,1,0,40,0,0
207890,-172.413793103448,4,1,0,40,0,0
207995,-182.149362477231,4,1,0,40,0,0
208101,-192.307692307692,4,1,0,40,0,0
208206,-182.149362477231,4,1,0,40,0,0
208312,-172.413793103448,4,1,0,40,0,0
208417,-163.398692810458,4,1,0,40,0,0
208522,-154.559505409583,4,1,0,40,0,0
208627,-146.412884333821,4,1,0,40,0,0
208733,-138.69625520111,4,1,0,40,0,0
208838,-131.406044678055,4,1,0,40,0,0
208943,-124.378109452736,4,1,0,40,0,0
209048,-117.785630153121,4,1,0,40,0,0
209154,-111.482720178372,4,1,0,40,0,0
209258,-105.596620908131,4,1,0,40,0,0
209364,-100.000000000003,4,1,0,40,0,0
209469,-105.596620908131,4,1,0,40,0,0
209575,-111.482720178372,4,1,0,40,0,0
209680,-117.785630153121,4,1,0,40,0,0
209785,-124.378109452736,4,1,0,40,0,0
209889,-131.406044678055,4,1,0,40,0,0
209996,-138.69625520111,4,1,0,40,0,0
210101,-146.412884333821,4,1,0,40,0,0
210206,-154.559505409583,4,1,0,40,0,0
210311,-163.398692810458,4,1,0,40,0,0
210416,-172.413793103448,4,1,0,40,0,0
210521,-182.149362477231,4,1,0,40,0,0
210627,-192.307692307692,4,1,0,40,0,0
210732,-182.149362477231,4,1,0,40,0,0
210838,-172.413793103448,4,1,0,40,0,0
210943,-163.398692810458,4,1,0,40,0,0
211048,-154.559505409583,4,1,0,40,0,0
211153,-146.412884333821,4,1,0,40,0,0
211259,-138.69625520111,4,1,0,40,0,0
211364,-131.406044678055,4,1,0,40,0,0
211469,-124.378109452736,4,1,0,40,0,0
211574,-117.785630153121,4,1,0,40,0,0
211680,-111.482720178372,4,1,0,40,0,0
211784,-105.596620908131,4,1,0,40,0,0
211890,-100.000000000003,4,1,0,40,0,0
211995,-105.596620908131,4,1,0,40,0,0
212101,-111.482720178372,4,1,0,40,0,0
212206,-117.785630153121,4,1,0,40,0,0
212311,-124.378109452736,4,1,0,40,0,0
212415,-131.406044678055,4,1,0,40,0,0
212522,-138.69625520111,4,1,0,40,0,0
212627,-146.412884333821,4,1,0,40,0,0
212732,-154.559505409583,4,1,0,40,0,0
212837,-163.398692810458,4,1,0,40,0,0
212942,-172.413793103448,4,1,0,40,0,0
213047,-182.149362477231,4,1,0,40,0,0
213153,-192.307692307692,4,1,0,40,0,0
213258,-182.149362477231,4,1,0,40,0,0
213364,-172.413793103448,4,1,0,40,0,0
213469,-163.398692810458,4,1,0,40,0,0
213574,-154.559505409583,4,1,0,40,0,0
213679,-146.412884333821,4,1,0,40,0,0
213785,-138.69625520111,4,1,0,40,0,0
213890,-131.406044678055,4,1,0,40,0,0
213995,-124.378109452736,4,1,0,40,0,0
214100,-117.785630153121,4,1,0,40,0,0
214206,-111.482720178372,4,1,0,40,0,0
214310,-105.596620908131,4,1,0,40,0,0
214416,-100.000000000003,4,1,0,40,0,0
214521,-105.596620908131,4,1,0,40,0,0
214627,-111.482720178372,4,1,0,40,0,0
214732,-117.785630153121,4,1,0,40,0,0
214837,-124.378109452736,4,1,0,40,0,0
214941,-131.406044678055,4,1,0,40,0,0
215048,-138.69625520111,4,1,0,40,0,0
215153,-146.412884333821,4,1,0,40,0,0
215258,-154.559505409583,4,1,0,40,0,0
215363,-163.398692810458,4,1,0,40,0,0
215468,-172.413793103448,4,1,0,40,0,0
215573,-182.149362477231,4,1,0,40,0,0
215679,-192.307692307692,4,1,0,40,0,0
215784,-182.149362477231,4,1,0,40,0,0
215890,-172.413793103448,4,1,0,40,0,0
215995,-163.398692810458,4,1,0,40,0,0
216100,-154.559505409583,4,1,0,40,0,0
216205,-146.412884333821,4,1,0,40,0,0
216311,-138.69625520111,4,1,0,40,0,0
216416,-131.406044678055,4,1,0,40,0,0
216521,-124.378109452736,4,1,0,40,0,0
216626,-117.785630153121,4,1,0,40,0,0
216706,-113.122171945701,4,1,0,40,0,0
216785,-108.5776330076,4,1,0,40,0,0
216864,-104.166666666667,4,1,0,40,0,0
216942,-100.000000000003,4,1,0,40,0,0
217047,-105.596620908131,4,1,0,40,0,0
217153,-111.482720178372,4,1,0,40,0,0
217258,-117.785630153121,4,1,0,40,0,0
217363,-124.378109452736,4,1,0,40,0,0
217467,-131.406044678055,4,1,0,40,0,0
217574,-138.69625520111,4,1,0,40,0,0
217679,-146.412884333821,4,1,0,40,0,0
217784,-154.559505409583,4,1,0,40,0,0
217889,-163.398692810458,4,1,0,40,0,0
217994,-172.413793103448,4,1,0,40,0,0
218099,-182.149362477231,4,1,0,40,0,0
218205,-192.307692307692,4,1,0,40,0,0
218310,-182.149362477231,4,1,0,40,0,0
218416,-172.413793103448,4,1,0,40,0,0
218521,-163.398692810458,4,1,0,40,0,0
218626,-154.559505409583,4,1,0,40,0,0
218731,-146.412884333821,4,1,0,40,0,0
218837,-138.69625520111,4,1,0,40,0,0
218942,-131.406044678055,4,1,0,40,0,0
219047,-124.378109452736,4,1,0,40,0,0
219152,-117.785630153121,4,1,0,40,0,0
219258,-111.482720178372,4,1,0,40,0,0
219362,-105.596620908131,4,1,0,40,0,0
219468,-100.000000000003,4,1,0,40,0,0
219573,-105.596620908131,4,1,0,40,0,0
219679,-111.482720178372,4,1,0,40,0,0
219784,-117.785630153121,4,1,0,40,0,0
219889,-124.378109452736,4,1,0,40,0,0
219993,-131.406044678055,4,1,0,40,0,0
220100,-138.69625520111,4,1,0,40,0,0
220205,-146.412884333821,4,1,0,40,0,0
220310,-154.559505409583,4,1,0,40,0,0
220415,-163.398692810458,4,1,0,40,0,0
220520,-172.413793103448,4,1,0,40,0,0
220625,-182.149362477231,4,1,0,40,0,0
220731,-192.307692307692,4,1,0,40,0,0
220836,-182.149362477231,4,1,0,40,0,0
220942,-172.413793103448,4,1,0,40,0,0
221047,-163.398692810458,4,1,0,40,0,0
221152,-154.559505409583,4,1,0,40,0,0
221257,-146.412884333821,4,1,0,40,0,0
221363,-138.69625520111,4,1,0,40,0,0
221468,-131.406044678055,4,1,0,40,0,0
221573,-124.378109452736,4,1,0,40,0,0
221678,-117.785630153121,4,1,0,40,0,0
221784,-111.482720178372,4,1,0,40,0,0
221888,-105.596620908131,4,1,0,40,0,0
221994,-100.000000000003,4,1,0,40,0,0
222099,-105.596620908131,4,1,0,40,0,0
222205,-111.482720178372,4,1,0,40,0,0
222310,-117.785630153121,4,1,0,40,0,0
222415,-124.378109452736,4,1,0,40,0,0
222519,-131.406044678055,4,1,0,40,0,0
222626,-138.69625520111,4,1,0,40,0,0
222731,-146.412884333821,4,1,0,40,0,0
222836,-154.559505409583,4,1,0,40,0,0
222941,-163.398692810458,4,1,0,40,0,0
223046,-172.413793103448,4,1,0,40,0,0
223151,-182.149362477231,4,1,0,40,0,0
223257,-192.307692307692,4,1,0,40,0,0
223362,-182.149362477231,4,1,0,40,0,0
223468,-172.413793103448,4,1,0,40,0,0
223573,-163.398692810458,4,1,0,40,0,0
223678,-154.559505409583,4,1,0,40,0,0
223783,-146.412884333821,4,1,0,40,0,0
223889,-138.69625520111,4,1,0,40,0,0
223994,-131.406044678055,4,1,0,40,0,0
224099,-124.378109452736,4,1,0,40,0,0
224204,-117.785630153121,4,1,0,40,0,0
224310,-111.482720178372,4,1,0,40,0,0
224414,-105.596620908131,4,1,0,40,0,0
224520,-100.000000000003,4,1,0,40,0,0
224625,-105.596620908131,4,1,0,40,0,0
224731,-111.482720178372,4,1,0,40,0,0
224836,-117.785630153121,4,1,0,40,0,0
224941,-124.378109452736,4,1,0,40,0,0
225045,-131.406044678055,4,1,0,40,0,0
225152,-138.69625520111,4,1,0,40,0,0
225257,-146.412884333821,4,1,0,40,0,0
225362,-154.559505409583,4,1,0,40,0,0
225467,-163.398692810458,4,1,0,40,0,0
225572,-172.413793103448,4,1,0,40,0,0
225677,-182.149362477231,4,1,0,40,0,0
225783,-192.307692307692,4,1,0,40,0,0
225888,-182.149362477231,4,1,0,40,0,0
225994,-172.413793103448,4,1,0,40,0,0
226099,-163.398692810458,4,1,0,40,0,0
226204,-154.559505409583,4,1,0,40,0,0
226309,-146.412884333821,4,1,0,40,0,0
226415,-138.69625520111,4,1,0,40,0,0
226520,-131.406044678055,4,1,0,40,0,0
226625,-124.378109452736,4,1,0,40,0,0
226730,-117.785630153121,4,1,0,40,0,0
226836,-111.482720178372,4,1,0,40,0,0
226940,-105.596620908131,4,1,0,40,0,0
227046,-100.000000000003,4,1,0,40,0,0
227151,-105.596620908131,4,1,0,40,0,0
227257,-111.482720178372,4,1,0,40,0,0
227362,-117.785630153121,4,1,0,40,0,0
227467,-124.378109452736,4,1,0,40,0,0
227571,-131.406044678055,4,1,0,40,0,0
227678,-138.69625520111,4,1,0,40,0,0
227783,-146.412884333821,4,1,0,40,0,0
227888,-154.559505409583,4,1,0,40,0,0
227993,-163.398692810458,4,1,0,40,0,0
228098,-172.413793103448,4,1,0,40,0,0
228203,-182.149362477231,4,1,0,40,0,0
228309,-192.307692307692,4,1,0,40,0,0
228414,-182.149362477231,4,1,0,40,0,0
228520,-172.413793103448,4,1,0,40,0,0
228625,-163.398692810458,4,1,0,40,0,0
228730,-154.559505409583,4,1,0,40,0,0
228835,-146.412884333821,4,1,0,40,0,0
228941,-138.69625520111,4,1,0,40,0,0
229046,-131.406044678055,4,1,0,40,0,0
229151,-124.378109452736,4,1,0,40,0,0
229256,-117.785630153121,4,1,0,40,0,0
229362,-111.482720178372,4,1,0,40,0,0
229466,-105.596620908131,4,1,0,40,0,0
229572,-100.000000000003,4,1,0,40,0,0
229677,-105.596620908131,4,1,0,40,0,0
229783,-111.482720178372,4,1,0,40,0,0
229888,-117.785630153121,4,1,0,40,0,0
229993,-124.378109452736,4,1,0,40,0,0
230097,-131.406044678055,4,1,0,40,0,0
230204,-138.69625520111,4,1,0,40,0,0
230309,-146.412884333821,4,1,0,40,0,0
230414,-154.559505409583,4,1,0,40,0,0
230519,-163.398692810458,4,1,0,40,0,0
230624,-172.413793103448,4,1,0,40,0,0
230729,-182.149362477231,4,1,0,40,0,0
230835,-192.307692307692,4,1,0,40,0,0
230940,-182.149362477231,4,1,0,40,0,0
231046,-172.413793103448,4,1,0,40,0,0
231151,-163.398692810458,4,1,0,40,0,0
231256,-154.559505409583,4,1,0,40,0,0
231361,-146.412884333821,4,1,0,40,0,0
231467,-138.69625520111,4,1,0,40,0,0
231572,-131.406044678055,4,1,0,40,0,0
231677,-124.378109452736,4,1,0,40,0,0
231782,-117.785630153121,4,1,0,40,0,0
231888,-111.482720178372,4,1,0,40,0,0
231992,-105.596620908131,4,1,0,40,0,0
232098,-100.000000000003,4,1,0,40,0,0
232203,-105.596620908131,4,1,0,40,0,0
232309,-111.482720178372,4,1,0,40,0,0
232414,-117.785630153121,4,1,0,40,0,0
232519,-124.378109452736,4,1,0,40,0,0
232623,-131.406044678055,4,1,0,40,0,0
232730,-138.69625520111,4,1,0,40,0,0
232835,-146.412884333821,4,1,0,40,0,0
232940,-154.559505409583,4,1,0,40,0,0
233045,-163.398692810458,4,1,0,40,0,0
233150,-172.413793103448,4,1,0,40,0,0
233255,-182.149362477231,4,1,0,40,0,0
233361,-192.307692307692,4,1,0,40,0,0
233466,-182.149362477231,4,1,0,40,0,0
233572,-172.413793103448,4,1,0,40,0,0
233677,-163.398692810458,4,1,0,40,0,0
233782,-154.559505409583,4,1,0,40,0,0
233887,-146.412884333821,4,1,0,40,0,0
233993,-138.69625520111,4,1,0,40,0,0
234098,-131.406044678055,4,1,0,40,0,0
234203,-124.378109452736,4,1,0,40,0,0
234308,-117.785630153121,4,1,0,40,0,0
234414,-111.482720178372,4,1,0,40,0,0
234518,-105.596620908131,4,1,0,40,0,0
234624,-100.000000000003,4,1,0,40,0,0
234729,-105.596620908131,4,1,0,40,0,0
234835,-111.482720178372,4,1,0,40,0,0
234940,-117.785630153121,4,1,0,40,0,0
235045,-124.378109452736,4,1,0,40,0,0
235149,-131.406044678055,4,1,0,40,0,0
235256,-138.69625520111,4,1,0,40,0,0
235361,-146.412884333821,4,1,0,40,0,0
235466,-154.559505409583,4,1,0,40,0,0
235571,-163.398692810458,4,1,0,40,0,0
235676,-172.413793103448,4,1,0,40,0,0
235781,-182.149362477231,4,1,0,40,0,0
235887,-192.307692307692,4,1,0,40,0,0
235992,-182.149362477231,4,1,0,40,0,0
236098,-172.413793103448,4,1,0,40,0,0
236203,-163.398692810458,4,1,0,40,0,0
236308,-154.559505409583,4,1,0,40,0,0
236413,-146.412884333821,4,1,0,40,0,0
236519,-138.69625520111,4,1,0,40,0,0
236624,-131.406044678055,4,1,0,40,0,0
236729,-124.378109452736,4,1,0,40,0,0
236834,-117.785630153121,4,1,0,40,0,0
236940,-111.482720178372,4,1,0,40,0,0
237044,-105.596620908131,4,1,0,40,0,0
237150,-100.000000000003,4,1,0,40,0,0
237255,-105.596620908131,4,1,0,40,0,0
237361,-111.482720178372,4,1,0,40,0,0
237466,-117.785630153121,4,1,0,40,0,0
237571,-124.378109452736,4,1,0,40,0,0
237675,-131.406044678055,4,1,0,40,0,0
237782,-138.69625520111,4,1,0,40,0,0
237887,-146.412884333821,4,1,0,40,0,0
237992,-154.559505409583,4,1,0,40,0,0
238097,-163.398692810458,4,1,0,40,0,0
238202,-172.413793103448,4,1,0,40,0,0
238307,-182.149362477231,4,1,0,40,0,0
238413,-192.307692307692,4,1,0,40,0,0
238518,-182.149362477231,4,1,0,40,0,0
238624,-172.413793103448,4,1,0,40,0,0
238729,-163.398692810458,4,1,0,40,0,0
238834,-154.559505409583,4,1,0,40,0,0
238939,-146.412884333821,4,1,0,40,0,0
239045,-138.69625520111,4,1,0,40,0,0
239150,-131.406044678055,4,1,0,40,0,0
239255,-124.378109452736,4,1,0,40,0,0
239360,-117.785630153121,4,1,0,40,0,0
239466,-111.482720178372,4,1,0,40,0,0
239570,-105.596620908131,4,1,0,40,0,0
239676,-100.000000000003,4,1,0,40,0,0
239781,-105.596620908131,4,1,0,40,0,0
239887,-111.482720178372,4,1,0,40,0,0
239992,-117.785630153121,4,1,0,40,0,0
240097,-124.378109452736,4,1,0,40,0,0
240201,-131.406044678055,4,1,0,40,0,0
240308,-138.69625520111,4,1,0,40,0,0
240413,-146.412884333821,4,1,0,40,0,0
240518,-154.559505409583,4,1,0,40,0,0
240623,-163.398692810458,4,1,0,40,0,0
240728,-172.413793103448,4,1,0,40,0,0
240833,-182.149362477231,4,1,0,40,0,0
240939,-192.307692307692,4,1,0,40,0,0
241044,-182.149362477231,4,1,0,40,0,0
241150,-172.413793103448,4,1,0,40,0,0
241255,-163.398692810458,4,1,0,40,0,0
241360,-154.559505409583,4,1,0,40,0,0
241465,-146.412884333821,4,1,0,40,0,0
241571,-138.69625520111,4,1,0,40,0,0
241676,-131.406044678055,4,1,0,40,0,0
241781,-124.378109452736,4,1,0,40,0,0
241886,-117.785630153121,4,1,0,40,0,0
241992,-111.482720178372,4,1,0,40,0,0
242096,-105.596620908131,4,1,0,40,0,0
242206,-100,4,1,0,40,0,0
242312,-41.6666666666667,4,1,0,40,0,0
243470,-38.4615384615385,4,1,0,40,0,0
244733,-34.4827586206897,4,1,0,40,0,0
245997,-30.3030303030303,4,1,0,40,0,0
247260,-26.3157894736842,4,1,0,40,0,0
248523,-22.7272727272727,4,1,0,40,0,0
249786,-19.6078431372549,4,1,0,60,0,0
250102,-19.6078431372549,4,1,0,70,0,0
250418,-19.6078431372549,4,1,0,80,0,0
250733,-19.6078431372549,4,1,0,90,0,0
251049,-55.5555555555556,4,1,0,90,0,0
251102,-54.6448087431694,4,1,0,90,0,0
251365,-50.5050505050505,4,1,0,90,0,0
251418,-49.7512437810945,4,1,0,90,0,0
251681,-46.2962962962963,4,1,0,90,0,0
251733,-45.662100456621,4,1,0,90,0,0
251997,-42.7350427350427,4,1,0,90,0,0
252049,-42.1940928270042,4,1,0,90,0,0
252102,-41.6666666666667,4,1,0,90,0,0
252154,-41.1522633744856,4,1,0,90,0,0
252312,-33.3333333333333,4,1,0,100,0,0
252338,-33.3333333333333,4,1,0,100,0,1
252365,-20,4,1,0,100,0,1
253575,-26.3157894736842,4,1,0,100,0,1
254839,-38.4615384615385,4,1,0,100,0,1
256102,-71.4285714285714,4,1,0,100,0,1
256523,-69.4444444444444,4,1,0,100,0,1
256628,-67.5675675675676,4,1,0,100,0,1
256681,-66.6666666666667,4,1,0,100,0,1
256733,-65.7894736842105,4,1,0,100,0,1
256839,-64.1025641025641,4,1,0,100,0,1
256970,-62.111801242236,4,1,0,100,0,1
257102,-60.2409638554217,4,1,0,100,0,1
257233,-58.4795321637427,4,1,0,100,0,1
257365,-20,4,1,0,100,0,1
257418,-20,4,1,0,100,0,1
258628,-26.3157894736842,4,1,0,100,0,1
259891,-38.4615384615385,4,1,0,100,0,1
261154,-71.4285714285714,4,1,0,100,0,1
261575,-69.4444444444444,4,1,0,100,0,1
261681,-67.5675675675676,4,1,0,100,0,1
261733,-66.6666666666667,4,1,0,100,0,1
261786,-65.7894736842105,4,1,0,100,0,1
261865,-64.5161290322581,4,1,0,100,0,1
261944,-63.2911392405063,4,1,0,100,0,1
262023,-62.111801242236,4,1,0,100,0,1
262128,-60.6060606060606,4,1,0,100,0,1
262233,-59.1715976331361,4,1,0,100,0,1
262339,-57.8034682080925,4,1,0,100,0,1
262418,-20,4,1,0,100,0,1
262470,-20,4,1,0,100,0,1
263681,-26.3157894736842,4,1,0,100,0,1
264944,-38.4615384615385,4,1,0,100,0,1
266207,-71.4285714285714,4,1,0,100,0,1
266628,-69.4444444444444,4,1,0,100,0,1
266733,-67.5675675675676,4,1,0,100,0,1
266786,-66.6666666666667,4,1,0,100,0,1
266839,-65.7894736842105,4,1,0,100,0,1
266997,-63.2911392405063,4,1,0,100,0,1
267061,-62.5,4,1,0,100,0,1
267122,-61.7283950617284,4,1,0,100,0,1
267181,-60.9756097560976,4,1,0,100,0,1
267240,-60.2409638554217,4,1,0,100,0,1
267299,-59.5238095238095,4,1,0,100,0,1
267358,-58.8235294117647,4,1,0,100,0,1
267418,-58.1395348837209,4,1,0,100,0,1
267477,-20,4,1,0,100,0,1
268733,-26.3157894736842,4,1,0,100,0,1
269997,-38.4615384615385,4,1,0,100,0,1
271260,-71.4285714285714,4,1,0,100,0,1
271681,-69.4444444444444,4,1,0,100,0,1
271786,-67.5675675675676,4,1,0,100,0,1
271839,-66.6666666666667,4,1,0,100,0,1
271891,-65.7894736842105,4,1,0,100,0,1
272115,-62.5,4,1,0,100,0,1
272174,-60.9756097560976,4,1,0,100,0,1
272293,-59.1715976331361,4,1,0,100,0,1
272372,-58.1395348837209,4,1,0,100,0,1
272450,-57.1428571428571,4,1,0,100,0,1
272529,-56.1797752808989,4,1,0,100,0,1
272575,-66.6666666666667,4,1,0,100,0,1
276969,-66.6666666666667,4,1,0,100,0,0
277601,-66.6666666666667,4,1,0,100,0,1
282022,-66.6666666666667,4,1,0,100,0,0
282654,-66.6666666666667,4,1,0,100,0,1
287075,-66.6666666666667,4,1,0,100,0,0
287706,-66.6666666666667,4,1,0,100,0,1
290309,-66.006600660066,4,1,0,100,0,1
290388,-65.359477124183,4,1,0,100,0,1
290467,-64.7249190938511,4,1,0,100,0,1
290546,-64.1025641025641,4,1,0,100,0,1
290625,-63.4920634920635,4,1,0,100,0,1
290704,-62.8930817610063,4,1,0,100,0,1
290783,-62.3052959501558,4,1,0,100,0,1
290862,-61.7283950617284,4,1,0,100,0,1
290941,-61.1620795107034,4,1,0,100,0,1
291020,-60.6060606060606,4,1,0,100,0,1
291099,-60.0600600600601,4,1,0,100,0,1
291178,-59.5238095238095,4,1,0,100,0,1
291257,-58.9970501474926,4,1,0,100,0,1
291336,-58.4795321637427,4,1,0,100,0,1
291415,-57.9710144927536,4,1,0,100,0,1
291494,-57.4712643678161,4,1,0,100,0,1
291572,-56.980056980057,4,1,0,100,0,1
291651,-56.4971751412429,4,1,0,100,0,1
291704,-56.1797752808989,4,1,0,100,0,1
291757,-55.8659217877095,4,1,0,100,0,1
291809,-55.5555555555556,4,1,0,100,0,1
291862,-55.2486187845304,4,1,0,100,0,1
291915,-54.9450549450549,4,1,0,100,0,1
291967,-54.6448087431694,4,1,0,100,0,1
292020,-54.3478260869565,4,1,0,100,0,1
292072,-54.054054054054,4,1,0,100,0,1
292124,-54.054054054054,4,1,0,100,0,1
292127,-54.054054054054,4,1,0,100,0,0
292154,-20,4,1,0,95,0,0
292733,-21.2765957446809,4,1,0,90,0,0
293997,-24.390243902439,4,1,0,80,0,0
295260,-28.5714285714286,4,1,0,70,0,0
296523,-34.4827586206897,4,1,0,60,0,0
297786,-43.4782608695652,4,1,0,50,0,0
299049,-58.8235294117647,4,1,0,40,0,0
300312,-62.5,4,1,0,30,0,0
300414,-63.6942675159236,4,1,0,35,0,0
300493,-64.9350649350649,4,1,0,40,0,0
300598,-66.6666666666667,4,1,0,45,0,0
300729,-68.9655172413793,4,1,0,50,0,0
300887,-71.9424460431655,4,1,0,55,0,0
301072,-75.7575757575758,4,1,0,60,0,0
301283,-80.6451612903226,4,1,0,65,0,0
301520,-86.9565217391304,4,1,0,70,0,0
301598,-89.2857142857143,4,1,0,70,0,0
301782,-95.2380952380951,4,1,0,75,0,0
302071,-106.382978723404,4,1,0,80,0,0
302387,-121.951219512195,4,1,0,85,0,0
302729,-147.058823529412,4,1,0,90,0,0
302782,-151.515151515152,4,1,0,90,0,0
302835,-156.25,4,1,0,90,0,0
302891,-222.222222222222,4,1,0,5,0,0
303469,-222.222222222222,4,1,0,5,0,0
305365,-153.846153846153,4,1,0,15,0,0
305418,-117.647058823529,4,1,0,15,0,0
306628,-105.263157894737,4,1,0,15,0,0
307891,-95.2380952380949,4,1,0,25,0,0
307944,-80,4,1,0,25,0,0
309154,-68.9655172413793,4,1,0,35,0,0
310418,-60.6060606060606,4,1,0,35,0,0
310470,-133.333333333333,7,1,0,5,0,0
313575,-133.333333333333,7,1,0,10,0,0
315470,-95.2380952380952,7,1,0,15,0,0
315522,-80,7,1,0,15,0,0
317997,-68.9655172413793,7,1,0,25,0,0
318049,-60.6060606060606,7,1,0,25,0,0
319260,-54.054054054054,7,1,0,35,0,0
320523,-48.780487804878,7,1,0,35,0,0
320575,-133.333333333333,7,1,0,5,0,0
323681,-117.647058823529,7,1,0,5,0,0
325575,-95.2380952380951,7,1,0,15,0,0
325628,-80,7,1,0,15,0,0
328102,-68.9655172413793,7,1,0,25,0,0
328154,-60.6060606060606,7,1,0,25,0,0
330628,-54.054054054054,7,1,0,35,0,0
330681,-48.780487804878,7,1,0,5,0,0
330733,-133.333333333333,7,1,0,5,0,0
333470,-117.647058823529,7,1,0,5,0,0
334418,-105.263157894737,7,1,0,5,0,0
335681,-95.2380952380951,7,1,0,15,0,0
335733,-80,7,1,0,15,0,0
336944,-74.0740740740741,7,1,0,15,0,0
338207,-68.9655172413793,7,1,0,25,0,0
338260,-60.6060606060606,7,1,0,25,0,0
339470,-57.1428571428571,7,1,0,25,0,0
340733,-54.054054054054,7,1,0,35,0,0
340786,-48.780487804878,7,1,0,35,0,0
340839,-133.333333333333,7,1,0,5,0,0
343890,-117.647058823529,7,1,0,5,0,0
345786,-95.2380952380951,7,1,0,15,0,0
347049,-80,7,1,0,25,0,0
348312,-68.9655172413793,7,1,0,35,0,0
349575,-60.6060606060606,7,1,0,45,0,0
350839,-54.054054054054,7,1,0,55,0,0
352102,-48.780487804878,7,1,0,65,0,0
353365,-44.4444444444445,7,1,0,85,0,0
353418,-133.333333333333,7,1,0,5,0,0
354628,-68.9655172413793,7,1,0,25,0,0
354944,-57.1428571428571,7,1,0,35,0,0
355260,-48.780487804878,7,1,0,45,0,0
355891,-133.333333333333,7,1,0,5,0,0
356207,-95.2380952380951,7,1,0,35,0,0
356523,-44.4444444444445,7,1,0,55,0,0

[HitObjects]
256,192,3497,12,0,4602,1:0:0:0:
256,192,4760,5,0,1:0:0:0:
256,192,4865,1,8,1:0:0:0:
256,192,4918,1,8,1:0:0:0:
256,192,4970,1,8,1:0:0:0:
256,192,5075,1,0,1:0:0:0:
256,192,5181,1,8,1:0:0:0:
256,192,5286,1,8,1:0:0:0:
256,192,5391,1,0,1:0:0:0:
256,192,5602,1,8,1:0:0:0:
256,192,5812,1,8,1:0:0:0:
256,192,5918,1,0,1:0:0:0:
256,192,6023,1,8,1:0:0:0:
256,192,6233,1,0,1:0:0:0:
256,192,6444,1,0,1:0:0:0:
256,192,6549,1,0,1:0:0:0:
256,192,6654,1,8,1:0:0:0:
256,192,7286,1,0,1:0:0:0:
256,192,7339,1,0,1:0:0:0:
256,192,7391,1,8,1:0:0:0:
256,192,7497,1,8,1:0:0:0:
256,192,7602,1,0,1:0:0:0:
256,192,7707,1,8,1:0:0:0:
256,192,7812,1,8,1:0:0:0:
256,192,7918,1,0,1:0:0:0:
256,192,7970,1,0,1:0:0:0:
256,192,8023,1,0,1:0:0:0:
256,192,8128,1,8,1:0:0:0:
256,192,8181,1,8,1:0:0:0:
256,192,8233,1,8,1:0:0:0:
256,192,8339,1,8,1:0:0:0:
256,192,8444,1,0,1:0:0:0:
256,192,8549,1,8,1:0:0:0:
256,192,8654,1,8,1:0:0:0:
256,192,8865,1,0,1:0:0:0:
256,192,9075,1,0,1:0:0:0:
256,192,9181,1,8,1:0:0:0:
256,192,9812,1,0,1:0:0:0:
256,192,9918,1,8,1:0:0:0:
256,192,10023,1,8,1:0:0:0:
256,192,10075,1,0,1:0:0:0:
256,192,10128,1,8,1:0:0:0:
256,192,10233,1,0,1:0:0:0:
256,192,10339,1,0,1:0:0:0:
256,192,10444,1,8,1:0:0:0:
256,192,10549,1,8,1:0:0:0:
256,192,10654,1,0,1:0:0:0:
256,192,10707,1,0,1:0:0:0:
256,192,10760,1,8,1:0:0:0:
256,192,10865,1,8,1:0:0:0:
256,192,10970,1,0,1:0:0:0:
256,192,11075,1,8,1:0:0:0:
256,192,11181,1,8,1:0:0:0:
256,192,11391,1,8,1:0:0:0:
256,192,11497,1,0,1:0:0:0:
256,192,11602,1,0,1:0:0:0:
256,192,11707,1,8,1:0:0:0:
256,192,12339,1,0,1:0:0:0:
256,192,12391,1,0,1:0:0:0:
256,192,12444,1,0,1:0:0:0:
256,192,12497,1,0,1:0:0:0:
256,192,12549,1,8,1:0:0:0:
256,192,12654,1,0,1:0:0:0:
256,192,12760,1,8,1:0:0:0:
256,192,12865,1,8,1:0:0:0:
256,192,12970,1,0,1:0:0:0:
256,192,13075,1,8,1:0:0:0:
256,192,13181,1,0,1:0:0:0:
256,192,13233,1,0,1:0:0:0:
256,192,13286,1,8,1:0:0:0:
256,192,13391,1,8,1:0:0:0:
256,192,13497,1,0,1:0:0:0:
256,192,13602,1,8,1:0:0:0:
256,192,13707,1,8,1:0:0:0:
256,192,13918,1,0,1:0:0:0:
256,192,14023,1,8,1:0:0:0:
256,192,14128,1,0,1:0:0:0:
256,192,14233,1,0,1:0:0:0:
256,192,14444,1,0,1:0:0:0:
256,192,14549,1,8,1:0:0:0:
256,192,14654,1,8,1:0:0:0:
256,192,14760,1,8,1:0:0:0:
256,192,14865,1,0,1:0:0:0:
256,192,14970,1,8,1:0:0:0:
256,192,15023,1,0,1:0:0:0:
256,192,15075,1,8,1:0:0:0:
256,192,15181,1,8,1:0:0:0:
256,192,15286,1,0,1:0:0:0:
256,192,15391,1,8,1:0:0:0:
256,192,15497,1,8,1:0:0:0:
256,192,15602,1,0,1:0:0:0:
256,192,15654,1,0,1:0:0:0:
256,192,15707,1,0,1:0:0:0:
256,192,15812,1,8,1:0:0:0:
256,192,15918,1,0,1:0:0:0:
256,192,16023,1,8,1:0:0:0:
256,192,16128,1,0,1:0:0:0:
256,192,16339,1,0,1:0:0:0:
256,192,16497,1,0,1:0:0:0:
256,192,16549,1,0,1:0:0:0:
256,192,16654,1,0,1:0:0:0:
256,192,16760,1,8,1:0:0:0:
256,192,17391,1,0,1:0:0:0:
256,192,17444,1,0,1:0:0:0:
256,192,17497,1,8,1:0:0:0:
256,192,17549,1,8,1:0:0:0:
256,192,17602,1,8,1:0:0:0:
256,192,17707,1,8,1:0:0:0:
256,192,17812,1,0,1:0:0:0:
256,192,17918,1,8,1:0:0:0:
256,192,18023,1,0,1:0:0:0:
256,192,18075,1,0,1:0:0:0:
256,192,18128,1,0,1:0:0:0:
256,192,18233,1,8,1:0:0:0:
256,192,18339,1,8,1:0:0:0:
256,192,18444,1,0,1:0:0:0:
256,192,18549,1,0,1:0:0:0:
256,192,18654,1,8,1:0:0:0:
256,192,18760,1,8,1:0:0:0:
256,192,18970,1,8,1:0:0:0:
256,192,19181,1,0,1:0:0:0:
256,192,19286,1,8,1:0:0:0:
256,192,19918,1,0,1:0:0:0:
256,192,19970,1,0,1:0:0:0:
256,192,20023,1,0,1:0:0:0:
256,192,20128,1,8,1:0:0:0:
256,192,20181,1,8,1:0:0:0:
256,192,20233,1,8,1:0:0:0:
256,192,20339,1,0,1:0:0:0:
256,192,20444,1,8,1:0:0:0:
256,192,20549,1,0,1:0:0:0:
256,192,20602,1,0,1:0:0:0:
256,192,20654,1,8,1:0:0:0:
256,192,20760,1,0,1:0:0:0:
256,192,20865,1,8,1:0:0:0:
256,192,20970,1,0,1:0:0:0:
256,192,21075,1,8,1:0:0:0:
256,192,21181,1,0,1:0:0:0:
256,192,21299,1,0,1:0:0:0:
256,192,21418,1,0,1:0:0:0:
256,192,21536,1,0,1:0:0:0:
256,192,21602,1,0,1:0:0:0:
256,192,21694,1,0,1:0:0:0:
256,192,21812,1,8,1:0:0:0:
256,192,22444,1,0,1:0:0:0:
256,192,22497,1,0,1:0:0:0:
256,192,22549,1,0,1:0:0:0:
256,192,22602,1,0,1:0:0:0:
256,192,22654,1,8,1:0:0:0:
256,192,22760,1,0,1:0:0:0:
256,192,22812,1,0,1:0:0:0:
256,192,22865,1,8,1:0:0:0:
256,192,22970,1,0,1:0:0:0:
256,192,23023,1,0,1:0:0:0:
256,192,23075,1,8,1:0:0:0:
256,192,23181,1,0,1:0:0:0:
256,192,23286,1,8,1:0:0:0:
256,192,23339,1,8,1:0:0:0:
256,192,23391,1,0,1:0:0:0:
256,192,23497,1,8,1:0:0:0:
256,192,23602,1,0,1:0:0:0:
256,192,23707,1,8,1:0:0:0:
256,192,23865,1,8,1:0:0:0:
256,192,24023,1,8,1:0:0:0:
256,192,24181,1,0,1:0:0:0:
256,192,24339,1,0,1:0:0:0:
256,192,24391,1,0,1:0:0:0:
256,192,24444,1,8,1:0:0:0:
256,192,24497,1,8,1:0:0:0:
256,192,24549,1,0,1:0:0:0:
256,192,24654,1,0,1:0:0:0:
256,192,24707,1,0,1:0:0:0:
256,192,24760,1,8,1:0:0:0:
256,192,24891,1,8,1:0:0:0:
256,192,24970,1,0,1:0:0:0:
256,192,25023,1,0,1:0:0:0:
256,192,25075,1,0,1:0:0:0:
256,192,25128,1,8,1:0:0:0:
256,192,25181,1,8,1:0:0:0:
256,192,25286,1,0,1:0:0:0:
256,192,25391,1,8,1:0:0:0:
256,192,25497,1,8,1:0:0:0:
256,192,25602,1,0,1:0:0:0:
256,192,25654,1,0,1:0:0:0:
256,192,25707,1,0,1:0:0:0:
256,192,25812,1,8,1:0:0:0:
256,192,25865,1,8,1:0:0:0:
256,192,25918,1,8,1:0:0:0:
256,192,26023,1,0,1:0:0:0:
256,192,26128,1,0,1:0:0:0:
256,192,26233,1,8,1:0:0:0:
256,192,26286,1,8,1:0:0:0:
256,192,26339,1,8,1:0:0:0:
256,192,26444,1,0,1:0:0:0:
256,192,26549,1,8,1:0:0:0:
256,192,26654,1,0,1:0:0:0:
256,192,26760,1,0,1:0:0:0:
256,192,26865,1,8,1:0:0:0:
256,192,27497,1,0,1:0:0:0:
256,192,27549,1,0,1:0:0:0:
256,192,27602,1,0,1:0:0:0:
256,192,27654,1,0,1:0:0:0:
256,192,27707,1,8,1:0:0:0:
256,192,27812,1,0,1:0:0:0:
256,192,27918,1,8,1:0:0:0:
256,192,28023,1,8,1:0:0:0:
256,192,28075,1,0,1:0:0:0:
256,192,28128,1,8,1:0:0:0:
256,192,28233,1,0,1:0:0:0:
256,192,28339,1,8,1:0:0:0:
256,192,28391,1,8,1:0:0:0:
256,192,28444,1,0,1:0:0:0:
256,192,28497,1,0,1:0:0:0:
256,192,28549,1,8,1:0:0:0:
256,192,28654,1,0,1:0:0:0:
256,192,28760,1,8,1:0:0:0:
256,192,28865,1,8,1:0:0:0:
256,192,28918,1,8,1:0:0:0:
256,192,28970,1,0,1:0:0:0:
256,192,29075,1,8,1:0:0:0:
256,192,29128,1,8,1:0:0:0:
256,192,29181,1,0,1:0:0:0:
256,192,29286,1,0,1:0:0:0:
256,192,29391,1,8,1:0:0:0:
256,192,29589,1,8,1:0:0:0:
256,192,30023,1,0,1:0:0:0:
256,192,30075,1,0,1:0:0:0:
256,192,30128,1,0,1:0:0:0:
256,192,30233,1,8,1:0:0:0:
256,192,30286,1,8,1:0:0:0:
256,192,30339,1,8,1:0:0:0:
256,192,30444,1,0,1:0:0:0:
256,192,30549,1,8,1:0:0:0:
256,192,30654,1,0,1:0:0:0:
256,192,30707,1,0,1:0:0:0:
256,192,30760,1,8,1:0:0:0:
256,192,30865,1,0,1:0:0:0:
256,192,30970,1,8,1:0:0:0:
256,192,31075,1,8,1:0:0:0:
256,192,31181,1,0,1:0:0:0:
256,192,31286,1,8,1:0:0:0:
256,192,31391,1,8,1:0:0:0:
256,192,31444,1,8,1:0:0:0:
256,192,31497,1,0,1:0:0:0:
256,192,31602,1,8,1:0:0:0:
256,192,31707,1,0,1:0:0:0:
256,192,31812,1,8,1:0:0:0:
256,192,31918,1,8,1:0:0:0:
256,192,32549,1,0,1:0:0:0:
256,192,32602,1,0,1:0:0:0:
256,192,32654,1,8,1:0:0:0:
256,192,32707,1,8,1:0:0:0:
256,192,32760,1,8,1:0:0:0:
256,192,32865,1,0,1:0:0:0:
256,192,32970,1,8,1:0:0:0:
256,192,33075,1,0,1:0:0:0:
256,192,33128,1,0,1:0:0:0:
256,192,33181,1,0,1:0:0:0:
256,192,33286,1,8,1:0:0:0:
256,192,33391,1,8,1:0:0:0:
256,192,33444,1,8,1:0:0:0:
256,192,33497,1,0,1:0:0:0:
256,192,33602,1,0,1:0:0:0:
256,192,33707,1,8,1:0:0:0:
256,192,33812,1,8,1:0:0:0:
256,192,33918,1,0,1:0:0:0:
256,192,33970,1,0,1:0:0:0:
256,192,34023,1,0,1:0:0:0:
256,192,34128,1,8,1:0:0:0:
256,192,34181,1,8,1:0:0:0:
256,192,34233,1,8,1:0:0:0:
256,192,34339,1,8,1:0:0:0:
256,192,34444,1,0,1:0:0:0:
256,192,34497,1,0,1:0:0:0:
256,192,34549,1,8,1:0:0:0:
256,192,34602,1,8,1:0:0:0:
256,192,34654,1,0,1:0:0:0:
256,192,34760,1,8,1:0:0:0:
256,192,34865,1,8,1:0:0:0:
256,192,34970,1,8,1:0:0:0:
256,192,35075,1,0,1:0:0:0:
256,192,35128,1,0,1:0:0:0:
256,192,35181,1,0,1:0:0:0:
256,192,35233,1,0,1:0:0:0:
256,192,35286,1,8,1:0:0:0:
256,192,35391,1,0,1:0:0:0:
256,192,35497,1,8,1:0:0:0:
256,192,35549,1,8,1:0:0:0:
256,192,35602,1,8,1:0:0:0:
256,192,35707,1,0,1:0:0:0:
256,192,35760,1,0,1:0:0:0:
256,192,35812,1,0,1:0:0:0:
256,192,35918,1,8,1:0:0:0:
256,192,36023,1,0,1:0:0:0:
256,192,36075,1,8,1:0:0:0:
256,192,36128,1,0,1:0:0:0:
256,192,36233,1,8,1:0:0:0:
256,192,36286,1,0,1:0:0:0:
256,192,36339,1,8,1:0:0:0:
256,192,36444,1,0,1:0:0:0:
256,192,36549,1,0,1:0:0:0:
256,192,36654,1,8,1:0:0:0:
256,192,36760,1,8,1:0:0:0:
256,192,36865,1,0,1:0:0:0:
256,192,36970,1,8,1:0:0:0:
256,192,37602,1,0,1:0:0:0:
256,192,37654,1,0,1:0:0:0:
256,192,37707,1,8,1:0:0:0:
256,192,37760,1,0,1:0:0:0:
256,192,37812,1,8,1:0:0:0:
256,192,37918,1,0,1:0:0:0:
256,192,38023,1,8,1:0:0:0:
256,192,38128,1,8,1:0:0:0:
256,192,38233,1,0,1:0:0:0:
256,192,38286,1,0,1:0:0:0:
256,192,38339,1,8,1:0:0:0:
256,192,38444,1,0,1:0:0:0:
256,192,38549,1,0,1:0:0:0:
256,192,38602,1,8,1:0:0:0:
256,192,38654,1,0,1:0:0:0:
256,192,38760,1,8,1:0:0:0:
256,192,38812,1,0,1:0:0:0:
256,192,38865,1,8,1:0:0:0:
256,192,38970,1,0,1:0:0:0:
256,192,39075,1,8,1:0:0:0:
256,192,39181,1,0,1:0:0:0:
256,192,39286,1,0,1:0:0:0:
256,192,39391,1,0,1:0:0:0:
256,192,39497,1,8,1:0:0:0:
256,192,40128,1,0,1:0:0:0:
256,192,40181,1,0,1:0:0:0:
256,192,40233,1,0,1:0:0:0:
256,192,40286,1,0,1:0:0:0:
256,192,40339,1,8,1:0:0:0:
256,192,40444,1,0,1:0:0:0:
256,192,40549,1,8,1:0:0:0:
256,192,40654,1,0,1:0:0:0:
256,192,40760,1,8,1:0:0:0:
256,192,40812,1,8,1:0:0:0:
256,192,40865,1,0,1:0:0:0:
256,192,40970,1,8,1:0:0:0:
256,192,41075,1,0,1:0:0:0:
256,192,41128,1,8,1:0:0:0:
256,192,41181,1,0,1:0:0:0:
256,192,41286,1,8,1:0:0:0:
256,192,41339,1,0,1:0:0:0:
256,192,41391,1,8,1:0:0:0:
256,192,41497,1,0,1:0:0:0:
256,192,41602,1,0,1:0:0:0:
256,192,41707,1,8,1:0:0:0:
256,192,41812,1,8,1:0:0:0:
256,192,41918,1,0,1:0:0:0:
256,192,42023,1,8,1:0:0:0:
256,192,42654,1,0,1:0:0:0:
256,192,42707,1,0,1:0:0:0:
256,192,42760,1,8,1:0:0:0:
256,192,42812,1,8,1:0:0:0:
256,192,42865,1,8,1:0:0:0:
256,192,42970,1,0,1:0:0:0:
256,192,43075,1,8,1:0:0:0:
256,192,43181,1,8,1:0:0:0:
256,192,43286,1,0,1:0:0:0:
256,192,43339,1,0,1:0:0:0:
256,192,43391,1,8,1:0:0:0:
256,192,43497,1,0,1:0:0:0:
256,192,43602,1,0,1:0:0:0:
256,192,43654,1,8,1:0:0:0:
256,192,43707,1,0,1:0:0:0:
256,192,43812,1,8,1:0:0:0:
256,192,43865,1,0,1:0:0:0:
256,192,43918,1,8,1:0:0:0:
256,192,44023,1,0,1:0:0:0:
256,192,44128,1,8,1:0:0:0:
256,192,44233,1,0,1:0:0:0:
256,192,44339,1,8,1:0:0:0:
256,192,44444,1,8,1:0:0:0:
256,192,44549,1,0,1:0:0:0:
256,192,44654,1,8,1:0:0:0:
256,192,44707,1,8,1:0:0:0:
256,192,44760,1,8,1:0:0:0:
256,192,44865,1,0,1:0:0:0:
256,192,44970,1,8,1:0:0:0:
256,192,45102,1,8,1:0:0:0:
256,192,45181,1,0,1:0:0:0:
256,192,45233,1,0,1:0:0:0:
256,192,45286,1,8,1:0:0:0:
256,192,45391,1,0,1:0:0:0:
256,192,45497,1,0,1:0:0:0:
256,192,45602,1,8,1:0:0:0:
256,192,45707,1,8,1:0:0:0:
256,192,45812,1,0,1:0:0:0:
256,192,45865,1,8,1:0:0:0:
256,192,45918,1,0,1:0:0:0:
256,192,46023,1,8,1:0:0:0:
256,192,46128,1,0,1:0:0:0:
256,192,46233,1,8,1:0:0:0:
256,192,46339,1,8,1:0:0:0:
256,192,46444,1,0,1:0:0:0:
256,192,46497,1,0,1:0:0:0:
256,192,46549,1,8,1:0:0:0:
256,192,46654,1,0,1:0:0:0:
256,192,46707,1,8,1:0:0:0:
256,192,46760,1,8,1:0:0:0:
256,192,46865,1,0,1:0:0:0:
256,192,46970,1,8,1:0:0:0:
256,192,47075,1,0,1:0:0:0:
256,192,47128,1,8,1:0:0:0:
256,192,47181,1,0,1:0:0:0:
256,192,47286,1,8,1:0:0:0:
256,192,47339,1,0,1:0:0:0:
256,192,47391,1,8,1:0:0:0:
256,192,47497,1,0,1:0:0:0:
256,192,47602,1,8,1:0:0:0:
256,192,47707,1,0,1:0:0:0:
256,192,47760,1,0,1:0:0:0:
256,192,47812,1,0,1:0:0:0:
256,192,47865,1,0,1:0:0:0:
256,192,47918,1,8,1:0:0:0:
256,192,47970,1,0,1:0:0:0:
256,192,48023,1,0,1:0:0:0:
256,192,48075,1,0,1:0:0:0:
256,192,48128,1,8,1:0:0:0:
256,192,48181,1,8,1:0:0:0:
256,192,48233,1,0,1:0:0:0:
256,192,48286,1,0,1:0:0:0:
256,192,48339,1,8,1:0:0:0:
256,192,48391,1,0,1:0:0:0:
256,192,48444,1,0,1:0:0:0:
256,192,48497,1,8,1:0:0:0:
256,192,48549,1,0,1:0:0:0:
256,192,48602,1,0,1:0:0:0:
256,192,48654,12,0,49444,1:0:0:0:
256,192,49602,5,8,1:0:0:0:
256,192,49707,1,8,1:0:0:0:
256,192,49812,1,8,1:0:0:0:
256,192,49865,1,8,1:0:0:0:
256,192,49918,1,8,1:0:0:0:
256,192,49970,1,8,1:0:0:0:
256,192,50023,1,8,1:0:0:0:
256,192,50075,1,8,1:0:0:0:
256,192,50128,1,8,1:0:0:0:
256,192,50181,1,8,1:0:0:0:
256,192,50233,1,0,1:0:0:0:
256,192,50865,1,0,1:0:0:0:
256,192,50983,1,8,1:0:0:0:
256,192,51101,1,8,1:0:0:0:
256,192,51220,1,8,1:0:0:0:
256,192,51259,1,0,1:0:0:0:
256,192,51338,1,8,1:0:0:0:
256,192,51417,1,8,1:0:0:0:
256,192,51496,1,8,1:0:0:0:
256,192,51615,1,8,1:0:0:0:
256,192,51733,1,8,1:0:0:0:
256,192,51851,1,8,1:0:0:0:
256,192,51970,1,8,1:0:0:0:
256,192,52049,1,8,1:0:0:0:
256,192,52128,1,0,1:0:0:0:
256,192,52207,1,8,1:0:0:0:
256,192,52286,1,8,1:0:0:0:
256,192,52391,1,8,1:0:0:0:
256,192,52483,1,8,1:0:0:0:
256,192,52522,1,0,1:0:0:0:
256,192,52641,1,8,1:0:0:0:
256,192,52759,1,8,1:0:0:0:
256,192,52838,1,8,1:0:0:0:
256,192,52917,1,8,1:0:0:0:
256,192,53022,1,8,1:0:0:0:
256,192,53128,1,8,1:0:0:0:
256,192,53272,1,8,1:0:0:0:
256,192,53391,1,0,1:0:0:0:
256,192,53509,1,8,1:0:0:0:
256,192,53654,1,8,1:0:0:0:
256,192,53746,1,8,1:0:0:0:
256,192,53786,1,0,1:0:0:0:
256,192,53865,1,8,1:0:0:0:
256,192,53943,1,8,1:0:0:0:
256,192,54022,1,8,1:0:0:0:
256,192,54141,1,8,1:0:0:0:
256,192,54259,1,8,1:0:0:0:
256,192,54378,1,8,1:0:0:0:
256,192,54496,1,8,1:0:0:0:
256,192,54575,1,8,1:0:0:0:
256,192,54654,1,0,1:0:0:0:
256,192,54733,1,8,1:0:0:0:
256,192,54812,1,8,1:0:0:0:
256,192,54917,1,8,1:0:0:0:
256,192,55009,1,8,1:0:0:0:
256,192,55049,1,0,1:0:0:0:
256,192,55128,1,8,1:0:0:0:
256,192,55180,1,8,1:0:0:0:
256,192,55233,1,8,1:0:0:0:
256,192,55286,1,8,1:0:0:0:
256,192,55365,1,8,1:0:0:0:
256,192,55443,1,8,1:0:0:0:
256,192,55549,1,8,1:0:0:0:
256,192,55654,1,8,1:0:0:0:
256,192,55799,1,8,1:0:0:0:
256,192,55917,1,0,1:0:0:0:
256,192,56036,1,8,1:0:0:0:
256,192,56180,1,8,1:0:0:0:
256,192,56272,1,8,1:0:0:0:
256,192,56312,1,0,1:0:0:0:
256,192,56391,1,8,1:0:0:0:
256,192,56470,1,8,1:0:0:0:
256,192,56549,1,8,1:0:0:0:
256,192,56667,1,8,1:0:0:0:
256,192,56812,1,8,1:0:0:0:
256,192,56917,1,8,1:0:0:0:
256,192,57022,1,8,1:0:0:0:
256,192,57101,1,8,1:0:0:0:
256,192,57180,1,0,1:0:0:0:
256,192,57259,1,8,1:0:0:0:
256,192,57338,1,8,1:0:0:0:
256,192,57443,1,8,1:0:0:0:
256,192,57536,1,8,1:0:0:0:
256,192,57575,1,0,1:0:0:0:
256,192,57654,1,8,1:0:0:0:
256,192,57812,1,8,1:0:0:0:
256,192,57891,1,8,1:0:0:0:
256,192,57970,1,8,1:0:0:0:
256,192,58075,1,8,1:0:0:0:
256,192,58180,1,8,1:0:0:0:
256,192,58325,1,8,1:0:0:0:
256,192,58443,1,0,1:0:0:0:
256,192,58562,1,8,1:0:0:0:
256,192,58680,1,8,1:0:0:0:
256,192,58799,1,8,1:0:0:0:
256,192,58838,1,0,1:0:0:0:
256,192,58917,1,8,1:0:0:0:
256,192,58996,1,8,1:0:0:0:
256,192,59075,1,8,1:0:0:0:
256,192,59193,1,8,1:0:0:0:
256,192,59312,1,8,1:0:0:0:
256,192,59430,1,8,1:0:0:0:
256,192,59549,1,8,1:0:0:0:
256,192,59628,1,8,1:0:0:0:
256,192,59707,1,0,1:0:0:0:
256,192,59786,1,8,1:0:0:0:
256,192,59943,1,8,1:0:0:0:
256,192,60022,1,8,1:0:0:0:
256,192,60101,1,0,1:0:0:0:
256,192,60259,1,8,1:0:0:0:
256,192,60338,1,8,1:0:0:0:
256,192,60391,1,8,1:0:0:0:
256,192,60443,1,8,1:0:0:0:
256,192,60496,1,8,0:0:0:0:
256,192,60549,1,8,1:0:0:0:
256,192,60628,1,8,1:0:0:0:
256,192,60707,1,8,1:0:0:0:
256,192,60786,1,8,1:0:0:0:
256,192,60865,1,8,0:0:0:0:
256,192,60970,1,0,1:0:0:0:
256,192,61088,1,8,1:0:0:0:
256,192,61207,1,8,1:0:0:0:
256,192,61325,1,8,1:0:0:0:
256,192,61365,1,0,1:0:0:0:
256,192,61443,1,8,1:0:0:0:
256,192,61522,1,8,1:0:0:0:
256,192,61601,1,8,1:0:0:0:
256,192,61720,1,8,1:0:0:0:
256,192,61865,1,8,1:0:0:0:
256,192,61970,1,8,1:0:0:0:
256,192,62075,1,8,1:0:0:0:
256,192,62154,1,8,1:0:0:0:
256,192,62233,1,0,1:0:0:0:
256,192,62312,1,8,1:0:0:0:
256,192,62391,1,8,1:0:0:0:
256,192,62496,1,8,1:0:0:0:
256,192,62588,1,8,1:0:0:0:
256,192,62628,1,0,1:0:0:0:
256,192,62707,1,8,1:0:0:0:
256,192,62865,1,8,1:0:0:0:
256,192,62943,1,8,1:0:0:0:
256,192,63022,1,8,1:0:0:0:
256,192,63128,1,8,1:0:0:0:
256,192,63233,1,8,1:0:0:0:
256,192,63378,1,8,1:0:0:0:
256,192,63496,1,0,1:0:0:0:
256,192,63615,1,8,1:0:0:0:
256,192,63733,1,8,1:0:0:0:
256,192,63851,1,8,1:0:0:0:
256,192,63891,1,0,1:0:0:0:
256,192,63970,1,8,1:0:0:0:
256,192,64049,1,8,1:0:0:0:
256,192,64128,1,8,1:0:0:0:
256,192,64246,1,8,1:0:0:0:
256,192,64365,1,8,1:0:0:0:
256,192,64483,1,8,1:0:0:0:
256,192,64601,1,8,1:0:0:0:
256,192,64680,1,8,1:0:0:0:
256,192,64759,1,0,1:0:0:0:
256,192,64838,1,8,1:0:0:0:
256,192,64917,1,8,1:0:0:0:
256,192,65022,1,8,1:0:0:0:
256,192,65115,1,8,1:0:0:0:
256,192,65154,1,0,1:0:0:0:
256,192,65233,1,8,1:0:0:0:
256,192,65286,1,8,1:0:0:0:
256,192,65338,1,8,1:0:0:0:
256,192,65391,1,8,1:0:0:0:
256,192,65470,1,8,1:0:0:0:
256,192,65549,1,8,1:0:0:0:
256,192,65654,1,8,1:0:0:0:
256,192,65759,1,8,1:0:0:0:
256,192,65904,1,8,1:0:0:0:
256,192,66022,1,0,1:0:0:0:
256,192,66141,1,8,1:0:0:0:
256,192,66259,1,8,1:0:0:0:
256,192,66378,1,8,1:0:0:0:
256,192,66417,1,0,1:0:0:0:
256,192,66496,1,8,1:0:0:0:
256,192,66575,1,8,1:0:0:0:
256,192,66654,1,8,1:0:0:0:
256,192,66772,1,8,1:0:0:0:
256,192,66891,1,8,1:0:0:0:
256,192,67009,1,8,1:0:0:0:
256,192,67128,1,8,1:0:0:0:
256,192,67207,1,8,1:0:0:0:
256,192,67286,1,0,1:0:0:0:
256,192,67365,1,8,1:0:0:0:
256,192,67443,1,0,1:0:0:0:
256,192,67549,1,8,1:0:0:0:
256,192,67641,1,8,1:0:0:0:
256,192,67680,1,0,1:0:0:0:
256,192,67917,12,0,70286,1:0:0:0:
256,192,70443,5,8,1:0:0:0:
256,192,70496,1,0,1:0:0:0:
256,192,70549,1,8,1:0:0:0:
256,192,70601,1,8,1:0:0:0:
256,192,70654,1,0,1:0:0:0:
256,192,70707,1,0,1:0:0:0:
256,192,70759,1,8,1:0:0:0:
256,192,70812,1,8,1:0:0:0:
256,192,70865,1,0,1:0:0:0:
256,192,70917,1,0,1:0:0:0:
256,192,70970,1,8,1:0:0:0:
256,192,71022,1,8,1:0:0:0:
256,192,71075,1,0,1:0:0:0:
256,192,71193,1,8,1:0:0:0:
256,192,71312,1,8,1:0:0:0:
256,192,71430,1,8,1:0:0:0:
256,192,71470,1,0,1:0:0:0:
256,192,71549,1,8,1:0:0:0:
256,192,71628,1,8,1:0:0:0:
256,192,71707,1,8,1:0:0:0:
256,192,71825,1,8,1:0:0:0:
256,192,71943,1,8,1:0:0:0:
256,192,72062,1,8,1:0:0:0:
256,192,72180,1,8,1:0:0:0:
256,192,72259,1,8,1:0:0:0:
256,192,72338,1,0,1:0:0:0:
256,192,72417,1,8,1:0:0:0:
256,192,72496,1,8,1:0:0:0:
256,192,72601,1,8,1:0:0:0:
256,192,72693,1,8,1:0:0:0:
256,192,72733,1,0,1:0:0:0:
256,192,72851,1,8,1:0:0:0:
256,192,72970,1,8,1:0:0:0:
256,192,73049,1,8,1:0:0:0:
256,192,73128,1,8,1:0:0:0:
256,192,73233,1,8,1:0:0:0:
256,192,73338,1,8,1:0:0:0:
256,192,73483,1,8,1:0:0:0:
256,192,73601,1,0,1:0:0:0:
256,192,73720,1,8,1:0:0:0:
256,192,73865,1,8,1:0:0:0:
256,192,73957,1,8,1:0:0:0:
256,192,73996,1,0,1:0:0:0:
256,192,74075,1,8,1:0:0:0:
256,192,74154,1,8,1:0:0:0:
256,192,74233,1,8,1:0:0:0:
256,192,74351,1,8,1:0:0:0:
256,192,74470,1,8,1:0:0:0:
256,192,74588,1,8,1:0:0:0:
256,192,74707,1,8,1:0:0:0:
256,192,74786,1,8,1:0:0:0:
256,192,74865,1,0,1:0:0:0:
256,192,74943,1,8,1:0:0:0:
256,192,75022,1,8,1:0:0:0:
256,192,75128,1,8,1:0:0:0:
256,192,75220,1,8,1:0:0:0:
256,192,75259,1,0,1:0:0:0:
256,192,75338,1,8,1:0:0:0:
256,192,75391,1,8,1:0:0:0:
256,192,75443,1,8,1:0:0:0:
256,192,75496,1,8,1:0:0:0:
256,192,75575,1,8,1:0:0:0:
256,192,75654,1,8,1:0:0:0:
256,192,75759,1,8,1:0:0:0:
256,192,75865,1,8,1:0:0:0:
256,192,76009,1,8,1:0:0:0:
256,192,76128,1,0,1:0:0:0:
256,192,76246,1,8,1:0:0:0:
256,192,76391,1,8,1:0:0:0:
256,192,76483,1,8,1:0:0:0:
256,192,76522,1,0,1:0:0:0:
256,192,76601,1,8,1:0:0:0:
256,192,76680,1,8,1:0:0:0:
256,192,76759,1,8,1:0:0:0:
256,192,76878,1,8,1:0:0:0:
256,192,77022,1,8,1:0:0:0:
256,192,77128,1,8,1:0:0:0:
256,192,77233,1,8,1:0:0:0:
256,192,77312,1,8,1:0:0:0:
256,192,77391,1,0,1:0:0:0:
256,192,77470,1,8,1:0:0:0:
256,192,77549,1,8,1:0:0:0:
256,192,77654,1,8,1:0:0:0:
256,192,77746,1,8,1:0:0:0:
256,192,77786,1,0,1:0:0:0:
256,192,77865,1,8,1:0:0:0:
256,192,78022,1,8,1:0:0:0:
256,192,78101,1,8,1:0:0:0:
256,192,78180,1,8,1:0:0:0:
256,192,78286,1,8,1:0:0:0:
256,192,78391,1,8,1:0:0:0:
256,192,78536,1,8,1:0:0:0:
256,192,78654,1,0,1:0:0:0:
256,192,78772,1,8,1:0:0:0:
256,192,78891,1,8,1:0:0:0:
256,192,79009,1,8,1:0:0:0:
256,192,79049,1,0,1:0:0:0:
256,192,79128,1,8,1:0:0:0:
256,192,79207,1,8,1:0:0:0:
256,192,79286,1,8,1:0:0:0:
256,192,79404,1,8,1:0:0:0:
256,192,79522,1,8,1:0:0:0:
256,192,79641,1,8,1:0:0:0:
256,192,79759,1,8,1:0:0:0:
256,192,79838,1,8,1:0:0:0:
256,192,79917,1,0,1:0:0:0:
256,192,79996,1,8,1:0:0:0:
256,192,80154,1,8,1:0:0:0:
256,192,80233,1,8,1:0:0:0:
256,192,80312,1,0,1:0:0:0:
256,192,80470,1,8,1:0:0:0:
256,192,80549,1,8,1:0:0:0:
256,192,80601,1,8,1:0:0:0:
256,192,80654,1,8,1:0:0:0:
256,192,80707,1,8,0:0:0:0:
256,192,80759,1,8,1:0:0:0:
256,192,80838,1,8,1:0:0:0:
256,192,80917,1,8,1:0:0:0:
256,192,80996,1,8,1:0:0:0:
256,192,81075,1,8,0:0:0:0:
256,192,81180,1,0,1:0:0:0:
256,192,81299,1,8,1:0:0:0:
256,192,81417,1,8,1:0:0:0:
256,192,81536,1,8,1:0:0:0:
256,192,81575,1,0,1:0:0:0:
256,192,81654,1,8,1:0:0:0:
256,192,81733,1,8,1:0:0:0:
256,192,81812,1,8,1:0:0:0:
256,192,81930,1,8,1:0:0:0:
256,192,82075,1,8,1:0:0:0:
256,192,82180,1,8,1:0:0:0:
256,192,82286,1,8,1:0:0:0:
256,192,82365,1,8,1:0:0:0:
256,192,82443,1,0,1:0:0:0:
256,192,82522,1,8,1:0:0:0:
256,192,82601,1,8,1:0:0:0:
256,192,82707,1,8,1:0:0:0:
256,192,82799,1,8,1:0:0:0:
256,192,82838,1,0,1:0:0:0:
256,192,82917,1,8,1:0:0:0:
256,192,83075,1,8,1:0:0:0:
256,192,83154,1,8,1:0:0:0:
256,192,83233,1,8,1:0:0:0:
256,192,83338,1,8,1:0:0:0:
256,192,83443,1,8,1:0:0:0:
256,192,83588,1,8,1:0:0:0:
256,192,83707,1,0,1:0:0:0:
256,192,83825,1,8,1:0:0:0:
256,192,83943,1,8,1:0:0:0:
256,192,84062,1,8,1:0:0:0:
256,192,84101,1,0,1:0:0:0:
256,192,84180,1,8,1:0:0:0:
256,192,84259,1,8,1:0:0:0:
256,192,84338,1,8,1:0:0:0:
256,192,84457,1,8,1:0:0:0:
256,192,84575,1,8,1:0:0:0:
256,192,84693,1,8,1:0:0:0:
256,192,84812,1,8,1:0:0:0:
256,192,84891,1,8,1:0:0:0:
256,192,84970,1,0,1:0:0:0:
256,192,85049,1,8,1:0:0:0:
256,192,85128,1,8,1:0:0:0:
256,192,85233,1,8,1:0:0:0:
256,192,85325,1,8,1:0:0:0:
256,192,85365,1,0,1:0:0:0:
256,192,85443,1,8,1:0:0:0:
256,192,85496,1,8,1:0:0:0:
256,192,85549,1,8,1:0:0:0:
256,192,85601,1,8,1:0:0:0:
256,192,85680,1,8,1:0:0:0:
256,192,85759,1,8,1:0:0:0:
256,192,85865,1,8,1:0:0:0:
256,192,85970,1,8,1:0:0:0:
256,192,86115,1,8,1:0:0:0:
256,192,86233,1,0,1:0:0:0:
256,192,86351,1,8,1:0:0:0:
256,192,86470,1,8,1:0:0:0:
256,192,86588,1,8,1:0:0:0:
256,192,86628,1,0,1:0:0:0:
256,192,86707,1,8,1:0:0:0:
256,192,86786,1,8,1:0:0:0:
256,192,86865,1,8,1:0:0:0:
256,192,86983,1,8,1:0:0:0:
256,192,87101,1,8,1:0:0:0:
256,192,87220,1,8,1:0:0:0:
256,192,87338,1,8,1:0:0:0:
256,192,87417,1,8,1:0:0:0:
256,192,87496,1,0,1:0:0:0:
256,192,87575,1,8,1:0:0:0:
256,192,87654,1,0,1:0:0:0:
256,192,87759,1,8,1:0:0:0:
256,192,87851,1,8,1:0:0:0:
256,192,87891,1,0,1:0:0:0:
256,192,88128,12,0,88601,1:0:0:0:
256,192,88759,12,0,89233,1:0:0:0:
256,192,89391,12,0,89865,1:0:0:0:
256,192,90022,12,0,90496,1:0:0:0:
256,192,90654,5,8,1:0:0:0:
256,192,91285,1,8,1:0:0:0:
256,192,100127,12,8,100601,1:0:0:0:
256,192,100759,5,0,1:0:0:0:
256,192,101390,1,0,1:0:0:0:
256,192,101496,1,0,1:0:0:0:
256,192,101601,1,8,1:0:0:0:
256,192,101706,1,8,1:0:0:0:
256,192,101811,1,0,1:0:0:0:
256,192,101917,1,8,1:0:0:0:
256,192,102022,1,0,1:0:0:0:
256,192,102127,1,0,1:0:0:0:
256,192,102232,1,8,1:0:0:0:
256,192,102338,1,8,1:0:0:0:
256,192,102443,1,0,1:0:0:0:
256,192,102548,1,8,1:0:0:0:
256,192,102654,1,0,1:0:0:0:
256,192,102759,1,0,1:0:0:0:
256,192,102864,1,8,1:0:0:0:
256,192,102969,1,8,1:0:0:0:
256,192,103075,1,8,1:0:0:0:
256,192,103180,1,0,1:0:0:0:
256,192,103285,1,8,1:0:0:0:
256,192,103917,1,0,1:0:0:0:
256,192,104022,1,8,1:0:0:0:
256,192,104127,1,8,1:0:0:0:
256,192,104232,1,0,1:0:0:0:
256,192,104338,1,0,1:0:0:0:
256,192,104443,1,8,1:0:0:0:
256,192,104548,1,0,1:0:0:0:
256,192,104654,1,8,1:0:0:0:
256,192,104759,1,8,1:0:0:0:
256,192,104864,1,0,1:0:0:0:
256,192,104969,1,8,1:0:0:0:
256,192,105075,1,8,1:0:0:0:
256,192,105180,1,0,1:0:0:0:
256,192,105285,1,0,1:0:0:0:
256,192,105390,1,8,1:0:0:0:
256,192,105496,1,8,1:0:0:0:
256,192,105601,1,0,1:0:0:0:
256,192,105654,1,0,1:0:0:0:
256,192,105706,1,0,1:0:0:0:
256,192,105811,1,8,1:0:0:0:
256,192,106443,1,0,1:0:0:0:
256,192,106548,1,0,1:0:0:0:
256,192,106654,1,8,1:0:0:0:
256,192,106759,1,0,1:0:0:0:
256,192,106864,1,8,1:0:0:0:
256,192,106969,1,0,1:0:0:0:
256,192,107075,1,8,1:0:0:0:
256,192,107180,1,0,1:0:0:0:
256,192,107285,1,8,1:0:0:0:
256,192,107390,1,8,1:0:0:0:
256,192,107496,1,0,1:0:0:0:
256,192,107601,1,8,1:0:0:0:
256,192,107706,1,0,1:0:0:0:
256,192,107811,1,0,1:0:0:0:
256,192,107917,1,8,1:0:0:0:
256,192,108022,1,8,1:0:0:0:
256,192,108127,1,0,1:0:0:0:
256,192,108232,1,8,1:0:0:0:
256,192,108338,1,8,1:0:0:0:
256,192,108443,1,0,1:0:0:0:
256,192,108548,1,0,1:0:0:0:
256,192,108654,1,8,1:0:0:0:
256,192,108759,1,0,1:0:0:0:
256,192,108864,1,0,1:0:0:0:
256,192,108969,1,0,1:0:0:0:
256,192,109075,1,8,1:0:0:0:
256,192,109180,1,0,1:0:0:0:
256,192,109285,1,0,1:0:0:0:
256,192,109390,1,8,1:0:0:0:
256,192,109496,1,0,1:0:0:0:
256,192,109601,1,8,1:0:0:0:
256,192,109706,1,0,1:0:0:0:
256,192,109811,1,0,1:0:0:0:
256,192,109917,1,8,1:0:0:0:
256,192,110022,1,0,1:0:0:0:
256,192,110127,1,0,1:0:0:0:
256,192,110232,1,8,1:0:0:0:
256,192,110338,1,0,1:0:0:0:
256,192,110443,1,8,1:0:0:0:
256,192,110548,1,8,1:0:0:0:
256,192,110654,1,0,1:0:0:0:
256,192,110759,1,0,1:0:0:0:
256,192,110864,1,8,1:0:0:0:
256,192,111496,1,0,1:0:0:0:
256,192,111601,1,8,1:0:0:0:
256,192,111706,1,8,1:0:0:0:
256,192,111811,1,8,1:0:0:0:
256,192,111917,1,0,1:0:0:0:
256,192,112022,1,8,1:0:0:0:
256,192,112127,1,0,1:0:0:0:
256,192,112232,1,8,1:0:0:0:
256,192,112338,1,8,1:0:0:0:
256,192,112443,1,0,1:0:0:0:
256,192,112548,1,0,1:0:0:0:
256,192,112654,1,8,1:0:0:0:
256,192,112706,1,8,1:0:0:0:
256,192,112759,1,0,1:0:0:0:
256,192,112864,1,8,1:0:0:0:
256,192,112969,1,8,1:0:0:0:
256,192,113075,1,0,1:0:0:0:
256,192,113180,1,8,1:0:0:0:
256,192,113285,1,0,1:0:0:0:
256,192,113390,1,8,1:0:0:0:
256,192,114022,1,0,1:0:0:0:
256,192,114127,1,8,1:0:0:0:
256,192,114180,1,8,1:0:0:0:
256,192,114232,1,8,1:0:0:0:
256,192,114338,1,0,1:0:0:0:
256,192,114443,1,0,1:0:0:0:
256,192,114548,1,8,1:0:0:0:
256,192,114654,1,0,1:0:0:0:
256,192,114759,1,8,1:0:0:0:
256,192,114864,1,8,1:0:0:0:
256,192,114969,1,0,1:0:0:0:
256,192,115075,1,0,1:0:0:0:
256,192,115180,1,8,1:0:0:0:
256,192,115285,1,0,1:0:0:0:
256,192,115390,1,8,1:0:0:0:
256,192,115496,1,8,1:0:0:0:
256,192,115548,1,8,1:0:0:0:
256,192,115601,1,0,1:0:0:0:
256,192,115706,1,0,1:0:0:0:
256,192,115811,1,8,1:0:0:0:
256,192,115917,1,8,1:0:0:0:
256,192,116548,1,0,1:0:0:0:
256,192,116601,1,0,1:0:0:0:
256,192,116654,1,0,1:0:0:0:
256,192,116706,1,0,1:0:0:0:
256,192,116759,1,8,1:0:0:0:
256,192,116864,1,0,1:0:0:0:
256,192,116969,1,8,1:0:0:0:
256,192,117075,1,0,1:0:0:0:
256,192,117180,1,8,1:0:0:0:
256,192,117285,1,8,1:0:0:0:
256,192,117390,1,0,1:0:0:0:
256,192,117496,1,8,1:0:0:0:
256,192,117601,1,0,1:0:0:0:
256,192,117654,1,0,1:0:0:0:
256,192,117706,1,8,1:0:0:0:
256,192,117811,1,0,1:0:0:0:
256,192,117917,1,8,1:0:0:0:
256,192,118022,1,0,1:0:0:0:
256,192,118127,1,8,1:0:0:0:
256,192,118232,1,8,1:0:0:0:
256,192,118338,1,0,1:0:0:0:
256,192,118390,1,0,1:0:0:0:
256,192,118443,1,8,1:0:0:0:
256,192,118548,1,0,1:0:0:0:
256,192,118654,1,0,1:0:0:0:
256,192,118759,1,0,1:0:0:0:
256,192,118864,1,8,1:0:0:0:
256,192,118969,1,8,1:0:0:0:
256,192,119075,1,0,1:0:0:0:
256,192,119180,1,8,1:0:0:0:
256,192,119285,1,0,1:0:0:0:
256,192,119390,1,0,1:0:0:0:
256,192,119443,1,0,1:0:0:0:
256,192,119496,1,8,1:0:0:0:
256,192,119548,1,8,1:0:0:0:
256,192,119601,1,0,1:0:0:0:
256,192,119706,1,8,1:0:0:0:
256,192,120022,1,8,1:0:0:0:
256,192,120338,1,8,1:0:0:0:
256,192,120548,1,8,1:0:0:0:
256,192,120759,1,8,1:0:0:0:
256,192,120864,1,0,1:0:0:0:
256,192,120969,1,8,1:0:0:0:
256,192,121390,1,0,1:0:0:0:
256,192,121601,1,8,1:0:0:0:
256,192,121654,1,0,1:0:0:0:
256,192,121706,1,8,1:0:0:0:
256,192,121811,1,0,1:0:0:0:
256,192,121917,1,8,1:0:0:0:
256,192,122022,1,8,1:0:0:0:
256,192,122127,1,8,1:0:0:0:
256,192,122232,1,0,1:0:0:0:
256,192,122338,1,8,1:0:0:0:
256,192,122443,1,8,1:0:0:0:
256,192,122548,1,8,1:0:0:0:
256,192,122654,1,0,1:0:0:0:
256,192,122759,1,8,1:0:0:0:
256,192,122864,1,0,1:0:0:0:
256,192,122969,1,8,1:0:0:0:
256,192,123075,1,0,1:0:0:0:
256,192,123180,1,0,1:0:0:0:
256,192,123285,1,8,1:0:0:0:
256,192,123390,1,0,1:0:0:0:
256,192,123496,1,8,1:0:0:0:
256,192,123917,1,0,1:0:0:0:
256,192,124022,1,8,1:0:0:0:
256,192,124127,1,8,1:0:0:0:
256,192,124232,1,0,1:0:0:0:
256,192,124338,1,0,1:0:0:0:
256,192,124443,1,8,1:0:0:0:
256,192,124548,1,0,1:0:0:0:
256,192,124654,1,8,1:0:0:0:
256,192,124759,1,0,1:0:0:0:
256,192,124864,1,8,1:0:0:0:
256,192,124969,1,8,1:0:0:0:
256,192,125022,1,8,1:0:0:0:
256,192,125075,1,0,1:0:0:0:
256,192,125180,1,8,1:0:0:0:
256,192,125285,1,8,1:0:0:0:
256,192,125390,1,8,1:0:0:0:
256,192,125496,1,0,1:0:0:0:
256,192,125601,1,0,1:0:0:0:
256,192,125706,1,8,1:0:0:0:
256,192,125811,1,0,1:0:0:0:
256,192,125864,1,0,1:0:0:0:
256,192,125917,1,0,1:0:0:0:
256,192,126022,1,8,1:0:0:0:
256,192,126443,1,0,1:0:0:0:
256,192,126548,1,0,1:0:0:0:
256,192,126654,1,8,1:0:0:0:
256,192,126706,1,8,1:0:0:0:
256,192,126759,1,8,1:0:0:0:
256,192,126864,1,0,1:0:0:0:
256,192,126969,1,8,1:0:0:0:
256,192,127075,1,0,1:0:0:0:
256,192,127127,1,0,1:0:0:0:
256,192,127180,1,8,1:0:0:0:
256,192,127285,1,0,1:0:0:0:
256,192,127390,1,8,1:0:0:0:
256,192,127496,1,8,1:0:0:0:
256,192,127601,1,0,1:0:0:0:
256,192,127706,1,8,1:0:0:0:
256,192,127811,1,8,1:0:0:0:
256,192,127917,1,0,1:0:0:0:
256,192,127969,1,0,1:0:0:0:
256,192,128022,1,8,1:0:0:0:
256,192,128127,1,0,1:0:0:0:
256,192,128232,1,0,1:0:0:0:
256,192,128338,1,8,1:0:0:0:
256,192,128390,1,8,1:0:0:0:
256,192,128443,1,0,1:0:0:0:
256,192,128548,1,8,1:0:0:0:
256,192,128759,1,8,1:0:0:0:
256,192,128864,1,8,1:0:0:0:
256,192,128969,1,0,1:0:0:0:
256,192,129075,1,8,1:0:0:0:
256,192,129180,1,0,1:0:0:0:
256,192,129285,1,8,1:0:0:0:
256,192,129496,1,0,1:0:0:0:
256,192,129601,1,0,1:0:0:0:
256,192,129654,1,0,1:0:0:0:
256,192,129706,1,0,1:0:0:0:
256,192,129811,1,8,1:0:0:0:
256,192,130022,1,0,1:0:0:0:
256,192,130127,1,8,1:0:0:0:
256,192,130338,1,0,1:0:0:0:
256,192,130443,1,8,1:0:0:0:
256,192,130654,1,8,1:0:0:0:
256,192,130759,1,0,1:0:0:0:
256,192,130864,1,8,1:0:0:0:
256,192,130917,1,8,1:0:0:0:
256,192,130969,1,0,1:0:0:0:
256,192,131022,1,0,1:0:0:0:
256,192,131075,1,8,1:0:0:0:
256,192,131390,1,0,1:0:0:0:
256,192,131496,1,0,1:0:0:0:
256,192,131601,1,8,1:0:0:0:
256,192,131706,1,0,1:0:0:0:
256,192,131759,1,8,1:0:0:0:
256,192,131811,1,0,1:0:0:0:
256,192,131917,1,8,1:0:0:0:
256,192,132022,1,0,1:0:0:0:
256,192,132127,1,8,1:0:0:0:
256,192,132232,1,8,1:0:0:0:
256,192,132338,1,0,1:0:0:0:
256,192,132443,1,8,1:0:0:0:
256,192,132496,1,0,1:0:0:0:
256,192,132548,1,8,1:0:0:0:
256,192,132654,1,0,1:0:0:0:
256,192,132759,1,0,1:0:0:0:
256,192,132864,1,0,1:0:0:0:
256,192,132969,1,8,1:0:0:0:
256,192,133022,1,0,1:0:0:0:
256,192,133075,1,8,1:0:0:0:
256,192,133180,1,8,1:0:0:0:
256,192,133285,1,0,1:0:0:0:
256,192,133390,1,8,1:0:0:0:
256,192,133496,1,0,1:0:0:0:
256,192,133601,1,8,1:0:0:0:
256,192,133917,1,0,1:0:0:0:
256,192,134022,1,0,1:0:0:0:
256,192,134127,1,8,1:0:0:0:
256,192,134232,1,0,1:0:0:0:
256,192,134285,1,8,1:0:0:0:
256,192,134338,1,0,1:0:0:0:
256,192,134443,1,8,1:0:0:0:
256,192,134548,1,0,1:0:0:0:
256,192,134654,1,8,1:0:0:0:
256,192,134759,1,8,1:0:0:0:
256,192,134864,1,0,1:0:0:0:
256,192,134969,1,8,1:0:0:0:
256,192,135022,1,0,1:0:0:0:
256,192,135075,1,8,1:0:0:0:
256,192,135180,1,0,1:0:0:0:
256,192,135285,1,0,1:0:0:0:
256,192,135390,1,0,1:0:0:0:
256,192,135496,1,8,1:0:0:0:
256,192,135548,1,0,1:0:0:0:
256,192,135601,1,8,1:0:0:0:
256,192,135706,1,8,1:0:0:0:
256,192,135811,1,0,1:0:0:0:
256,192,135917,1,8,1:0:0:0:
256,192,135969,1,8,1:0:0:0:
256,192,136022,1,0,1:0:0:0:
256,192,136127,1,8,1:0:0:0:
256,192,136232,1,0,1:0:0:0:
256,192,136338,1,8,1:0:0:0:
256,192,136443,1,0,1:0:0:0:
256,192,136548,1,8,1:0:0:0:
256,192,136654,1,0,1:0:0:0:
256,192,136759,1,8,1:0:0:0:
256,192,136864,1,0,1:0:0:0:
256,192,136969,1,0,1:0:0:0:
256,192,137075,1,0,1:0:0:0:
256,192,137180,1,8,1:0:0:0:
256,192,137285,1,0,1:0:0:0:
256,192,137390,1,8,1:0:0:0:
256,192,137496,1,8,1:0:0:0:
256,192,137601,1,0,1:0:0:0:
256,192,137706,1,0,1:0:0:0:
256,192,137811,1,8,1:0:0:0:
256,192,137917,1,0,1:0:0:0:
256,192,138022,1,8,1:0:0:0:
256,192,138127,1,8,1:0:0:0:
256,192,138232,1,8,1:0:0:0:
256,192,138338,1,0,1:0:0:0:
256,192,138390,1,0,1:0:0:0:
256,192,138443,1,8,1:0:0:0:
256,192,138496,1,8,1:0:0:0:
256,192,138548,1,0,1:0:0:0:
256,192,138654,1,8,1:0:0:0:
256,192,138864,1,0,1:0:0:0:
256,192,138969,1,8,1:0:0:0:
256,192,139075,1,0,1:0:0:0:
256,192,139180,1,0,1:0:0:0:
256,192,139285,1,0,1:0:0:0:
256,192,139390,1,8,1:0:0:0:
256,192,139601,1,8,1:0:0:0:
256,192,139706,1,0,1:0:0:0:
256,192,139811,1,0,1:0:0:0:
256,192,139917,1,8,1:0:0:0:
256,192,140127,1,0,1:0:0:0:
256,192,140232,1,8,1:0:0:0:
256,192,140443,1,0,1:0:0:0:
256,192,140548,1,8,1:0:0:0:
256,192,140759,1,8,1:0:0:0:
256,192,140864,1,0,1:0:0:0:
256,192,140969,1,8,1:0:0:0:
256,192,141022,1,8,1:0:0:0:
256,192,141075,1,8,1:0:0:0:
256,192,141127,1,8,1:0:0:0:
256,192,141180,1,0,1:0:0:0:
256,192,141390,1,12,0:0:0:0:
256,192,141496,12,0,151286,1:0:0:0:
256,192,151917,5,8,1:0:0:0:
256,192,152548,1,8,1:0:0:0:
256,192,153180,1,0,1:0:0:0:
256,192,153811,1,0,1:0:0:0:
256,192,154232,1,0,1:0:0:0:
256,192,155075,1,0,1:0:0:0:
256,192,155213,1,0,1:0:0:0:
256,192,155351,1,0,1:0:0:0:
256,192,155496,1,0,1:0:0:0:
256,192,156338,1,0,1:0:0:0:
256,192,156759,1,0,1:0:0:0:
256,192,157601,1,0,1:0:0:0:
256,192,157739,1,0,1:0:0:0:
256,192,157877,1,0,1:0:0:0:
256,192,157996,1,0,1:0:0:0:
256,192,158075,1,0,1:0:0:0:
256,192,158154,1,0,1:0:0:0:
256,192,158232,1,0,1:0:0:0:
256,192,158864,1,0,1:0:0:0:
256,192,159285,1,0,1:0:0:0:
256,192,160127,1,0,1:0:0:0:
256,192,160259,1,0,1:0:0:0:
256,192,160390,1,0,1:0:0:0:
256,192,160522,1,0,1:0:0:0:
256,192,160640,1,0,1:0:0:0:
256,192,160719,1,0,1:0:0:0:
256,192,160798,1,0,1:0:0:0:
256,192,160877,1,0,1:0:0:0:
256,192,160956,1,0,1:0:0:0:
256,192,161390,1,0,1:0:0:0:
256,192,161811,1,0,1:0:0:0:
256,192,162232,1,0,1:0:0:0:
256,192,162654,1,0,1:0:0:0:
256,192,162792,1,0,1:0:0:0:
256,192,162930,1,0,1:0:0:0:
256,192,163068,1,0,1:0:0:0:
256,192,163206,1,0,1:0:0:0:
256,192,163344,1,0,1:0:0:0:
256,192,163482,1,0,1:0:0:0:
256,192,163621,1,0,1:0:0:0:
256,192,163759,1,0,1:0:0:0:
256,192,163917,1,0,1:0:0:0:
256,192,164338,1,0,1:0:0:0:
256,192,165180,1,0,1:0:0:0:
256,192,165318,1,0,1:0:0:0:
256,192,165456,1,0,1:0:0:0:
256,192,165594,1,0,1:0:0:0:
256,192,166443,1,0,1:0:0:0:
256,192,166864,1,0,1:0:0:0:
256,192,167706,1,0,1:0:0:0:
256,192,167844,1,0,1:0:0:0:
256,192,167982,1,0,1:0:0:0:
256,192,168101,1,0,1:0:0:0:
256,192,168180,1,0,1:0:0:0:
256,192,168259,1,0,1:0:0:0:
256,192,168338,1,0,1:0:0:0:
256,192,168969,1,0,1:0:0:0:
256,192,169390,1,0,1:0:0:0:
256,192,170232,1,0,1:0:0:0:
256,192,170364,1,0,1:0:0:0:
256,192,170496,1,0,1:0:0:0:
256,192,170627,1,0,1:0:0:0:
256,192,170746,1,0,1:0:0:0:
256,192,170825,1,0,1:0:0:0:
256,192,170904,1,0,1:0:0:0:
256,192,170982,1,0,1:0:0:0:
256,192,171061,1,0,1:0:0:0:
256,192,171496,1,0,1:0:0:0:
256,192,171917,1,0,1:0:0:0:
256,192,172338,1,0,1:0:0:0:
256,192,172759,1,0,1:0:0:0:
256,192,172897,1,0,1:0:0:0:
256,192,173035,1,0,1:0:0:0:
256,192,173173,1,0,1:0:0:0:
256,192,173252,1,0,1:0:0:0:
256,192,173331,1,0,1:0:0:0:
256,192,173410,1,0,1:0:0:0:
256,192,173529,1,0,1:0:0:0:
256,192,173667,1,0,1:0:0:0:
256,192,173805,1,0,1:0:0:0:
256,192,173884,1,0,1:0:0:0:
256,192,173963,1,0,1:0:0:0:
256,192,174022,1,0,1:0:0:0:
256,192,174443,1,0,1:0:0:0:
256,192,175285,1,0,1:0:0:0:
256,192,175423,1,0,1:0:0:0:
256,192,175561,1,0,1:0:0:0:
256,192,175700,1,0,1:0:0:0:
256,192,176548,1,0,1:0:0:0:
256,192,176969,1,0,1:0:0:0:
256,192,177811,1,0,1:0:0:0:
256,192,177950,1,0,1:0:0:0:
256,192,178088,1,0,1:0:0:0:
256,192,178206,1,0,1:0:0:0:
256,192,178285,1,0,1:0:0:0:
256,192,178364,1,0,1:0:0:0:
256,192,178443,1,0,1:0:0:0:
256,192,179075,1,0,1:0:0:0:
256,192,179496,1,0,1:0:0:0:
256,192,180338,1,0,1:0:0:0:
256,192,180469,1,0,1:0:0:0:
256,192,180601,1,0,1:0:0:0:
256,192,180732,1,0,1:0:0:0:
256,192,180851,1,0,1:0:0:0:
256,192,180930,1,0,1:0:0:0:
256,192,181009,1,0,1:0:0:0:
256,192,181088,1,0,1:0:0:0:
256,192,181167,1,0,1:0:0:0:
256,192,181601,1,0,1:0:0:0:
256,192,182022,1,0,1:0:0:0:
256,192,182443,1,0,1:0:0:0:
256,192,182864,1,0,1:0:0:0:
256,192,183002,1,0,1:0:0:0:
256,192,183140,1,0,1:0:0:0:
256,192,183279,1,0,1:0:0:0:
256,192,183417,1,0,1:0:0:0:
256,192,183555,1,0,1:0:0:0:
256,192,183693,1,0,1:0:0:0:
256,192,183831,1,0,1:0:0:0:
256,192,183969,1,0,1:0:0:0:
256,192,184127,1,0,1:0:0:0:
256,192,184548,1,0,1:0:0:0:
256,192,185390,1,0,1:0:0:0:
256,192,185529,1,0,1:0:0:0:
256,192,185667,1,0,1:0:0:0:
256,192,185811,1,0,1:0:0:0:
256,192,186654,1,0,1:0:0:0:
256,192,187075,1,0,1:0:0:0:
256,192,187917,1,0,1:0:0:0:
256,192,188055,1,0,1:0:0:0:
256,192,188193,1,0,1:0:0:0:
256,192,188311,1,0,1:0:0:0:
256,192,188390,1,0,1:0:0:0:
256,192,188469,1,0,1:0:0:0:
256,192,188548,1,0,1:0:0:0:
256,192,189180,1,0,1:0:0:0:
256,192,189601,1,0,1:0:0:0:
256,192,190443,1,0,1:0:0:0:
256,192,190575,1,0,1:0:0:0:
256,192,190706,1,0,1:0:0:0:
256,192,190838,1,0,1:0:0:0:
256,192,190956,1,0,1:0:0:0:
256,192,191035,1,0,1:0:0:0:
256,192,191114,1,0,1:0:0:0:
256,192,191193,1,0,1:0:0:0:
256,192,191272,1,0,1:0:0:0:
256,192,191706,1,0,1:0:0:0:
256,192,192127,1,0,1:0:0:0:
256,192,192548,1,0,1:0:0:0:
256,192,192969,1,0,1:0:0:0:
256,192,193107,1,0,1:0:0:0:
256,192,193246,1,0,1:0:0:0:
256,192,193384,1,0,1:0:0:0:
256,192,193463,1,0,1:0:0:0:
256,192,193542,1,0,1:0:0:0:
256,192,193621,1,0,1:0:0:0:
256,192,193739,1,0,1:0:0:0:
256,192,193877,1,0,1:0:0:0:
256,192,194015,1,0,1:0:0:0:
256,192,194094,1,0,1:0:0:0:
256,192,194173,1,0,1:0:0:0:
256,192,194232,1,0,1:0:0:0:
256,192,195180,1,0,1:0:0:0:
256,192,195496,1,0,1:0:0:0:
256,192,195811,1,0,1:0:0:0:
256,192,196127,1,0,1:0:0:0:
256,192,196759,1,0,1:0:0:0:
256,192,197706,1,0,1:0:0:0:
256,192,198022,1,0,1:0:0:0:
256,192,198232,1,0,1:0:0:0:
256,192,198443,1,0,1:0:0:0:
256,192,198654,1,0,1:0:0:0:
256,192,199285,1,0,1:0:0:0:
256,192,200232,1,0,1:0:0:0:
256,192,200548,1,0,1:0:0:0:
256,192,200864,1,0,1:0:0:0:
256,192,201180,1,0,1:0:0:0:
256,192,201496,1,0,1:0:0:0:
256,192,201811,1,0,1:0:0:0:
256,192,201917,1,0,1:0:0:0:
256,192,202022,1,0,1:0:0:0:
256,192,202127,1,8,1:0:0:0:
256,192,202232,1,0,1:0:0:0:
256,192,202443,1,0,1:0:0:0:
256,192,202548,1,0,1:0:0:0:
256,192,202654,1,8,1:0:0:0:
256,192,202759,1,8,1:0:0:0:
256,192,203075,1,0,1:0:0:0:
256,192,203285,1,8,1:0:0:0:
256,192,203390,1,8,1:0:0:0:
256,192,203496,1,0,1:0:0:0:
256,192,203706,1,8,1:0:0:0:
256,192,203811,1,0,1:0:0:0:
256,192,203917,1,8,1:0:0:0:
256,192,204127,1,8,1:0:0:0:
256,192,204338,1,0,1:0:0:0:
256,192,204654,1,8,1:0:0:0:
256,192,204759,1,0,1:0:0:0:
256,192,204864,1,0,1:0:0:0:
256,192,204969,1,8,1:0:0:0:
256,192,205180,1,8,1:0:0:0:
256,192,205285,1,8,1:0:0:0:
256,192,205390,1,0,1:0:0:0:
256,192,205496,1,8,1:0:0:0:
256,192,205601,1,8,1:0:0:0:
256,192,205811,1,0,1:0:0:0:
256,192,205917,1,0,1:0:0:0:
256,192,206022,1,8,1:0:0:0:
256,192,206232,1,0,1:0:0:0:
256,192,206443,1,8,1:0:0:0:
256,192,206548,1,8,1:0:0:0:
256,192,206654,1,0,1:0:0:0:
256,192,206759,1,8,1:0:0:0:
256,192,206864,1,0,1:0:0:0:
256,192,207075,1,0,1:0:0:0:
256,192,207180,1,0,1:0:0:0:
256,192,207285,1,8,1:0:0:0:
256,192,207496,1,8,1:0:0:0:
256,192,207601,1,0,1:0:0:0:
256,192,207706,1,8,1:0:0:0:
256,192,207811,1,8,1:0:0:0:
256,192,208022,1,8,1:0:0:0:
256,192,208127,1,0,1:0:0:0:
256,192,208338,1,8,1:0:0:0:
256,192,208548,1,0,1:0:0:0:
256,192,208654,1,0,1:0:0:0:
256,192,208759,1,8,1:0:0:0:
256,192,208864,1,8,1:0:0:0:
256,192,208969,1,0,1:0:0:0:
256,192,209390,1,8,1:0:0:0:
256,192,209496,1,0,1:0:0:0:
256,192,209601,1,0,1:0:0:0:
256,192,209706,1,8,1:0:0:0:
256,192,209811,1,0,1:0:0:0:
256,192,210022,1,0,1:0:0:0:
256,192,210127,1,0,1:0:0:0:
256,192,210232,1,8,1:0:0:0:
256,192,210338,1,8,1:0:0:0:
256,192,210654,1,0,1:0:0:0:
256,192,210864,1,8,1:0:0:0:
256,192,210969,1,8,1:0:0:0:
256,192,211075,1,0,1:0:0:0:
256,192,211285,1,8,1:0:0:0:
256,192,211390,1,0,1:0:0:0:
256,192,211496,1,8,1:0:0:0:
256,192,211601,1,8,1:0:0:0:
256,192,211706,1,8,1:0:0:0:
256,192,211917,1,0,1:0:0:0:
256,192,212127,1,0,1:0:0:0:
256,192,212232,1,8,1:0:0:0:
256,192,212338,1,0,1:0:0:0:
256,192,212443,1,0,1:0:0:0:
256,192,212548,1,8,1:0:0:0:
256,192,212759,1,8,1:0:0:0:
256,192,212864,1,8,1:0:0:0:
256,192,212969,1,0,1:0:0:0:
256,192,213075,1,8,1:0:0:0:
256,192,213180,1,0,1:0:0:0:
256,192,213390,1,0,1:0:0:0:
256,192,213496,1,0,1:0:0:0:
256,192,213601,1,8,1:0:0:0:
256,192,213811,1,0,1:0:0:0:
256,192,214022,1,8,1:0:0:0:
256,192,214127,1,8,1:0:0:0:
256,192,214232,1,0,1:0:0:0:
256,192,214338,1,8,1:0:0:0:
256,192,214443,1,0,1:0:0:0:
256,192,214548,1,0,1:0:0:0:
256,192,214654,1,8,1:0:0:0:
256,192,214759,1,0,1:0:0:0:
256,192,214864,1,8,1:0:0:0:
256,192,215075,1,8,1:0:0:0:
256,192,215180,1,0,1:0:0:0:
256,192,215285,1,8,1:0:0:0:
256,192,215390,1,8,1:0:0:0:
256,192,215496,1,0,1:0:0:0:
256,192,215601,1,8,1:0:0:0:
256,192,215706,1,0,1:0:0:0:
256,192,215917,1,8,1:0:0:0:
256,192,216022,1,8,1:0:0:0:
256,192,216127,1,0,1:0:0:0:
256,192,216232,1,0,1:0:0:0:
256,192,216338,1,8,1:0:0:0:
256,192,216443,1,0,1:0:0:0:
256,192,216548,1,8,1:0:0:0:
256,192,216654,1,0,1:0:0:0:
256,192,216732,1,8,1:0:0:0:
256,192,216811,1,8,1:0:0:0:
256,192,216890,1,8,1:0:0:0:
256,192,216969,1,0,1:0:0:0:
256,192,217180,1,0,1:0:0:0:
256,192,217285,1,0,1:0:0:0:
256,192,217390,1,8,1:0:0:0:
256,192,217496,1,0,1:0:0:0:
256,192,217601,1,8,1:0:0:0:
256,192,217706,1,8,1:0:0:0:
256,192,217811,1,0,1:0:0:0:
256,192,217917,1,8,1:0:0:0:
256,192,218022,1,0,1:0:0:0:
256,192,218127,1,8,1:0:0:0:
256,192,218232,1,0,1:0:0:0:
256,192,218443,1,8,1:0:0:0:
256,192,218548,1,8,1:0:0:0:
256,192,218654,1,0,1:0:0:0:
256,192,218759,1,8,1:0:0:0:
256,192,218864,1,0,1:0:0:0:
256,192,218969,1,8,1:0:0:0:
256,192,219075,1,8,1:0:0:0:
256,192,219180,1,0,1:0:0:0:
256,192,219285,1,0,1:0:0:0:
256,192,219390,1,0,1:0:0:0:
256,192,219496,1,8,1:0:0:0:
256,192,219706,1,8,1:0:0:0:
256,192,219811,1,8,1:0:0:0:
256,192,219917,1,0,1:0:0:0:
256,192,220022,1,0,1:0:0:0:
256,192,220127,1,8,1:0:0:0:
256,192,220232,1,0,1:0:0:0:
256,192,220338,1,8,1:0:0:0:
256,192,220443,1,8,1:0:0:0:
256,192,220548,1,0,1:0:0:0:
256,192,220654,1,8,1:0:0:0:
256,192,220759,1,8,1:0:0:0:
256,192,220969,1,0,1:0:0:0:
256,192,221075,1,0,1:0:0:0:
256,192,221180,1,8,1:0:0:0:
256,192,221285,1,8,1:0:0:0:
256,192,221390,1,0,1:0:0:0:
256,192,221496,1,8,1:0:0:0:
256,192,221601,1,8,1:0:0:0:
256,192,221706,1,0,1:0:0:0:
256,192,221811,1,8,1:0:0:0:
256,192,221917,1,0,1:0:0:0:
256,192,222022,1,0,1:0:0:0:
256,192,222232,1,8,1:0:0:0:
256,192,222338,1,0,1:0:0:0:
256,192,222443,1,8,1:0:0:0:
256,192,222548,1,8,1:0:0:0:
256,192,222654,1,0,1:0:0:0:
256,192,222759,1,8,1:0:0:0:
256,192,222864,1,0,1:0:0:0:
256,192,222969,1,8,1:0:0:0:
256,192,223075,1,8,1:0:0:0:
256,192,223180,1,0,1:0:0:0:
256,192,223285,1,8,1:0:0:0:
256,192,223496,1,8,1:0:0:0:
256,192,223601,1,8,1:0:0:0:
256,192,223706,1,0,1:0:0:0:
256,192,223811,1,8,1:0:0:0:
256,192,223917,1,0,1:0:0:0:
256,192,224022,1,0,1:0:0:0:
256,192,224127,1,8,1:0:0:0:
256,192,224232,1,8,1:0:0:0:
256,192,224338,1,0,1:0:0:0:
256,192,224443,1,8,1:0:0:0:
256,192,224548,1,0,1:0:0:0:
256,192,224759,1,8,1:0:0:0:
256,192,224864,1,0,1:0:0:0:
256,192,224969,1,8,1:0:0:0:
256,192,225075,1,0,1:0:0:0:
256,192,225180,1,0,1:0:0:0:
256,192,225285,1,0,1:0:0:0:
256,192,225390,1,8,1:0:0:0:
256,192,225496,1,8,1:0:0:0:
256,192,225601,1,0,1:0:0:0:
256,192,225706,1,8,1:0:0:0:
256,192,225811,1,0,1:0:0:0:
256,192,226022,1,8,1:0:0:0:
256,192,226127,1,0,1:0:0:0:
256,192,226232,1,8,1:0:0:0:
256,192,226338,1,8,1:0:0:0:
256,192,226443,1,0,1:0:0:0:
256,192,226548,1,0,1:0:0:0:
256,192,226654,1,8,1:0:0:0:
256,192,226759,1,8,1:0:0:0:
256,192,226864,1,0,1:0:0:0:
256,192,226969,1,8,1:0:0:0:
256,192,227075,1,0,1:0:0:0:
256,192,227180,1,0,1:0:0:0:
256,192,227285,1,8,1:0:0:0:
256,192,227390,1,0,1:0:0:0:
256,192,227496,1,8,1:0:0:0:
256,192,227601,1,0,1:0:0:0:
256,192,227706,1,0,1:0:0:0:
256,192,227811,1,0,1:0:0:0:
256,192,227917,1,8,1:0:0:0:
256,192,228022,1,8,1:0:0:0:
256,192,228127,1,0,1:0:0:0:
256,192,228232,1,8,1:0:0:0:
256,192,228338,1,0,1:0:0:0:
256,192,228443,1,8,1:0:0:0:
256,192,228548,1,8,1:0:0:0:
256,192,228654,1,0,1:0:0:0:
256,192,228759,1,0,1:0:0:0:
256,192,228864,1,8,1:0:0:0:
256,192,228969,1,8,1:0:0:0:
256,192,229075,1,8,1:0:0:0:
256,192,229180,1,0,1:0:0:0:
256,192,229285,1,0,1:0:0:0:
256,192,229390,1,8,1:0:0:0:
256,192,229496,1,8,1:0:0:0:
256,192,229601,1,0,1:0:0:0:
256,192,229706,1,0,1:0:0:0:
256,192,229811,1,8,1:0:0:0:
256,192,229917,1,0,1:0:0:0:
256,192,230022,1,8,1:0:0:0:
256,192,230127,1,0,1:0:0:0:
256,192,230232,1,8,1:0:0:0:
256,192,230338,1,8,1:0:0:0:
256,192,230443,1,0,1:0:0:0:
256,192,230548,1,8,1:0:0:0:
256,192,230654,1,8,1:0:0:0:
256,192,230759,1,0,1:0:0:0:
256,192,230864,1,8,1:0:0:0:
256,192,230969,1,0,1:0:0:0:
256,192,231075,1,0,1:0:0:0:
256,192,231180,1,8,1:0:0:0:
256,192,231285,1,0,1:0:0:0:
256,192,231390,1,0,1:0:0:0:
256,192,231496,1,8,1:0:0:0:
256,192,231601,1,8,1:0:0:0:
256,192,231706,1,0,1:0:0:0:
256,192,231811,1,8,1:0:0:0:
256,192,231917,1,8,1:0:0:0:
256,192,232022,1,8,1:0:0:0:
256,192,232127,1,0,1:0:0:0:
256,192,232232,1,0,1:0:0:0:
256,192,232338,1,8,1:0:0:0:
256,192,232443,1,8,1:0:0:0:
256,192,232548,1,0,1:0:0:0:
256,192,232654,1,8,1:0:0:0:
256,192,232759,1,0,1:0:0:0:
256,192,232864,1,0,1:0:0:0:
256,192,232969,1,8,1:0:0:0:
256,192,233075,1,8,1:0:0:0:
256,192,233180,1,0,1:0:0:0:
256,192,233285,1,8,1:0:0:0:
256,192,233390,1,0,1:0:0:0:
256,192,233496,1,0,1:0:0:0:
256,192,233601,1,8,1:0:0:0:
256,192,233706,1,8,1:0:0:0:
256,192,233811,1,0,1:0:0:0:
256,192,233917,1,0,1:0:0:0:
256,192,234022,1,8,1:0:0:0:
256,192,234127,1,0,1:0:0:0:
256,192,234232,1,8,1:0:0:0:
256,192,234338,1,8,1:0:0:0:
256,192,234443,1,0,1:0:0:0:
256,192,234548,1,8,1:0:0:0:
256,192,234654,1,0,1:0:0:0:
256,192,234759,1,0,1:0:0:0:
256,192,234864,1,8,1:0:0:0:
256,192,234969,1,8,1:0:0:0:
256,192,235075,1,8,1:0:0:0:
256,192,235180,1,0,1:0:0:0:
256,192,235285,1,8,1:0:0:0:
256,192,235390,1,8,1:0:0:0:
256,192,235496,1,0,1:0:0:0:
256,192,235601,1,8,1:0:0:0:
256,192,235706,1,0,1:0:0:0:
256,192,235811,1,0,1:0:0:0:
256,192,235917,1,8,1:0:0:0:
256,192,236022,1,0,1:0:0:0:
256,192,236127,1,0,1:0:0:0:
256,192,236232,1,0,1:0:0:0:
256,192,236338,1,8,1:0:0:0:
256,192,236443,1,0,1:0:0:0:
256,192,236548,1,8,1:0:0:0:
256,192,236654,1,0,1:0:0:0:
256,192,236759,1,8,1:0:0:0:
256,192,236864,1,8,1:0:0:0:
256,192,236969,1,0,1:0:0:0:
256,192,237075,1,8,1:0:0:0:
256,192,237180,1,0,1:0:0:0:
256,192,237285,1,0,1:0:0:0:
256,192,237390,1,8,1:0:0:0:
256,192,237496,1,8,1:0:0:0:
256,192,237601,1,8,1:0:0:0:
256,192,237706,1,0,1:0:0:0:
256,192,237811,1,8,1:0:0:0:
256,192,237917,1,0,1:0:0:0:
256,192,238022,1,0,1:0:0:0:
256,192,238127,1,8,1:0:0:0:
256,192,238232,1,8,1:0:0:0:
256,192,238338,1,8,1:0:0:0:
256,192,238443,1,0,1:0:0:0:
256,192,238548,1,0,1:0:0:0:
256,192,238654,1,8,1:0:0:0:
256,192,238759,1,8,1:0:0:0:
256,192,238864,1,0,1:0:0:0:
256,192,238969,1,8,1:0:0:0:
256,192,239075,1,0,1:0:0:0:
256,192,239180,1,0,1:0:0:0:
256,192,239285,1,8,1:0:0:0:
256,192,239390,1,8,1:0:0:0:
256,192,239496,1,8,1:0:0:0:
256,192,239601,1,0,1:0:0:0:
256,192,239706,1,8,1:0:0:0:
256,192,239811,1,0,1:0:0:0:
256,192,239917,1,0,1:0:0:0:
256,192,240022,1,8,1:0:0:0:
256,192,240127,1,8,1:0:0:0:
256,192,240232,1,0,1:0:0:0:
256,192,240338,1,8,1:0:0:0:
256,192,240443,1,8,1:0:0:0:
256,192,240548,1,0,1:0:0:0:
256,192,240654,1,8,1:0:0:0:
256,192,240759,1,0,1:0:0:0:
256,192,240864,1,8,1:0:0:0:
256,192,240969,1,8,1:0:0:0:
256,192,241075,1,0,1:0:0:0:
256,192,241180,1,0,1:0:0:0:
256,192,241285,1,0,1:0:0:0:
256,192,241390,1,8,1:0:0:0:
256,192,241496,1,0,1:0:0:0:
256,192,241601,1,8,1:0:0:0:
256,192,241706,1,8,1:0:0:0:
256,192,241811,1,0,1:0:0:0:
256,192,241917,1,8,1:0:0:0:
256,192,242022,1,8,1:0:0:0:
256,192,242127,1,8,1:0:0:0:
256,192,242232,1,0,1:0:0:0:
256,192,242338,12,0,250917,1:0:0:0:
256,192,251075,5,8,1:0:0:0:
256,192,251127,1,8,1:0:0:0:
256,192,251390,1,8,1:0:0:0:
256,192,251443,1,8,1:0:0:0:
256,192,251706,1,8,1:0:0:0:
256,192,251759,1,8,1:0:0:0:
256,192,252022,1,8,1:0:0:0:
256,192,252075,1,8,1:0:0:0:
256,192,252127,1,8,1:0:0:0:
256,192,252180,1,8,1:0:0:0:
256,192,252338,12,0,256285,1:0:0:0:
256,192,256443,5,0,1:0:0:0:
256,192,256548,1,0,1:0:0:0:
256,192,256654,1,0,1:0:0:0:
256,192,256706,1,0,1:0:0:0:
256,192,256759,1,0,1:0:0:0:
256,192,256864,1,8,1:0:0:0:
256,192,256996,1,8,1:0:0:0:
256,192,257127,1,8,1:0:0:0:
256,192,257259,1,8,1:0:0:0:
256,192,257390,12,0,261338,1:0:0:0:
256,192,261496,5,0,1:0:0:0:
256,192,261601,1,0,1:0:0:0:
256,192,261706,1,0,1:0:0:0:
256,192,261759,1,0,1:0:0:0:
256,192,261811,1,0,1:0:0:0:
256,192,261890,1,8,1:0:0:0:
256,192,261969,1,8,1:0:0:0:
256,192,262048,1,8,1:0:0:0:
256,192,262147,1,8,1:0:0:0:
256,192,262246,1,8,1:0:0:0:
256,192,262344,1,8,1:0:0:0:
256,192,262443,12,0,266390,1:0:0:0:
256,192,266548,5,0,1:0:0:0:
256,192,266654,1,0,1:0:0:0:
256,192,266759,1,0,1:0:0:0:
256,192,266811,1,0,1:0:0:0:
256,192,266864,1,0,1:0:0:0:
256,192,267022,1,8,1:0:0:0:
256,192,267081,1,8,1:0:0:0:
256,192,267140,1,8,1:0:0:0:
256,192,267200,1,8,1:0:0:0:
256,192,267259,1,8,1:0:0:0:
256,192,267318,1,8,1:0:0:0:
256,192,267377,1,8,1:0:0:0:
256,192,267436,1,8,0:0:0:0:
256,192,267496,12,0,271443,1:0:0:0:
256,192,271601,5,0,1:0:0:0:
256,192,271706,1,0,1:0:0:0:
256,192,271811,1,0,1:0:0:0:
256,192,271864,1,0,1:0:0:0:
256,192,271917,1,8,1:0:0:0:
256,192,272127,1,8,1:0:0:0:
256,192,272193,1,8,1:0:0:0:
256,192,272311,1,8,1:0:0:0:
256,192,272390,1,8,1:0:0:0:
256,192,272469,1,8,1:0:0:0:
256,192,272548,1,0,1:0:0:0:
256,192,272654,1,8,1:0:0:0:
256,192,272706,1,8,1:0:0:0:
256,192,272759,1,0,1:0:0:0:
256,192,272864,1,8,1:0:0:0:
256,192,272969,1,0,1:0:0:0:
256,192,273022,1,0,1:0:0:0:
256,192,273075,1,8,1:0:0:0:
256,192,273180,1,0,1:0:0:0:
256,192,273285,1,8,1:0:0:0:
256,192,273338,1,8,1:0:0:0:
256,192,273390,1,0,1:0:0:0:
256,192,273443,1,0,1:0:0:0:
256,192,273496,1,0,1:0:0:0:
256,192,273601,1,8,1:0:0:0:
256,192,273706,1,0,1:0:0:0:
256,192,273811,1,8,1:0:0:0:
256,192,273864,1,8,1:0:0:0:
256,192,273917,1,8,1:0:0:0:
256,192,274022,1,0,1:0:0:0:
256,192,274075,1,0,1:0:0:0:
256,192,274127,1,0,1:0:0:0:
256,192,274232,1,8,1:0:0:0:
256,192,274338,1,8,1:0:0:0:
256,192,274390,1,8,1:0:0:0:
256,192,274443,1,0,1:0:0:0:
256,192,274548,1,8,1:0:0:0:
256,192,274654,1,0,1:0:0:0:
256,192,274706,1,0,1:0:0:0:
256,192,274759,1,0,1:0:0:0:
256,192,274811,1,0,1:0:0:0:
256,192,274864,1,8,1:0:0:0:
256,192,274969,1,8,1:0:0:0:
256,192,275075,1,0,1:0:0:0:
256,192,275127,1,0,1:0:0:0:
256,192,275180,1,0,1:0:0:0:
256,192,275285,1,8,1:0:0:0:
256,192,275390,1,0,1:0:0:0:
256,192,275496,1,8,1:0:0:0:
256,192,275548,1,8,1:0:0:0:
256,192,275601,1,8,1:0:0:0:
256,192,275706,1,0,1:0:0:0:
256,192,275811,1,8,1:0:0:0:
256,192,275864,1,0,1:0:0:0:
256,192,275917,1,8,1:0:0:0:
256,192,276022,1,0,1:0:0:0:
256,192,276127,1,8,1:0:0:0:
256,192,276232,1,8,1:0:0:0:
256,192,276338,1,0,1:0:0:0:
256,192,276390,1,0,1:0:0:0:
256,192,276443,1,0,1:0:0:0:
256,192,276548,1,8,1:0:0:0:
256,192,276601,1,8,1:0:0:0:
256,192,276654,1,8,1:0:0:0:
256,192,276759,1,0,1:0:0:0:
256,192,276811,1,0,1:0:0:0:
256,192,276864,1,8,1:0:0:0:
256,192,276917,1,8,1:0:0:0:
256,192,276969,1,0,1:0:0:0:
256,192,277601,1,0,1:0:0:0:
256,192,277706,1,8,1:0:0:0:
256,192,277759,1,8,1:0:0:0:
256,192,277811,1,0,1:0:0:0:
256,192,277917,1,8,1:0:0:0:
256,192,278022,1,0,1:0:0:0:
256,192,278075,1,0,1:0:0:0:
256,192,278127,1,8,1:0:0:0:
256,192,278232,1,0,1:0:0:0:
256,192,278338,1,8,1:0:0:0:
256,192,278390,1,8,1:0:0:0:
256,192,278443,1,0,1:0:0:0:
256,192,278496,1,0,1:0:0:0:
256,192,278548,1,0,1:0:0:0:
256,192,278654,1,8,1:0:0:0:
256,192,278759,1,0,1:0:0:0:
256,192,278864,1,8,1:0:0:0:
256,192,278917,1,0,1:0:0:0:
256,192,278969,1,8,1:0:0:0:
256,192,279022,1,8,1:0:0:0:
256,192,279075,1,0,1:0:0:0:
256,192,279180,1,0,1:0:0:0:
256,192,279285,1,8,1:0:0:0:
256,192,279338,1,8,1:0:0:0:
256,192,279390,1,8,1:0:0:0:
256,192,279496,1,0,1:0:0:0:
256,192,279548,1,0,1:0:0:0:
256,192,279601,1,0,1:0:0:0:
256,192,279706,1,8,1:0:0:0:
256,192,279811,1,8,1:0:0:0:
256,192,279864,1,8,1:0:0:0:
256,192,279917,1,0,1:0:0:0:
256,192,280022,1,8,1:0:0:0:
256,192,280127,1,0,1:0:0:0:
256,192,280180,1,0,1:0:0:0:
256,192,280232,1,0,1:0:0:0:
256,192,280285,1,0,1:0:0:0:
256,192,280338,1,8,1:0:0:0:
256,192,280443,1,0,1:0:0:0:
256,192,280548,1,8,1:0:0:0:
256,192,280601,1,8,1:0:0:0:
256,192,280654,1,8,1:0:0:0:
256,192,280759,1,0,1:0:0:0:
256,192,280864,1,8,1:0:0:0:
256,192,280917,1,8,1:0:0:0:
256,192,280969,1,0,1:0:0:0:
256,192,281022,1,0,1:0:0:0:
256,192,281075,1,8,1:0:0:0:
256,192,281180,1,0,1:0:0:0:
256,192,281285,1,8,1:0:0:0:
256,192,281390,1,0,1:0:0:0:
256,192,281443,1,0,1:0:0:0:
256,192,281496,1,0,1:0:0:0:
256,192,281601,1,8,1:0:0:0:
256,192,281654,1,8,1:0:0:0:
256,192,281706,1,8,1:0:0:0:
256,192,281811,1,0,1:0:0:0:
256,192,281864,1,0,1:0:0:0:
256,192,281917,1,8,1:0:0:0:
256,192,281969,1,8,1:0:0:0:
256,192,282022,1,0,1:0:0:0:
256,192,282654,1,0,1:0:0:0:
256,192,282759,1,0,1:0:0:0:
256,192,282811,1,0,1:0:0:0:
256,192,282864,1,8,1:0:0:0:
256,192,282917,1,8,1:0:0:0:
256,192,282969,1,0,1:0:0:0:
256,192,283075,1,8,1:0:0:0:
256,192,283180,1,0,1:0:0:0:
256,192,283285,1,8,1:0:0:0:
256,192,283338,1,0,1:0:0:0:
256,192,283390,1,8,1:0:0:0:
256,192,283443,1,8,1:0:0:0:
256,192,283496,1,0,1:0:0:0:
256,192,283601,1,0,1:0:0:0:
256,192,283706,1,8,1:0:0:0:
256,192,283811,1,0,1:0:0:0:
256,192,283917,1,8,1:0:0:0:
256,192,283969,1,0,1:0:0:0:
256,192,284022,1,8,1:0:0:0:
256,192,284075,1,8,1:0:0:0:
256,192,284127,1,0,1:0:0:0:
256,192,284232,1,0,1:0:0:0:
256,192,284338,1,8,1:0:0:0:
256,192,284390,1,8,1:0:0:0:
256,192,284443,1,8,1:0:0:0:
256,192,284548,1,0,1:0:0:0:
256,192,284601,1,0,1:0:0:0:
256,192,284654,1,0,1:0:0:0:
256,192,284759,1,8,1:0:0:0:
256,192,284864,1,0,1:0:0:0:
256,192,284917,1,0,1:0:0:0:
256,192,284969,1,8,1:0:0:0:
256,192,285075,1,8,1:0:0:0:
256,192,285180,1,0,1:0:0:0:
256,192,285232,1,0,1:0:0:0:
256,192,285285,1,0,1:0:0:0:
256,192,285338,1,0,1:0:0:0:
256,192,285390,1,8,1:0:0:0:
256,192,285496,1,0,1:0:0:0:
256,192,285601,1,8,1:0:0:0:
256,192,285654,1,8,1:0:0:0:
256,192,285706,1,8,1:0:0:0:
256,192,285811,1,0,1:0:0:0:
256,192,285917,1,8,1:0:0:0:
256,192,285969,1,8,1:0:0:0:
256,192,286022,1,0,1:0:0:0:
256,192,286075,1,0,1:0:0:0:
256,192,286127,1,8,1:0:0:0:
256,192,286232,1,0,1:0:0:0:
256,192,286338,1,8,1:0:0:0:
256,192,286443,1,0,1:0:0:0:
256,192,286496,1,0,1:0:0:0:
256,192,286548,1,8,1:0:0:0:
256,192,286654,1,0,1:0:0:0:
256,192,286706,1,0,1:0:0:0:
256,192,286759,1,8,1:0:0:0:
256,192,286811,1,0,1:0:0:0:
256,192,286864,1,8,1:0:0:0:
256,192,286917,1,8,1:0:0:0:
256,192,286969,1,0,1:0:0:0:
256,192,287022,1,0,1:0:0:0:
256,192,287075,1,8,1:0:0:0:
256,192,287706,1,0,1:0:0:0:
256,192,287811,1,0,1:0:0:0:
256,192,287864,1,0,1:0:0:0:
256,192,287917,1,8,1:0:0:0:
256,192,287969,1,8,1:0:0:0:
256,192,288022,1,0,1:0:0:0:
256,192,288127,1,8,1:0:0:0:
256,192,288180,1,8,0:0:0:0:
256,192,288232,1,0,1:0:0:0:
256,192,288338,1,8,1:0:0:0:
256,192,288390,1,0,1:0:0:0:
256,192,288443,1,8,1:0:0:0:
256,192,288496,1,8,1:0:0:0:
256,192,288548,1,0,1:0:0:0:
256,192,288654,1,0,1:0:0:0:
256,192,288759,1,8,1:0:0:0:
256,192,288864,1,0,1:0:0:0:
256,192,288917,1,0,1:0:0:0:
256,192,288969,1,8,1:0:0:0:
256,192,289022,1,0,0:0:0:0:
256,192,289075,1,8,1:0:0:0:
256,192,289127,1,8,1:0:0:0:
256,192,289180,1,0,1:0:0:0:
256,192,289285,1,0,1:0:0:0:
256,192,289390,1,8,1:0:0:0:
256,192,289443,1,8,1:0:0:0:
256,192,289496,1,8,1:0:0:0:
256,192,289548,1,8,1:0:0:0:
256,192,289601,1,0,1:0:0:0:
256,192,289654,1,0,1:0:0:0:
256,192,289706,1,0,1:0:0:0:
256,192,289759,1,0,1:0:0:0:
256,192,289811,1,8,1:0:0:0:
256,192,289917,1,0,1:0:0:0:
256,192,289969,1,8,1:0:0:0:
256,192,290022,1,0,1:0:0:0:
256,192,290127,1,8,1:0:0:0:
256,192,290232,1,0,1:0:0:0:
256,192,290311,1,8,1:0:0:0:
256,192,290390,1,8,1:0:0:0:
256,192,290469,1,0,1:0:0:0:
256,192,290548,1,8,1:0:0:0:
256,192,290627,1,8,1:0:0:0:
256,192,290706,1,0,1:0:0:0:
256,192,290785,1,0,1:0:0:0:
256,192,290864,1,8,1:0:0:0:
256,192,290943,1,0,1:0:0:0:
256,192,291022,1,0,1:0:0:0:
256,192,291101,1,8,1:0:0:0:
256,192,291180,1,0,1:0:0:0:
256,192,291259,1,8,1:0:0:0:
256,192,291338,1,8,1:0:0:0:
256,192,291417,1,0,1:0:0:0:
256,192,291496,1,8,1:0:0:0:
256,192,291575,1,8,1:0:0:0:
256,192,291654,1,0,1:0:0:0:
256,192,291706,1,8,1:0:0:0:
256,192,291759,1,0,1:0:0:0:
256,192,291811,1,0,1:0:0:0:
256,192,291864,1,8,1:0:0:0:
256,192,291917,1,0,1:0:0:0:
256,192,291969,1,8,1:0:0:0:
256,192,292022,1,8,1:0:0:0:
256,192,292075,1,0,1:0:0:0:
256,192,292127,1,8,1:0:0:0:
256,192,292180,12,0,300259,1:0:0:0:
256,192,300338,5,0,1:0:0:0:
256,192,300417,5,0,1:0:0:0:
256,192,300496,1,0,1:0:0:0:
256,192,300601,1,0,1:0:0:0:
256,192,300732,1,0,1:0:0:0:
256,192,300890,1,0,1:0:0:0:
256,192,301075,1,0,1:0:0:0:
256,192,301285,1,0,1:0:0:0:
256,192,301522,1,0,1:0:0:0:
256,192,301785,1,0,1:0:0:0:
256,192,302075,1,0,1:0:0:0:
256,192,302390,1,0,1:0:0:0:
256,192,302759,1,0,1:0:0:0:
256,192,302811,1,0,1:0:0:0:
256,192,302864,1,0,1:0:0:0:
256,192,303496,12,0,305232,1:0:0:0:
256,192,305390,5,0,1:0:0:0:
256,192,305443,12,0,307759,1:0:0:0:
256,192,307917,5,8,1:0:0:0:
256,192,307969,12,0,310443,1:0:0:0:
256,192,313601,12,0,315338,1:0:0:0:
256,192,315496,5,8,1:0:0:0:
256,192,315548,12,0,317864,1:0:0:0:
256,192,318022,5,0,1:0:0:0:
256,192,318075,12,0,320548,1:0:0:0:
256,192,323706,12,0,325443,1:0:0:0:
256,192,325601,5,8,1:0:0:0:
256,192,325654,12,0,327969,1:0:0:0:
256,192,328127,5,0,1:0:0:0:
256,192,328180,12,0,330496,1:0:0:0:
256,192,330654,5,8,1:0:0:0:
256,192,330706,12,0,330969,1:0:0:0:
256,192,333496,12,0,335548,1:0:0:0:
256,192,335706,5,0,1:0:0:0:
256,192,335759,12,0,338075,1:0:0:0:
256,192,338232,5,8,1:0:0:0:
256,192,338285,12,8,340601,1:0:0:0:
256,192,340759,5,8,1:0:0:0:
256,192,340811,12,0,341075,1:0:0:0:
256,192,343917,12,0,353390,1:0:0:0:
256,192,354654,12,0,354930,1:0:0:0:
256,192,354969,12,0,355246,1:0:0:0:
256,192,355285,12,0,355917,1:0:0:0:
256,192,356232,12,0,356509,1:0:0:0:
256,192,356548,12,0,356864,1:0:0:0:
