osu file format v14

[General]
AudioFilename: audio.mp3
AudioLeadIn: 0
PreviewTime: 43142
Countdown: 0
SampleSet: Normal
StackLeniency: 0.7
Mode: 1
LetterboxInBreaks: 0
WidescreenStoryboard: 1

[Editor]
DistanceSpacing: 1.6
BeatDivisor: 2
GridSize: 32
TimelineZoom: 2

[Metadata]
Title:Orthoplexed
TitleUnicode:Orthoplexed
Artist:Frums
ArtistUnicode:Frums
Creator:Paraxia
Version:meiqth's Kantan
Source:
Tags:Dance Morph electronic instrumental Hello World morph2020 Morph EP 4 Mex World extended play _rise meiqth
BeatmapID:4552511
BeatmapSetID:2115397

[Difficulty]
HPDrainRate:8
CircleSize:2
OverallDifficulty:3
ApproachRate:10
SliderMultiplier:1.4
SliderTickRate:1

[Events]
//Background and Video events
0,0,"bg.jpg",0,0
//Break Periods
//Storyboard Layer 0 (Background)
//Storyboard Layer 1 (Fail)
//Storyboard Layer 2 (Pass)
//Storyboard Layer 3 (Foreground)
//Storyboard Layer 4 (Overlay)
//Storyboard Sound Samples

[TimingPoints]
-58,300,4,1,0,70,1,0
12504,-100,4,1,0,70,0,0
13104,-100,4,1,0,70,0,0
43142,-100,4,1,0,70,0,1
52142,-100,4,1,0,70,0,0
52742,-100,4,1,0,70,0,1
61142,-100,4,1,0,70,0,0
62342,-100,4,1,0,70,0,0
68492,-100,4,1,0,70,0,0
69542,-100,4,1,0,70,0,0
79142,-100,4,1,0,70,0,1
79742,-100,4,1,0,70,0,0
80042,-100,4,1,0,70,0,1
80942,-100,4,1,0,70,0,0
81542,-100,4,1,0,70,0,1
82142,-100,4,1,0,70,0,0
82442,-100,4,1,0,70,0,1
83342,-100,4,1,0,70,0,0
83942,-100,4,1,0,70,0,1
86342,-100,4,1,0,70,0,0
88327,-90.9090909090909,4,1,0,70,0,0
88564,-100,4,1,0,70,0,0
88742,-100,4,1,0,70,0,1
105542,-100,4,1,0,70,0,0
112742,300,4,1,0,70,1,8
112892,300,4,1,0,70,1,0
117542,300,4,1,0,70,1,0
122342,300,4,1,0,70,1,8
122492,300,4,1,0,70,1,0

[HitObjects]
256,191,3542,5,0,0:0:0:0:
256,191,4142,1,0,0:0:0:0:
256,191,4742,1,0,0:0:0:0:
256,191,5342,1,0,0:0:0:0:
256,191,5642,1,8,0:0:0:0:
256,191,5942,1,0,0:0:0:0:
256,191,6242,1,0,0:0:0:0:
256,191,6542,1,0,0:0:0:0:
256,191,7142,1,0,0:0:0:0:
256,191,7742,1,0,0:0:0:0:
256,191,8042,1,8,0:0:0:0:
256,191,8342,1,0,0:0:0:0:
256,191,8942,1,0,0:0:0:0:
256,191,9542,1,0,0:0:0:0:
256,191,10142,1,8,0:0:0:0:
256,191,10742,1,0,0:0:0:0:
256,191,11042,1,0,0:0:0:0:
256,191,11342,1,0,0:0:0:0:
256,191,11942,1,8,0:0:0:0:
256,191,13142,1,0,0:0:0:0:
256,191,13442,1,0,0:0:0:0:
256,191,13742,1,8,0:0:0:0:
256,191,14342,1,0,0:0:0:0:
256,191,14942,1,0,0:0:0:0:
256,191,15242,1,8,0:0:0:0:
256,191,15542,1,0,0:0:0:0:
256,191,15842,1,0,0:0:0:0:
256,191,16142,1,0,0:0:0:0:
256,191,16742,1,8,0:0:0:0:
256,191,17342,1,0,0:0:0:0:
256,191,17642,1,8,0:0:0:0:
256,191,17942,1,0,0:0:0:0:
256,191,18542,1,0,0:0:0:0:
256,191,19142,1,0,0:0:0:0:
256,191,19742,1,8,0:0:0:0:
256,191,20342,1,0,0:0:0:0:
256,191,20642,1,0,0:0:0:0:
256,191,20942,1,0,0:0:0:0:
256,191,21542,1,8,0:0:0:0:
256,191,22742,1,0,0:0:0:0:
256,192,23042,1,8,0:0:0:0:
256,192,23642,1,8,0:0:0:0:
256,192,23942,1,0,0:0:0:0:
256,192,24542,1,8,0:0:0:0:
256,192,25142,1,0,0:0:0:0:
256,192,25442,1,8,0:0:0:0:
256,192,26342,1,8,0:0:0:0:
256,192,26642,1,0,0:0:0:0:
256,192,26942,1,8,0:0:0:0:
256,192,27542,1,0,0:0:0:0:
256,192,28142,1,0,0:0:0:0:
256,192,28742,1,8,0:0:0:0:
256,192,29342,1,0,0:0:0:0:
256,192,29642,1,0,0:0:0:0:
256,192,29942,1,0,0:0:0:0:
256,192,30242,1,8,0:0:0:0:
256,192,30842,1,8,0:0:0:0:
256,192,31142,1,0,0:0:0:0:
256,192,32042,1,0,0:0:0:0:
256,192,32342,1,8,0:0:0:0:
256,192,32942,1,8,0:0:0:0:
256,192,33242,1,8,0:0:0:0:
256,192,33542,1,0,0:0:0:0:
256,192,34142,1,8,0:0:0:0:
256,192,34742,1,0,0:0:0:0:
256,192,35042,1,8,0:0:0:0:
256,192,35342,1,0,0:0:0:0:
256,192,35942,1,8,0:0:0:0:
256,192,36542,1,8,0:0:0:0:
256,192,37142,1,0,0:0:0:0:
256,192,38342,1,0,0:0:0:0:
256,192,38942,1,0,0:0:0:0:
256,192,39242,1,8,0:0:0:0:
256,192,39542,1,0,0:0:0:0:
256,192,40142,1,8,0:0:0:0:
256,192,40742,1,8,0:0:0:0:
256,192,41342,1,0,0:0:0:0:
256,192,41642,1,8,0:0:0:0:
256,191,43142,1,4,0:0:0:0:
256,191,43742,1,8,0:0:0:0:
256,192,44042,1,8,0:0:0:0:
256,191,44342,1,0,0:0:0:0:
256,191,44942,1,0,0:0:0:0:
256,191,45242,1,8,0:0:0:0:
256,191,45542,1,0,0:0:0:0:
256,191,46142,1,0,0:0:0:0:
256,191,46442,1,0,0:0:0:0:
256,191,46742,1,8,0:0:0:0:
256,191,47342,1,8,0:0:0:0:
256,191,47942,1,0,0:0:0:0:
256,191,48542,1,8,0:0:0:0:
256,192,48842,1,8,0:0:0:0:
256,191,49142,1,0,0:0:0:0:
256,191,49742,1,8,0:0:0:0:
256,191,50042,1,0,0:0:0:0:
256,191,50342,1,8,0:0:0:0:
256,191,50942,1,0,0:0:0:0:
256,191,51242,1,0,0:0:0:0:
256,191,51542,1,8,0:0:0:0:
256,191,52742,1,0,0:0:0:0:
256,191,53042,1,0,0:0:0:0:
256,191,53342,1,8,0:0:0:0:
256,191,53942,1,0,0:0:0:0:
256,191,54542,1,8,0:0:0:0:
256,191,54842,1,8,0:0:0:0:
256,191,55142,1,0,0:0:0:0:
256,191,55442,1,0,0:0:0:0:
256,191,55742,1,8,0:0:0:0:
256,191,56342,1,0,0:0:0:0:
256,191,56942,1,8,0:0:0:0:
256,191,57242,1,8,0:0:0:0:
256,191,57542,1,0,0:0:0:0:
256,191,58142,1,8,0:0:0:0:
256,191,58742,1,0,0:0:0:0:
256,191,59042,1,8,0:0:0:0:
256,191,59342,1,0,0:0:0:0:
256,191,59942,1,8,0:0:0:0:
256,191,60542,1,8,0:0:0:0:
256,192,61292,8,0,61742,0:0:0:0:
256,192,62342,8,0,68042,0:0:0:0:
256,192,69542,5,8,0:0:0:0:
256,192,69992,1,8,0:0:0:0:
256,192,70442,1,8,0:0:0:0:
256,192,70892,1,8,0:0:0:0:
256,192,71342,1,8,0:0:0:0:
256,192,71942,1,0,0:0:0:0:
256,192,72392,1,0,0:0:0:0:
256,192,72842,1,0,0:0:0:0:
256,192,73292,1,0,0:0:0:0:
256,192,73742,1,0,0:0:0:0:
256,192,74342,1,8,0:0:0:0:
256,192,74792,1,0,0:0:0:0:
256,192,75242,1,8,0:0:0:0:
256,192,75692,1,0,0:0:0:0:
256,192,76142,1,8,0:0:0:0:
256,192,76742,1,0,0:0:0:0:
256,192,77192,1,8,0:0:0:0:
256,192,77642,1,0,0:0:0:0:
256,192,78092,1,8,0:0:0:0:
256,192,78542,1,0,0:0:0:0:
256,192,79142,1,12,0:0:0:0:
256,192,79742,1,8,0:0:0:0:
256,192,80042,1,4,0:0:0:0:
256,192,80942,1,8,0:0:0:0:
256,192,81242,1,8,0:0:0:0:
256,192,81542,1,4,0:0:0:0:
256,192,82142,1,8,0:0:0:0:
256,192,82442,1,4,0:0:0:0:
256,192,83342,1,8,0:0:0:0:
256,192,83642,1,0,0:0:0:0:
256,192,83942,1,12,0:0:0:0:
256,192,84242,8,0,86342,0:0:0:0:
256,192,88442,5,12,0:0:0:0:
256,192,88742,5,4,0:0:0:0:
256,192,89342,1,0,0:0:0:0:
256,192,89642,1,8,0:0:0:0:
256,192,89942,1,8,0:0:0:0:
256,192,90242,1,8,0:0:0:0:
256,192,90542,1,0,0:0:0:0:
256,192,91142,1,8,0:0:0:0:
256,192,91442,1,0,0:0:0:0:
256,192,91742,1,8,0:0:0:0:
256,192,92342,1,0,0:0:0:0:
256,192,92942,1,8,0:0:0:0:
256,192,93542,1,0,0:0:0:0:
256,192,93842,1,8,0:0:0:0:
256,192,94142,1,0,0:0:0:0:
256,192,94742,1,0,0:0:0:0:
256,192,95042,1,0,0:0:0:0:
256,192,95342,1,8,0:0:0:0:
256,192,95642,1,8,0:0:0:0:
256,192,95942,1,0,0:0:0:0:
256,192,96542,1,8,0:0:0:0:
256,192,97142,1,0,0:0:0:0:
256,192,98342,1,0,0:0:0:0:
256,192,98642,1,8,0:0:0:0:
256,192,98942,1,8,0:0:0:0:
256,192,99242,1,0,0:0:0:0:
256,192,99842,1,0,0:0:0:0:
256,192,100142,1,8,0:0:0:0:
256,192,100742,1,0,0:0:0:0:
256,192,101042,1,0,0:0:0:0:
256,192,101342,1,8,0:0:0:0:
256,192,101942,1,8,0:0:0:0:
256,192,102242,1,0,0:0:0:0:
256,192,102542,1,8,0:0:0:0:
256,192,103142,1,0,0:0:0:0:
256,192,103442,1,0,0:0:0:0:
256,192,103742,1,8,0:0:0:0:
256,192,104042,1,8,0:0:0:0:
256,192,104342,1,0,0:0:0:0:
256,192,104942,1,8,0:0:0:0:
256,192,105542,1,4,0:0:0:0:
256,192,105842,8,0,107342,0:0:0:0:
256,192,107942,5,0,0:0:0:0:
256,192,108842,1,0,0:0:0:0:
256,192,109742,1,0,0:0:0:0:
256,192,110342,1,0,0:0:0:0:
256,192,110792,1,0,0:0:0:0:
256,192,111692,1,0,0:0:0:0:
256,192,112592,1,8,0:0:0:0:
256,192,112892,1,0,0:0:0:0:
256,192,113792,1,0,0:0:0:0:
256,192,114692,1,0,0:0:0:0:
256,192,115592,1,0,0:0:0:0:
256,192,116492,1,0,0:0:0:0:
256,192,117242,1,8,0:0:0:0:
256,192,117542,1,8,0:0:0:0:
256,192,118442,1,0,0:0:0:0:
256,192,119342,1,8,0:0:0:0:
256,192,119942,1,0,0:0:0:0:
256,192,120842,1,0,0:0:0:0:
256,192,121742,1,8,0:0:0:0:
256,192,122192,1,0,0:0:0:0:
256,192,122492,1,0,0:0:0:0:
256,192,123392,1,0,0:0:0:0:
256,192,124292,1,0,0:0:0:0:
256,192,125192,1,0,0:0:0:0:
256,192,125642,1,8,0:0:0:0:
256,192,126092,1,8,0:0:0:0:
256,192,126542,1,0,0:0:0:0:
256,192,126992,1,0,0:0:0:0:
256,192,127292,1,0,0:0:0:0:
256,192,127592,12,0,128192,0:0:0:0:
