osu file format v14

[General]
AudioFilename: audio.mp3
AudioLeadIn: 0
PreviewTime: 43142
Countdown: 0
SampleSet: Normal
StackLeniency: 0.7
Mode: 1
LetterboxInBreaks: 0
WidescreenStoryboard: 1

[Editor]
DistanceSpacing: 1.6
BeatDivisor: 4
GridSize: 32
TimelineZoom: 2.7

[Metadata]
Title:Orthoplexed
TitleUnicode:Orthoplexed
Artist:Frums
ArtistUnicode:Frums
Creator:Paraxia
Version:_Rise's Oni
Source:
Tags:Dance Morph electronic instrumental Hello World morph2020 Morph EP 4 Mex World extended play _rise meiqth
BeatmapID:4442164
BeatmapSetID:2115397

[Difficulty]
HPDrainRate:6
CircleSize:5
OverallDifficulty:6
ApproachRate:10
SliderMultiplier:1.4
SliderTickRate:1

[Events]
//Background and Video events
0,0,"bg.jpg",0,0
//Break Periods
//Storyboard Layer 0 (Background)
//Storyboard Layer 1 (Fail)
//Storyboard Layer 2 (Pass)
//Storyboard Layer 3 (Foreground)
//Storyboard Layer 4 (Overlay)
//Storyboard Sound Samples

[TimingPoints]
-58,300,4,1,0,70,1,0
3504,-100,4,1,0,70,0,0
12504,-100,4,1,0,70,0,0
13104,-100,4,1,0,70,0,0
22779,-111.111111111111,4,1,0,70,0,0
39542,-111.111111111111,4,1,0,70,0,0
39842,-108.108108108108,4,1,0,70,0,0
39992,-106.666666666667,4,1,0,70,0,0
40067,-105.960264900662,4,1,0,70,0,0
40142,-105.263157894737,4,1,0,70,0,0
40292,-103.896103896104,4,1,0,70,0,0
40442,-102.564102564103,4,1,0,70,0,0
40517,-101.910828025478,4,1,0,70,0,0
40592,-101.26582278481,4,1,0,70,0,0
40667,-100.62893081761,4,1,0,70,0,0
40742,-100,4,1,0,70,0,0
40967,-98.159509202454,4,1,0,70,0,0
41042,-97.5609756097561,4,1,0,70,0,0
41192,-96.3855421686747,4,1,0,70,0,0
41417,-94.6745562130177,4,1,0,70,0,0
41492,-94.1176470588235,4,1,0,70,0,0
41642,-93.0232558139535,4,1,0,70,0,0
41717,-92.485549132948,4,1,0,70,0,0
41792,-91.9540229885057,4,1,0,70,0,0
41867,-91.4285714285714,4,1,0,70,0,0
41942,-90.9090909090909,4,1,0,70,0,0
43142,-83.3333333333333,4,1,0,70,0,1
43442,-85.1648351648352,4,1,0,70,0,1
43517,-85.6353591160221,4,1,0,70,0,1
43592,-86.1111111111111,4,1,0,70,0,1
43667,-86.5921787709497,4,1,0,70,0,1
43742,-87.0786516853933,4,1,0,70,0,1
44042,-89.0804597701149,4,1,0,70,0,1
44117,-89.5953757225434,4,1,0,70,0,1
44192,-90.1162790697675,4,1,0,70,0,1
44267,-90.6432748538012,4,1,0,70,0,1
44342,-91.1764705882353,4,1,0,70,0,1
44642,-93.3734939759036,4,1,0,70,0,1
44717,-93.9393939393939,4,1,0,70,0,1
44792,-94.5121951219512,4,1,0,70,0,1
44867,-95.0920245398773,4,1,0,70,0,1
44942,-95.679012345679,4,1,0,70,0,1
45242,-98.1012658227848,4,1,0,70,0,1
45317,-98.7261146496815,4,1,0,70,0,1
45392,-99.3589743589744,4,1,0,70,0,1
45467,-100,4,1,0,70,0,1
45542,-100.649350649351,4,1,0,70,0,1
45842,-103.333333333333,4,1,0,70,0,1
45917,-104.026845637584,4,1,0,70,0,1
45992,-104.72972972973,4,1,0,70,0,1
46067,-105.442176870748,4,1,0,70,0,1
46142,-106.164383561644,4,1,0,70,0,1
46442,-109.154929577465,4,1,0,70,0,1
46517,-109.929078014184,4,1,0,70,0,1
46592,-110.714285714286,4,1,0,70,0,1
46667,-111.510791366906,4,1,0,70,0,1
46742,-112.31884057971,4,1,0,70,0,1
47042,-115.671641791045,4,1,0,70,0,1
47117,-116.541353383459,4,1,0,70,0,1
47192,-117.424242424242,4,1,0,70,0,1
47267,-118.320610687023,4,1,0,70,0,1
47342,-119.230769230769,4,1,0,70,0,1
47492,-121.09375,4,1,0,70,0,1
47642,-123.015873015873,4,1,0,70,0,1
47792,-125,4,1,0,70,0,1
47942,-83.3333333333333,4,1,0,70,0,1
48167,-84.6846846846847,4,1,0,70,0,1
48392,-86.0805860805861,4,1,0,70,0,1
48467,-86.5561694290976,4,1,0,70,0,1
48542,-87.0370370370371,4,1,0,70,0,1
48842,-89.0151515151515,4,1,0,70,0,1
48917,-89.5238095238095,4,1,0,70,0,1
48992,-90.0383141762452,4,1,0,70,0,1
49067,-90.5587668593449,4,1,0,70,0,1
49142,-91.0852713178295,4,1,0,70,0,1
49442,-93.2539682539683,4,1,0,70,0,1
49517,-93.812375249501,4,1,0,70,0,1
49592,-94.3775100401606,4,1,0,70,0,1
49667,-94.949494949495,4,1,0,70,0,1
49742,-95.5284552845529,4,1,0,70,0,1
50042,-97.9166666666667,4,1,0,70,0,1
50117,-98.5324947589099,4,1,0,70,0,1
50192,-99.1561181434599,4,1,0,70,0,1
50267,-99.7876857749469,4,1,0,70,0,1
50342,-100.42735042735,4,1,0,70,0,1
50642,-103.070175438596,4,1,0,70,0,1
50717,-103.752759381898,4,1,0,70,0,1
50792,-104.444444444444,4,1,0,70,0,1
50867,-105.145413870246,4,1,0,70,0,1
50942,-105.855855855856,4,1,0,70,0,1
51242,-108.796296296296,4,1,0,70,0,1
51317,-109.55710955711,4,1,0,70,0,1
51392,-110.328638497653,4,1,0,70,0,1
51467,-111.111111111111,4,1,0,70,0,1
51542,-111.904761904762,4,1,0,70,0,1
51767,-114.355231143552,4,1,0,70,0,1
51992,-116.915422885572,4,1,0,70,0,1
52142,-118.686868686869,4,1,0,70,0,0
52242,-119.897959183673,4,1,0,70,0,0
52342,-121.134020618557,4,1,0,70,0,0
52442,-122.395833333333,4,1,0,70,0,0
52542,-123.684210526316,4,1,0,70,0,0
52642,-125,4,1,0,70,0,0
52742,-83.3333333333333,4,1,0,70,0,1
53042,-85.1648351648352,4,1,0,70,0,1
53117,-85.6353591160221,4,1,0,70,0,1
53192,-86.1111111111111,4,1,0,70,0,1
53342,-87.0786516853933,4,1,0,70,0,1
53492,-88.0681818181818,4,1,0,70,0,1
53567,-88.5714285714286,4,1,0,70,0,1
53642,-89.0804597701149,4,1,0,70,0,1
53717,-89.5953757225434,4,1,0,70,0,1
53792,-90.1162790697675,4,1,0,70,0,1
53942,-91.1764705882353,4,1,0,70,0,1
54242,-93.3734939759036,4,1,0,70,0,1
54317,-93.9393939393939,4,1,0,70,0,1
54392,-94.5121951219512,4,1,0,70,0,1
54542,-95.679012345679,4,1,0,70,0,1
54692,-96.875,4,1,0,70,0,1
54767,-97.4842767295597,4,1,0,70,0,1
54842,-98.1012658227848,4,1,0,70,0,1
54992,-99.3589743589744,4,1,0,70,0,1
55142,-100.649350649351,4,1,0,70,0,1
55442,-103.333333333333,4,1,0,70,0,1
55517,-104.026845637584,4,1,0,70,0,1
55592,-104.72972972973,4,1,0,70,0,1
55742,-106.164383561644,4,1,0,70,0,1
55892,-107.638888888889,4,1,0,70,0,1
55967,-108.391608391608,4,1,0,70,0,1
56042,-109.154929577465,4,1,0,70,0,1
56117,-109.929078014184,4,1,0,70,0,1
56192,-110.714285714286,4,1,0,70,0,1
56342,-112.31884057971,4,1,0,70,0,1
56642,-115.671641791045,4,1,0,70,0,1
56717,-116.541353383459,4,1,0,70,0,1
56792,-117.424242424242,4,1,0,70,0,1
56942,-119.230769230769,4,1,0,70,0,1
57092,-121.09375,4,1,0,70,0,1
57242,-123.015873015873,4,1,0,70,0,1
57392,-125,4,1,0,70,0,1
57542,-83.3333333333333,4,1,0,70,0,1
57842,-85.1063829787234,4,1,0,70,0,1
57917,-85.5614973262032,4,1,0,70,0,1
57992,-86.0215053763441,4,1,0,70,0,1
58142,-86.9565217391304,4,1,0,70,0,1
58292,-87.9120879120879,4,1,0,70,0,1
58367,-88.3977900552486,4,1,0,70,0,1
58442,-88.8888888888889,4,1,0,70,0,1
58517,-89.3854748603352,4,1,0,70,0,1
58592,-89.8876404494382,4,1,0,70,0,1
58742,-90.9090909090909,4,1,0,70,0,1
59042,-93.0232558139535,4,1,0,70,0,1
59117,-93.5672514619883,4,1,0,70,0,1
59192,-94.1176470588235,4,1,0,70,0,1
59342,-95.2380952380952,4,1,0,70,0,1
59492,-96.3855421686747,4,1,0,70,0,1
59567,-96.969696969697,4,1,0,70,0,1
59642,-97.5609756097561,4,1,0,70,0,1
59792,-98.7654320987654,4,1,0,70,0,1
59942,-100,4,1,0,70,0,1
60242,-102.564102564103,4,1,0,70,0,1
60317,-103.225806451613,4,1,0,70,0,1
60392,-103.896103896104,4,1,0,70,0,1
60542,-105.263157894737,4,1,0,70,0,1
60692,-106.666666666667,4,1,0,70,0,1
60767,-107.38255033557,4,1,0,70,0,1
60842,-108.108108108108,4,1,0,70,0,1
60992,-109.58904109589,4,1,0,70,0,1
61104,-109.58904109589,4,1,0,70,0,1
61142,-111.111111111111,4,1,0,70,0,1
61292,-112.676056338028,4,1,0,70,0,1
61442,-114.285714285714,4,1,0,70,0,1
61592,-115.942028985507,4,1,0,70,0,1
61667,-116.788321167883,4,1,0,70,0,1
61742,-117.647058823529,4,1,0,70,0,0
62304,-83.3333333333333,4,1,0,70,0,0
62342,-83.3333333333333,4,1,0,70,0,0
63542,-114.790312198505,4,1,0,70,0,0
64742,-158.121789295562,4,1,0,70,0,0
65942,-217.810194703486,4,1,0,70,0,0
67142,-300.030003000363,4,1,0,70,0,0
68304,-100,4,1,0,70,0,0
69504,-90.9090909090909,4,1,0,70,0,0
83942,-83.3333333333333,4,1,0,70,0,0
86304,-100,4,1,0,70,0,0
88704,-100,4,1,0,70,0,0
89042,-111.111111111111,4,1,0,70,0,0
103142,-111.111111111111,4,1,0,70,0,0
103442,-108.108108108108,4,1,0,70,0,0
103542,-107.142857142857,4,1,0,70,0,0
103642,-106.194690265487,4,1,0,70,0,0
103742,-105.263157894737,4,1,0,70,0,0
103942,-103.448275862069,4,1,0,70,0,0
104142,-101.694915254237,4,1,0,70,0,0
104342,-100,4,1,0,70,0,0
104542,-98.3606557377049,4,1,0,70,0,0
104642,-97.5609756097561,4,1,0,70,0,0
104742,-96.7741935483871,4,1,0,70,0,0
104842,-96,4,1,0,70,0,0
104942,-95.2380952380952,4,1,0,70,0,0
105142,-93.75,4,1,0,70,0,0
105242,-93.0232558139535,4,1,0,70,0,0
105342,-92.3076923076923,4,1,0,70,0,0
105442,-91.6030534351145,4,1,0,70,0,0
105542,-90.9090909090909,4,1,0,70,0,0
105817,-90.9090909090909,4,1,0,70,0,0
106742,-111.111111111111,4,1,0,70,0,0
107904,-83.3333333333333,4,1,0,70,0,0
107942,-83.3333333333333,4,1,0,70,0,1
108242,-85.2272727272727,4,1,0,70,0,1
108317,-85.7142857142857,4,1,0,70,0,1
108392,-86.2068965517241,4,1,0,70,0,1
108692,-88.2352941176471,4,1,0,70,0,1
108767,-88.7573964497042,4,1,0,70,0,1
108842,-89.2857142857143,4,1,0,70,0,1
109142,-91.4634146341464,4,1,0,70,0,1
109217,-92.0245398773006,4,1,0,70,0,1
109292,-92.5925925925926,4,1,0,70,0,1
109592,-94.9367088607595,4,1,0,70,0,1
109667,-95.5414012738854,4,1,0,70,0,1
109742,-96.1538461538462,4,1,0,70,0,1
109892,-97.4025974025974,4,1,0,70,0,1
110042,-98.6842105263158,4,1,0,70,0,1
110117,-99.3377483443709,4,1,0,70,0,1
110192,-100,4,1,0,70,0,1
110342,-83.3333333333333,4,1,0,70,0,1
110642,-85.1063829787234,4,1,0,70,0,1
110717,-85.5614973262032,4,1,0,70,0,1
110792,-86.0215053763441,4,1,0,70,0,1
111092,-87.9120879120879,4,1,0,70,0,1
111167,-88.3977900552486,4,1,0,70,0,1
111242,-88.8888888888889,4,1,0,70,0,1
111542,-90.9090909090909,4,1,0,70,0,1
111617,-91.4285714285714,4,1,0,70,0,1
111692,-91.9540229885058,4,1,0,70,0,1
111992,-94.1176470588235,4,1,0,70,0,1
112067,-94.6745562130178,4,1,0,70,0,1
112142,-95.2380952380952,4,1,0,70,0,1
112292,-96.3855421686747,4,1,0,70,0,1
112442,-97.5609756097561,4,1,0,70,0,1
112517,-98.159509202454,4,1,0,70,0,1
112592,-98.7654320987654,4,1,0,70,0,1
112742,300,4,1,0,70,1,8
112742,-100,4,1,0,70,0,1
112892,300,4,1,0,70,1,0
112892,-83.3333333333333,4,1,0,70,0,1
113192,-85.2272727272727,4,1,0,70,0,1
113267,-85.7142857142857,4,1,0,70,0,1
113342,-86.2068965517241,4,1,0,70,0,1
113642,-88.2352941176471,4,1,0,70,0,1
113717,-88.7573964497042,4,1,0,70,0,1
113792,-89.2857142857143,4,1,0,70,0,1
113942,-90.3614457831325,4,1,0,70,0,1
114092,-91.4634146341464,4,1,0,70,0,1
114167,-92.0245398773006,4,1,0,70,0,1
114242,-92.5925925925926,4,1,0,70,0,1
114542,-94.9367088607595,4,1,0,70,0,1
114617,-95.5414012738854,4,1,0,70,0,1
114692,-96.1538461538462,4,1,0,70,0,1
114842,-97.4025974025974,4,1,0,70,0,1
114992,-98.6842105263158,4,1,0,70,0,1
115067,-99.3377483443709,4,1,0,70,0,1
115142,-100,4,1,0,70,0,1
115292,-101.351351351351,4,1,0,70,0,1
115442,-102.739726027397,4,1,0,70,0,1
115517,-103.448275862069,4,1,0,70,0,1
115592,-104.166666666667,4,1,0,70,0,1
115892,-107.142857142857,4,1,0,70,0,1
115967,-107.913669064748,4,1,0,70,0,1
116042,-108.695652173913,4,1,0,70,0,1
116192,-110.294117647059,4,1,0,70,0,1
116342,-111.940298507463,4,1,0,70,0,1
116492,-113.636363636364,4,1,0,70,0,1
116642,-115.384615384615,4,1,0,70,0,1
116717,-116.279069767442,4,1,0,70,0,1
116792,-117.1875,4,1,0,70,0,1
116867,-118.110236220472,4,1,0,70,0,1
116942,-119.047619047619,4,1,0,70,0,1
117092,-120.967741935484,4,1,0,70,0,1
117167,-121.951219512195,4,1,0,70,0,1
117242,-122.950819672131,4,1,0,70,0,1
117392,-125,4,1,0,70,0,1
117542,300,4,1,0,70,1,0
117542,-83.3333333333333,4,1,0,70,0,1
117842,-85.2272727272727,4,1,0,70,0,1
117917,-85.7142857142857,4,1,0,70,0,1
117992,-86.2068965517241,4,1,0,70,0,1
118292,-88.2352941176471,4,1,0,70,0,1
118367,-88.7573964497042,4,1,0,70,0,1
118442,-89.2857142857143,4,1,0,70,0,1
118592,-90.3614457831325,4,1,0,70,0,1
118742,-91.4634146341464,4,1,0,70,0,1
118817,-92.0245398773006,4,1,0,70,0,1
118892,-92.5925925925926,4,1,0,70,0,1
119192,-94.9367088607595,4,1,0,70,0,1
119267,-95.5414012738854,4,1,0,70,0,1
119342,-96.1538461538462,4,1,0,70,0,1
119417,-96.7741935483871,4,1,0,70,0,1
119567,-98.0392156862745,4,1,0,70,0,1
119642,-98.6842105263158,4,1,0,70,0,1
119792,-100,4,1,0,70,0,1
119942,-83.3333333333333,4,1,0,70,0,1
120242,-85.1063829787234,4,1,0,70,0,1
120317,-85.5614973262032,4,1,0,70,0,1
120392,-86.0215053763441,4,1,0,70,0,1
120692,-87.9120879120879,4,1,0,70,0,1
120767,-88.3977900552486,4,1,0,70,0,1
120842,-88.8888888888889,4,1,0,70,0,1
120992,-89.8876404494382,4,1,0,70,0,1
121142,-90.9090909090909,4,1,0,70,0,1
121217,-91.4285714285714,4,1,0,70,0,1
121292,-91.9540229885058,4,1,0,70,0,1
121367,-92.485549132948,4,1,0,70,0,1
121442,-93.0232558139535,4,1,0,70,0,1
121592,-94.1176470588235,4,1,0,70,0,1
121742,-95.2380952380952,4,1,0,70,0,1
121892,-96.3855421686747,4,1,0,70,0,1
121967,-96.969696969697,4,1,0,70,0,1
122117,-98.159509202454,4,1,0,70,0,1
122192,-98.7654320987654,4,1,0,70,0,1
122342,300,4,1,0,70,1,8
122342,-125,4,1,0,70,0,1
122492,300,4,1,0,70,1,0
122492,-123.076923076923,4,1,0,70,0,1
122792,-119.402985074627,4,1,0,70,0,1
122867,-118.518518518519,4,1,0,70,0,1
122942,-117.647058823529,4,1,0,70,0,1
123242,-114.285714285714,4,1,0,70,0,1
123317,-113.475177304965,4,1,0,70,0,1
123392,-112.676056338028,4,1,0,70,0,1
123542,-111.111111111111,4,1,0,70,0,1
123692,-109.58904109589,4,1,0,70,0,1
123767,-108.843537414966,4,1,0,70,0,1
123842,-108.108108108108,4,1,0,70,0,1
124142,-105.263157894737,4,1,0,70,0,1
124217,-104.575163398693,4,1,0,70,0,1
124292,-103.896103896104,4,1,0,70,0,1
124442,-102.564102564103,4,1,0,70,0,1
124592,-101.26582278481,4,1,0,70,0,1
124667,-100.62893081761,4,1,0,70,0,1
124742,-100,4,1,0,70,0,1
124892,-98.7654320987654,4,1,0,70,0,1
125042,-97.5609756097561,4,1,0,70,0,1
125117,-96.969696969697,4,1,0,70,0,1
125192,-96.3855421686747,4,1,0,70,0,1
125267,-95.8083832335329,4,1,0,70,0,1
125417,-94.6745562130178,4,1,0,70,0,1
125492,-94.1176470588235,4,1,0,70,0,1
125642,-93.0232558139535,4,1,0,70,0,1
125792,-91.9540229885058,4,1,0,70,0,1
125867,-91.4285714285714,4,1,0,70,0,1
125942,-90.9090909090909,4,1,0,70,0,1
126092,-89.8876404494382,4,1,0,70,0,1
126242,-88.8888888888889,4,1,0,70,0,1
126317,-88.3977900552486,4,1,0,70,0,1
126392,-87.9120879120879,4,1,0,70,0,1
126467,-87.431693989071,4,1,0,70,0,1
126542,-86.9565217391304,4,1,0,70,0,1
126692,-86.0215053763441,4,1,0,70,0,1
126767,-85.5614973262032,4,1,0,70,0,1
126842,-85.1063829787234,4,1,0,70,0,1
126917,-84.6560846560847,4,1,0,70,0,1
126992,-84.2105263157895,4,1,0,70,0,1
127142,-83.3333333333333,4,1,0,70,0,0
127404,-83.3333333333333,4,1,0,70,0,0

[HitObjects]
256,192,2267,12,0,3242,0:0:0:0:
256,192,3542,5,0,0:0:0:0:
256,192,3842,1,0,0:0:0:0:
256,192,4142,1,0,0:0:0:0:
256,192,4442,1,0,0:0:0:0:
256,192,4742,1,0,0:0:0:0:
256,192,5042,1,0,0:0:0:0:
256,192,5342,1,0,0:0:0:0:
256,192,5642,1,8,0:0:0:0:
256,192,5942,1,0,0:0:0:0:
256,192,6092,1,0,0:0:0:0:
256,192,6242,1,0,0:0:0:0:
256,192,6542,1,0,0:0:0:0:
256,192,6842,1,0,0:0:0:0:
256,192,7142,1,0,0:0:0:0:
256,192,7367,1,0,0:0:0:0:
256,192,7592,1,0,0:0:0:0:
256,192,7742,1,0,0:0:0:0:
256,192,7892,1,8,0:0:0:0:
256,192,7967,1,8,0:0:0:0:
256,192,8042,1,8,0:0:0:0:
256,192,8192,1,8,0:0:0:0:
256,192,8342,1,0,0:0:0:0:
256,192,8642,1,0,0:0:0:0:
256,192,8942,1,0,0:0:0:0:
256,192,9242,1,0,0:0:0:0:
256,192,9542,1,0,0:0:0:0:
256,192,9842,1,0,0:0:0:0:
256,192,10142,1,8,0:0:0:0:
256,192,10217,1,8,0:0:0:0:
256,192,10292,1,0,0:0:0:0:
256,192,10592,1,8,0:0:0:0:
256,192,10742,1,0,0:0:0:0:
256,192,10892,1,0,0:0:0:0:
256,192,11042,1,0,0:0:0:0:
256,192,11342,1,0,0:0:0:0:
256,192,11642,1,0,0:0:0:0:
256,192,11942,1,8,0:0:0:0:
256,192,12167,1,8,0:0:0:0:
256,192,12317,1,8,0:0:0:0:
256,192,12392,1,8,0:0:0:0:
256,192,12467,1,8,0:0:0:0:
256,192,12542,12,0,12992,0:0:0:0:
256,192,13142,5,0,0:0:0:0:
256,192,13442,1,0,0:0:0:0:
256,192,13742,1,0,0:0:0:0:
256,192,13892,1,8,0:0:0:0:
256,192,13967,1,8,0:0:0:0:
256,192,14042,1,0,0:0:0:0:
256,192,14192,1,8,0:0:0:0:
256,192,14342,1,0,0:0:0:0:
256,192,14642,1,0,0:0:0:0:
256,192,14792,1,8,0:0:0:0:
256,192,14867,1,8,0:0:0:0:
256,192,14942,1,0,0:0:0:0:
256,192,15092,1,0,0:0:0:0:
256,192,15242,1,8,0:0:0:0:
256,192,15542,1,0,0:0:0:0:
256,192,15692,1,0,0:0:0:0:
256,192,15842,1,0,0:0:0:0:
256,192,16142,1,0,0:0:0:0:
256,192,16292,1,8,0:0:0:0:
256,192,16367,1,8,0:0:0:0:
256,192,16442,1,0,0:0:0:0:
256,192,16592,1,8,0:0:0:0:
256,192,16742,1,0,0:0:0:0:
256,192,16892,1,8,0:0:0:0:
256,192,16967,1,0,0:0:0:0:
256,192,17117,1,8,0:0:0:0:
256,192,17192,1,0,0:0:0:0:
256,192,17342,1,0,0:0:0:0:
256,192,17492,1,8,0:0:0:0:
256,192,17567,1,8,0:0:0:0:
256,192,17642,1,8,0:0:0:0:
256,192,17792,1,8,0:0:0:0:
256,192,17942,1,0,0:0:0:0:
256,192,18242,1,0,0:0:0:0:
256,192,18542,1,0,0:0:0:0:
256,192,18692,1,8,0:0:0:0:
256,192,18767,1,8,0:0:0:0:
256,192,18842,1,0,0:0:0:0:
256,192,18992,1,8,0:0:0:0:
256,192,19142,1,0,0:0:0:0:
256,192,19442,1,0,0:0:0:0:
256,192,19592,1,8,0:0:0:0:
256,192,19742,1,8,0:0:0:0:
256,192,19817,1,8,0:0:0:0:
256,192,19892,1,0,0:0:0:0:
256,192,20042,1,0,0:0:0:0:
256,192,20192,1,8,0:0:0:0:
256,192,20342,1,0,0:0:0:0:
256,192,20492,1,0,0:0:0:0:
256,192,20642,1,0,0:0:0:0:
256,192,20942,1,0,0:0:0:0:
256,192,21092,1,8,0:0:0:0:
256,192,21167,1,8,0:0:0:0:
256,192,21242,1,0,0:0:0:0:
256,192,21392,1,8,0:0:0:0:
288,192,21542,2,0,L|352:192,4,35
256,192,22142,1,8,0:0:0:0:
256,192,22292,1,8,0:0:0:0:
256,192,22442,1,8,0:0:0:0:
256,192,22517,1,8,0:0:0:0:
256,192,22592,1,8,0:0:0:0:
256,192,22742,1,4,0:0:0:0:
256,192,23042,1,8,0:0:0:0:
256,192,23192,1,0,0:0:0:0:
256,192,23342,1,8,0:0:0:0:
256,192,23492,1,8,0:0:0:0:
256,192,23642,1,8,0:0:0:0:
256,192,23717,1,8,0:0:0:0:
256,192,23792,1,8,0:0:0:0:
256,192,23942,1,0,0:0:0:0:
256,192,24092,1,0,0:0:0:0:
256,192,24167,1,0,0:0:0:0:
256,192,24242,1,0,0:0:0:0:
256,192,24392,1,8,0:0:0:0:
256,192,24542,1,8,0:0:0:0:
256,192,24617,1,8,0:0:0:0:
256,192,24692,1,0,0:0:0:0:
256,192,24842,1,8,0:0:0:0:
256,192,25142,1,0,0:0:0:0:
256,192,25442,1,8,0:0:0:0:
256,192,25592,1,8,0:0:0:0:
256,192,25742,1,0,0:0:0:0:
256,192,25817,1,0,0:0:0:0:
256,192,25892,1,0,0:0:0:0:
256,192,26042,1,0,0:0:0:0:
256,192,26192,1,8,0:0:0:0:
256,192,26342,1,8,0:0:0:0:
256,192,26417,1,8,0:0:0:0:
256,192,26492,1,8,0:0:0:0:
256,192,26567,1,8,0:0:0:0:
256,192,26642,1,0,0:0:0:0:
256,192,26792,1,0,0:0:0:0:
256,192,26942,1,8,0:0:0:0:
256,192,27017,1,8,0:0:0:0:
256,192,27092,1,0,0:0:0:0:
256,192,27242,1,8,0:0:0:0:
256,192,27542,1,0,0:0:0:0:
256,192,27767,1,8,0:0:0:0:
256,192,27992,1,8,0:0:0:0:
256,192,28142,1,8,0:0:0:0:
256,192,28217,1,8,0:0:0:0:
256,192,28292,1,0,0:0:0:0:
256,192,28442,1,8,0:0:0:0:
256,192,28592,1,0,0:0:0:0:
256,192,28742,1,0,0:0:0:0:
256,192,28817,1,0,0:0:0:0:
256,192,28892,1,0,0:0:0:0:
256,192,29042,1,8,0:0:0:0:
256,192,29192,1,0,0:0:0:0:
256,192,29342,1,8,0:0:0:0:
256,192,29492,1,8,0:0:0:0:
256,192,29567,1,8,0:0:0:0:
256,192,29642,1,8,0:0:0:0:
256,192,29717,1,8,0:0:0:0:
256,192,29792,1,8,0:0:0:0:
256,192,29942,1,0,0:0:0:0:
256,192,30242,1,8,0:0:0:0:
256,192,30392,1,8,0:0:0:0:
256,192,30692,1,0,0:0:0:0:
256,192,30842,1,8,0:0:0:0:
256,192,30917,1,8,0:0:0:0:
256,192,30992,1,8,0:0:0:0:
256,192,31067,1,8,0:0:0:0:
256,192,31142,1,0,0:0:0:0:
256,192,31367,1,8,0:0:0:0:
256,192,31592,1,0,0:0:0:0:
256,192,31817,1,8,0:0:0:0:
256,192,32042,1,0,0:0:0:0:
256,192,32117,1,0,0:0:0:0:
256,192,32192,1,8,0:0:0:0:
256,192,32342,1,0,0:0:0:0:
256,192,32642,1,8,0:0:0:0:
256,192,32792,1,0,0:0:0:0:
256,192,32942,1,8,0:0:0:0:
256,192,33092,1,8,0:0:0:0:
256,192,33242,1,8,0:0:0:0:
256,192,33317,1,8,0:0:0:0:
256,192,33392,1,8,0:0:0:0:
256,192,33542,1,0,0:0:0:0:
256,192,33692,1,0,0:0:0:0:
256,192,33767,1,0,0:0:0:0:
256,192,33917,1,0,0:0:0:0:
256,192,33992,1,8,0:0:0:0:
256,192,34142,1,8,0:0:0:0:
256,192,34217,1,8,0:0:0:0:
256,192,34292,1,0,0:0:0:0:
256,192,34442,1,8,0:0:0:0:
256,192,34742,1,0,0:0:0:0:
256,192,35042,1,8,0:0:0:0:
256,192,35192,1,8,0:0:0:0:
256,192,35342,1,0,0:0:0:0:
256,192,35492,1,8,0:0:0:0:
256,192,35567,1,0,0:0:0:0:
256,192,35717,1,0,0:0:0:0:
256,192,35792,1,8,0:0:0:0:
256,192,35942,1,8,0:0:0:0:
256,192,36017,1,8,0:0:0:0:
256,192,36092,1,8,0:0:0:0:
256,192,36167,1,8,0:0:0:0:
256,192,36242,1,0,0:0:0:0:
256,192,36392,1,0,0:0:0:0:
256,192,36542,1,8,0:0:0:0:
256,192,36617,1,8,0:0:0:0:
256,192,36692,1,0,0:0:0:0:
256,192,36842,1,8,0:0:0:0:
256,192,37142,1,0,0:0:0:0:
256,192,37367,1,8,0:0:0:0:
256,192,37592,1,8,0:0:0:0:
256,192,37742,1,8,0:0:0:0:
256,192,37817,1,8,0:0:0:0:
256,192,37892,1,0,0:0:0:0:
256,192,38042,1,8,0:0:0:0:
256,192,38192,1,8,0:0:0:0:
256,192,38342,1,0,0:0:0:0:
256,192,38417,1,8,0:0:0:0:
256,192,38567,1,8,0:0:0:0:
256,192,38642,1,0,0:0:0:0:
256,192,38792,1,0,0:0:0:0:
256,192,38942,1,8,0:0:0:0:
256,192,39092,1,8,0:0:0:0:
256,192,39167,1,8,0:0:0:0:
256,192,39242,1,8,0:0:0:0:
256,192,39317,1,8,0:0:0:0:
256,192,39392,1,8,0:0:0:0:
256,192,39542,1,0,0:0:0:0:
256,192,39842,1,8,0:0:0:0:
256,192,39992,1,8,0:0:0:0:
256,192,40067,1,8,0:0:0:0:
256,192,40142,1,8,0:0:0:0:
256,192,40292,1,0,0:0:0:0:
256,192,40442,1,8,0:0:0:0:
256,192,40517,1,8,0:0:0:0:
256,192,40592,1,8,0:0:0:0:
256,192,40667,1,8,0:0:0:0:
256,192,40742,5,0,0:0:0:0:
256,192,40967,1,0,0:0:0:0:
256,192,41042,1,8,0:0:0:0:
256,192,41192,1,0,0:0:0:0:
256,192,41417,1,0,0:0:0:0:
256,192,41492,1,8,0:0:0:0:
256,192,41642,5,8,0:0:0:0:
256,192,41717,1,8,0:0:0:0:
256,192,41792,1,8,0:0:0:0:
256,192,41867,1,8,0:0:0:0:
256,192,43142,1,4,0:0:0:0:
256,192,43442,1,8,0:0:0:0:
256,192,43517,1,8,0:0:0:0:
256,192,43592,1,8,0:0:0:0:
256,192,43667,1,8,0:0:0:0:
256,192,43742,1,0,0:0:0:0:
256,192,44042,1,8,0:0:0:0:
256,192,44117,1,8,0:0:0:0:
256,192,44192,1,8,0:0:0:0:
256,192,44267,1,8,0:0:0:0:
256,192,44342,1,0,0:0:0:0:
256,192,44642,1,8,0:0:0:0:
256,192,44717,1,8,0:0:0:0:
256,192,44792,1,8,0:0:0:0:
256,192,44867,1,8,0:0:0:0:
256,192,44942,1,0,0:0:0:0:
256,192,45242,1,8,0:0:0:0:
256,192,45317,1,8,0:0:0:0:
256,192,45392,1,8,0:0:0:0:
256,192,45467,1,8,0:0:0:0:
256,192,45542,1,0,0:0:0:0:
256,192,45842,1,8,0:0:0:0:
256,192,45917,1,8,0:0:0:0:
256,192,45992,1,8,0:0:0:0:
256,192,46067,1,8,0:0:0:0:
256,192,46142,1,0,0:0:0:0:
256,192,46442,1,8,0:0:0:0:
256,192,46517,1,8,0:0:0:0:
256,192,46592,1,8,0:0:0:0:
256,192,46667,1,8,0:0:0:0:
256,192,46742,1,0,0:0:0:0:
256,192,47042,1,8,0:0:0:0:
256,192,47117,1,8,0:0:0:0:
256,192,47192,1,8,0:0:0:0:
256,192,47267,1,8,0:0:0:0:
256,192,47342,1,0,0:0:0:0:
256,192,47492,1,0,0:0:0:0:
256,192,47642,1,0,0:0:0:0:
256,192,47792,1,0,0:0:0:0:
256,192,47942,1,0,0:0:0:0:
256,192,48167,1,0,0:0:0:0:
256,192,48392,1,8,0:0:0:0:
256,192,48467,1,8,0:0:0:0:
256,192,48542,1,0,0:0:0:0:
256,192,48842,1,8,0:0:0:0:
256,192,48917,1,8,0:0:0:0:
256,192,48992,1,8,0:0:0:0:
256,192,49067,1,8,0:0:0:0:
256,192,49142,1,0,0:0:0:0:
256,192,49442,1,8,0:0:0:0:
256,192,49517,1,8,0:0:0:0:
256,192,49592,1,8,0:0:0:0:
256,192,49667,1,8,0:0:0:0:
256,192,49742,1,0,0:0:0:0:
256,192,50042,1,8,0:0:0:0:
256,192,50117,1,8,0:0:0:0:
256,192,50192,1,8,0:0:0:0:
256,192,50267,1,8,0:0:0:0:
256,192,50342,1,0,0:0:0:0:
256,192,50642,1,8,0:0:0:0:
256,192,50717,1,8,0:0:0:0:
256,192,50792,1,8,0:0:0:0:
256,192,50867,1,8,0:0:0:0:
256,192,50942,1,0,0:0:0:0:
256,192,51242,1,8,0:0:0:0:
256,192,51317,1,8,0:0:0:0:
256,192,51392,1,8,0:0:0:0:
256,192,51467,1,8,0:0:0:0:
256,192,51542,1,0,0:0:0:0:
256,192,51767,1,0,0:0:0:0:
256,192,51992,1,8,0:0:0:0:
256,192,52142,1,8,0:0:0:0:
256,192,52242,1,8,0:0:0:0:
256,192,52342,1,8,0:0:0:0:
256,192,52442,1,8,0:0:0:0:
256,192,52542,1,8,0:0:0:0:
256,192,52642,1,8,0:0:0:0:
256,192,52742,1,0,0:0:0:0:
256,192,53042,1,8,0:0:0:0:
256,192,53117,1,8,0:0:0:0:
256,192,53192,1,0,0:0:0:0:
256,192,53342,1,8,0:0:0:0:
256,192,53492,1,8,0:0:0:0:
256,192,53567,1,8,0:0:0:0:
256,192,53642,1,8,0:0:0:0:
256,192,53717,1,8,0:0:0:0:
256,192,53792,1,0,0:0:0:0:
256,192,53942,1,0,0:0:0:0:
256,192,54242,1,8,0:0:0:0:
256,192,54317,1,8,0:0:0:0:
256,192,54392,1,0,0:0:0:0:
256,192,54542,1,0,0:0:0:0:
256,192,54692,1,8,0:0:0:0:
256,192,54767,1,8,0:0:0:0:
256,192,54842,1,8,0:0:0:0:
256,192,54992,1,8,0:0:0:0:
256,192,55142,1,0,0:0:0:0:
256,192,55442,1,8,0:0:0:0:
256,192,55517,1,8,0:0:0:0:
256,192,55592,1,0,0:0:0:0:
256,192,55742,1,8,0:0:0:0:
256,192,55892,1,8,0:0:0:0:
256,192,55967,1,8,0:0:0:0:
256,192,56042,1,8,0:0:0:0:
256,192,56117,1,8,0:0:0:0:
256,192,56192,1,0,0:0:0:0:
256,192,56342,1,0,0:0:0:0:
256,192,56642,1,8,0:0:0:0:
256,192,56717,1,8,0:0:0:0:
256,192,56792,1,0,0:0:0:0:
256,192,56942,1,0,0:0:0:0:
256,192,57092,1,8,0:0:0:0:
256,192,57242,1,8,0:0:0:0:
256,192,57392,1,8,0:0:0:0:
256,192,57542,1,0,0:0:0:0:
256,192,57842,1,8,0:0:0:0:
256,192,57917,1,8,0:0:0:0:
256,192,57992,1,0,0:0:0:0:
256,192,58142,1,8,0:0:0:0:
256,192,58292,1,8,0:0:0:0:
256,192,58367,1,8,0:0:0:0:
256,192,58442,1,8,0:0:0:0:
256,192,58517,1,8,0:0:0:0:
256,192,58592,1,0,0:0:0:0:
256,192,58742,1,0,0:0:0:0:
256,192,59042,1,8,0:0:0:0:
256,192,59117,1,8,0:0:0:0:
256,192,59192,1,0,0:0:0:0:
256,192,59342,1,0,0:0:0:0:
256,192,59492,1,8,0:0:0:0:
256,192,59567,1,8,0:0:0:0:
256,192,59642,1,8,0:0:0:0:
256,192,59792,1,8,0:0:0:0:
256,192,59942,1,0,0:0:0:0:
256,192,60242,1,8,0:0:0:0:
256,192,60317,1,8,0:0:0:0:
256,192,60392,1,0,0:0:0:0:
256,192,60542,1,8,0:0:0:0:
256,192,60692,1,8,0:0:0:0:
256,192,60767,1,8,0:0:0:0:
256,192,60842,1,0,0:0:0:0:
256,192,60992,1,8,0:0:0:0:
256,192,61292,1,8,0:0:0:0:
256,192,61442,1,0,0:0:0:0:
256,192,61592,1,8,0:0:0:0:
256,192,61667,1,8,0:0:0:0:
256,192,61742,1,8,0:0:0:0:
256,192,62342,12,0,68342,0:0:0:0:
256,192,69542,5,0,0:0:0:0:
256,192,69767,1,0,0:0:0:0:
256,192,69992,1,0,0:0:0:0:
256,192,70217,1,0,0:0:0:0:
256,192,70442,1,0,0:0:0:0:
256,192,70667,1,0,0:0:0:0:
256,192,70892,1,0,0:0:0:0:
256,192,71117,1,0,0:0:0:0:
256,192,71342,1,0,0:0:0:0:
256,192,71567,1,0,0:0:0:0:
256,192,71642,1,8,0:0:0:0:
256,192,71942,1,0,0:0:0:0:
256,192,72167,1,0,0:0:0:0:
256,192,72242,1,8,0:0:0:0:
256,192,72392,1,0,0:0:0:0:
256,192,72617,1,0,0:0:0:0:
256,192,72692,1,8,0:0:0:0:
256,192,72842,1,0,0:0:0:0:
256,192,73067,1,0,0:0:0:0:
256,192,73142,1,8,0:0:0:0:
256,192,73292,1,0,0:0:0:0:
256,192,73517,1,0,0:0:0:0:
256,192,73592,1,8,0:0:0:0:
256,192,73742,1,0,0:0:0:0:
256,192,73817,1,0,0:0:0:0:
256,192,73967,1,0,0:0:0:0:
256,192,74042,1,8,0:0:0:0:
256,192,74192,1,8,0:0:0:0:
256,192,74342,1,0,0:0:0:0:
256,192,74567,1,0,0:0:0:0:
256,192,74792,1,0,0:0:0:0:
256,192,75017,1,0,0:0:0:0:
256,192,75242,1,0,0:0:0:0:
256,192,75467,1,0,0:0:0:0:
256,192,75692,1,0,0:0:0:0:
256,192,75917,1,0,0:0:0:0:
256,192,76142,1,0,0:0:0:0:
256,192,76367,1,0,0:0:0:0:
256,192,76442,1,8,0:0:0:0:
256,192,76742,1,0,0:0:0:0:
256,192,76967,1,0,0:0:0:0:
256,192,77042,1,8,0:0:0:0:
256,192,77192,1,0,0:0:0:0:
256,192,77267,1,0,0:0:0:0:
256,192,77417,1,0,0:0:0:0:
256,192,77492,1,8,0:0:0:0:
256,192,77642,1,0,0:0:0:0:
256,192,77717,1,0,0:0:0:0:
256,192,77867,1,0,0:0:0:0:
256,192,77942,1,8,0:0:0:0:
256,192,78092,1,0,0:0:0:0:
256,192,78167,1,0,0:0:0:0:
256,192,78242,1,0,0:0:0:0:
256,192,78392,1,0,0:0:0:0:
256,192,78542,1,8,0:0:0:0:
256,192,78617,1,8,0:0:0:0:
256,192,78692,1,8,0:0:0:0:
256,192,78842,1,8,0:0:0:0:
256,192,78992,1,8,0:0:0:0:
256,192,79142,1,0,0:0:0:0:
256,192,79442,1,0,0:0:0:0:
256,192,79517,1,0,0:0:0:0:
256,192,79592,1,0,0:0:0:0:
256,192,79667,1,0,0:0:0:0:
256,192,79742,1,8,0:0:0:0:
256,192,80042,1,0,0:0:0:0:
256,192,80117,1,0,0:0:0:0:
256,192,80192,1,8,0:0:0:0:
256,192,80267,1,0,0:0:0:0:
256,192,80342,1,0,0:0:0:0:
256,192,80492,1,8,0:0:0:0:
256,192,80567,1,0,0:0:0:0:
256,192,80642,1,0,0:0:0:0:
256,192,80717,1,0,0:0:0:0:
256,192,80792,1,8,0:0:0:0:
256,192,80942,1,8,0:0:0:0:
256,192,81092,1,0,0:0:0:0:
256,192,81242,1,8,0:0:0:0:
256,192,81392,1,8,0:0:0:0:
256,192,81542,1,0,0:0:0:0:
256,192,81842,1,0,0:0:0:0:
256,192,81917,1,0,0:0:0:0:
256,192,81992,1,0,0:0:0:0:
256,192,82067,1,0,0:0:0:0:
256,192,82142,1,8,0:0:0:0:
256,192,82442,1,0,0:0:0:0:
256,192,82517,1,0,0:0:0:0:
256,192,82592,1,8,0:0:0:0:
256,192,82667,1,8,0:0:0:0:
256,192,82742,1,0,0:0:0:0:
256,192,82892,1,8,0:0:0:0:
256,192,82967,1,8,0:0:0:0:
256,192,83042,1,0,0:0:0:0:
256,192,83117,1,0,0:0:0:0:
256,192,83192,1,8,0:0:0:0:
256,192,83342,1,8,0:0:0:0:
256,192,83492,1,0,0:0:0:0:
256,192,83642,1,8,0:0:0:0:
256,192,83942,1,0,0:0:0:0:
256,192,84017,1,8,0:0:0:0:
256,192,84092,1,8,0:0:0:0:
256,192,84167,1,8,0:0:0:0:
256,192,84242,1,0,0:0:0:0:
256,192,84392,1,0,0:0:0:0:
256,192,84542,1,8,0:0:0:0:
256,192,84617,1,8,0:0:0:0:
256,192,84692,1,0,0:0:0:0:
256,192,84767,1,8,0:0:0:0:
256,192,84842,1,8,0:0:0:0:
256,192,84992,1,8,0:0:0:0:
256,192,85142,12,0,86342,0:0:0:0:
256,192,88742,5,4,0:0:0:0:
256,192,89042,1,8,0:0:0:0:
256,192,89242,1,0,0:0:0:0:
256,192,89342,1,8,0:0:0:0:
256,192,89542,1,8,0:0:0:0:
256,192,89642,1,0,0:0:0:0:
256,192,89942,1,0,0:0:0:0:
256,192,90042,1,8,0:0:0:0:
256,192,90242,1,0,0:0:0:0:
256,192,90442,1,0,0:0:0:0:
256,192,90542,1,8,0:0:0:0:
256,192,90642,1,8,0:0:0:0:
256,192,90742,1,0,0:0:0:0:
256,192,90842,1,8,0:0:0:0:
256,192,91142,1,0,0:0:0:0:
256,192,91342,1,0,0:0:0:0:
256,192,91442,1,8,0:0:0:0:
256,192,91642,1,8,0:0:0:0:
256,192,91742,1,8,0:0:0:0:
256,192,91842,1,0,0:0:0:0:
256,192,91942,1,0,0:0:0:0:
256,192,92042,1,8,0:0:0:0:
256,192,92242,1,8,0:0:0:0:
256,192,92342,1,0,0:0:0:0:
256,192,92567,1,0,0:0:0:0:
256,192,92792,1,0,0:0:0:0:
256,192,92942,1,8,0:0:0:0:
256,192,93042,1,8,0:0:0:0:
256,192,93142,1,8,0:0:0:0:
256,192,93242,1,8,0:0:0:0:
256,192,93342,1,8,0:0:0:0:
256,192,93442,1,8,0:0:0:0:
256,192,93542,1,0,0:0:0:0:
256,192,93842,1,8,0:0:0:0:
256,192,93942,1,8,0:0:0:0:
256,192,94042,1,8,0:0:0:0:
256,192,94142,1,8,0:0:0:0:
256,192,94342,1,8,0:0:0:0:
256,192,94442,1,8,0:0:0:0:
256,192,94542,1,8,0:0:0:0:
256,192,94742,1,0,0:0:0:0:
256,192,94942,1,0,0:0:0:0:
256,192,95042,1,0,0:0:0:0:
256,192,95242,1,0,0:0:0:0:
256,192,95342,1,8,0:0:0:0:
256,192,95442,1,8,0:0:0:0:
256,192,95542,1,0,0:0:0:0:
256,192,95642,1,8,0:0:0:0:
256,192,95942,1,0,0:0:0:0:
256,192,96242,1,8,0:0:0:0:
256,192,96442,1,0,0:0:0:0:
256,192,96542,1,8,0:0:0:0:
256,192,96642,1,0,0:0:0:0:
256,192,96842,1,8,0:0:0:0:
256,192,96942,1,8,0:0:0:0:
256,192,97042,1,8,0:0:0:0:
256,192,97142,1,0,0:0:0:0:
256,192,97367,1,0,0:0:0:0:
256,192,97592,1,0,0:0:0:0:
256,192,97742,1,8,0:0:0:0:
256,192,97842,1,8,0:0:0:0:
256,192,97942,1,8,0:0:0:0:
256,192,98042,1,8,0:0:0:0:
256,192,98342,1,0,0:0:0:0:
256,192,98642,1,8,0:0:0:0:
256,192,98842,1,0,0:0:0:0:
256,192,98942,1,8,0:0:0:0:
256,192,99142,1,8,0:0:0:0:
256,192,99242,1,0,0:0:0:0:
256,192,99542,1,0,0:0:0:0:
256,192,99642,1,8,0:0:0:0:
256,192,99842,1,8,0:0:0:0:
256,192,99942,1,8,0:0:0:0:
256,192,100042,1,0,0:0:0:0:
256,192,100142,1,8,0:0:0:0:
256,192,100242,1,0,0:0:0:0:
256,192,100442,1,8,0:0:0:0:
256,192,100742,1,0,0:0:0:0:
256,192,100942,1,0,0:0:0:0:
256,192,101042,1,8,0:0:0:0:
256,192,101242,1,8,0:0:0:0:
256,192,101342,1,8,0:0:0:0:
256,192,101442,1,0,0:0:0:0:
256,192,101542,1,0,0:0:0:0:
256,192,101642,1,8,0:0:0:0:
256,192,101842,1,8,0:0:0:0:
256,192,101942,1,0,0:0:0:0:
256,192,102167,1,0,0:0:0:0:
256,192,102392,1,0,0:0:0:0:
256,192,102542,1,0,0:0:0:0:
256,192,102642,1,0,0:0:0:0:
256,192,102742,1,0,0:0:0:0:
256,192,102842,1,8,0:0:0:0:
256,192,102942,1,8,0:0:0:0:
256,192,103042,1,8,0:0:0:0:
256,192,103142,1,0,0:0:0:0:
256,192,103442,1,8,0:0:0:0:
256,192,103542,1,8,0:0:0:0:
256,192,103642,1,8,0:0:0:0:
256,192,103742,1,8,0:0:0:0:
256,192,103942,1,8,0:0:0:0:
256,192,104142,1,8,0:0:0:0:
256,192,104342,1,0,0:0:0:0:
256,192,104542,1,0,0:0:0:0:
256,192,104642,1,8,0:0:0:0:
256,192,104742,1,0,0:0:0:0:
256,192,104842,1,0,0:0:0:0:
256,192,104942,1,8,0:0:0:0:
256,192,105142,1,8,0:0:0:0:
256,192,105242,1,0,0:0:0:0:
256,192,105342,1,8,0:0:0:0:
256,192,105442,1,8,0:0:0:0:
256,192,105542,1,0,0:0:0:0:
256,192,105842,12,0,107642,0:0:0:0:
256,192,107942,5,4,0:0:0:0:
256,192,108242,1,8,0:0:0:0:
256,192,108317,1,8,0:0:0:0:
256,192,108392,1,0,0:0:0:0:
256,192,108692,1,8,0:0:0:0:
256,192,108767,1,8,0:0:0:0:
256,192,108842,1,0,0:0:0:0:
256,192,109142,1,8,0:0:0:0:
256,192,109217,1,8,0:0:0:0:
256,192,109292,1,0,0:0:0:0:
256,192,109592,1,8,0:0:0:0:
256,192,109667,1,8,0:0:0:0:
256,192,109742,1,0,0:0:0:0:
256,192,109892,1,0,0:0:0:0:
256,192,110042,1,8,0:0:0:0:
256,192,110117,1,8,0:0:0:0:
256,192,110192,1,0,0:0:0:0:
256,192,110342,1,0,0:0:0:0:
256,192,110642,1,8,0:0:0:0:
256,192,110717,1,8,0:0:0:0:
256,192,110792,1,0,0:0:0:0:
256,192,111092,1,8,0:0:0:0:
256,192,111167,1,8,0:0:0:0:
256,192,111242,1,0,0:0:0:0:
256,192,111542,1,8,0:0:0:0:
256,192,111617,1,8,0:0:0:0:
256,192,111692,1,0,0:0:0:0:
256,192,111992,1,8,0:0:0:0:
256,192,112067,1,8,0:0:0:0:
256,192,112142,1,0,0:0:0:0:
256,192,112292,1,0,0:0:0:0:
256,192,112442,1,8,0:0:0:0:
256,192,112517,1,8,0:0:0:0:
256,192,112592,1,0,0:0:0:0:
256,192,112892,1,0,0:0:0:0:
256,192,113192,1,8,0:0:0:0:
256,192,113267,1,8,0:0:0:0:
256,192,113342,1,0,0:0:0:0:
256,192,113642,1,8,0:0:0:0:
256,192,113717,1,8,0:0:0:0:
256,192,113792,1,0,0:0:0:0:
256,192,113942,1,0,0:0:0:0:
256,192,114092,1,8,0:0:0:0:
256,192,114167,1,8,0:0:0:0:
256,192,114242,1,0,0:0:0:0:
256,192,114542,1,8,0:0:0:0:
256,192,114617,1,8,0:0:0:0:
256,192,114692,1,0,0:0:0:0:
256,192,114842,1,0,0:0:0:0:
256,192,114992,1,8,0:0:0:0:
256,192,115067,1,8,0:0:0:0:
256,192,115142,1,0,0:0:0:0:
256,192,115292,1,0,0:0:0:0:
256,192,115442,1,8,0:0:0:0:
256,192,115517,1,8,0:0:0:0:
256,192,115592,1,0,0:0:0:0:
256,192,115892,1,8,0:0:0:0:
256,192,115967,1,8,0:0:0:0:
256,192,116042,1,0,0:0:0:0:
256,192,116192,1,0,0:0:0:0:
256,192,116342,1,8,0:0:0:0:
256,192,116492,1,0,0:0:0:0:
256,192,116642,1,0,0:0:0:0:
256,192,116717,1,0,0:0:0:0:
256,192,116792,1,8,0:0:0:0:
256,192,116867,1,8,0:0:0:0:
256,192,116942,1,0,0:0:0:0:
256,192,117092,1,8,0:0:0:0:
256,192,117167,1,8,0:0:0:0:
256,192,117242,1,8,0:0:0:0:
256,192,117392,1,8,0:0:0:0:
256,192,117542,1,0,0:0:0:0:
256,192,117842,1,8,0:0:0:0:
256,192,117917,1,8,0:0:0:0:
256,192,117992,1,0,0:0:0:0:
256,192,118292,1,8,0:0:0:0:
256,192,118367,1,8,0:0:0:0:
256,192,118442,1,0,0:0:0:0:
256,192,118592,1,0,0:0:0:0:
256,192,118742,1,8,0:0:0:0:
256,192,118817,1,8,0:0:0:0:
256,192,118892,1,0,0:0:0:0:
256,192,119192,1,8,0:0:0:0:
256,192,119267,1,8,0:0:0:0:
256,192,119342,1,0,0:0:0:0:
256,192,119417,1,8,0:0:0:0:
256,192,119567,1,8,0:0:0:0:
256,192,119642,1,8,0:0:0:0:
256,192,119792,1,0,0:0:0:0:
256,192,119942,1,0,0:0:0:0:
256,192,120242,1,8,0:0:0:0:
256,192,120317,1,8,0:0:0:0:
256,192,120392,1,0,0:0:0:0:
256,192,120692,1,8,0:0:0:0:
256,192,120767,1,8,0:0:0:0:
256,192,120842,1,0,0:0:0:0:
256,192,120992,1,0,0:0:0:0:
256,192,121142,1,8,0:0:0:0:
256,192,121217,1,8,0:0:0:0:
256,192,121292,1,0,0:0:0:0:
256,192,121367,1,8,0:0:0:0:
256,192,121442,1,8,0:0:0:0:
256,192,121592,1,8,0:0:0:0:
256,192,121742,1,0,0:0:0:0:
256,192,121892,1,8,0:0:0:0:
256,192,121967,1,8,0:0:0:0:
256,192,122117,1,8,0:0:0:0:
256,192,122192,1,0,0:0:0:0:
256,192,122492,1,0,0:0:0:0:
256,192,122792,1,8,0:0:0:0:
256,192,122867,1,8,0:0:0:0:
256,192,122942,1,0,0:0:0:0:
256,192,123242,1,8,0:0:0:0:
256,192,123317,1,8,0:0:0:0:
256,192,123392,1,0,0:0:0:0:
256,192,123542,1,0,0:0:0:0:
256,192,123692,1,8,0:0:0:0:
256,192,123767,1,8,0:0:0:0:
256,192,123842,1,0,0:0:0:0:
256,192,124142,1,8,0:0:0:0:
256,192,124217,1,8,0:0:0:0:
256,192,124292,1,0,0:0:0:0:
256,192,124442,1,0,0:0:0:0:
256,192,124592,1,8,0:0:0:0:
256,192,124667,1,8,0:0:0:0:
256,192,124742,1,0,0:0:0:0:
256,192,124892,1,0,0:0:0:0:
256,192,125042,1,8,0:0:0:0:
256,192,125117,1,8,0:0:0:0:
256,192,125192,1,0,0:0:0:0:
256,192,125267,1,8,0:0:0:0:
256,192,125417,1,8,0:0:0:0:
256,192,125492,1,8,0:0:0:0:
256,192,125642,1,0,0:0:0:0:
256,192,125792,1,8,0:0:0:0:
256,192,125867,1,8,0:0:0:0:
256,192,125942,1,8,0:0:0:0:
256,192,126092,1,0,0:0:0:0:
256,192,126242,1,0,0:0:0:0:
256,192,126317,1,0,0:0:0:0:
256,192,126392,1,8,0:0:0:0:
256,192,126467,1,8,0:0:0:0:
256,192,126542,1,0,0:0:0:0:
256,192,126692,1,8,0:0:0:0:
256,192,126767,1,8,0:0:0:0:
256,192,126842,1,8,0:0:0:0:
256,192,126917,1,8,0:0:0:0:
256,192,126992,1,0,0:0:0:0:
256,192,127142,1,4,0:0:0:0:
256,192,127292,1,4,0:0:0:0:
256,192,127442,12,0,128342,0:0:0:0:
