osu file format v14

[General]
AudioFilename: audio.mp3
AudioLeadIn: 0
PreviewTime: 43142
Countdown: 0
SampleSet: Normal
StackLeniency: 0.7
Mode: 3
LetterboxInBreaks: 0
SpecialStyle: 0
WidescreenStoryboard: 1

[Editor]
Bookmarks: 1782,1902,2022,2142,2262,3542,22742,42842,42879,42917,42954,42992,43029,43067,43104,43142,62342,64141,64270,64399,64527,64656,69542,88442,88479,88517,88554,88592,88629,88667,88704,88742,107942,126541,126670,126799,126927,127056
DistanceSpacing: 1.5
BeatDivisor: 4
GridSize: 4
TimelineZoom: 1.6

[Metadata]
Title:Orthoplexed
TitleUnicode:Orthoplexed
Artist:Frums
ArtistUnicode:Frums
Creator:Disguise
Version:Normal
Source:
Tags:Dance Morph electronic instrumental Hello World morph2020 Morph EP 4 Mex World extended play
BeatmapID:4262314
BeatmapSetID:1955444

[Difficulty]
HPDrainRate:7.4
CircleSize:4
OverallDifficulty:6.9
ApproachRate:5
SliderMultiplier:1.4
SliderTickRate:1

[Events]
//Background and Video events
0,0,"bg1.jpg",0,0
//Break Periods
//Storyboard Layer 0 (Background)
//Storyboard Layer 1 (Fail)
//Storyboard Layer 2 (Pass)
//Storyboard Layer 3 (Foreground)
//Storyboard Layer 4 (Overlay)
//Storyboard Sound Samples
Sample,44942,0,"crash.wav",40
Sample,47342,0,"snare_short.wav",40
Sample,47492,0,"snare_short.wav",40
Sample,47492,0,"crash.wav",40
Sample,47642,0,"snare_short.wav",40
Sample,47792,0,"crash.wav",40
Sample,47792,0,"snare_short.wav",40
Sample,49742,0,"crash.wav",40
Sample,54542,0,"crash.wav",40
Sample,56942,0,"snare_short.wav",40
Sample,57092,0,"snare_short.wav",40
Sample,57392,0,"snare_short.wav",40
Sample,59342,0,"crash.wav",40
Sample,69767,0,"break1.wav",40
Sample,70217,0,"break1.wav",40
Sample,70667,0,"break1.wav",40
Sample,71117,0,"break1.wav",40
Sample,71567,0,"break1.wav",40
Sample,71942,0,"break1.wav",40
Sample,72392,0,"break1.wav",40
Sample,72842,0,"break1.wav",40
Sample,73292,0,"break1.wav",40
Sample,73742,0,"break1.wav",40
Sample,74567,0,"break1.wav",40
Sample,75017,0,"break1.wav",40
Sample,75467,0,"break1.wav",40
Sample,75917,0,"break1.wav",40
Sample,76367,0,"break1.wav",40
Sample,76742,0,"break1.wav",40
Sample,76967,0,"break1.wav",40
Sample,77192,0,"break1.wav",40
Sample,77417,0,"break1.wav",40
Sample,77642,0,"break1.wav",40
Sample,77867,0,"break1.wav",40
Sample,78092,0,"break1.wav",40
Sample,78242,0,"break1.wav",40
Sample,78392,0,"break1.wav",40
Sample,78992,0,"break2.wav",40
Sample,79292,0,"break1.wav",40
Sample,79367,0,"break1.wav",40
Sample,79442,0,"break1.wav",40
Sample,79592,0,"break1.wav",40
Sample,81692,0,"break1.wav",40
Sample,81767,0,"break1.wav",40
Sample,81842,0,"break1.wav",40
Sample,81992,0,"break1.wav",40
Sample,89492,0,"kick3.wav",40
Sample,90242,0,"kick3.wav",40
Sample,94292,0,"kick3.wav",40
Sample,95042,0,"kick3.wav",40
Sample,98342,0,"break2.wav",40
Sample,104942,0,"break2.wav",40

[TimingPoints]
-18,300,4,1,1,40,1,0
3242,300,4,1,1,40,1,0
3542,300,4,1,1,40,1,0
43142,-100,4,1,1,40,0,1
52142,-100,4,1,1,40,0,0
52742,-100,4,1,1,40,0,1
61142,-100,4,1,1,40,0,0
79142,-100,4,1,1,40,0,1
79742,-100,4,1,1,40,0,0
80042,-100,4,1,1,40,0,1
80942,-100,4,1,1,40,0,0
81542,-100,4,1,1,40,0,1
82142,-100,4,1,1,40,0,0
82442,-100,4,1,1,40,0,1
83342,-100,4,1,1,40,0,0
83942,-100,4,1,1,40,0,1
86342,-100,4,1,1,40,0,0
88742,-100,4,1,1,40,0,1
105542,-100,4,1,1,40,0,0

[HitObjects]
320,192,132,128,0,1182:0:0:0:0:
192,192,1182,128,0,1782:0:0:0:0:
64,192,1782,1,0,0:0:0:0:
448,192,1902,1,0,0:0:0:0:
320,192,2022,1,0,0:0:0:0:
192,192,2142,1,0,0:0:0:0:
64,192,2262,1,0,0:0:0:0:
448,192,2382,128,0,3242:0:0:0:0:
192,192,3242,128,0,3542:0:0:0:0:
64,192,3542,1,2,1:0:0:0:kick1
448,192,3542,1,0,0:0:0:0:
192,192,3692,1,0,0:0:0:0:
64,192,3842,1,2,1:0:0:40:kick1.wav
448,192,3842,1,0,0:0:0:0:
320,192,3992,1,0,0:0:0:0:
64,192,4142,1,2,1:0:0:40:kick1.wav
192,192,4142,1,0,0:0:0:0:
320,192,4292,1,0,0:0:0:0:
64,192,4442,1,2,1:0:0:40:kick1.wav
192,192,4442,1,0,0:0:0:0:
192,192,4742,1,2,1:0:0:40:kick1.wav
320,192,4742,1,0,0:0:0:0:
64,192,4892,1,0,0:0:0:0:
320,192,5042,1,2,1:0:0:40:kick1.wav
448,192,5042,1,0,0:0:0:0:
192,192,5192,1,0,0:0:0:0:
64,192,5342,1,2,1:0:0:40:kick1.wav
320,192,5342,1,0,0:0:0:0:
448,192,5492,1,0,0:0:0:0:
64,192,5642,128,0,5792:0:0:0:0:
192,192,5642,128,0,5792:0:0:0:0:
320,192,5942,1,2,1:0:0:40:kick1.wav
448,192,5942,1,0,0:0:0:0:
64,192,6092,1,2,1:0:0:40:kick1.wav
192,192,6092,1,0,0:0:0:0:
320,192,6242,1,2,1:0:0:40:kick1.wav
448,192,6242,1,0,0:0:0:0:
64,192,6392,1,0,0:0:0:0:
192,192,6542,1,2,1:0:0:40:kick1.wav
448,192,6542,1,0,0:0:0:0:
320,192,6692,1,0,0:0:0:0:
64,192,6842,1,2,1:0:0:40:kick1.wav
192,192,6842,1,0,0:0:0:0:
64,192,7142,1,2,1:0:0:40:kick1.wav
448,192,7142,1,0,0:0:0:0:
192,192,7367,1,2,1:0:0:40:kick1.wav
320,192,7367,1,0,0:0:0:0:
64,192,7592,1,2,1:0:0:40:kick1.wav
448,192,7592,1,0,0:0:0:0:
192,192,7742,1,2,1:0:0:40:kick1.wav
320,192,7742,1,0,0:0:0:0:
448,192,7892,1,0,0:0:0:40:snare_short.wav
64,192,8042,128,8,8342:2:0:0:40:snare2.wav
192,192,8042,1,0,0:0:0:0:
320,192,8342,1,2,1:0:0:40:kick1.wav
448,192,8342,1,0,0:0:0:0:
192,192,8492,1,0,0:0:0:0:
64,192,8642,1,2,1:0:0:40:kick1.wav
320,192,8642,1,0,0:0:0:0:
448,192,8792,1,0,0:0:0:0:
64,192,8942,1,2,1:0:0:40:kick1.wav
192,192,8942,1,0,0:0:0:0:
320,192,9092,1,0,0:0:0:0:
192,192,9242,1,2,1:0:0:40:kick1.wav
448,192,9242,1,0,0:0:0:0:
320,192,9542,1,2,1:0:0:40:kick1.wav
448,192,9542,1,0,0:0:0:0:
192,192,9692,1,0,0:0:0:0:
64,192,9842,1,2,1:0:0:40:kick1.wav
448,192,9842,1,0,0:0:0:0:
320,192,9992,1,0,0:0:0:0:
192,192,10142,128,0,10292:0:0:0:0:
448,192,10292,1,0,0:0:0:0:
192,192,10592,128,0,10742:0:0:0:0:
320,192,10742,1,2,1:0:0:40:kick1.wav
448,192,10742,1,0,0:0:0:0:
64,192,10892,1,2,1:0:0:40:kick1.wav
192,192,10892,1,0,0:0:0:0:
320,192,11042,1,2,1:0:0:40:kick1.wav
448,192,11042,1,0,0:0:0:0:
64,192,11192,1,0,0:0:0:0:
192,192,11342,1,2,1:0:0:40:kick1.wav
448,192,11342,1,0,0:0:0:0:
320,192,11492,1,0,0:0:0:0:
64,192,11642,1,2,1:0:0:40:kick1.wav
192,192,11642,1,0,0:0:0:0:
320,192,11942,1,0,0:0:0:0:
64,192,12167,1,0,0:0:0:0:
64,192,12392,1,0,0:0:0:0:
448,192,12467,1,0,0:0:0:0:
320,192,12692,128,0,12917:0:0:0:0:
64,192,12917,128,0,13142:0:0:0:0:
192,192,12917,1,0,0:0:0:0:
320,192,13142,1,2,1:0:0:40:kick1.wav
448,192,13142,1,0,0:0:0:0:
192,192,13292,1,8,3:0:0:40:rimshot.wav
64,192,13442,1,2,1:0:0:40:kick1.wav
448,192,13442,1,0,0:0:0:0:
320,192,13592,1,8,3:0:0:40:rimshot.wav
192,192,13667,1,8,3:0:0:40:rimshot.wav
64,192,13742,1,2,1:0:0:40:kick1.wav
448,192,13742,1,0,0:0:0:0:
192,192,13892,1,8,3:0:0:40:rimshot.wav
320,192,14042,1,2,1:0:0:40:kick1.wav
448,192,14042,1,0,0:0:0:0:
64,192,14342,1,2,1:0:0:40:kick1.wav
192,192,14342,1,0,0:0:0:0:
320,192,14492,1,8,3:0:0:40:rimshot.wav
64,192,14642,1,2,1:0:0:40:kick1.wav
448,192,14642,1,0,0:0:0:0:
192,192,14792,1,8,3:0:0:40:rimshot.wav
320,192,14867,1,8,3:0:0:40:rimshot.wav
64,192,14942,1,2,1:0:0:40:kick1.wav
448,192,14942,1,0,0:0:0:0:
192,192,15092,1,8,3:0:0:40:rimshot.wav
320,192,15242,128,0,15392:0:0:0:0:
448,192,15242,128,0,15392:0:0:0:0:
64,192,15542,1,2,1:0:0:40:kick1.wav
192,192,15542,1,0,0:0:0:0:
320,192,15692,1,2,1:0:0:40:kick1.wav
448,192,15692,1,8,3:0:0:40:rimshot.wav
64,192,15842,1,2,1:0:0:40:kick1.wav
192,192,15842,1,0,0:0:0:0:
448,192,15992,1,8,3:0:0:40:rimshot.wav
320,192,16067,1,8,3:0:0:40:rimshot.wav
64,192,16142,1,2,1:0:0:40:kick1.wav
192,192,16142,1,0,0:0:0:0:
320,192,16292,1,8,3:0:0:40:rimshot.wav
64,192,16442,1,2,1:0:0:40:kick1.wav
448,192,16442,1,0,0:0:0:0:
320,192,16742,1,2,1:0:0:40:kick1.wav
448,192,16742,1,0,0:0:0:0:
64,192,16967,1,2,1:0:0:40:kick1.wav
192,192,16967,1,8,3:0:0:40:rimshot.wav
320,192,17192,1,2,1:0:0:40:kick1.wav
448,192,17192,1,8,3:0:0:40:rimshot.wav
64,192,17342,1,2,1:0:0:40:kick1.wav
192,192,17342,1,0,0:0:0:0:
320,192,17492,1,0,0:0:0:40:snare_short.wav
64,192,17642,1,8,2:0:0:40:snare2.wav
448,192,17642,128,0,17942:0:0:0:0:
64,192,17942,1,2,1:0:0:40:kick1.wav
192,192,17942,1,0,0:0:0:0:
320,192,18092,1,8,3:0:0:40:rimshot.wav
192,192,18242,1,2,1:0:0:40:kick1.wav
448,192,18242,1,0,0:0:0:0:
64,192,18392,1,8,3:0:0:40:rimshot.wav
320,192,18467,1,8,3:0:0:40:rimshot.wav
192,192,18542,1,2,1:0:0:40:kick1.wav
448,192,18542,1,0,0:0:0:0:
320,192,18692,1,8,3:0:0:40:rimshot.wav
64,192,18842,1,2,1:0:0:40:kick1.wav
192,192,18842,1,0,0:0:0:0:
320,192,19142,1,2,1:0:0:40:kick1.wav
448,192,19142,1,0,0:0:0:0:
192,192,19292,1,8,3:0:0:40:rimshot.wav
64,192,19442,1,2,1:0:0:40:kick1.wav
320,192,19442,1,0,0:0:0:0:
448,192,19592,1,8,3:0:0:40:rimshot.wav
192,192,19667,1,8,3:0:0:40:rimshot.wav
64,192,19742,1,8,3:0:0:40:rimshot.wav
320,192,19742,128,0,19892:0:0:0:0:
192,192,19892,1,8,3:0:0:40:rimshot.wav
448,192,20042,1,8,3:0:0:40:rimshot.wav
320,192,20192,128,8,20342:3:0:0:40:rimshot.wav
64,192,20342,1,2,1:0:0:40:kick1.wav
192,192,20342,1,0,0:0:0:0:
320,192,20492,1,2,1:0:0:40:kick1.wav
448,192,20492,1,8,3:0:0:40:rimshot.wav
64,192,20642,1,2,1:0:0:40:kick1.wav
192,192,20642,1,0,0:0:0:0:
320,192,20792,1,8,3:0:0:40:rimshot.wav
448,192,20867,1,8,3:0:0:40:rimshot.wav
64,192,20942,1,2,1:0:0:40:kick1.wav
192,192,20942,1,0,0:0:0:0:
320,192,21092,1,8,3:0:0:40:rimshot.wav
192,192,21242,1,2,1:0:0:40:kick1.wav
448,192,21242,1,0,0:0:0:0:
64,192,21392,1,8,3:0:0:40:rimshot.wav
320,192,21542,128,0,21842:0:0:0:0:
448,192,21842,128,0,22142:0:0:0:0:
64,192,22142,1,0,0:0:0:0:
64,192,22292,1,0,0:0:0:0:
320,192,22442,1,0,0:0:0:0:
192,192,22592,1,0,0:0:0:0:
64,192,22742,1,2,1:0:0:40:kick1.wav
448,192,22742,1,8,0:0:0:40:kick3.wav
320,192,22892,1,8,2:0:0:40:break2.wav
64,192,23042,1,8,0:0:0:40:kick3.wav
448,192,23117,1,8,2:0:0:40:break2.wav
192,192,23267,1,8,0:0:0:40:kick3.wav
320,192,23342,1,8,1:0:0:40:break1.wav
320,192,23492,1,8,1:0:0:40:break1.wav
64,192,23642,1,8,1:0:0:40:break1.wav
320,192,23792,1,8,2:0:0:40:break2.wav
192,192,23867,1,8,2:0:0:40:break2.wav
64,192,23942,1,8,0:0:0:40:kick3.wav
448,192,23942,1,0,0:0:0:0:
320,192,24092,1,0,0:0:0:0:
192,192,24317,1,8,0:0:0:40:kick3.wav
448,192,24392,1,8,2:0:0:40:break2.wav
64,192,24542,1,0,0:0:0:0:
320,192,24767,1,8,0:0:0:40:kick3.wav
192,192,24842,1,8,2:0:0:40:break2.wav
448,192,24992,1,8,1:0:0:40:break1.wav
320,192,25067,1,8,1:0:0:40:break1.wav
64,192,25142,1,8,0:0:0:40:kick3.wav
192,192,25142,1,0,0:0:0:0:
320,192,25367,1,8,0:0:0:40:kick3.wav
64,192,25442,1,8,1:0:0:40:break1.wav
64,192,25592,1,8,1:0:0:40:break1.wav
320,192,25742,1,8,2:0:0:40:break2.wav
192,192,25892,1,8,0:0:0:40:kick3.wav
448,192,25967,1,8,0:0:0:40:kick3.wav
64,192,26117,1,8,0:0:0:40:kick3.wav
320,192,26192,1,8,2:0:0:40:break2.wav
64,192,26342,1,8,2:0:0:40:break2.wav
192,192,26342,1,0,0:0:0:0:
448,192,26417,1,8,1:0:0:40:break1.wav
320,192,26492,1,8,2:0:0:40:break2.wav
192,192,26642,1,8,0:0:0:40:kick3.wav
448,192,26792,1,8,2:0:0:40:break2.wav
64,192,26942,1,0,0:0:0:0:
192,192,27092,1,8,0:0:0:40:kick3.wav
448,192,27242,1,8,2:0:0:40:break2.wav
320,192,27392,1,8,1:0:0:40:break1.wav
192,192,27467,1,8,1:0:0:40:break1.wav
64,192,27542,1,8,0:0:0:40:kick3.wav
448,192,27542,1,0,0:0:0:0:
192,192,27767,1,0,0:0:0:0:
320,192,27992,1,8,1:0:0:40:break1.wav
192,192,28142,1,8,1:0:0:40:break1.wav
64,192,28292,1,8,0:0:0:40:kick3.wav
320,192,28442,1,8,1:0:0:40:break1.wav
192,192,28592,1,8,0:0:0:40:kick3.wav
320,192,28742,1,0,0:0:0:40:kick3.wav
448,192,28742,1,0,0:0:0:0:
64,192,28817,1,8,1:0:0:40:break1.wav
192,192,29042,1,8,1:0:0:40:break1.wav
320,192,29142,1,8,0:0:0:40:kick3.wav
448,192,29242,1,8,0:0:0:40:kick3.wav
64,192,29342,1,8,1:0:0:40:break1.wav
320,192,29567,1,8,1:0:0:40:break1.wav
192,192,29642,1,8,1:0:0:40:break1.wav
448,192,29792,1,8,1:0:0:40:break1.wav
320,192,29867,1,8,1:0:0:40:break1.wav
64,192,29942,1,8,0:0:0:40:kick3.wav
192,192,29942,1,0,0:0:0:0:
320,192,30242,1,8,1:0:0:40:break1.wav
192,192,30392,1,8,1:0:0:40:break1.wav
64,192,30542,1,0,0:0:0:0:
448,192,30692,1,8,0:0:0:40:kick3.wav
320,192,30842,1,8,2:0:0:40:break2.wav
64,192,30992,1,8,2:0:0:40:break2.wav
192,192,31067,1,8,2:0:0:40:break2.wav
320,192,31142,1,8,0:0:0:40:kick3.wav
448,192,31142,1,0,0:0:0:0:
192,192,31367,1,8,2:0:0:40:break2.wav
64,192,31592,1,8,0:0:0:40:kick3.wav
320,192,31592,1,0,0:0:0:0:
448,192,31817,1,8,2:0:0:40:break2.wav
64,192,32042,1,8,0:0:0:40:kick3.wav
192,192,32042,1,0,0:0:0:0:
320,192,32192,1,0,0:0:0:0:
64,192,32342,1,2,1:0:0:40:kick1.wav
448,192,32342,1,8,0:0:0:40:kick3.wav
192,192,32492,1,8,2:0:0:40:break2.wav
448,192,32642,1,8,0:0:0:40:kick3.wav
64,192,32717,1,8,2:0:0:40:break2.wav
320,192,32867,1,8,0:0:0:40:kick3.wav
192,192,32942,1,8,1:0:0:40:break1.wav
192,192,33092,1,8,1:0:0:40:break1.wav
448,192,33242,1,8,1:0:0:40:break1.wav
192,192,33392,1,8,2:0:0:40:break2.wav
320,192,33467,1,8,2:0:0:40:break2.wav
64,192,33542,1,8,0:0:0:40:kick3.wav
448,192,33542,1,0,0:0:0:0:
192,192,33692,1,0,0:0:0:0:
320,192,33917,1,8,0:0:0:40:kick3.wav
64,192,33992,1,8,2:0:0:40:break2.wav
448,192,34142,1,0,0:0:0:0:
192,192,34367,1,8,0:0:0:40:kick3.wav
320,192,34442,1,8,2:0:0:40:break2.wav
64,192,34592,1,8,1:0:0:40:break1.wav
192,192,34667,1,8,1:0:0:40:break1.wav
320,192,34742,1,8,0:0:0:40:kick3.wav
448,192,34742,1,0,0:0:0:0:
192,192,34967,1,8,0:0:0:40:kick3.wav
448,192,35042,1,8,1:0:0:40:break1.wav
448,192,35192,1,8,1:0:0:40:break1.wav
192,192,35342,1,8,2:0:0:40:break2.wav
320,192,35492,1,8,0:0:0:40:kick3.wav
64,192,35567,1,8,0:0:0:40:kick3.wav
448,192,35717,1,8,0:0:0:40:kick3.wav
192,192,35792,1,8,2:0:0:40:break2.wav
320,192,35942,1,8,2:0:0:40:break2.wav
448,192,35942,1,0,0:0:0:0:
64,192,36017,1,8,1:0:0:40:break1.wav
192,192,36092,1,8,2:0:0:40:break2.wav
320,192,36242,1,8,0:0:0:40:kick3.wav
64,192,36392,1,8,2:0:0:40:break2.wav
448,192,36542,1,0,0:0:0:0:
320,192,36692,1,8,0:0:0:40:kick3.wav
64,192,36842,1,8,2:0:0:40:break2.wav
192,192,36992,1,8,1:0:0:40:break1.wav
320,192,37067,1,8,1:0:0:40:break1.wav
64,192,37142,1,8,0:0:0:40:kick3.wav
448,192,37142,1,0,0:0:0:0:
320,192,37367,1,0,0:0:0:0:
192,192,37592,1,8,1:0:0:40:break1.wav
320,192,37742,1,8,1:0:0:40:break1.wav
448,192,37892,1,8,0:0:0:40:kick3.wav
192,192,38042,1,8,1:0:0:40:break1.wav
320,192,38192,1,8,0:0:0:40:kick3.wav
64,192,38342,1,0,0:0:0:40:kick3.wav
192,192,38342,1,0,0:0:0:0:
448,192,38417,1,8,1:0:0:40:break1.wav
320,192,38642,1,8,1:0:0:40:break1.wav
192,192,38742,1,8,0:0:0:40:kick3.wav
64,192,38842,1,8,0:0:0:40:kick3.wav
448,192,38942,1,8,1:0:0:40:break1.wav
192,192,39167,1,8,1:0:0:40:break1.wav
320,192,39242,1,8,1:0:0:40:break1.wav
64,192,39392,1,8,1:0:0:40:break1.wav
192,192,39467,1,8,1:0:0:40:break1.wav
320,192,39542,1,8,0:0:0:40:kick3.wav
448,192,39542,1,0,0:0:0:0:
192,192,39842,1,8,1:0:0:40:break1.wav
320,192,39992,1,8,1:0:0:40:break1.wav
448,192,40142,1,0,0:0:0:0:
64,192,40292,1,8,0:0:0:40:kick3.wav
192,192,40442,1,8,2:0:0:40:break2.wav
448,192,40592,1,8,2:0:0:40:break2.wav
320,192,40667,1,8,2:0:0:40:break2.wav
64,192,40742,1,8,0:0:0:40:kick3.wav
192,192,40742,1,0,0:0:0:0:
320,192,40967,1,8,2:0:0:40:break2.wav
192,192,41192,1,8,0:0:0:40:kick3.wav
448,192,41192,1,0,0:0:0:0:
64,192,41417,1,8,2:0:0:40:break2.wav
320,192,41642,128,8,41942:0:0:0:40:kick3.wav
448,192,41642,1,0,0:0:0:0:
192,192,41942,128,0,42392:0:0:0:0:
320,192,42842,128,2,43142:1:0:0:40:death_quilt.wav
448,192,42842,128,0,43142:0:0:0:0:
64,192,43142,1,2,2:0:0:40:kick2.wav
192,192,43142,1,0,0:0:0:0:
320,192,43292,1,0,0:0:0:0:
64,192,43442,1,8,3:0:0:40:rimshot.wav
320,192,43592,1,8,3:0:0:40:rimshot.wav
192,192,43667,1,8,3:0:0:40:rimshot.wav
64,192,43742,128,2,44042:2:0:0:40:kick2.wav
448,192,43742,1,8,1:0:0:40:snare1.wav
320,192,44042,128,0,44342:0:0:0:0:
64,192,44342,1,2,2:0:0:40:kick2.wav
192,192,44342,1,0,0:0:0:0:
448,192,44492,1,0,0:0:0:0:
320,192,44642,1,8,3:0:0:40:rimshot.wav
192,192,44792,1,8,3:0:0:40:rimshot.wav
64,192,44867,1,8,3:0:0:40:rimshot.wav
320,192,44942,1,2,2:0:0:40:kick2.wav
448,192,44942,128,8,45242:2:0:0:40:snare2.wav
192,192,45242,128,0,45542:0:0:0:0:
320,192,45542,1,2,2:0:0:40:kick2.wav
448,192,45542,1,0,0:0:0:0:
64,192,45692,1,0,0:0:0:0:
448,192,45842,1,8,3:0:0:40:rimshot.wav
64,192,45992,1,8,3:0:0:40:rimshot.wav
320,192,46067,1,8,3:0:0:40:rimshot.wav
192,192,46142,1,2,2:0:0:40:kick2.wav
448,192,46142,128,8,46442:1:0:0:40:snare1.wav
64,192,46442,128,0,46742:0:0:0:0:
192,192,46742,1,2,2:0:0:40:kick2.wav
320,192,46742,1,0,0:0:0:0:
448,192,46892,1,0,0:0:0:0:
192,192,47042,1,8,3:0:0:40:rimshot.wav
320,192,47192,1,8,3:0:0:40:rimshot.wav
448,192,47267,1,8,3:0:0:40:rimshot.wav
64,192,47342,1,0,0:0:0:40:kick2.wav
192,192,47342,1,4,1:0:0:40:crash.wav
320,192,47492,1,0,0:0:0:40:kick2.wav
64,192,47642,1,0,0:0:0:40:kick2.wav
448,192,47642,1,4,1:0:0:40:crash.wav
192,192,47792,1,0,0:0:0:40:kick2.wav
320,192,47942,1,2,2:0:0:40:kick2.wav
448,192,47942,1,0,0:0:0:0:
64,192,48167,1,2,2:0:0:40:kick2.wav
192,192,48167,1,0,0:0:0:0:
320,192,48392,1,8,3:0:0:40:rimshot.wav
192,192,48467,1,8,3:0:0:40:rimshot.wav
64,192,48542,128,2,48842:2:0:0:40:kick2.wav
448,192,48542,1,8,1:0:0:40:snare1.wav
320,192,48842,128,0,49142:0:0:0:0:
64,192,49142,1,2,2:0:0:40:kick2.wav
192,192,49142,1,0,0:0:0:0:
448,192,49292,1,0,0:0:0:0:
320,192,49442,1,8,3:0:0:40:rimshot.wav
192,192,49592,1,8,3:0:0:40:rimshot.wav
64,192,49667,1,8,3:0:0:40:rimshot.wav
320,192,49742,1,2,2:0:0:40:kick2.wav
448,192,49742,128,8,50042:2:0:0:40:snare2.wav
192,192,50042,128,0,50342:0:0:0:0:
320,192,50342,1,2,2:0:0:40:kick2.wav
448,192,50342,1,0,0:0:0:0:
64,192,50492,1,0,0:0:0:0:
448,192,50642,1,8,3:0:0:40:rimshot.wav
64,192,50792,1,8,3:0:0:40:rimshot.wav
320,192,50867,1,8,3:0:0:40:rimshot.wav
192,192,50942,1,2,2:0:0:40:kick2.wav
448,192,50942,128,8,51242:1:0:0:40:snare1.wav
64,192,51242,128,0,51542:0:0:0:0:
192,192,51542,1,2,2:0:0:40:kick2.wav
320,192,51542,1,0,0:0:0:0:
64,192,51767,1,2,2:0:0:40:kick2.wav
448,192,51767,1,0,0:0:0:0:
320,192,51992,1,8,3:0:0:40:rimshot.wav
448,192,52067,1,8,3:0:0:40:rimshot.wav
64,192,52142,1,0,0:0:0:40:snare_short.wav
192,192,52342,1,0,0:0:0:40:snare_short.wav
320,192,52542,1,0,0:0:0:40:snare_short.wav
64,192,52742,1,2,2:0:0:40:kick2.wav
448,192,52742,1,0,0:0:0:0:
192,192,52892,1,0,0:0:0:0:
320,192,53042,1,8,3:0:0:40:rimshot.wav
192,192,53192,1,2,2:0:0:40:kick2.wav
448,192,53192,1,8,3:0:0:40:rimshot.wav
64,192,53342,128,8,53642:1:0:0:40:snare1.wav
320,192,53642,128,0,53792:0:0:0:0:
64,192,53792,1,2,2:0:0:40:kick2.wav
192,192,53792,1,0,0:0:0:0:
320,192,53942,1,2,2:0:0:40:kick2.wav
448,192,53942,1,0,0:0:0:0:
192,192,54092,1,0,0:0:0:0:
64,192,54242,1,8,3:0:0:40:rimshot.wav
320,192,54392,1,2,2:0:0:40:kick2.wav
448,192,54392,1,8,3:0:0:40:rimshot.wav
64,192,54542,1,0,0:0:0:40:kick2.wav
192,192,54542,128,8,54842:2:0:0:40:snare2.wav
448,192,54842,128,0,55142:0:0:0:0:
64,192,55142,1,2,2:0:0:40:kick2.wav
320,192,55142,1,0,0:0:0:0:
192,192,55292,1,0,0:0:0:0:
448,192,55442,1,8,3:0:0:40:rimshot.wav
192,192,55592,1,2,2:0:0:40:kick2.wav
320,192,55592,1,8,3:0:0:40:rimshot.wav
64,192,55742,128,8,56042:1:0:0:40:snare1.wav
448,192,56042,128,0,56192:0:0:0:0:
64,192,56192,1,2,2:0:0:40:kick2.wav
192,192,56192,1,0,0:0:0:0:
320,192,56342,1,2,2:0:0:40:kick2.wav
448,192,56342,1,0,0:0:0:0:
64,192,56492,1,0,0:0:0:0:
192,192,56642,1,8,3:0:0:40:rimshot.wav
320,192,56792,1,2,2:0:0:40:kick2.wav
448,192,56792,1,8,3:0:0:40:rimshot.wav
64,192,56942,1,0,0:0:0:40:kick2.wav
192,192,56942,1,4,1:0:0:40:crash.wav
448,192,57092,1,4,1:0:0:40:crash.wav
192,192,57242,1,4,1:0:0:40:crash.wav
320,192,57242,1,0,0:0:0:40:snare_short.wav
64,192,57392,1,4,1:0:0:40:crash.wav
320,192,57542,1,2,2:0:0:40:kick2.wav
448,192,57542,1,0,0:0:0:0:
192,192,57692,1,0,0:0:0:0:
64,192,57842,1,8,3:0:0:40:rimshot.wav
192,192,57992,1,2,2:0:0:40:kick2.wav
320,192,57992,1,8,3:0:0:40:rimshot.wav
448,192,58142,128,8,58442:1:0:0:40:snare1.wav
192,192,58442,128,0,58592:0:0:0:0:
320,192,58592,1,2,2:0:0:40:kick2.wav
448,192,58592,1,0,0:0:0:0:
64,192,58742,1,2,2:0:0:40:kick2.wav
192,192,58742,1,0,0:0:0:0:
320,192,58892,1,0,0:0:0:0:
448,192,59042,1,8,3:0:0:40:rimshot.wav
64,192,59192,1,2,2:0:0:40:kick2.wav
192,192,59192,1,8,3:0:0:40:rimshot.wav
320,192,59342,128,0,59642:0:0:0:40:kick2.wav
448,192,59342,1,8,2:0:0:40:snare2.wav
64,192,59642,128,0,59942:0:0:0:0:
192,192,59942,1,2,2:0:0:40:kick2.wav
448,192,59942,1,0,0:0:0:0:
320,192,60092,1,0,0:0:0:0:
64,192,60242,1,8,3:0:0:40:rimshot.wav
192,192,60392,1,2,2:0:0:40:kick2.wav
320,192,60392,1,8,3:0:0:40:rimshot.wav
448,192,60542,128,8,60842:1:0:0:40:snare1.wav
64,192,60842,128,2,61142:2:0:0:40:kick2.wav
192,192,60842,1,0,0:0:0:0:
320,192,61142,128,0,61592:0:0:0:0:
192,192,61442,128,8,61592:3:0:0:40:rimshot.wav
448,192,61592,1,0,0:0:0:40:snare_short.wav
64,192,61742,128,0,62342:0:0:0:40:snare_short.wav
192,192,61742,1,0,0:0:0:0:
320,192,62342,128,0,63542:0:0:0:0:
448,192,62342,1,0,0:0:0:0:
192,192,63542,128,0,64142:0:0:0:0:
64,192,64142,1,0,0:0:0:0:
448,192,64270,1,0,0:0:0:0:
320,192,64399,1,0,0:0:0:0:
192,192,64527,1,0,0:0:0:0:
64,192,64656,1,0,0:0:0:0:
448,192,64792,128,0,68042:0:0:0:0:
320,192,68042,128,0,68342:0:0:0:0:
64,192,68342,1,0,0:0:0:0:
192,192,68492,1,0,0:0:0:0:
448,192,68642,128,0,68942:0:0:0:0:
64,192,68942,1,0,0:0:0:0:
320,192,69092,1,0,0:0:0:0:
192,192,69242,1,0,0:0:0:0:
320,192,69542,1,2,1:0:0:40:kick1.wav
448,192,69542,1,8,1:0:0:40:break1.wav
192,192,69767,1,2,1:0:0:40:kick1.wav
64,192,69992,1,2,1:0:0:40:kick1.wav
448,192,69992,1,8,1:0:0:40:break1.wav
192,192,70217,1,2,1:0:0:40:kick1.wav
320,192,70442,1,2,1:0:0:40:kick1.wav
448,192,70442,1,8,1:0:0:40:break1.wav
64,192,70667,1,2,1:0:0:40:kick1.wav
192,192,70892,1,2,1:0:0:40:kick1.wav
320,192,70892,1,8,1:0:0:40:break1.wav
448,192,71117,1,2,1:0:0:40:kick1.wav
64,192,71342,1,2,1:0:0:40:kick1.wav
192,192,71342,1,8,1:0:0:40:break1.wav
320,192,71567,1,2,1:0:0:40:kick1.wav
192,192,71660,1,0,0:0:0:40:snare_short.wav
64,192,71942,1,2,1:0:0:40:kick1.wav
320,192,72017,1,8,1:0:0:40:break1.wav
64,192,72167,1,2,1:0:0:40:kick1.wav
192,192,72167,1,8,1:0:0:40:break1.wav
448,192,72392,1,2,1:0:0:40:kick1.wav
192,192,72467,1,8,1:0:0:40:break1.wav
320,192,72617,1,2,1:0:0:40:kick1.wav
448,192,72617,1,8,1:0:0:40:break1.wav
64,192,72842,1,2,1:0:0:40:kick1.wav
320,192,72917,1,8,1:0:0:40:break1.wav
64,192,73067,1,2,1:0:0:40:kick1.wav
192,192,73067,1,8,1:0:0:40:break1.wav
448,192,73292,1,2,1:0:0:40:kick1.wav
192,192,73367,1,8,1:0:0:40:break1.wav
320,192,73517,1,2,1:0:0:40:kick1.wav
448,192,73517,1,8,1:0:0:40:break1.wav
64,192,73742,1,2,1:0:0:40:kick1.wav
320,192,73817,1,8,1:0:0:40:break1.wav
64,192,73967,1,2,1:0:0:40:kick1.wav
192,192,73967,1,8,1:0:0:40:break1.wav
320,192,74192,1,8,2:0:0:40:snare2.wav
448,192,74192,1,0,0:0:0:0:
64,192,74342,1,2,1:0:0:40:kick1.wav
192,192,74342,1,8,1:0:0:40:break1.wav
320,192,74567,1,2,1:0:0:40:kick1.wav
64,192,74792,1,2,1:0:0:40:kick1.wav
448,192,74792,1,8,1:0:0:40:break1.wav
320,192,75017,1,2,1:0:0:40:kick1.wav
64,192,75242,1,2,1:0:0:40:kick1.wav
192,192,75242,1,8,1:0:0:40:break1.wav
448,192,75467,1,2,1:0:0:40:kick1.wav
192,192,75692,1,2,1:0:0:40:kick1.wav
320,192,75692,1,8,1:0:0:40:break1.wav
64,192,75917,1,2,1:0:0:40:kick1.wav
320,192,76142,1,2,1:0:0:40:kick1.wav
448,192,76142,1,8,1:0:0:40:break1.wav
192,192,76367,1,2,1:0:0:40:kick1.wav
320,192,76442,1,8,2:0:0:40:snare2.wav
64,192,76629,1,0,0:0:0:0:
448,192,76742,1,2,1:0:0:40:kick1.wav
192,192,76817,1,8,1:0:0:40:break1.wav
320,192,76967,1,2,1:0:0:40:kick1.wav
448,192,77042,1,8,1:0:0:40:break1.wav
64,192,77192,1,2,1:0:0:40:kick1.wav
320,192,77267,1,8,1:0:0:40:break1.wav
192,192,77417,1,2,1:0:0:40:kick1.wav
64,192,77492,1,8,1:0:0:40:break1.wav
448,192,77642,1,2,1:0:0:40:kick1.wav
320,192,77717,1,8,1:0:0:40:break1.wav
192,192,77867,1,2,1:0:0:40:kick1.wav
448,192,77942,1,8,1:0:0:40:break1.wav
64,192,78092,1,2,1:0:0:40:kick1.wav
192,192,78242,1,2,1:0:0:40:kick1.wav
320,192,78392,1,2,1:0:0:40:kick1.wav
64,192,78542,1,8,2:0:0:40:snare2.wav
448,192,78542,1,8,2:0:0:40:break2.wav
192,192,78692,1,8,2:0:0:40:break2.wav
320,192,78842,1,8,1:0:0:40:snare1.wav
448,192,78842,1,8,2:0:0:40:break2.wav
192,192,78992,1,8,1:0:0:40:snare1.wav
64,192,79142,1,2,1:0:0:40:kick1.wav
448,192,79142,1,8,1:0:0:40:break1.wav
320,192,79292,1,2,1:0:0:40:kick1.wav
192,192,79367,1,2,1:0:0:40:kick1.wav
64,192,79442,1,2,1:0:0:40:kick1.wav
320,192,79592,1,2,1:0:0:40:kick1.wav
64,192,79742,1,0,0:0:0:40:snare_short.wav
448,192,79742,1,0,0:0:0:0:
192,192,80042,1,2,1:0:0:40:kick1.wav
320,192,80042,1,0,0:0:0:0:
64,192,80192,1,2,1:0:0:40:kick1.wav
320,192,80342,1,2,1:0:0:40:kick1.wav
448,192,80342,1,0,0:0:0:0:
64,192,80492,1,2,1:0:0:40:kick1.wav
192,192,80642,1,2,1:0:0:40:kick1.wav
448,192,80642,1,0,0:0:0:0:
320,192,80792,1,2,1:0:0:40:kick1.wav
64,192,80942,1,0,0:0:0:40:snare_short.wav
192,192,80942,1,0,0:0:0:0:
448,192,81092,1,2,1:0:0:40:kick1.wav
320,192,81242,1,0,0:0:0:0:
64,192,81542,1,2,1:0:0:40:kick1.wav
192,192,81542,1,8,1:0:0:40:break1.wav
448,192,81692,1,2,1:0:0:40:kick1.wav
320,192,81767,1,2,1:0:0:40:kick1.wav
192,192,81842,1,2,1:0:0:40:kick1.wav
64,192,81992,1,2,1:0:0:40:kick1.wav
320,192,82142,1,0,0:0:0:40:snare_short.wav
448,192,82142,1,0,0:0:0:0:
64,192,82442,1,2,1:0:0:40:kick1.wav
192,192,82442,1,0,0:0:0:0:
320,192,82592,1,2,1:0:0:40:kick1.wav
192,192,82742,1,2,1:0:0:40:kick1.wav
448,192,82742,1,0,0:0:0:0:
64,192,82892,1,2,1:0:0:40:kick1.wav
320,192,83042,1,2,1:0:0:40:kick1.wav
448,192,83042,1,0,0:0:0:0:
192,192,83192,1,2,1:0:0:40:kick1.wav
64,192,83342,1,0,0:0:0:40:snare_short.wav
320,192,83342,1,0,0:0:0:0:
448,192,83492,1,2,1:0:0:40:kick1.wav
64,192,83642,1,0,0:0:0:0:
192,192,83642,1,0,0:0:0:0:
448,192,83942,1,0,0:0:0:40:break1.wav
320,192,84042,1,0,0:0:0:0:
192,192,84142,1,0,0:0:0:0:
448,192,84242,1,0,0:0:0:0:
320,192,84442,1,0,0:0:0:0:
64,192,84542,1,0,0:0:0:0:
192,192,84642,1,0,0:0:0:0:
320,192,84742,1,0,0:0:0:0:
64,192,84842,1,0,0:0:0:0:
192,192,85042,1,0,0:0:0:0:
448,192,85142,1,0,0:0:0:0:
320,192,85242,1,0,0:0:0:0:
192,192,85342,1,0,0:0:0:0:
448,192,85442,1,0,0:0:0:0:
320,192,85642,1,0,0:0:0:0:
64,192,85742,1,0,0:0:0:0:
192,192,85842,1,0,0:0:0:0:
320,192,85942,1,0,0:0:0:0:
64,192,86042,1,0,0:0:0:0:
192,192,86242,1,0,0:0:0:0:
448,192,86342,1,0,0:0:0:0:
320,192,86567,1,0,0:0:0:0:
192,192,86792,1,0,0:0:0:0:
448,192,86942,1,0,0:0:0:0:
64,192,87167,1,0,0:0:0:0:
192,192,87392,1,0,0:0:0:0:
448,192,87542,1,0,0:0:0:0:
320,192,87767,1,0,0:0:0:0:
192,192,87992,1,0,0:0:0:0:
320,192,88442,128,2,88742:1:0:0:40:death_quilt.wav
448,192,88442,128,0,88742:0:0:0:0:
64,192,88742,1,8,2:0:0:40:break2.wav
192,192,88742,1,0,0:0:0:40:kick3.wav
320,192,88942,1,8,0:0:0:40:kick3.wav
64,192,89042,1,8,1:0:0:40:break1.wav
192,192,89142,1,0,0:0:0:0:
320,192,89342,1,8,1:0:0:40:snare1.wav
448,192,89342,1,8,0:0:0:40:kick3.wav
64,192,89492,1,8,1:0:0:40:break1.wav
192,192,89642,1,8,0:0:0:40:kick3.wav
320,192,89642,1,0,0:0:0:0:
448,192,89842,1,8,1:0:0:40:break1.wav
64,192,89942,1,8,0:0:0:40:kick3.wav
192,192,89942,1,0,0:0:0:0:
320,192,90142,1,8,0:0:0:40:kick3.wav
192,192,90242,1,8,2:0:0:40:break2.wav
64,192,90342,1,8,1:0:0:40:break1.wav
320,192,90542,1,4,1:0:0:40:crash.wav
448,192,90542,1,8,1:0:0:40:break1.wav
192,192,90642,1,8,1:0:0:40:break1.wav
64,192,90842,1,8,1:0:0:40:break1.wav
320,192,90842,1,0,0:0:0:0:
448,192,91042,1,8,1:0:0:40:break1.wav
64,192,91142,1,8,0:0:0:40:kick3.wav
192,192,91142,1,0,0:0:0:0:
320,192,91342,1,8,2:0:0:40:break2.wav
192,192,91442,1,8,2:0:0:40:break2.wav
448,192,91542,1,8,2:0:0:40:break2.wav
64,192,91742,1,8,1:0:0:40:snare1.wav
320,192,91742,1,8,2:0:0:40:break2.wav
448,192,91942,1,0,0:0:0:0:
64,192,92042,1,8,2:0:0:40:break2.wav
192,192,92042,1,0,0:0:0:0:
320,192,92242,1,8,2:0:0:40:break2.wav
192,192,92342,1,8,0:0:0:40:kick3.wav
448,192,92342,1,0,0:0:0:0:
64,192,92492,1,8,1:0:0:40:break1.wav
320,192,92642,1,8,2:0:0:40:break2.wav
64,192,92942,1,4,1:0:0:40:crash.wav
448,192,92942,1,8,1:0:0:40:break1.wav
320,192,93142,1,8,1:0:0:40:break1.wav
192,192,93242,1,8,1:0:0:40:break1.wav
448,192,93342,1,8,1:0:0:40:break1.wav
320,192,93442,1,8,1:0:0:40:break1.wav
64,192,93542,1,8,0:0:0:40:kick3.wav
192,192,93542,1,0,0:0:0:0:
448,192,93742,1,8,2:0:0:40:break2.wav
64,192,93842,1,8,1:0:0:40:break1.wav
192,192,93942,1,8,2:0:0:40:break2.wav
320,192,94142,1,8,1:0:0:40:snare1.wav
448,192,94142,1,8,0:0:0:40:kick3.wav
64,192,94292,1,8,1:0:0:40:break1.wav
192,192,94442,1,8,0:0:0:40:kick3.wav
320,192,94442,1,0,0:0:0:0:
448,192,94642,1,8,1:0:0:40:break1.wav
64,192,94742,1,8,0:0:0:40:kick3.wav
192,192,94742,1,0,0:0:0:0:
320,192,94942,1,8,0:0:0:40:kick3.wav
192,192,95042,1,8,2:0:0:40:break2.wav
64,192,95142,1,8,1:0:0:40:break1.wav
320,192,95342,1,4,1:0:0:40:crash.wav
448,192,95342,1,8,1:0:0:40:break1.wav
192,192,95442,1,8,1:0:0:40:break1.wav
64,192,95642,1,8,1:0:0:40:break1.wav
320,192,95642,1,0,0:0:0:0:
448,192,95842,1,8,1:0:0:40:break1.wav
64,192,95942,1,8,0:0:0:40:kick3.wav
192,192,95942,1,0,0:0:0:0:
320,192,96142,1,8,2:0:0:40:break2.wav
192,192,96242,1,8,2:0:0:40:break2.wav
448,192,96342,1,8,2:0:0:40:break2.wav
64,192,96542,1,8,1:0:0:40:snare1.wav
320,192,96542,1,8,2:0:0:40:break2.wav
448,192,96742,1,8,0:0:0:40:kick3.wav
64,192,96842,1,8,2:0:0:40:break2.wav
192,192,96842,1,0,0:0:0:0:
320,192,97042,1,8,2:0:0:40:break2.wav
192,192,97142,1,8,0:0:0:40:kick3.wav
448,192,97142,1,0,0:0:0:0:
64,192,97292,1,8,1:0:0:40:break1.wav
320,192,97442,1,8,2:0:0:40:break2.wav
64,192,97742,1,4,1:0:0:40:crash.wav
448,192,97742,1,8,1:0:0:40:break1.wav
192,192,97942,1,8,1:0:0:40:break1.wav
320,192,98042,1,8,1:0:0:40:break1.wav
64,192,98142,1,0,0:0:0:0:
192,192,98242,1,0,0:0:0:0:
320,192,98342,1,2,1:0:0:40:kick1.wav
448,192,98342,1,2,2:0:0:40:kick2.wav
192,192,98567,1,0,0:0:0:0:
64,192,98642,1,8,2:0:0:40:break2.wav
320,192,98717,1,8,2:0:0:40:break2.wav
64,192,98942,1,8,1:0:0:40:snare1.wav
448,192,98942,1,8,0:0:0:40:kick3.wav
320,192,99142,1,8,2:0:0:40:break2.wav
64,192,99242,1,8,0:0:0:40:kick3.wav
192,192,99242,1,0,0:0:0:0:
320,192,99467,1,8,0:0:0:40:kick3.wav
64,192,99542,1,8,0:0:0:40:kick3.wav
448,192,99542,1,0,0:0:0:0:
192,192,99742,1,8,1:0:0:40:break1.wav
320,192,99842,1,8,1:0:0:40:break1.wav
64,192,99942,1,8,1:0:0:40:break1.wav
192,192,100142,1,4,1:0:0:40:crash.wav
448,192,100142,1,8,0:0:0:40:kick3.wav
64,192,100292,1,8,1:0:0:40:break1.wav
320,192,100442,1,8,2:0:0:40:break2.wav
448,192,100442,1,0,0:0:0:0:
64,192,100622,1,8,2:0:0:40:break2.wav
192,192,100682,1,8,2:0:0:40:break2.wav
320,192,100742,1,8,2:0:0:40:kick3.wav
448,192,100742,1,0,0:0:0:0:
64,192,100967,1,8,2:0:0:40:break2.wav
448,192,101042,1,8,2:0:0:40:break2.wav
320,192,101117,1,8,2:0:0:40:break2.wav
64,192,101342,1,8,1:0:0:40:snare1.wav
192,192,101342,1,8,0:0:0:40:kick3.wav
448,192,101542,1,8,0:0:0:40:kick3.wav
192,192,101642,1,8,1:0:0:40:break1.wav
320,192,101642,1,0,0:0:0:0:
64,192,101842,1,8,1:0:0:40:break1.wav
320,192,101942,1,8,0:0:0:40:kick3.wav
448,192,101942,1,0,0:0:0:0:
192,192,102142,1,0,0:0:0:0:
448,192,102242,1,8,2:0:0:40:break2.wav
64,192,102542,1,4,1:0:0:40:crash.wav
192,192,102542,1,8,1:0:0:40:break1.wav
320,192,102642,1,8,1:0:0:40:break1.wav
64,192,102742,1,8,1:0:0:40:break1.wav
192,192,102842,1,8,2:0:0:40:break2.wav
448,192,103042,1,8,0:0:0:40:kick3.wav
192,192,103142,1,8,0:0:0:40:kick3.wav
320,192,103142,1,0,0:0:0:0:
64,192,103292,1,8,1:0:0:40:break1.wav
320,192,103442,1,8,2:0:0:40:break2.wav
448,192,103442,1,0,0:0:0:0:
64,192,103592,1,0,0:0:0:0:
192,192,103742,1,8,1:0:0:40:snare1.wav
448,192,103742,1,8,1:0:0:40:break1.wav
320,192,103942,1,8,0:0:0:40:kick3.wav
64,192,104142,1,8,1:0:0:40:break1.wav
192,192,104342,1,8,0:0:0:40:kick3.wav
448,192,104342,1,0,0:0:0:0:
64,192,104542,1,8,0:0:0:40:kick3.wav
320,192,104642,1,8,0:0:0:40:kick3.wav
192,192,104792,1,8,0:0:0:40:kick3.wav
448,192,104942,1,4,1:0:0:40:crash.wav
64,192,105092,1,8,0:0:0:40:kick3.wav
320,192,105092,1,0,0:0:0:0:
192,192,105342,1,8,2:0:0:40:break2.wav
320,192,105542,1,8,2:0:0:40:break2.wav
448,192,105542,1,8,0:0:0:40:kick3.wav
320,192,105842,1,0,0:0:0:0:
192,192,105917,1,0,0:0:0:0:
64,192,105992,1,0,0:0:0:0:
448,192,106142,1,0,0:0:0:0:
320,192,106292,1,0,0:0:0:0:
192,192,106442,1,0,0:0:0:0:
64,192,106592,1,0,0:0:0:0:
448,192,106742,1,0,0:0:0:0:
320,192,106892,1,0,0:0:0:0:
192,192,107042,1,0,0:0:0:0:
64,192,107192,1,0,0:0:0:0:
448,192,107342,1,0,0:0:0:0:
192,192,107492,1,0,0:0:0:0:
320,192,107642,1,0,0:0:0:0:
64,192,107792,1,0,0:0:0:0:
192,192,107867,1,0,0:0:0:0:
320,192,107942,1,2,1:0:0:40:kick1.wav
448,192,107942,1,0,0:0:0:0:
64,192,108092,1,8,3:0:0:40:rimshot.wav
320,192,108242,1,0,0:0:0:0:
192,192,108392,1,2,1:0:0:40:kick1.wav
448,192,108392,1,8,3:0:0:40:rimshot.wav
192,192,108692,1,8,3:0:0:40:rimshot.wav
320,192,108842,1,2,1:0:0:40:kick1.wav
448,192,108842,1,0,0:0:0:0:
64,192,108992,1,8,3:0:0:40:rimshot.wav
320,192,109142,1,0,0:0:0:0:
192,192,109292,1,2,1:0:0:40:kick1.wav
448,192,109292,1,8,3:0:0:40:rimshot.wav
64,192,109592,1,8,3:0:0:40:rimshot.wav
320,192,109742,1,2,1:0:0:40:kick1.wav
448,192,109742,1,0,0:0:0:0:
64,192,109892,1,8,3:0:0:40:rimshot.wav
192,192,110042,1,0,0:0:0:0:
320,192,110192,1,2,1:0:0:40:kick1.wav
448,192,110192,1,8,3:0:0:40:rimshot.wav
64,192,110342,1,2,1:0:0:40:kick1.wav
192,192,110342,1,0,0:0:0:0:
64,192,110642,1,0,0:0:0:0:
320,192,110792,1,2,1:0:0:40:kick1.wav
448,192,110792,1,8,3:0:0:40:rimshot.wav
192,192,110942,1,0,0:0:0:0:
448,192,111092,1,8,3:0:0:40:rimshot.wav
64,192,111242,1,2,1:0:0:40:kick1.wav
192,192,111242,1,0,0:0:0:0:
64,192,111542,1,0,0:0:0:0:
320,192,111692,1,2,1:0:0:40:kick1.wav
448,192,111692,1,8,3:0:0:40:rimshot.wav
192,192,111842,1,0,0:0:0:0:
448,192,111992,1,8,3:0:0:40:rimshot.wav
64,192,112142,1,2,1:0:0:40:kick1.wav
192,192,112142,1,0,0:0:0:0:
64,192,112442,1,0,0:0:0:0:
320,192,112592,1,2,1:0:0:40:kick1.wav
448,192,112592,1,8,3:0:0:40:rimshot.wav
192,192,112892,1,2,1:0:0:40:kick1.wav
448,192,112892,1,8,3:0:0:40:rimshot.wav
320,192,113192,1,8,3:0:0:40:rimshot.wav
192,192,113342,1,2,1:0:0:40:kick1.wav
448,192,113342,1,0,0:0:0:0:
64,192,113492,1,8,3:0:0:40:rimshot.wav
320,192,113642,1,0,0:0:0:0:
64,192,113792,1,2,1:0:0:40:kick1.wav
192,192,113792,1,8,3:0:0:40:rimshot.wav
64,192,114092,1,8,3:0:0:40:rimshot.wav
192,192,114242,1,2,1:0:0:40:kick1.wav
320,192,114242,1,0,0:0:0:0:
448,192,114392,1,8,3:0:0:40:rimshot.wav
192,192,114542,1,0,0:0:0:0:
320,192,114692,1,2,1:0:0:40:kick1.wav
448,192,114692,1,8,3:0:0:40:rimshot.wav
192,192,114992,1,8,3:0:0:40:rimshot.wav
320,192,115142,1,2,1:0:0:40:kick1.wav
448,192,115142,1,0,0:0:0:0:
64,192,115292,1,8,3:0:0:40:rimshot.wav
448,192,115442,1,0,0:0:0:0:
64,192,115592,1,2,1:0:0:40:kick1.wav
192,192,115592,1,8,3:0:0:40:rimshot.wav
192,192,115892,1,8,3:0:0:40:rimshot.wav
320,192,116042,1,2,1:0:0:40:kick1.wav
448,192,116042,1,0,0:0:0:0:
64,192,116192,1,8,3:0:0:40:rimshot.wav
448,192,116342,1,0,0:0:0:0:
64,192,116492,1,2,1:0:0:40:kick1.wav
192,192,116492,1,8,3:0:0:40:rimshot.wav
192,192,116792,1,8,3:0:0:40:rimshot.wav
320,192,116942,1,2,1:0:0:40:kick1.wav
448,192,116942,1,0,0:0:0:0:
64,192,117092,1,0,0:0:0:40:snare_short.wav
192,192,117242,1,8,2:0:0:40:snare2.wav
320,192,117242,128,0,117542:0:0:0:0:
64,192,117542,1,2,1:0:0:40:kick1.wav
448,192,117542,1,0,0:0:0:0:
192,192,117692,1,8,3:0:0:40:rimshot.wav
320,192,117842,1,0,0:0:0:0:
64,192,117992,1,2,1:0:0:40:kick1.wav
448,192,117992,1,8,3:0:0:40:rimshot.wav
64,192,118292,1,8,3:0:0:40:rimshot.wav
320,192,118442,1,2,1:0:0:40:kick1.wav
448,192,118442,1,0,0:0:0:0:
192,192,118592,1,8,3:0:0:40:rimshot.wav
320,192,118742,1,0,0:0:0:0:
192,192,118892,1,2,1:0:0:40:kick1.wav
448,192,118892,1,8,3:0:0:40:rimshot.wav
64,192,119192,1,8,3:0:0:40:rimshot.wav
320,192,119342,1,2,1:0:0:40:kick1.wav
448,192,119342,1,0,0:0:0:0:
64,192,119492,1,8,3:0:0:40:rimshot.wav
192,192,119642,1,0,0:0:0:0:
320,192,119792,1,2,1:0:0:40:kick1.wav
448,192,119792,1,8,3:0:0:40:rimshot.wav
64,192,119942,1,2,1:0:0:40:kick1.wav
192,192,119942,1,0,0:0:0:0:
64,192,120242,1,0,0:0:0:0:
320,192,120392,1,2,1:0:0:40:kick1.wav
448,192,120392,1,8,3:0:0:40:rimshot.wav
192,192,120542,1,0,0:0:0:0:
448,192,120692,1,8,3:0:0:40:rimshot.wav
64,192,120842,1,2,1:0:0:40:kick1.wav
192,192,120842,1,0,0:0:0:0:
64,192,121142,1,0,0:0:0:0:
320,192,121292,1,2,1:0:0:40:kick1.wav
448,192,121292,1,8,3:0:0:40:rimshot.wav
192,192,121442,1,0,0:0:0:0:
448,192,121592,1,8,3:0:0:40:rimshot.wav
64,192,121742,1,2,1:0:0:40:kick1.wav
192,192,121742,1,0,0:0:0:0:
64,192,122042,1,0,0:0:0:0:
320,192,122192,1,2,1:0:0:40:kick1.wav
448,192,122192,1,8,3:0:0:40:rimshot.wav
192,192,122492,1,2,1:0:0:40:kick1.wav
448,192,122492,1,8,3:0:0:40:rimshot.wav
320,192,122792,1,8,3:0:0:40:rimshot.wav
192,192,122942,1,2,1:0:0:40:kick1.wav
448,192,122942,1,0,0:0:0:0:
64,192,123092,1,8,3:0:0:40:rimshot.wav
320,192,123242,1,0,0:0:0:0:
64,192,123392,1,2,1:0:0:40:kick1.wav
192,192,123392,1,8,3:0:0:40:rimshot.wav
64,192,123692,1,8,3:0:0:40:rimshot.wav
192,192,123842,1,2,1:0:0:40:kick1.wav
320,192,123842,1,0,0:0:0:0:
448,192,123992,1,8,3:0:0:40:rimshot.wav
192,192,124142,1,0,0:0:0:0:
320,192,124292,1,2,1:0:0:40:kick1.wav
448,192,124292,1,8,3:0:0:40:rimshot.wav
192,192,124592,1,8,3:0:0:40:rimshot.wav
320,192,124742,1,2,1:0:0:40:kick1.wav
448,192,124742,1,0,0:0:0:0:
64,192,124892,1,8,3:0:0:40:rimshot.wav
448,192,125042,1,0,0:0:0:0:
64,192,125192,1,2,1:0:0:40:kick1.wav
192,192,125192,1,8,3:0:0:40:rimshot.wav
192,192,125492,1,8,3:0:0:40:rimshot.wav
320,192,125642,1,2,1:0:0:40:kick1.wav
448,192,125642,1,0,0:0:0:0:
64,192,125792,1,8,3:0:0:40:rimshot.wav
448,192,125942,1,0,0:0:0:0:
64,192,126092,1,2,1:0:0:40:kick1.wav
192,192,126092,1,8,3:0:0:40:rimshot.wav
192,192,126392,1,8,3:0:0:40:rimshot.wav
64,192,126542,1,2,1:0:0:40:kick1.wav
448,192,126542,1,0,0:0:0:0:
320,192,126670,1,0,0:0:0:0:
192,192,126799,1,0,0:0:0:0:
64,192,126927,1,0,0:0:0:0:
320,192,126992,1,2,1:0:0:40:kick1.wav
448,192,126992,1,0,0:0:0:0:
64,192,127142,1,2,1:0:0:40:kick1.wav
192,192,127142,1,0,0:0:0:0:
320,192,127292,1,2,1:0:0:40:kick1.wav
448,192,127292,1,0,0:0:0:0:
64,192,127442,128,0,128042:0:0:0:0:
448,192,128042,128,0,128342:0:0:0:0:
