osu file format v14

[General]
AudioFilename: audio.mp3
AudioLeadIn: 0
PreviewTime: 43142
Countdown: 0
SampleSet: Normal
StackLeniency: 0.7
Mode: 3
LetterboxInBreaks: 0
SpecialStyle: 0
WidescreenStoryboard: 1

[Editor]
Bookmarks: 1782,1902,2022,2142,2262,3542,22742,42842,42879,42917,42954,42992,43029,43067,43104,43142,62342,64141,64270,64399,64527,64656,69542,88442,88479,88517,88554,88592,88629,88667,88704,88742,107942,126541,126670,126799,126927,127056
DistanceSpacing: 1.5
BeatDivisor: 4
GridSize: 4
TimelineZoom: 1.2

[Metadata]
Title:Orthoplexed
TitleUnicode:Orthoplexed
Artist:Frums
ArtistUnicode:Frums
Creator:Disguise
Version:Craze
Source:
Tags:Dance Morph electronic instrumental Hello World morph2020 Morph EP 4 Mex World extended play
BeatmapID:4053258
BeatmapSetID:1955444

[Difficulty]
HPDrainRate:8.9
CircleSize:4
OverallDifficulty:7.9
ApproachRate:5
SliderMultiplier:1.4
SliderTickRate:1

[Events]
//Background and Video events
0,0,"bg1.jpg",0,0
//Break Periods
//Storyboard Layer 0 (Background)
//Storyboard Layer 1 (Fail)
//Storyboard Layer 2 (Pass)
//Storyboard Layer 3 (Foreground)
//Storyboard Layer 4 (Overlay)
//Storyboard Sound Samples
Sample,44942,0,"crash.wav",40
Sample,47342,0,"snare_short.wav",40
Sample,47492,0,"snare_short.wav",40
Sample,47642,0,"snare_short.wav",40
Sample,47792,0,"snare_short.wav",40
Sample,49742,0,"crash.wav",40
Sample,54542,0,"crash.wav",40
Sample,56942,0,"snare_short.wav",40
Sample,59342,0,"crash.wav",40
Sample,78842,0,"break2.wav",40
Sample,78992,0,"break2.wav",40
Sample,89492,0,"kick3.wav",40
Sample,91742,0,"break2.wav",40
Sample,94142,0,"kick3.wav",40
Sample,94292,0,"kick3.wav",40
Sample,96542,0,"break2.wav",40
Sample,101342,0,"kick3.wav",40

[TimingPoints]
-18,300,4,1,1,40,1,0
3242,300,4,1,1,40,1,0
3542,300,4,1,1,40,1,0
43142,-100,4,1,1,40,0,1
52142,-100,4,1,1,40,0,0
52742,-100,4,1,1,40,0,1
61142,-100,4,1,1,40,0,0
79142,-100,4,1,1,40,0,1
79742,-100,4,1,1,40,0,0
80042,-100,4,1,1,40,0,1
80942,-100,4,1,1,40,0,0
81542,-100,4,1,1,40,0,1
82142,-100,4,1,1,40,0,0
82442,-100,4,1,1,40,0,1
83342,-100,4,1,1,40,0,0
83942,-100,4,1,1,40,0,1
86342,-100,4,1,1,40,0,0
88742,-100,4,1,1,40,0,1
105542,-100,4,1,1,40,0,0

[HitObjects]
192,192,132,5,0,0:0:0:0:
320,192,182,1,0,0:0:0:0:
64,192,232,1,0,0:0:0:0:
448,192,282,1,0,0:0:0:0:
192,192,332,1,0,0:0:0:0:
320,192,382,1,0,0:0:0:0:
64,192,432,1,0,0:0:0:0:
448,192,482,1,0,0:0:0:0:
192,192,532,1,0,0:0:0:0:
320,192,582,1,0,0:0:0:0:
64,192,632,1,0,0:0:0:0:
448,192,682,1,0,0:0:0:0:
192,192,732,1,0,0:0:0:0:
320,192,782,1,0,0:0:0:0:
64,192,832,1,0,0:0:0:0:
448,192,882,1,0,0:0:0:0:
192,192,932,1,0,0:0:0:0:
320,192,982,1,0,0:0:0:0:
64,192,1032,1,0,0:0:0:0:
448,192,1082,1,0,0:0:0:0:
192,192,1132,1,0,0:0:0:0:
320,192,1182,1,0,0:0:0:0:
64,192,1232,1,0,0:0:0:0:
320,192,1282,1,0,0:0:0:0:
192,192,1332,1,0,0:0:0:0:
448,192,1382,1,0,0:0:0:0:
192,192,1432,1,0,0:0:0:0:
320,192,1482,1,0,0:0:0:0:
64,192,1532,1,0,0:0:0:0:
320,192,1582,1,0,0:0:0:0:
192,192,1632,1,0,0:0:0:0:
448,192,1682,1,0,0:0:0:0:
192,192,1732,1,0,0:0:0:0:
320,192,1782,1,0,0:0:0:0:
64,192,1902,1,0,0:0:0:0:
320,192,2022,1,0,0:0:0:0:
192,192,2142,1,0,0:0:0:0:
64,192,2262,1,0,0:0:0:0:
448,192,2382,1,0,0:0:0:0:
192,192,2432,1,0,0:0:0:0:
448,192,2482,1,0,0:0:0:0:
64,192,2532,1,0,0:0:0:0:
320,192,2582,1,0,0:0:0:0:
64,192,2632,1,0,0:0:0:0:
448,192,2682,1,0,0:0:0:0:
192,192,2732,1,0,0:0:0:0:
448,192,2782,1,0,0:0:0:0:
64,192,2832,1,0,0:0:0:0:
320,192,2882,1,0,0:0:0:0:
64,192,2932,1,0,0:0:0:0:
448,192,2982,1,0,0:0:0:0:
192,192,3032,1,0,0:0:0:0:
448,192,3082,1,0,0:0:0:0:
64,192,3132,1,0,0:0:0:0:
320,192,3182,1,0,0:0:0:0:
192,192,3242,1,0,0:0:0:0:
64,192,3279,1,0,0:0:0:0:
448,192,3317,1,0,0:0:0:0:
320,192,3354,1,0,0:0:0:0:
192,192,3392,1,0,0:0:0:0:
64,192,3429,1,0,0:0:0:0:
448,192,3467,1,0,0:0:0:0:
320,192,3504,1,0,0:0:0:0:
64,192,3542,1,2,1:0:0:0:kick1
192,192,3542,1,0,0:0:0:0:
192,192,3617,1,0,0:0:0:0:
320,192,3692,1,0,0:0:0:0:
64,192,3742,1,0,0:0:0:0:
192,192,3792,1,0,0:0:0:0:
320,192,3842,1,2,1:0:0:40:kick1.wav
448,192,3842,1,0,0:0:0:0:
64,192,3917,1,0,0:0:0:0:
448,192,3992,1,0,0:0:0:0:
192,192,4042,1,0,0:0:0:0:
64,192,4092,1,0,0:0:0:0:
320,192,4142,1,2,1:0:0:40:kick1.wav
448,192,4142,1,0,0:0:0:0:
320,192,4217,1,0,0:0:0:0:
192,192,4292,1,0,0:0:0:0:
448,192,4342,1,0,0:0:0:0:
320,192,4392,1,0,0:0:0:0:
64,192,4442,1,2,1:0:0:40:kick1.wav
192,192,4442,1,0,0:0:0:0:
448,192,4517,1,0,0:0:0:0:
64,192,4592,1,0,0:0:0:0:
320,192,4642,1,0,0:0:0:0:
448,192,4692,1,0,0:0:0:0:
64,192,4742,1,2,1:0:0:40:kick1.wav
192,192,4742,1,0,0:0:0:0:
448,192,4817,1,0,0:0:0:0:
320,192,4892,1,0,0:0:0:0:
192,192,4942,1,0,0:0:0:0:
320,192,4992,1,0,0:0:0:0:
64,192,5042,1,2,1:0:0:40:kick1.wav
448,192,5042,1,0,0:0:0:0:
192,192,5117,1,0,0:0:0:0:
320,192,5192,1,0,0:0:0:0:
192,192,5242,1,0,0:0:0:0:
64,192,5292,1,0,0:0:0:0:
320,192,5342,1,2,1:0:0:40:kick1.wav
448,192,5342,1,0,0:0:0:0:
192,192,5417,1,0,0:0:0:0:
320,192,5492,1,0,0:0:0:0:
448,192,5542,1,0,0:0:0:0:
64,192,5592,1,0,0:0:0:0:
192,192,5642,128,0,5792:0:0:0:0:
320,192,5642,128,0,5792:0:0:0:0:
64,192,5942,1,2,1:0:0:40:kick1.wav
448,192,5942,1,0,0:0:0:0:
192,192,6017,1,0,0:0:0:0:
64,192,6092,1,2,1:0:0:40:kick1.wav
448,192,6092,1,0,0:0:0:0:
320,192,6167,1,0,0:0:0:0:
64,192,6242,1,2,1:0:0:40:kick1.wav
448,192,6242,1,0,0:0:0:0:
192,192,6317,1,0,0:0:0:0:
320,192,6392,1,0,0:0:0:0:
192,192,6442,1,0,0:0:0:0:
64,192,6492,1,0,0:0:0:0:
320,192,6542,1,2,1:0:0:40:kick1.wav
448,192,6542,1,0,0:0:0:0:
192,192,6617,1,0,0:0:0:0:
448,192,6692,1,0,0:0:0:0:
320,192,6742,1,0,0:0:0:0:
192,192,6792,1,0,0:0:0:0:
64,192,6842,1,2,1:0:0:40:kick1.wav
448,192,6842,1,0,0:0:0:0:
320,192,6917,1,0,0:0:0:0:
192,192,6992,1,0,0:0:0:0:
320,192,7042,1,0,0:0:0:0:
448,192,7092,1,0,0:0:0:0:
64,192,7142,1,2,1:0:0:40:kick1.wav
192,192,7142,1,0,0:0:0:0:
320,192,7217,1,0,0:0:0:0:
64,192,7292,1,0,0:0:0:0:
192,192,7367,1,2,1:0:0:40:kick1.wav
320,192,7367,1,0,0:0:0:0:
64,192,7442,1,0,0:0:0:0:
448,192,7517,1,0,0:0:0:0:
192,192,7592,1,2,1:0:0:40:kick1.wav
320,192,7592,1,0,0:0:0:0:
448,192,7667,1,0,0:0:0:0:
64,192,7742,1,2,1:0:0:40:kick1.wav
192,192,7742,1,0,0:0:0:0:
448,192,7817,1,0,0:0:0:0:
64,192,7892,1,0,0:0:0:40:snare_short.wav
64,192,7967,1,0,0:0:0:40:snare_short.wav
64,192,8042,1,8,2:0:0:40:snare2.wav
448,192,8042,128,0,8342:0:0:0:0:
320,192,8192,128,0,8342:0:0:0:0:
64,192,8342,1,2,1:0:0:40:kick1.wav
192,192,8342,1,0,0:0:0:0:
448,192,8417,1,0,0:0:0:0:
320,192,8492,1,0,0:0:0:0:
192,192,8542,1,0,0:0:0:0:
320,192,8592,1,0,0:0:0:0:
64,192,8642,1,2,1:0:0:40:kick1.wav
448,192,8642,1,0,0:0:0:0:
192,192,8717,1,0,0:0:0:0:
320,192,8792,1,0,0:0:0:0:
64,192,8842,1,0,0:0:0:0:
192,192,8892,1,0,0:0:0:0:
320,192,8942,1,2,1:0:0:40:kick1.wav
448,192,8942,1,0,0:0:0:0:
64,192,9017,1,0,0:0:0:0:
448,192,9092,1,0,0:0:0:0:
320,192,9142,1,0,0:0:0:0:
192,192,9192,1,0,0:0:0:0:
64,192,9242,1,2,1:0:0:40:kick1.wav
448,192,9242,1,0,0:0:0:0:
320,192,9317,1,0,0:0:0:0:
192,192,9392,1,0,0:0:0:0:
64,192,9442,1,0,0:0:0:0:
192,192,9492,1,0,0:0:0:0:
320,192,9542,1,2,1:0:0:40:kick1.wav
448,192,9542,1,0,0:0:0:0:
64,192,9617,1,0,0:0:0:0:
320,192,9692,1,0,0:0:0:0:
448,192,9742,1,0,0:0:0:0:
192,192,9792,1,0,0:0:0:0:
64,192,9842,1,2,1:0:0:40:kick1.wav
320,192,9842,1,0,0:0:0:0:
448,192,9917,1,0,0:0:0:0:
192,192,9992,1,0,0:0:0:0:
64,192,10042,1,0,0:0:0:0:
320,192,10092,1,0,0:0:0:0:
192,192,10142,128,0,10292:0:0:0:0:
64,192,10292,1,0,0:0:0:0:
448,192,10342,1,0,0:0:0:0:
320,192,10392,1,0,0:0:0:0:
192,192,10442,1,0,0:0:0:0:
448,192,10479,1,0,0:0:0:0:
320,192,10517,1,0,0:0:0:0:
64,192,10554,1,0,0:0:0:0:
192,192,10592,128,0,10742:0:0:0:0:
320,192,10629,1,0,0:0:0:0:
64,192,10742,1,2,1:0:0:40:kick1.wav
448,192,10742,1,0,0:0:0:0:
192,192,10817,1,0,0:0:0:0:
64,192,10892,1,2,1:0:0:40:kick1.wav
448,192,10892,1,0,0:0:0:0:
320,192,10967,1,0,0:0:0:0:
64,192,11042,1,2,1:0:0:40:kick1.wav
448,192,11042,1,0,0:0:0:0:
192,192,11117,1,0,0:0:0:0:
320,192,11192,1,0,0:0:0:0:
192,192,11242,1,0,0:0:0:0:
64,192,11292,1,0,0:0:0:0:
320,192,11342,1,2,1:0:0:40:kick1.wav
448,192,11342,1,0,0:0:0:0:
192,192,11417,1,0,0:0:0:0:
448,192,11492,1,0,0:0:0:0:
320,192,11542,1,0,0:0:0:0:
192,192,11592,1,0,0:0:0:0:
64,192,11642,1,2,1:0:0:40:kick1.wav
448,192,11642,1,0,0:0:0:0:
320,192,11717,1,0,0:0:0:0:
192,192,11792,1,0,0:0:0:0:
320,192,11842,1,0,0:0:0:0:
448,192,11892,1,0,0:0:0:0:
64,192,11942,1,0,0:0:0:0:
64,192,12092,1,0,0:0:0:0:
64,192,12167,1,0,0:0:0:0:
64,192,12317,1,0,0:0:0:0:
64,192,12392,1,0,0:0:0:0:
320,192,12467,1,0,0:0:0:0:
192,192,12542,1,0,0:0:0:0:
448,192,12617,1,0,0:0:0:0:
320,192,12654,1,0,0:0:0:0:
192,192,12692,1,0,0:0:0:0:
448,192,12729,1,0,0:0:0:0:
320,192,12767,1,0,0:0:0:0:
64,192,12917,1,0,0:0:0:0:
192,192,12917,1,0,0:0:0:0:
448,192,12992,1,0,0:0:0:0:
320,192,13042,1,0,0:0:0:0:
192,192,13092,1,0,0:0:0:0:
64,192,13142,1,2,1:0:0:40:kick1.wav
448,192,13142,1,0,0:0:0:0:
320,192,13217,1,0,0:0:0:0:
64,192,13292,1,8,3:0:0:40:rimshot.wav
192,192,13292,1,0,0:0:0:0:
320,192,13367,1,8,3:0:0:40:rimshot.wav
448,192,13367,1,0,0:0:0:0:
64,192,13442,1,2,1:0:0:40:kick1.wav
448,192,13442,1,0,0:0:0:0:
192,192,13517,1,0,0:0:0:0:
320,192,13592,1,8,3:0:0:40:rimshot.wav
448,192,13592,1,0,0:0:0:0:
64,192,13667,1,8,3:0:0:40:rimshot.wav
192,192,13667,1,0,0:0:0:0:
64,192,13742,1,2,1:0:0:40:kick1.wav
320,192,13742,1,0,0:0:0:0:
448,192,13817,1,0,0:0:0:0:
64,192,13892,1,8,3:0:0:40:rimshot.wav
192,192,13892,1,0,0:0:0:0:
320,192,13967,1,8,3:0:0:40:rimshot.wav
448,192,13967,1,0,0:0:0:0:
192,192,14042,1,2,1:0:0:40:kick1.wav
448,192,14042,1,0,0:0:0:0:
64,192,14117,1,0,0:0:0:0:
320,192,14192,1,8,3:0:0:40:rimshot.wav
448,192,14192,1,0,0:0:0:0:
64,192,14267,1,8,3:0:0:40:rimshot.wav
192,192,14267,1,0,0:0:0:0:
192,192,14342,1,2,1:0:0:40:kick1.wav
320,192,14342,1,0,0:0:0:0:
448,192,14417,1,0,0:0:0:0:
64,192,14492,1,8,3:0:0:40:rimshot.wav
192,192,14492,1,0,0:0:0:0:
320,192,14567,1,8,3:0:0:40:rimshot.wav
448,192,14567,1,0,0:0:0:0:
192,192,14642,1,2,1:0:0:40:kick1.wav
320,192,14642,1,0,0:0:0:0:
64,192,14717,1,0,0:0:0:0:
320,192,14792,1,8,3:0:0:40:rimshot.wav
448,192,14792,1,0,0:0:0:0:
64,192,14867,1,8,3:0:0:40:rimshot.wav
192,192,14867,1,0,0:0:0:0:
192,192,14942,1,2,1:0:0:40:kick1.wav
320,192,14942,1,0,0:0:0:0:
448,192,15017,1,0,0:0:0:0:
64,192,15092,1,8,3:0:0:40:rimshot.wav
192,192,15092,1,0,0:0:0:0:
320,192,15167,1,8,3:0:0:40:rimshot.wav
448,192,15167,1,0,0:0:0:0:
192,192,15242,128,0,15392:0:0:0:0:
320,192,15242,128,0,15392:0:0:0:0:
64,192,15542,1,2,1:0:0:40:kick1.wav
448,192,15542,1,0,0:0:0:0:
320,192,15617,1,0,0:0:0:0:
64,192,15692,1,2,1:0:0:40:kick1.wav
192,192,15692,1,8,3:0:0:40:rimshot.wav
192,192,15767,1,8,3:0:0:40:rimshot.wav
320,192,15767,1,0,0:0:0:0:
320,192,15842,1,2,1:0:0:40:kick1.wav
448,192,15842,1,0,0:0:0:0:
64,192,15917,1,0,0:0:0:0:
192,192,15992,1,8,3:0:0:40:rimshot.wav
448,192,15992,1,0,0:0:0:0:
64,192,16067,1,8,3:0:0:40:rimshot.wav
320,192,16067,1,0,0:0:0:0:
64,192,16142,1,2,1:0:0:40:kick1.wav
192,192,16142,1,0,0:0:0:0:
448,192,16217,1,0,0:0:0:0:
64,192,16292,1,8,3:0:0:40:rimshot.wav
320,192,16292,1,0,0:0:0:0:
192,192,16367,1,8,3:0:0:40:rimshot.wav
448,192,16367,1,0,0:0:0:0:
320,192,16442,1,2,1:0:0:40:kick1.wav
448,192,16442,1,0,0:0:0:0:
64,192,16517,1,0,0:0:0:0:
192,192,16592,1,8,3:0:0:40:rimshot.wav
448,192,16592,1,0,0:0:0:0:
64,192,16667,1,8,3:0:0:40:rimshot.wav
320,192,16667,1,0,0:0:0:0:
64,192,16742,1,2,1:0:0:40:kick1.wav
192,192,16742,1,0,0:0:0:0:
448,192,16817,1,0,0:0:0:0:
320,192,16892,1,8,3:0:0:40:rimshot.wav
320,192,16967,1,2,1:0:0:40:kick1.wav
448,192,16967,1,8,3:0:0:40:rimshot.wav
192,192,17042,1,0,0:0:0:0:
64,192,17117,1,0,0:0:0:0:
64,192,17192,1,2,1:0:0:40:kick1.wav
320,192,17192,1,8,3:0:0:40:rimshot.wav
192,192,17267,1,8,3:0:0:40:rimshot.wav
320,192,17342,1,2,1:0:0:40:kick1.wav
448,192,17342,1,0,0:0:0:0:
64,192,17417,1,0,0:0:0:0:
448,192,17492,1,0,0:0:0:40:snare_short.wav
448,192,17567,1,0,0:0:0:40:snare_short.wav
64,192,17642,1,8,2:0:0:40:snare2.wav
448,192,17642,128,0,17942:0:0:0:0:
192,192,17792,128,0,17942:0:0:0:0:
64,192,17942,1,2,1:0:0:40:kick1.wav
320,192,17942,1,0,0:0:0:0:
448,192,18017,1,0,0:0:0:0:
64,192,18092,1,8,3:0:0:40:rimshot.wav
192,192,18092,1,0,0:0:0:0:
320,192,18167,1,8,3:0:0:40:rimshot.wav
448,192,18167,1,0,0:0:0:0:
64,192,18242,1,2,1:0:0:40:kick1.wav
448,192,18242,1,0,0:0:0:0:
192,192,18317,1,0,0:0:0:0:
320,192,18392,1,8,3:0:0:40:rimshot.wav
448,192,18392,1,0,0:0:0:0:
64,192,18467,1,8,3:0:0:40:rimshot.wav
192,192,18467,1,0,0:0:0:0:
64,192,18542,1,2,1:0:0:40:kick1.wav
320,192,18542,1,0,0:0:0:0:
448,192,18617,1,0,0:0:0:0:
64,192,18692,1,8,3:0:0:40:rimshot.wav
192,192,18692,1,0,0:0:0:0:
320,192,18767,1,8,3:0:0:40:rimshot.wav
448,192,18767,1,0,0:0:0:0:
192,192,18842,1,2,1:0:0:40:kick1.wav
448,192,18842,1,0,0:0:0:0:
64,192,18917,1,0,0:0:0:0:
320,192,18992,1,8,3:0:0:40:rimshot.wav
448,192,18992,1,0,0:0:0:0:
64,192,19067,1,8,3:0:0:40:rimshot.wav
192,192,19067,1,0,0:0:0:0:
192,192,19142,1,2,1:0:0:40:kick1.wav
320,192,19142,1,0,0:0:0:0:
448,192,19217,1,0,0:0:0:0:
64,192,19292,1,8,3:0:0:40:rimshot.wav
192,192,19292,1,0,0:0:0:0:
320,192,19367,1,8,3:0:0:40:rimshot.wav
448,192,19367,1,0,0:0:0:0:
192,192,19442,1,2,1:0:0:40:kick1.wav
320,192,19442,1,0,0:0:0:0:
448,192,19517,1,0,0:0:0:0:
64,192,19592,1,8,3:0:0:40:rimshot.wav
192,192,19592,1,0,0:0:0:0:
320,192,19667,1,8,3:0:0:40:rimshot.wav
448,192,19667,1,0,0:0:0:0:
64,192,19742,1,8,3:0:0:40:rimshot.wav
192,192,19742,1,0,0:0:0:0:
320,192,19784,1,8,3:0:0:40:rimshot.wav
64,192,19827,1,8,3:0:0:40:rimshot.wav
448,192,19892,1,8,3:0:0:40:rimshot.wav
320,192,19934,1,8,3:0:0:40:rimshot.wav
192,192,19977,1,8,3:0:0:40:rimshot.wav
320,192,20042,1,8,3:0:0:40:rimshot.wav
192,192,20084,1,8,3:0:0:40:rimshot.wav
64,192,20127,1,8,3:0:0:40:rimshot.wav
448,192,20192,1,8,3:0:0:40:rimshot.wav
192,192,20234,1,8,3:0:0:40:rimshot.wav
448,192,20277,1,8,3:0:0:40:rimshot.wav
64,192,20342,1,2,1:0:0:40:kick1.wav
320,192,20342,1,0,0:0:0:0:
448,192,20417,1,0,0:0:0:0:
64,192,20492,1,2,1:0:0:40:kick1.wav
192,192,20492,1,8,3:0:0:40:rimshot.wav
192,192,20567,1,8,3:0:0:40:rimshot.wav
320,192,20567,1,0,0:0:0:0:
320,192,20642,1,2,1:0:0:40:kick1.wav
448,192,20642,1,0,0:0:0:0:
64,192,20717,1,0,0:0:0:0:
192,192,20792,1,8,3:0:0:40:rimshot.wav
448,192,20792,1,0,0:0:0:0:
64,192,20867,1,8,3:0:0:40:rimshot.wav
320,192,20867,1,0,0:0:0:0:
64,192,20942,1,2,1:0:0:40:kick1.wav
192,192,20942,1,0,0:0:0:0:
448,192,21017,1,0,0:0:0:0:
64,192,21092,1,8,3:0:0:40:rimshot.wav
320,192,21092,1,0,0:0:0:0:
192,192,21167,1,8,3:0:0:40:rimshot.wav
448,192,21167,1,0,0:0:0:0:
320,192,21242,1,2,1:0:0:40:kick1.wav
448,192,21242,1,0,0:0:0:0:
64,192,21317,1,0,0:0:0:0:
192,192,21392,1,8,3:0:0:40:rimshot.wav
448,192,21392,1,0,0:0:0:0:
64,192,21467,1,8,3:0:0:40:rimshot.wav
320,192,21467,1,0,0:0:0:0:
64,192,21542,1,0,0:0:0:0:
448,192,21579,1,0,0:0:0:0:
320,192,21617,1,0,0:0:0:0:
192,192,21654,1,0,0:0:0:0:
448,192,21692,1,0,0:0:0:0:
192,192,21742,1,0,0:0:0:0:
64,192,21792,1,0,0:0:0:0:
320,192,21842,1,0,0:0:0:0:
448,192,21842,1,0,0:0:0:0:
192,192,21879,1,0,0:0:0:0:
320,192,21917,1,0,0:0:0:0:
448,192,21954,1,0,0:0:0:0:
64,192,21992,1,0,0:0:0:0:
192,192,22042,1,0,0:0:0:0:
320,192,22092,1,0,0:0:0:0:
64,192,22142,1,0,0:0:0:0:
448,192,22142,1,0,0:0:0:0:
64,192,22292,1,0,0:0:0:0:
448,192,22292,1,0,0:0:0:0:
320,192,22442,1,0,0:0:0:0:
192,192,22467,1,0,0:0:0:0:
448,192,22517,1,0,0:0:0:0:
64,192,22592,1,0,0:0:0:0:
192,192,22617,1,0,0:0:0:0:
320,192,22742,1,2,1:0:0:40:kick1.wav
448,192,22742,1,8,0:0:0:40:kick3.wav
192,192,22817,1,0,0:0:0:0:
320,192,22892,1,8,2:0:0:40:break2.wav
448,192,22892,1,0,0:0:0:0:
64,192,22967,1,0,0:0:0:0:
192,192,23042,1,8,0:0:0:40:kick3.wav
320,192,23042,1,0,0:0:0:0:
192,192,23117,1,8,2:0:0:40:break2.wav
64,192,23154,1,0,0:0:0:0:
320,192,23192,1,0,0:0:0:0:
192,192,23267,1,8,0:0:0:40:kick3.wav
448,192,23267,1,0,0:0:0:0:
64,192,23342,1,8,1:0:0:40:break1.wav
448,192,23342,1,0,0:0:0:0:
320,192,23417,1,0,0:0:0:0:
64,192,23492,1,8,1:0:0:40:break1.wav
448,192,23492,1,0,0:0:0:0:
192,192,23567,1,0,0:0:0:0:
320,192,23642,1,8,1:0:0:40:break1.wav
448,192,23642,1,0,0:0:0:0:
192,192,23717,1,8,2:0:0:40:break2.wav
448,192,23717,1,0,0:0:0:0:
64,192,23792,1,8,2:0:0:40:break2.wav
320,192,23792,1,0,0:0:0:0:
64,192,23867,1,8,2:0:0:40:break2.wav
192,192,23867,1,0,0:0:0:0:
320,192,23942,1,8,0:0:0:40:kick3.wav
448,192,23942,1,0,0:0:0:0:
64,192,24017,1,0,0:0:0:0:
320,192,24092,1,0,0:0:0:0:
320,192,24167,1,8,2:0:0:40:break2.wav
448,192,24242,1,8,2:0:0:40:kick3.wav
64,192,24317,1,8,0:0:0:40:kick3.wav
192,192,24317,1,0,0:0:0:0:
64,192,24392,1,8,2:0:0:40:break2.wav
320,192,24392,1,0,0:0:0:0:
192,192,24467,1,0,0:0:0:0:
448,192,24542,1,0,0:0:0:0:
448,192,24617,1,8,2:0:0:40:break2.wav
64,192,24692,1,8,2:0:0:40:kick3.wav
192,192,24692,1,0,0:0:0:0:
64,192,24767,1,8,0:0:0:40:kick3.wav
320,192,24767,1,0,0:0:0:0:
192,192,24842,1,8,2:0:0:40:break2.wav
448,192,24842,1,0,0:0:0:0:
64,192,24917,1,0,0:0:0:0:
320,192,24992,1,8,1:0:0:40:break1.wav
448,192,24992,1,0,0:0:0:0:
320,192,25067,1,8,1:0:0:40:break1.wav
448,192,25067,1,0,0:0:0:0:
64,192,25142,1,8,0:0:0:40:kick3.wav
192,192,25142,1,0,0:0:0:0:
448,192,25217,1,8,0:0:0:40:kick3.wav
192,192,25292,1,8,2:0:0:40:break2.wav
192,192,25367,1,8,0:0:0:40:kick3.wav
64,192,25442,1,8,1:0:0:40:break1.wav
320,192,25442,1,0,0:0:0:0:
448,192,25517,1,0,0:0:0:0:
64,192,25592,1,8,1:0:0:40:break1.wav
320,192,25592,1,0,0:0:0:0:
192,192,25667,1,0,0:0:0:0:
448,192,25742,1,8,2:0:0:40:break2.wav
448,192,25817,1,8,2:0:0:40:break2.wav
64,192,25892,1,8,0:0:0:40:kick3.wav
192,192,25892,1,0,0:0:0:0:
64,192,25967,1,8,0:0:0:40:kick3.wav
448,192,25967,1,0,0:0:0:0:
192,192,26042,1,0,0:0:0:0:
320,192,26117,1,8,0:0:0:40:kick3.wav
448,192,26117,1,0,0:0:0:0:
64,192,26192,1,8,2:0:0:40:break2.wav
448,192,26192,1,0,0:0:0:0:
320,192,26267,1,0,0:0:0:0:
64,192,26342,1,8,2:0:0:40:break2.wav
192,192,26342,1,0,0:0:0:0:
192,192,26417,1,8,1:0:0:40:break1.wav
448,192,26417,1,0,0:0:0:0:
64,192,26492,1,8,2:0:0:40:break2.wav
320,192,26492,1,0,0:0:0:0:
320,192,26567,1,8,2:0:0:40:break2.wav
448,192,26567,1,0,0:0:0:0:
64,192,26642,1,8,0:0:0:40:kick3.wav
192,192,26642,1,0,0:0:0:0:
448,192,26717,1,0,0:0:0:0:
192,192,26792,1,8,2:0:0:40:break2.wav
320,192,26792,1,0,0:0:0:0:
64,192,26867,1,0,0:0:0:0:
192,192,26942,1,0,0:0:0:0:
192,192,27017,1,0,0:0:0:0:
320,192,27092,1,8,0:0:0:40:kick3.wav
448,192,27092,1,0,0:0:0:0:
64,192,27167,1,0,0:0:0:0:
192,192,27242,1,8,2:0:0:40:break2.wav
448,192,27242,1,0,0:0:0:0:
320,192,27317,1,0,0:0:0:0:
64,192,27392,1,8,1:0:0:40:break1.wav
448,192,27392,1,0,0:0:0:0:
320,192,27467,1,8,1:0:0:40:break1.wav
448,192,27467,1,0,0:0:0:0:
64,192,27542,1,8,0:0:0:40:kick3.wav
192,192,27542,1,0,0:0:0:0:
320,192,27579,1,0,0:0:0:0:
448,192,27617,1,0,0:0:0:0:
64,192,27692,1,8,2:0:0:40:break2.wav
192,192,27692,1,0,0:0:0:0:
320,192,27767,1,0,0:0:0:0:
192,192,27804,1,0,0:0:0:0:
64,192,27842,1,8,2:0:0:40:break2.wav
320,192,27917,1,8,0:0:0:40:kick3.wav
448,192,27917,1,0,0:0:0:0:
64,192,27992,1,8,1:0:0:40:break1.wav
448,192,27992,1,0,0:0:0:0:
192,192,28029,1,0,0:0:0:0:
320,192,28067,1,0,0:0:0:0:
64,192,28142,1,8,1:0:0:40:break1.wav
448,192,28142,1,0,0:0:0:0:
320,192,28217,1,0,0:0:0:0:
64,192,28292,1,8,0:0:0:40:kick3.wav
192,192,28292,1,0,0:0:0:0:
320,192,28367,1,0,0:0:0:0:
448,192,28367,1,0,0:0:0:0:
64,192,28442,1,8,1:0:0:40:break1.wav
192,192,28442,1,0,0:0:0:0:
320,192,28517,1,0,0:0:0:0:
192,192,28592,1,8,0:0:0:40:kick3.wav
448,192,28592,1,0,0:0:0:0:
64,192,28667,1,8,0:0:0:40:kick3.wav
192,192,28667,1,0,0:0:0:0:
320,192,28742,1,0,0:0:0:40:kick3.wav
448,192,28742,1,0,0:0:0:0:
192,192,28817,1,8,1:0:0:40:break1.wav
448,192,28817,1,0,0:0:0:0:
64,192,28892,1,0,0:0:0:0:
64,192,28967,1,0,0:0:0:0:
320,192,29042,1,8,1:0:0:40:break1.wav
448,192,29042,1,0,0:0:0:0:
64,192,29142,1,8,0:0:0:40:kick3.wav
192,192,29142,1,0,0:0:0:0:
192,192,29242,1,8,0:0:0:40:kick3.wav
320,192,29242,1,0,0:0:0:0:
320,192,29342,1,8,1:0:0:40:break1.wav
448,192,29342,1,0,0:0:0:0:
64,192,29417,1,0,0:0:0:0:
320,192,29492,1,0,0:0:0:0:
192,192,29567,1,8,1:0:0:40:break1.wav
320,192,29604,1,8,1:0:0:40:break1.wav
64,192,29642,1,8,1:0:0:40:break1.wav
448,192,29642,1,0,0:0:0:0:
64,192,29717,1,8,1:0:0:40:break1.wav
192,192,29717,1,0,0:0:0:0:
320,192,29792,1,8,1:0:0:40:break1.wav
448,192,29792,1,0,0:0:0:0:
64,192,29867,1,8,1:0:0:40:break1.wav
448,192,29867,1,0,0:0:0:0:
192,192,29942,128,8,30167:0:0:0:40:kick3.wav
320,192,29942,1,0,0:0:0:0:
448,192,30017,1,8,0:0:0:40:kick3.wav
64,192,30092,128,8,30167:2:0:0:40:break2.wav
320,192,30167,1,0,0:0:0:0:
64,192,30242,1,8,1:0:0:40:break1.wav
192,192,30242,1,0,0:0:0:0:
320,192,30317,1,0,0:0:0:0:
64,192,30392,1,8,1:0:0:40:break1.wav
192,192,30392,1,0,0:0:0:0:
448,192,30467,1,0,0:0:0:0:
192,192,30542,1,0,0:0:0:0:
320,192,30579,1,0,0:0:0:0:
64,192,30617,1,0,0:0:0:0:
448,192,30654,1,0,0:0:0:0:
64,192,30692,1,8,0:0:0:40:kick3.wav
192,192,30692,1,0,0:0:0:0:
448,192,30742,1,8,0:0:0:40:kick3.wav
320,192,30792,1,8,0:0:0:40:kick3.wav
64,192,30842,1,8,2:0:0:40:break2.wav
192,192,30842,1,0,0:0:0:0:
64,192,30917,1,8,2:0:0:40:break2.wav
320,192,30917,1,0,0:0:0:0:
192,192,30992,1,8,2:0:0:40:break2.wav
448,192,30992,1,0,0:0:0:0:
320,192,31067,1,8,2:0:0:40:break2.wav
448,192,31067,1,0,0:0:0:0:
64,192,31142,1,8,0:0:0:40:kick3.wav
192,192,31142,1,0,0:0:0:0:
320,192,31217,1,0,0:0:0:0:
64,192,31292,1,0,0:0:0:0:
64,192,31367,1,8,2:0:0:40:break2.wav
320,192,31442,1,8,2:0:0:40:break2.wav
448,192,31442,1,0,0:0:0:0:
192,192,31517,1,8,2:0:0:40:break2.wav
448,192,31517,1,0,0:0:0:0:
64,192,31592,1,8,0:0:0:40:kick3.wav
320,192,31592,1,0,0:0:0:0:
192,192,31667,1,0,0:0:0:0:
448,192,31742,1,0,0:0:0:0:
448,192,31817,1,8,2:0:0:40:break2.wav
64,192,31854,1,8,2:0:0:40:break2.wav
320,192,31892,1,8,2:0:0:40:break2.wav
64,192,31967,1,8,2:0:0:40:break2.wav
192,192,31967,1,0,0:0:0:0:
320,192,32042,1,8,0:0:0:40:kick3.wav
448,192,32042,1,0,0:0:0:0:
192,192,32117,1,0,0:0:0:0:
192,192,32192,1,0,0:0:0:0:
64,192,32242,1,0,0:0:0:0:
320,192,32292,1,0,0:0:0:0:
64,192,32342,1,2,1:0:0:40:kick1.wav
192,192,32342,1,8,0:0:0:40:kick3.wav
320,192,32417,1,0,0:0:0:0:
64,192,32492,1,8,2:0:0:40:break2.wav
192,192,32492,1,0,0:0:0:0:
448,192,32567,1,0,0:0:0:0:
192,192,32642,1,8,0:0:0:40:kick3.wav
320,192,32642,1,0,0:0:0:0:
320,192,32717,1,8,2:0:0:40:break2.wav
448,192,32754,1,0,0:0:0:0:
192,192,32792,1,0,0:0:0:0:
64,192,32867,1,8,0:0:0:40:kick3.wav
320,192,32867,1,0,0:0:0:0:
64,192,32942,1,8,1:0:0:40:break1.wav
448,192,32942,1,0,0:0:0:0:
192,192,33017,1,0,0:0:0:0:
64,192,33092,1,8,1:0:0:40:break1.wav
448,192,33092,1,0,0:0:0:0:
320,192,33167,1,0,0:0:0:0:
64,192,33242,1,8,1:0:0:40:break1.wav
192,192,33242,1,0,0:0:0:0:
64,192,33317,1,8,2:0:0:40:break2.wav
320,192,33317,1,0,0:0:0:0:
192,192,33392,1,8,2:0:0:40:break2.wav
448,192,33392,1,0,0:0:0:0:
320,192,33467,1,8,2:0:0:40:break2.wav
448,192,33467,1,0,0:0:0:0:
64,192,33542,1,8,0:0:0:40:kick3.wav
192,192,33542,1,0,0:0:0:0:
448,192,33617,1,0,0:0:0:0:
192,192,33692,1,0,0:0:0:0:
192,192,33767,1,8,2:0:0:40:break2.wav
64,192,33842,1,8,2:0:0:40:break2.wav
320,192,33917,1,8,0:0:0:40:kick3.wav
448,192,33917,1,0,0:0:0:0:
192,192,33992,1,8,2:0:0:40:break2.wav
448,192,33992,1,0,0:0:0:0:
320,192,34067,1,0,0:0:0:0:
64,192,34142,1,0,0:0:0:0:
64,192,34217,1,8,2:0:0:40:break2.wav
320,192,34292,1,8,2:0:0:40:kick3.wav
448,192,34292,1,0,0:0:0:0:
192,192,34367,1,8,0:0:0:40:kick3.wav
448,192,34367,1,0,0:0:0:0:
64,192,34442,1,8,2:0:0:40:break2.wav
320,192,34442,1,0,0:0:0:0:
448,192,34517,1,0,0:0:0:0:
64,192,34592,1,8,1:0:0:40:break1.wav
192,192,34592,1,0,0:0:0:0:
64,192,34667,1,8,1:0:0:40:break1.wav
192,192,34667,1,0,0:0:0:0:
320,192,34742,1,8,0:0:0:40:kick3.wav
448,192,34742,1,0,0:0:0:0:
64,192,34817,1,8,0:0:0:40:kick3.wav
320,192,34892,1,8,2:0:0:40:break2.wav
320,192,34967,1,8,0:0:0:40:kick3.wav
192,192,35042,1,8,1:0:0:40:break1.wav
448,192,35042,1,0,0:0:0:0:
64,192,35117,1,0,0:0:0:0:
192,192,35192,1,8,1:0:0:40:break1.wav
448,192,35192,1,0,0:0:0:0:
320,192,35267,1,0,0:0:0:0:
64,192,35342,1,8,2:0:0:40:break2.wav
64,192,35417,1,8,2:0:0:40:break2.wav
320,192,35492,1,8,0:0:0:40:kick3.wav
448,192,35492,1,0,0:0:0:0:
64,192,35567,1,8,0:0:0:40:kick3.wav
448,192,35567,1,0,0:0:0:0:
320,192,35642,1,0,0:0:0:0:
64,192,35717,1,8,0:0:0:40:kick3.wav
192,192,35717,1,0,0:0:0:0:
64,192,35792,1,8,2:0:0:40:break2.wav
448,192,35792,1,0,0:0:0:0:
192,192,35867,1,0,0:0:0:0:
320,192,35942,1,8,2:0:0:40:break2.wav
448,192,35942,1,0,0:0:0:0:
64,192,36017,1,8,1:0:0:40:break1.wav
320,192,36017,1,0,0:0:0:0:
192,192,36092,1,8,2:0:0:40:break2.wav
448,192,36092,1,0,0:0:0:0:
64,192,36167,1,8,2:0:0:40:break2.wav
192,192,36167,1,0,0:0:0:0:
320,192,36242,1,8,0:0:0:40:kick3.wav
448,192,36242,1,0,0:0:0:0:
64,192,36317,1,0,0:0:0:0:
192,192,36392,1,8,2:0:0:40:break2.wav
320,192,36392,1,0,0:0:0:0:
448,192,36467,1,0,0:0:0:0:
320,192,36542,1,0,0:0:0:0:
320,192,36617,1,0,0:0:0:0:
64,192,36692,1,8,0:0:0:40:kick3.wav
192,192,36692,1,0,0:0:0:0:
448,192,36767,1,0,0:0:0:0:
64,192,36842,1,8,2:0:0:40:break2.wav
320,192,36842,1,0,0:0:0:0:
192,192,36917,1,0,0:0:0:0:
64,192,36992,1,8,1:0:0:40:break1.wav
448,192,36992,1,0,0:0:0:0:
64,192,37067,1,8,1:0:0:40:break1.wav
192,192,37067,1,0,0:0:0:0:
320,192,37142,1,8,0:0:0:40:kick3.wav
448,192,37142,1,0,0:0:0:0:
192,192,37179,1,0,0:0:0:0:
64,192,37217,1,0,0:0:0:0:
320,192,37292,1,8,2:0:0:40:break2.wav
448,192,37292,1,0,0:0:0:0:
192,192,37367,1,0,0:0:0:0:
320,192,37404,1,0,0:0:0:0:
448,192,37442,1,8,2:0:0:40:break2.wav
64,192,37517,1,8,0:0:0:40:kick3.wav
192,192,37517,1,0,0:0:0:0:
64,192,37592,1,8,1:0:0:40:break1.wav
448,192,37592,1,0,0:0:0:0:
320,192,37629,1,0,0:0:0:0:
192,192,37667,1,0,0:0:0:0:
64,192,37742,1,8,1:0:0:40:break1.wav
448,192,37742,1,0,0:0:0:0:
192,192,37817,1,0,0:0:0:0:
320,192,37892,1,8,0:0:0:40:kick3.wav
448,192,37892,1,0,0:0:0:0:
64,192,37967,1,0,0:0:0:0:
192,192,37967,1,0,0:0:0:0:
320,192,38042,1,8,1:0:0:40:break1.wav
448,192,38042,1,0,0:0:0:0:
192,192,38117,1,0,0:0:0:0:
64,192,38192,1,8,0:0:0:40:kick3.wav
320,192,38192,1,0,0:0:0:0:
320,192,38267,1,8,0:0:0:40:kick3.wav
448,192,38267,1,0,0:0:0:0:
64,192,38342,1,0,0:0:0:40:kick3.wav
192,192,38342,1,0,0:0:0:0:
64,192,38417,1,8,1:0:0:40:break1.wav
320,192,38417,1,0,0:0:0:0:
448,192,38492,1,0,0:0:0:0:
448,192,38567,1,0,0:0:0:0:
64,192,38642,1,8,1:0:0:40:break1.wav
192,192,38642,1,0,0:0:0:0:
320,192,38742,1,8,0:0:0:40:kick3.wav
448,192,38742,1,0,0:0:0:0:
192,192,38842,1,8,0:0:0:40:kick3.wav
320,192,38842,1,0,0:0:0:0:
64,192,38942,1,8,1:0:0:40:break1.wav
192,192,38942,1,0,0:0:0:0:
448,192,39017,1,0,0:0:0:0:
192,192,39092,1,0,0:0:0:0:
320,192,39167,1,8,1:0:0:40:break1.wav
192,192,39204,1,8,1:0:0:40:break1.wav
64,192,39242,1,8,1:0:0:40:break1.wav
448,192,39242,1,0,0:0:0:0:
320,192,39317,1,8,1:0:0:40:break1.wav
448,192,39317,1,0,0:0:0:0:
64,192,39392,1,8,1:0:0:40:break1.wav
192,192,39392,1,0,0:0:0:0:
64,192,39467,1,8,1:0:0:40:break1.wav
448,192,39467,1,0,0:0:0:0:
192,192,39542,1,8,0:0:0:40:kick3.wav
320,192,39542,1,0,0:0:0:0:
64,192,39617,1,8,0:0:0:40:kick3.wav
448,192,39692,1,0,0:0:0:0:
192,192,39767,1,0,0:0:0:0:
320,192,39842,1,8,1:0:0:40:break1.wav
448,192,39842,1,0,0:0:0:0:
192,192,39917,1,0,0:0:0:0:
320,192,39992,1,8,1:0:0:40:break1.wav
448,192,39992,1,0,0:0:0:0:
64,192,40067,1,0,0:0:0:0:
320,192,40142,1,0,0:0:0:0:
192,192,40179,1,0,0:0:0:0:
448,192,40217,1,0,0:0:0:0:
64,192,40254,1,0,0:0:0:0:
320,192,40292,1,8,0:0:0:40:kick3.wav
448,192,40292,1,0,0:0:0:0:
64,192,40342,1,8,0:0:0:40:kick3.wav
192,192,40392,1,8,0:0:0:40:kick3.wav
320,192,40442,1,8,2:0:0:40:break2.wav
448,192,40442,1,0,0:0:0:0:
192,192,40517,1,8,2:0:0:40:break2.wav
448,192,40517,1,0,0:0:0:0:
64,192,40592,1,8,2:0:0:40:break2.wav
320,192,40592,1,0,0:0:0:0:
64,192,40667,1,8,2:0:0:40:break2.wav
192,192,40667,1,0,0:0:0:0:
320,192,40742,1,8,0:0:0:40:kick3.wav
448,192,40742,1,0,0:0:0:0:
64,192,40792,1,0,0:0:0:0:
320,192,40842,1,0,0:0:0:0:
448,192,40892,1,0,0:0:0:0:
192,192,40942,1,0,0:0:0:0:
320,192,40992,1,0,0:0:0:0:
64,192,41042,1,0,0:0:0:40:kick3.wav
448,192,41092,1,0,0:0:0:0:
192,192,41142,1,0,0:0:0:0:
64,192,41192,1,8,0:0:0:40:kick3.wav
320,192,41242,1,0,0:0:0:0:
192,192,41292,1,0,0:0:0:0:
448,192,41342,1,0,0:0:0:0:
64,192,41392,1,0,0:0:0:0:
320,192,41442,1,0,0:0:0:0:
448,192,41492,1,8,2:0:0:40:break2.wav
192,192,41542,1,0,0:0:0:0:
320,192,41592,1,0,0:0:0:0:
64,192,41642,1,8,0:0:0:40:kick3.wav
192,192,41679,1,0,0:0:0:0:
320,192,41717,1,0,0:0:0:0:
448,192,41754,1,0,0:0:0:0:
192,192,41792,1,0,0:0:0:0:
320,192,41829,1,0,0:0:0:0:
64,192,41867,1,0,0:0:0:0:
192,192,41904,1,0,0:0:0:0:
320,192,41942,1,0,0:0:0:0:
448,192,41979,1,0,0:0:0:0:
64,192,42017,1,0,0:0:0:0:
192,192,42067,1,0,0:0:0:0:
320,192,42117,1,0,0:0:0:0:
64,192,42167,1,0,0:0:0:0:
192,192,42217,1,0,0:0:0:0:
448,192,42267,1,0,0:0:0:0:
64,192,42317,1,0,0:0:0:0:
320,192,42392,1,0,0:0:0:0:
64,192,42842,1,2,1:0:0:40:death_quilt.wav
192,192,42879,1,0,0:0:0:0:
320,192,42917,1,0,0:0:0:0:
64,192,42954,1,0,0:0:0:0:
448,192,42992,1,0,0:0:0:0:
192,192,43029,1,0,0:0:0:0:
320,192,43067,1,0,0:0:0:0:
448,192,43104,1,0,0:0:0:0:
64,192,43142,1,2,2:0:0:40:kick2.wav
192,192,43142,1,0,0:0:0:0:
448,192,43192,1,0,0:0:0:0:
320,192,43242,1,0,0:0:0:0:
64,192,43292,1,0,0:0:0:0:
448,192,43342,1,0,0:0:0:0:
192,192,43392,1,0,0:0:0:0:
320,192,43442,1,8,3:0:0:40:rimshot.wav
320,192,43517,1,8,3:0:0:40:rimshot.wav
192,192,43592,1,8,3:0:0:40:rimshot.wav
192,192,43667,1,8,3:0:0:40:rimshot.wav
64,192,43742,1,2,2:0:0:40:kick2.wav
320,192,43742,1,8,1:0:0:40:snare1.wav
192,192,43792,1,0,0:0:0:0:
320,192,43842,1,0,0:0:0:0:
448,192,43892,1,0,0:0:0:0:
64,192,43942,1,0,0:0:0:0:
192,192,43992,1,0,0:0:0:0:
320,192,44042,1,0,0:0:0:0:
192,192,44084,1,0,0:0:0:0:
64,192,44127,1,0,0:0:0:0:
448,192,44170,1,0,0:0:0:0:
320,192,44213,1,0,0:0:0:0:
192,192,44256,1,0,0:0:0:0:
64,192,44299,1,0,0:0:0:0:
320,192,44342,1,2,2:0:0:40:kick2.wav
448,192,44342,1,0,0:0:0:0:
192,192,44392,1,0,0:0:0:0:
448,192,44442,1,0,0:0:0:0:
320,192,44492,1,0,0:0:0:0:
64,192,44542,1,0,0:0:0:0:
192,192,44592,1,0,0:0:0:0:
448,192,44642,1,8,3:0:0:40:rimshot.wav
448,192,44717,1,8,3:0:0:40:rimshot.wav
64,192,44792,1,8,3:0:0:40:rimshot.wav
64,192,44867,1,8,3:0:0:40:rimshot.wav
192,192,44942,1,2,2:0:0:40:kick2.wav
320,192,44942,1,8,2:0:0:40:snare2.wav
64,192,44992,1,0,0:0:0:0:
320,192,45042,1,0,0:0:0:0:
192,192,45092,1,0,0:0:0:0:
448,192,45142,1,0,0:0:0:0:
320,192,45192,1,0,0:0:0:0:
64,192,45242,1,0,0:0:0:0:
192,192,45284,1,0,0:0:0:0:
448,192,45327,1,0,0:0:0:0:
64,192,45370,1,0,0:0:0:0:
320,192,45413,1,0,0:0:0:0:
448,192,45456,1,0,0:0:0:0:
192,192,45499,1,0,0:0:0:0:
64,192,45542,1,2,2:0:0:40:kick2.wav
320,192,45542,1,0,0:0:0:0:
448,192,45592,1,0,0:0:0:0:
192,192,45642,1,0,0:0:0:0:
320,192,45692,1,0,0:0:0:0:
192,192,45742,1,0,0:0:0:0:
448,192,45792,1,0,0:0:0:0:
64,192,45842,1,8,3:0:0:40:rimshot.wav
64,192,45917,1,8,3:0:0:40:rimshot.wav
448,192,45992,1,8,3:0:0:40:rimshot.wav
448,192,46067,1,8,3:0:0:40:rimshot.wav
64,192,46142,1,2,2:0:0:40:kick2.wav
192,192,46142,1,8,1:0:0:40:snare1.wav
448,192,46192,1,0,0:0:0:0:
192,192,46242,1,0,0:0:0:0:
320,192,46292,1,0,0:0:0:0:
64,192,46342,1,0,0:0:0:0:
192,192,46392,1,0,0:0:0:0:
448,192,46442,1,0,0:0:0:0:
64,192,46484,1,0,0:0:0:0:
320,192,46527,1,0,0:0:0:0:
192,192,46570,1,0,0:0:0:0:
448,192,46613,1,0,0:0:0:0:
320,192,46656,1,0,0:0:0:0:
64,192,46699,1,0,0:0:0:0:
192,192,46742,1,2,2:0:0:40:kick2.wav
448,192,46742,1,0,0:0:0:0:
64,192,46792,1,0,0:0:0:0:
320,192,46842,1,0,0:0:0:0:
192,192,46892,1,0,0:0:0:0:
448,192,46942,1,0,0:0:0:0:
64,192,46992,1,0,0:0:0:0:
320,192,47042,1,8,3:0:0:40:rimshot.wav
320,192,47117,1,8,3:0:0:40:rimshot.wav
192,192,47192,1,8,3:0:0:40:rimshot.wav
192,192,47267,1,8,3:0:0:40:rimshot.wav
64,192,47342,1,0,0:0:0:40:kick2.wav
448,192,47342,1,4,1:0:0:40:crash.wav
320,192,47417,1,0,0:0:0:0:
64,192,47492,1,0,0:0:0:40:kick2.wav
448,192,47492,1,4,1:0:0:40:crash.wav
192,192,47567,1,0,0:0:0:40:kick2.wav
64,192,47642,1,0,0:0:0:40:kick2.wav
448,192,47642,1,4,1:0:0:40:crash.wav
320,192,47717,1,0,0:0:0:0:
64,192,47792,1,0,0:0:0:40:kick2.wav
448,192,47792,1,4,1:0:0:40:crash.wav
192,192,47867,1,0,0:0:0:0:
64,192,47942,1,2,2:0:0:40:kick2.wav
448,192,47942,1,0,0:0:0:0:
320,192,47992,1,0,0:0:0:0:
192,192,48042,1,0,0:0:0:0:
448,192,48092,1,0,0:0:0:0:
64,192,48167,1,2,2:0:0:40:kick2.wav
320,192,48167,1,0,0:0:0:0:
448,192,48204,1,0,0:0:0:0:
192,192,48242,1,8,3:0:0:40:rimshot.wav
192,192,48317,1,8,3:0:0:40:rimshot.wav
320,192,48392,1,8,3:0:0:40:rimshot.wav
320,192,48467,1,8,3:0:0:40:rimshot.wav
192,192,48542,1,2,2:0:0:40:kick2.wav
448,192,48542,1,8,1:0:0:40:snare1.wav
320,192,48592,1,0,0:0:0:0:
192,192,48642,1,0,0:0:0:0:
64,192,48692,1,0,0:0:0:0:
448,192,48742,1,0,0:0:0:0:
320,192,48792,1,0,0:0:0:0:
192,192,48842,1,0,0:0:0:0:
320,192,48884,1,0,0:0:0:0:
448,192,48927,1,0,0:0:0:0:
64,192,48970,1,0,0:0:0:0:
192,192,49013,1,0,0:0:0:0:
320,192,49056,1,0,0:0:0:0:
448,192,49099,1,0,0:0:0:0:
64,192,49142,1,2,2:0:0:40:kick2.wav
192,192,49142,1,0,0:0:0:0:
320,192,49192,1,0,0:0:0:0:
64,192,49242,1,0,0:0:0:0:
192,192,49292,1,0,0:0:0:0:
448,192,49342,1,0,0:0:0:0:
320,192,49392,1,0,0:0:0:0:
64,192,49442,1,8,3:0:0:40:rimshot.wav
64,192,49517,1,8,3:0:0:40:rimshot.wav
448,192,49592,1,8,3:0:0:40:rimshot.wav
448,192,49667,1,8,3:0:0:40:rimshot.wav
192,192,49742,1,2,2:0:0:40:kick2.wav
320,192,49742,1,8,2:0:0:40:snare2.wav
448,192,49792,1,0,0:0:0:0:
192,192,49842,1,0,0:0:0:0:
320,192,49892,1,0,0:0:0:0:
64,192,49942,1,0,0:0:0:0:
192,192,49992,1,0,0:0:0:0:
448,192,50042,1,0,0:0:0:0:
320,192,50084,1,0,0:0:0:0:
64,192,50127,1,0,0:0:0:0:
448,192,50170,1,0,0:0:0:0:
192,192,50213,1,0,0:0:0:0:
64,192,50256,1,0,0:0:0:0:
320,192,50299,1,0,0:0:0:0:
192,192,50342,1,2,2:0:0:40:kick2.wav
448,192,50342,1,0,0:0:0:0:
64,192,50392,1,0,0:0:0:0:
448,192,50442,1,0,0:0:0:0:
192,192,50492,1,0,0:0:0:0:
320,192,50542,1,0,0:0:0:0:
64,192,50592,1,0,0:0:0:0:
448,192,50642,1,8,3:0:0:40:rimshot.wav
448,192,50717,1,8,3:0:0:40:rimshot.wav
64,192,50792,1,8,3:0:0:40:rimshot.wav
64,192,50867,1,8,3:0:0:40:rimshot.wav
320,192,50942,1,2,2:0:0:40:kick2.wav
448,192,50942,1,8,1:0:0:40:snare1.wav
192,192,50992,1,0,0:0:0:0:
448,192,51042,1,0,0:0:0:0:
64,192,51092,1,0,0:0:0:0:
320,192,51142,1,0,0:0:0:0:
64,192,51192,1,0,0:0:0:0:
448,192,51242,1,0,0:0:0:0:
192,192,51284,1,0,0:0:0:0:
320,192,51327,1,0,0:0:0:0:
64,192,51370,1,0,0:0:0:0:
448,192,51413,1,0,0:0:0:0:
192,192,51456,1,0,0:0:0:0:
320,192,51499,1,0,0:0:0:0:
64,192,51542,1,2,2:0:0:40:kick2.wav
448,192,51542,1,0,0:0:0:0:
192,192,51592,1,0,0:0:0:0:
320,192,51642,1,0,0:0:0:0:
64,192,51692,1,0,0:0:0:0:
192,192,51767,1,2,2:0:0:40:kick2.wav
448,192,51767,1,0,0:0:0:0:
64,192,51804,1,0,0:0:0:0:
320,192,51842,1,8,3:0:0:40:rimshot.wav
320,192,51917,1,8,3:0:0:40:rimshot.wav
192,192,51992,1,8,3:0:0:40:rimshot.wav
192,192,52067,1,8,3:0:0:40:rimshot.wav
64,192,52142,1,0,0:0:0:40:snare_short.wav
448,192,52142,1,0,0:0:0:0:
320,192,52242,1,0,0:0:0:40:snare_short.wav
448,192,52242,1,0,0:0:0:0:
64,192,52342,1,0,0:0:0:40:snare_short.wav
448,192,52342,1,0,0:0:0:0:
64,192,52442,1,0,0:0:0:40:snare_short.wav
192,192,52442,1,0,0:0:0:0:
64,192,52542,1,0,0:0:0:40:snare_short.wav
448,192,52542,1,0,0:0:0:0:
320,192,52642,1,0,0:0:0:40:snare_short.wav
448,192,52642,1,0,0:0:0:0:
64,192,52742,1,2,2:0:0:40:kick2.wav
448,192,52742,1,0,0:0:0:0:
320,192,52792,1,0,0:0:0:0:
64,192,52842,1,0,0:0:0:0:
192,192,52942,1,0,0:0:0:0:
320,192,53042,1,8,3:0:0:40:rimshot.wav
320,192,53117,1,8,3:0:0:40:rimshot.wav
64,192,53192,1,2,2:0:0:40:kick2.wav
192,192,53192,1,8,3:0:0:40:rimshot.wav
448,192,53229,1,0,0:0:0:0:
192,192,53267,1,8,3:0:0:40:rimshot.wav
448,192,53342,1,8,1:0:0:40:snare1.wav
320,192,53392,1,0,0:0:0:0:
64,192,53442,1,0,0:0:0:0:
448,192,53492,1,0,0:0:0:0:
192,192,53542,1,0,0:0:0:0:
64,192,53592,1,0,0:0:0:0:
320,192,53642,1,0,0:0:0:0:
192,192,53684,1,0,0:0:0:0:
448,192,53727,1,0,0:0:0:0:
64,192,53792,1,2,2:0:0:40:kick2.wav
320,192,53792,1,0,0:0:0:0:
192,192,53867,1,0,0:0:0:0:
320,192,53942,1,2,2:0:0:40:kick2.wav
448,192,53942,1,0,0:0:0:0:
64,192,53992,1,0,0:0:0:0:
448,192,54042,1,0,0:0:0:0:
192,192,54142,1,0,0:0:0:0:
64,192,54242,1,8,3:0:0:40:rimshot.wav
64,192,54317,1,8,3:0:0:40:rimshot.wav
320,192,54392,1,2,2:0:0:40:kick2.wav
448,192,54392,1,8,3:0:0:40:rimshot.wav
192,192,54467,1,8,3:0:0:40:rimshot.wav
320,192,54467,1,0,0:0:0:0:
64,192,54542,1,0,0:0:0:40:kick2.wav
448,192,54542,1,8,2:0:0:40:snare2.wav
192,192,54592,1,0,0:0:0:0:
320,192,54642,1,0,0:0:0:0:
64,192,54692,1,0,0:0:0:0:
448,192,54742,1,0,0:0:0:0:
192,192,54792,1,0,0:0:0:0:
320,192,54842,1,0,0:0:0:0:
448,192,54884,1,0,0:0:0:0:
64,192,54927,1,0,0:0:0:0:
192,192,54970,1,0,0:0:0:0:
448,192,55013,1,0,0:0:0:0:
320,192,55056,1,0,0:0:0:0:
192,192,55099,1,0,0:0:0:0:
64,192,55142,1,2,2:0:0:40:kick2.wav
448,192,55142,1,0,0:0:0:0:
320,192,55192,1,0,0:0:0:0:
64,192,55242,1,0,0:0:0:0:
192,192,55342,1,0,0:0:0:0:
448,192,55442,1,8,3:0:0:40:rimshot.wav
448,192,55517,1,8,3:0:0:40:rimshot.wav
64,192,55592,1,2,2:0:0:40:kick2.wav
320,192,55592,1,8,3:0:0:40:rimshot.wav
448,192,55629,1,0,0:0:0:0:
64,192,55667,1,8,3:0:0:40:rimshot.wav
192,192,55742,1,8,1:0:0:40:snare1.wav
448,192,55792,1,0,0:0:0:0:
320,192,55842,1,0,0:0:0:0:
192,192,55892,1,0,0:0:0:0:
64,192,55942,1,0,0:0:0:0:
448,192,55992,1,0,0:0:0:0:
320,192,56042,1,0,0:0:0:0:
192,192,56084,1,0,0:0:0:0:
448,192,56127,1,0,0:0:0:0:
64,192,56192,1,2,2:0:0:40:kick2.wav
320,192,56192,1,0,0:0:0:0:
192,192,56267,1,0,0:0:0:0:
64,192,56342,1,2,2:0:0:40:kick2.wav
448,192,56342,1,0,0:0:0:0:
192,192,56392,1,0,0:0:0:0:
448,192,56442,1,0,0:0:0:0:
320,192,56542,1,0,0:0:0:0:
64,192,56642,1,8,3:0:0:40:rimshot.wav
64,192,56717,1,8,3:0:0:40:rimshot.wav
320,192,56792,1,2,2:0:0:40:kick2.wav
448,192,56792,1,8,3:0:0:40:rimshot.wav
192,192,56867,1,8,3:0:0:40:rimshot.wav
320,192,56867,1,0,0:0:0:0:
64,192,56942,1,0,0:0:0:40:kick2.wav
448,192,56942,1,4,1:0:0:40:crash.wav
192,192,57017,1,0,0:0:0:0:
64,192,57092,1,4,1:0:0:40:crash.wav
448,192,57092,1,0,0:0:0:40:snare_short.wav
320,192,57167,1,0,0:0:0:0:
64,192,57242,1,4,1:0:0:40:crash.wav
448,192,57242,1,0,0:0:0:40:snare_short.wav
192,192,57317,1,0,0:0:0:0:
64,192,57392,1,4,1:0:0:40:crash.wav
448,192,57392,1,0,0:0:0:40:snare_short.wav
320,192,57467,1,0,0:0:0:0:
64,192,57542,1,2,2:0:0:40:kick2.wav
448,192,57542,1,0,0:0:0:0:
320,192,57592,1,0,0:0:0:0:
64,192,57642,1,0,0:0:0:0:
192,192,57742,1,0,0:0:0:0:
320,192,57842,1,8,3:0:0:40:rimshot.wav
320,192,57917,1,8,3:0:0:40:rimshot.wav
64,192,57992,1,2,2:0:0:40:kick2.wav
192,192,57992,1,8,3:0:0:40:rimshot.wav
448,192,58029,1,0,0:0:0:0:
192,192,58067,1,8,3:0:0:40:rimshot.wav
448,192,58142,1,8,1:0:0:40:snare1.wav
320,192,58192,1,0,0:0:0:0:
64,192,58242,1,0,0:0:0:0:
448,192,58292,1,0,0:0:0:0:
192,192,58342,1,0,0:0:0:0:
64,192,58392,1,0,0:0:0:0:
320,192,58442,1,0,0:0:0:0:
192,192,58484,1,0,0:0:0:0:
448,192,58527,1,0,0:0:0:0:
64,192,58592,1,2,2:0:0:40:kick2.wav
320,192,58592,1,0,0:0:0:0:
192,192,58667,1,0,0:0:0:0:
320,192,58742,1,2,2:0:0:40:kick2.wav
448,192,58742,1,0,0:0:0:0:
64,192,58792,1,0,0:0:0:0:
448,192,58842,1,0,0:0:0:0:
192,192,58942,1,0,0:0:0:0:
64,192,59042,1,8,3:0:0:40:rimshot.wav
64,192,59117,1,8,3:0:0:40:rimshot.wav
320,192,59192,1,2,2:0:0:40:kick2.wav
448,192,59192,1,8,3:0:0:40:rimshot.wav
192,192,59267,1,8,3:0:0:40:rimshot.wav
320,192,59267,1,0,0:0:0:0:
64,192,59342,1,0,0:0:0:40:kick2.wav
448,192,59342,1,8,2:0:0:40:snare2.wav
192,192,59392,1,0,0:0:0:0:
320,192,59442,1,0,0:0:0:0:
64,192,59492,1,0,0:0:0:0:
448,192,59542,1,0,0:0:0:0:
192,192,59592,1,0,0:0:0:0:
320,192,59642,1,0,0:0:0:0:
448,192,59684,1,0,0:0:0:0:
64,192,59727,1,0,0:0:0:0:
192,192,59770,1,0,0:0:0:0:
448,192,59813,1,0,0:0:0:0:
320,192,59856,1,0,0:0:0:0:
192,192,59899,1,0,0:0:0:0:
64,192,59942,1,2,2:0:0:40:kick2.wav
448,192,59942,1,0,0:0:0:0:
320,192,59992,1,0,0:0:0:0:
64,192,60042,1,0,0:0:0:0:
192,192,60142,1,0,0:0:0:0:
448,192,60242,1,8,3:0:0:40:rimshot.wav
448,192,60317,1,8,3:0:0:40:rimshot.wav
64,192,60392,1,2,2:0:0:40:kick2.wav
192,192,60392,1,8,3:0:0:40:rimshot.wav
320,192,60429,1,0,0:0:0:0:
64,192,60467,1,8,3:0:0:40:rimshot.wav
448,192,60542,1,8,1:0:0:40:snare1.wav
64,192,60592,1,0,0:0:0:0:
320,192,60642,1,0,0:0:0:0:
192,192,60692,1,0,0:0:0:0:
448,192,60742,1,0,0:0:0:0:
320,192,60792,1,0,0:0:0:0:
64,192,60842,1,2,2:0:0:40:kick2.wav
192,192,60842,1,0,0:0:0:0:
320,192,60892,1,0,0:0:0:0:
448,192,60942,1,0,0:0:0:0:
64,192,60992,1,0,0:0:0:0:
192,192,61042,1,0,0:0:0:0:
320,192,61092,1,0,0:0:0:0:
64,192,61142,1,0,0:0:0:0:
64,192,61242,1,0,0:0:0:0:
448,192,61292,1,0,0:0:0:40:rimshot.wav
448,192,61367,1,0,0:0:0:40:rimshot.wav
192,192,61442,1,8,3:0:0:40:rimshot.wav
192,192,61517,1,8,3:0:0:40:rimshot.wav
320,192,61592,1,0,0:0:0:40:snare_short.wav
320,192,61667,1,0,0:0:0:40:snare_short.wav
64,192,61742,1,0,0:0:0:40:snare_short.wav
448,192,61792,1,0,0:0:0:40:snare_short.wav
320,192,61842,1,0,0:0:0:40:snare_short.wav
192,192,61892,1,0,0:0:0:40:snare_short.wav
448,192,61942,1,0,0:0:0:40:snare_short.wav
64,192,61992,1,0,0:0:0:40:snare_short.wav
192,192,62042,1,0,0:0:0:40:snare_short.wav
320,192,62092,1,0,0:0:0:40:snare_short.wav
64,192,62142,1,0,0:0:0:40:snare_short.wav
448,192,62192,1,0,0:0:0:40:snare_short.wav
320,192,62242,1,0,0:0:0:40:snare_short.wav
192,192,62292,1,0,0:0:0:40:snare_short.wav
64,192,62342,1,0,0:0:0:0:
448,192,62342,1,0,0:0:0:0:
320,192,62442,1,0,0:0:0:0:
64,192,62492,1,0,0:0:0:0:
448,192,62542,1,0,0:0:0:0:
192,192,62592,1,0,0:0:0:0:
320,192,62642,1,0,0:0:0:0:
64,192,62692,1,0,0:0:0:0:
448,192,62742,1,0,0:0:0:0:
192,192,62792,1,0,0:0:0:0:
320,192,62842,1,0,0:0:0:0:
64,192,62892,1,0,0:0:0:0:
448,192,62942,1,0,0:0:0:0:
192,192,62992,1,0,0:0:0:0:
320,192,63042,1,0,0:0:0:0:
64,192,63092,1,0,0:0:0:0:
448,192,63142,1,0,0:0:0:0:
192,192,63192,1,0,0:0:0:0:
320,192,63242,1,0,0:0:0:0:
64,192,63292,1,0,0:0:0:0:
448,192,63342,1,0,0:0:0:0:
192,192,63392,1,0,0:0:0:0:
320,192,63442,1,0,0:0:0:0:
64,192,63492,1,0,0:0:0:0:
320,192,63542,1,0,0:0:0:0:
192,192,63592,1,0,0:0:0:0:
448,192,63642,1,0,0:0:0:0:
192,192,63692,1,0,0:0:0:0:
320,192,63742,1,0,0:0:0:0:
64,192,63792,1,0,0:0:0:0:
320,192,63842,1,0,0:0:0:0:
192,192,63892,1,0,0:0:0:0:
448,192,63942,1,0,0:0:0:0:
192,192,63992,1,0,0:0:0:0:
320,192,64042,1,0,0:0:0:0:
64,192,64092,1,0,0:0:0:0:
448,192,64142,1,0,0:0:0:0:
192,192,64270,1,0,0:0:0:0:
320,192,64399,1,0,0:0:0:0:
192,192,64527,1,0,0:0:0:0:
64,192,64656,1,0,0:0:0:0:
192,192,64792,1,0,0:0:0:0:
448,192,64842,1,0,0:0:0:0:
64,192,64892,1,0,0:0:0:0:
320,192,64942,1,0,0:0:0:0:
64,192,64992,1,0,0:0:0:0:
448,192,65042,1,0,0:0:0:0:
192,192,65092,1,0,0:0:0:0:
448,192,65142,1,0,0:0:0:0:
64,192,65192,1,0,0:0:0:0:
320,192,65242,1,0,0:0:0:0:
64,192,65292,1,0,0:0:0:0:
448,192,65342,1,0,0:0:0:0:
192,192,65392,1,0,0:0:0:0:
448,192,65442,1,0,0:0:0:0:
64,192,65492,1,0,0:0:0:0:
320,192,65542,1,0,0:0:0:0:
64,192,65592,1,0,0:0:0:0:
448,192,65642,1,0,0:0:0:0:
192,192,65692,1,0,0:0:0:0:
448,192,65742,1,0,0:0:0:0:
64,192,65792,1,0,0:0:0:0:
320,192,65842,1,0,0:0:0:0:
64,192,65892,1,0,0:0:0:0:
448,192,65942,1,0,0:0:0:0:
192,192,65992,1,0,0:0:0:0:
448,192,66042,1,0,0:0:0:0:
64,192,66092,1,0,0:0:0:0:
320,192,66142,1,0,0:0:0:0:
64,192,66192,1,0,0:0:0:0:
448,192,66242,1,0,0:0:0:0:
192,192,66292,1,0,0:0:0:0:
448,192,66342,1,0,0:0:0:0:
64,192,66392,1,0,0:0:0:0:
320,192,66442,1,0,0:0:0:0:
64,192,66492,1,0,0:0:0:0:
448,192,66542,1,0,0:0:0:0:
192,192,66592,1,0,0:0:0:0:
448,192,66642,1,0,0:0:0:0:
64,192,66692,1,0,0:0:0:0:
320,192,66742,1,0,0:0:0:0:
64,192,66792,1,0,0:0:0:0:
448,192,66842,1,0,0:0:0:0:
192,192,66892,1,0,0:0:0:0:
448,192,66942,1,0,0:0:0:0:
64,192,66992,1,0,0:0:0:0:
320,192,67042,1,0,0:0:0:0:
64,192,67092,1,0,0:0:0:0:
192,192,67142,1,0,0:0:0:0:
320,192,67192,1,0,0:0:0:0:
64,192,67242,1,0,0:0:0:0:
448,192,67292,1,0,0:0:0:0:
192,192,67342,1,0,0:0:0:0:
320,192,67392,1,0,0:0:0:0:
448,192,67442,1,0,0:0:0:0:
64,192,67492,1,0,0:0:0:0:
192,192,67542,1,0,0:0:0:0:
320,192,67592,1,0,0:0:0:0:
64,192,67642,1,0,0:0:0:0:
448,192,67692,1,0,0:0:0:0:
192,192,67742,1,0,0:0:0:0:
320,192,67792,1,0,0:0:0:0:
448,192,67842,1,0,0:0:0:0:
64,192,67892,1,0,0:0:0:0:
192,192,67942,1,0,0:0:0:0:
320,192,67992,1,0,0:0:0:0:
64,192,68042,1,0,0:0:0:0:
448,192,68079,1,0,0:0:0:0:
320,192,68117,1,0,0:0:0:0:
64,192,68154,1,0,0:0:0:0:
192,192,68192,1,0,0:0:0:0:
448,192,68229,1,0,0:0:0:0:
320,192,68267,1,0,0:0:0:0:
64,192,68304,1,0,0:0:0:0:
192,192,68342,1,0,0:0:0:0:
448,192,68392,1,0,0:0:0:0:
192,192,68442,1,0,0:0:0:0:
448,192,68492,1,0,0:0:0:0:
448,192,68567,1,0,0:0:0:0:
64,192,68642,1,0,0:0:0:0:
192,192,68642,1,0,0:0:0:0:
320,192,68679,1,0,0:0:0:0:
192,192,68717,1,0,0:0:0:0:
64,192,68754,1,0,0:0:0:0:
448,192,68792,1,0,0:0:0:0:
320,192,68842,1,0,0:0:0:0:
192,192,68892,1,0,0:0:0:0:
448,192,68942,1,0,0:0:0:0:
448,192,69092,1,0,0:0:0:0:
320,192,69242,1,0,0:0:0:0:
192,192,69362,1,0,0:0:0:0:
64,192,69542,1,2,1:0:0:40:kick1.wav
192,192,69542,1,8,1:0:0:40:break1.wav
320,192,69542,1,0,0:0:0:0:
64,192,69654,1,0,0:0:0:0:
64,192,69767,1,2,1:0:0:40:kick1.wav
320,192,69767,1,8,1:0:0:40:break1.wav
448,192,69767,1,0,0:0:0:0:
320,192,69879,1,0,0:0:0:0:
64,192,69992,1,2,1:0:0:40:kick1.wav
192,192,69992,1,8,1:0:0:40:break1.wav
320,192,69992,1,0,0:0:0:0:
64,192,70104,1,0,0:0:0:0:
64,192,70217,1,2,1:0:0:40:kick1.wav
320,192,70217,1,8,1:0:0:40:break1.wav
448,192,70217,1,0,0:0:0:0:
320,192,70329,1,0,0:0:0:0:
64,192,70442,1,2,1:0:0:40:kick1.wav
192,192,70442,1,8,1:0:0:40:break1.wav
320,192,70442,1,0,0:0:0:0:
64,192,70554,1,0,0:0:0:0:
64,192,70667,1,2,1:0:0:40:kick1.wav
320,192,70667,1,8,1:0:0:40:break1.wav
448,192,70667,1,0,0:0:0:0:
320,192,70779,1,0,0:0:0:0:
64,192,70892,1,2,1:0:0:40:kick1.wav
192,192,70892,1,8,1:0:0:40:break1.wav
320,192,70892,1,0,0:0:0:0:
64,192,71004,1,0,0:0:0:0:
64,192,71117,1,2,1:0:0:40:kick1.wav
320,192,71117,1,8,1:0:0:40:break1.wav
448,192,71117,1,0,0:0:0:0:
320,192,71229,1,0,0:0:0:0:
64,192,71342,1,2,1:0:0:40:kick1.wav
192,192,71342,1,8,1:0:0:40:break1.wav
320,192,71342,1,0,0:0:0:0:
64,192,71454,1,0,0:0:0:0:
64,192,71567,1,2,1:0:0:40:kick1.wav
320,192,71567,1,8,1:0:0:40:break1.wav
448,192,71567,1,0,0:0:0:0:
192,192,71660,1,0,0:0:0:40:snare_short.wav
320,192,71660,1,0,0:0:0:0:
64,192,71735,1,8,2:0:0:40:snare2.wav
448,192,71735,1,0,0:0:0:0:
64,192,71942,1,2,1:0:0:40:kick1.wav
192,192,71942,1,8,1:0:0:40:break1.wav
320,192,71942,1,0,0:0:0:0:
64,192,72017,1,8,1:0:0:40:break1.wav
192,192,72017,1,0,0:0:0:0:
192,192,72167,1,2,1:0:0:40:kick1.wav
320,192,72167,1,8,1:0:0:40:break1.wav
448,192,72167,1,0,0:0:0:0:
320,192,72242,1,8,1:0:0:40:break1.wav
448,192,72242,1,0,0:0:0:0:
64,192,72392,1,2,1:0:0:40:kick1.wav
192,192,72392,1,8,1:0:0:40:break1.wav
320,192,72392,1,0,0:0:0:0:
64,192,72467,1,8,1:0:0:40:break1.wav
192,192,72467,1,0,0:0:0:0:
192,192,72617,1,2,1:0:0:40:kick1.wav
320,192,72617,1,8,1:0:0:40:break1.wav
448,192,72617,1,0,0:0:0:0:
320,192,72692,1,8,1:0:0:40:break1.wav
448,192,72692,1,0,0:0:0:0:
64,192,72842,1,2,1:0:0:40:kick1.wav
192,192,72842,1,8,1:0:0:40:break1.wav
320,192,72842,1,0,0:0:0:0:
64,192,72917,1,8,1:0:0:40:break1.wav
192,192,72917,1,0,0:0:0:0:
192,192,73067,1,2,1:0:0:40:kick1.wav
320,192,73067,1,8,1:0:0:40:break1.wav
448,192,73067,1,0,0:0:0:0:
320,192,73142,1,8,1:0:0:40:break1.wav
448,192,73142,1,0,0:0:0:0:
64,192,73292,1,2,1:0:0:40:kick1.wav
192,192,73292,1,8,1:0:0:40:break1.wav
320,192,73292,1,0,0:0:0:0:
64,192,73367,1,8,1:0:0:40:break1.wav
192,192,73367,1,0,0:0:0:0:
192,192,73517,1,2,1:0:0:40:kick1.wav
320,192,73517,1,8,1:0:0:40:break1.wav
448,192,73517,1,0,0:0:0:0:
320,192,73592,1,8,1:0:0:40:break1.wav
448,192,73592,1,0,0:0:0:0:
64,192,73742,1,2,1:0:0:40:kick1.wav
192,192,73742,1,8,1:0:0:40:break1.wav
320,192,73742,1,0,0:0:0:0:
64,192,73817,1,8,1:0:0:40:break1.wav
192,192,73817,1,0,0:0:0:0:
64,192,73967,1,2,1:0:0:40:kick1.wav
192,192,73967,1,8,1:0:0:40:break1.wav
320,192,73967,1,0,0:0:0:0:
320,192,74042,1,8,1:0:0:40:break1.wav
448,192,74042,1,0,0:0:0:0:
64,192,74117,1,8,0:0:0:40:kick3.wav
192,192,74117,1,0,0:0:0:0:
192,192,74192,1,8,2:0:0:40:snare2.wav
320,192,74192,1,0,0:0:0:0:
64,192,74342,1,2,1:0:0:40:kick1.wav
320,192,74342,1,8,1:0:0:40:break1.wav
448,192,74342,1,0,0:0:0:0:
448,192,74454,1,0,0:0:0:0:
64,192,74567,1,2,1:0:0:40:kick1.wav
192,192,74567,1,8,1:0:0:40:break1.wav
448,192,74567,1,0,0:0:0:0:
64,192,74679,1,0,0:0:0:0:
64,192,74792,1,2,1:0:0:40:kick1.wav
320,192,74792,1,8,1:0:0:40:break1.wav
448,192,74792,1,0,0:0:0:0:
448,192,74904,1,0,0:0:0:0:
64,192,75017,1,2,1:0:0:40:kick1.wav
192,192,75017,1,8,1:0:0:40:break1.wav
448,192,75017,1,0,0:0:0:0:
64,192,75129,1,0,0:0:0:0:
64,192,75242,1,2,1:0:0:40:kick1.wav
320,192,75242,1,8,1:0:0:40:break1.wav
448,192,75242,1,0,0:0:0:0:
448,192,75354,1,0,0:0:0:0:
64,192,75467,1,2,1:0:0:40:kick1.wav
192,192,75467,1,8,1:0:0:40:break1.wav
448,192,75467,1,0,0:0:0:0:
64,192,75579,1,0,0:0:0:0:
64,192,75692,1,2,1:0:0:40:kick1.wav
320,192,75692,1,8,1:0:0:40:break1.wav
448,192,75692,1,0,0:0:0:0:
448,192,75804,1,0,0:0:0:0:
64,192,75917,1,2,1:0:0:40:kick1.wav
192,192,75917,1,8,1:0:0:40:break1.wav
448,192,75917,1,0,0:0:0:0:
64,192,76029,1,0,0:0:0:0:
64,192,76142,1,2,1:0:0:40:kick1.wav
320,192,76142,1,8,1:0:0:40:break1.wav
448,192,76142,1,0,0:0:0:0:
448,192,76254,1,0,0:0:0:0:
64,192,76367,1,2,1:0:0:40:kick1.wav
192,192,76367,1,8,1:0:0:40:break1.wav
448,192,76367,1,0,0:0:0:0:
320,192,76442,1,8,2:0:0:40:snare2.wav
192,192,76479,1,0,0:0:0:0:
448,192,76517,1,0,0:0:0:0:
64,192,76629,1,0,0:0:0:0:
320,192,76667,1,0,0:0:0:0:
192,192,76704,1,0,0:0:0:0:
64,192,76742,1,2,1:0:0:40:kick1.wav
448,192,76742,1,8,1:0:0:40:break1.wav
192,192,76817,1,8,1:0:0:40:break1.wav
320,192,76817,1,0,0:0:0:0:
64,192,76967,1,2,1:0:0:40:kick1.wav
192,192,76967,1,8,1:0:0:40:break1.wav
448,192,76967,1,0,0:0:0:0:
192,192,77042,1,8,1:0:0:40:break1.wav
320,192,77042,1,0,0:0:0:0:
64,192,77192,1,2,1:0:0:40:kick1.wav
448,192,77192,1,8,1:0:0:40:break1.wav
192,192,77229,1,8,1:0:0:40:break1.wav
320,192,77267,1,8,1:0:0:40:break1.wav
64,192,77304,1,8,1:0:0:40:break1.wav
64,192,77417,1,2,1:0:0:40:kick1.wav
448,192,77417,1,8,1:0:0:40:break1.wav
320,192,77454,1,8,1:0:0:40:break1.wav
192,192,77492,1,8,1:0:0:40:break1.wav
448,192,77529,1,8,1:0:0:40:break1.wav
64,192,77642,1,2,1:0:0:40:kick1.wav
448,192,77642,1,8,1:0:0:40:break1.wav
192,192,77679,1,8,1:0:0:40:break1.wav
320,192,77717,1,8,1:0:0:40:break1.wav
64,192,77754,1,8,1:0:0:40:break1.wav
64,192,77867,1,2,1:0:0:40:kick1.wav
448,192,77867,1,8,1:0:0:40:break1.wav
320,192,77904,1,8,1:0:0:40:break1.wav
192,192,77942,1,8,1:0:0:40:break1.wav
448,192,77979,1,8,1:0:0:40:break1.wav
64,192,78092,1,2,1:0:0:40:kick1.wav
448,192,78092,1,8,1:0:0:40:break1.wav
192,192,78129,1,8,1:0:0:40:break1.wav
320,192,78167,1,8,1:0:0:40:break1.wav
64,192,78204,1,8,1:0:0:40:break1.wav
192,192,78242,1,2,1:0:0:40:kick1.wav
448,192,78242,1,8,1:0:0:40:break1.wav
320,192,78317,1,8,1:0:0:40:break1.wav
64,192,78392,1,2,1:0:0:40:kick1.wav
192,192,78392,1,8,1:0:0:40:break1.wav
448,192,78467,1,8,1:0:0:40:break1.wav
64,192,78542,1,8,2:0:0:40:snare2.wav
320,192,78542,1,8,2:0:0:40:break2.wav
192,192,78592,1,0,0:0:0:0:
448,192,78642,1,0,0:0:0:0:
320,192,78692,1,8,2:0:0:40:break2.wav
64,192,78742,1,8,2:0:0:40:snare2.wav
448,192,78792,1,8,2:0:0:40:snare2.wav
192,192,78842,1,8,1:0:0:40:snare1.wav
320,192,78892,1,0,0:0:0:0:
64,192,78942,1,0,0:0:0:0:
192,192,78992,1,8,1:0:0:40:snare1.wav
448,192,79042,1,0,0:0:0:0:
64,192,79092,1,0,0:0:0:0:
320,192,79142,1,2,1:0:0:40:kick1.wav
448,192,79142,1,8,1:0:0:40:break1.wav
64,192,79217,1,2,1:0:0:40:kick1.wav
192,192,79217,1,8,1:0:0:40:break1.wav
64,192,79292,1,2,1:0:0:40:kick1.wav
320,192,79292,1,8,1:0:0:40:break1.wav
320,192,79367,1,2,1:0:0:40:kick1.wav
448,192,79367,1,8,1:0:0:40:break1.wav
64,192,79442,1,2,1:0:0:40:kick1.wav
192,192,79442,1,8,1:0:0:40:break1.wav
320,192,79517,1,2,1:0:0:40:kick1.wav
448,192,79517,1,8,1:0:0:40:break1.wav
192,192,79592,1,2,1:0:0:40:kick1.wav
448,192,79592,1,8,1:0:0:40:break1.wav
64,192,79667,1,2,1:0:0:40:kick1.wav
320,192,79667,1,8,1:0:0:40:break1.wav
64,192,79742,1,0,0:0:0:40:snare_short.wav
192,192,79742,1,0,0:0:0:0:
192,192,79817,1,8,2:0:0:40:snare2.wav
320,192,79817,1,0,0:0:0:0:
448,192,79817,1,0,0:0:0:0:
64,192,80042,1,2,1:0:0:40:kick1.wav
448,192,80042,1,0,0:0:0:0:
448,192,80117,1,2,1:0:0:40:kick1.wav
192,192,80192,1,2,1:0:0:40:kick1.wav
320,192,80192,1,0,0:0:0:0:
448,192,80267,1,2,1:0:0:40:kick1.wav
64,192,80342,1,2,1:0:0:40:kick1.wav
192,192,80342,1,0,0:0:0:0:
64,192,80417,1,2,1:0:0:40:kick1.wav
192,192,80492,1,2,1:0:0:40:kick1.wav
448,192,80492,1,0,0:0:0:0:
64,192,80567,1,2,1:0:0:40:kick1.wav
320,192,80642,1,2,1:0:0:40:kick1.wav
448,192,80642,1,0,0:0:0:0:
320,192,80717,1,2,1:0:0:40:kick1.wav
64,192,80792,1,2,1:0:0:40:kick1.wav
448,192,80792,1,0,0:0:0:0:
320,192,80867,1,2,1:0:0:40:kick1.wav
64,192,80942,1,0,0:0:0:40:snare_short.wav
192,192,80942,1,0,0:0:0:0:
192,192,81017,1,8,2:0:0:40:snare2.wav
320,192,81017,1,0,0:0:0:0:
448,192,81017,1,0,0:0:0:0:
64,192,81092,1,2,1:0:0:40:kick1.wav
448,192,81092,1,0,0:0:0:0:
192,192,81242,1,0,0:0:0:0:
192,192,81392,1,0,0:0:0:0:
448,192,81467,1,0,0:0:0:0:
320,192,81504,1,0,0:0:0:0:
64,192,81542,1,2,1:0:0:40:kick1.wav
192,192,81542,1,8,1:0:0:40:break1.wav
320,192,81617,1,2,1:0:0:40:kick1.wav
448,192,81617,1,8,1:0:0:40:break1.wav
64,192,81692,1,2,1:0:0:40:kick1.wav
320,192,81692,1,8,1:0:0:40:break1.wav
64,192,81767,1,2,1:0:0:40:kick1.wav
192,192,81767,1,8,1:0:0:40:break1.wav
320,192,81842,1,2,1:0:0:40:kick1.wav
448,192,81842,1,8,1:0:0:40:break1.wav
64,192,81917,1,2,1:0:0:40:kick1.wav
192,192,81917,1,8,1:0:0:40:break1.wav
192,192,81992,1,2,1:0:0:40:kick1.wav
448,192,81992,1,8,1:0:0:40:break1.wav
64,192,82067,1,2,1:0:0:40:kick1.wav
320,192,82067,1,8,1:0:0:40:break1.wav
320,192,82142,1,0,0:0:0:40:snare_short.wav
448,192,82142,1,0,0:0:0:0:
64,192,82217,1,8,2:0:0:40:snare2.wav
192,192,82217,1,0,0:0:0:0:
448,192,82217,1,0,0:0:0:0:
192,192,82442,1,2,1:0:0:40:kick1.wav
448,192,82442,1,0,0:0:0:0:
192,192,82517,1,2,1:0:0:40:kick1.wav
64,192,82592,1,2,1:0:0:40:kick1.wav
320,192,82592,1,0,0:0:0:0:
192,192,82667,1,2,1:0:0:40:kick1.wav
320,192,82742,1,2,1:0:0:40:kick1.wav
448,192,82742,1,0,0:0:0:0:
448,192,82817,1,2,1:0:0:40:kick1.wav
192,192,82892,1,2,1:0:0:40:kick1.wav
320,192,82892,1,0,0:0:0:0:
448,192,82967,1,2,1:0:0:40:kick1.wav
64,192,83042,1,2,1:0:0:40:kick1.wav
192,192,83042,1,0,0:0:0:0:
64,192,83117,1,2,1:0:0:40:kick1.wav
192,192,83192,1,2,1:0:0:40:kick1.wav
448,192,83192,1,0,0:0:0:0:
64,192,83267,1,2,1:0:0:40:kick1.wav
320,192,83342,1,0,0:0:0:40:snare_short.wav
448,192,83342,1,0,0:0:0:0:
64,192,83417,1,8,2:0:0:40:snare2.wav
192,192,83417,1,0,0:0:0:0:
320,192,83417,1,0,0:0:0:0:
64,192,83492,1,2,1:0:0:40:kick1.wav
448,192,83492,1,0,0:0:0:0:
320,192,83642,1,0,0:0:0:0:
320,192,83792,1,0,0:0:0:0:
64,192,83942,1,0,0:0:0:40:break1.wav
448,192,83942,1,0,0:0:0:0:
320,192,83992,1,0,0:0:0:0:
192,192,84042,1,0,0:0:0:0:
448,192,84092,1,0,0:0:0:0:
64,192,84142,1,0,0:0:0:0:
320,192,84192,1,0,0:0:0:0:
192,192,84242,1,0,0:0:0:0:
448,192,84292,1,0,0:0:0:0:
320,192,84342,1,0,0:0:0:0:
64,192,84392,1,0,0:0:0:0:
448,192,84442,1,0,0:0:0:0:
192,192,84492,1,0,0:0:0:0:
320,192,84542,1,0,0:0:0:0:
64,192,84592,1,0,0:0:0:0:
192,192,84642,1,0,0:0:0:0:
448,192,84692,1,0,0:0:0:0:
64,192,84742,1,0,0:0:0:0:
320,192,84792,1,0,0:0:0:0:
192,192,84842,1,0,0:0:0:0:
448,192,84892,1,0,0:0:0:0:
320,192,84942,1,0,0:0:0:0:
64,192,84992,1,0,0:0:0:0:
448,192,85042,1,0,0:0:0:0:
192,192,85092,1,0,0:0:0:0:
320,192,85142,1,0,0:0:0:0:
64,192,85192,1,0,0:0:0:0:
192,192,85242,1,0,0:0:0:0:
448,192,85292,1,0,0:0:0:0:
64,192,85342,1,0,0:0:0:0:
320,192,85392,1,0,0:0:0:0:
192,192,85442,1,0,0:0:0:0:
448,192,85492,1,0,0:0:0:0:
320,192,85542,1,0,0:0:0:0:
64,192,85592,1,0,0:0:0:0:
192,192,85642,1,0,0:0:0:0:
320,192,85692,1,0,0:0:0:0:
64,192,85742,1,0,0:0:0:0:
448,192,85792,1,0,0:0:0:0:
192,192,85842,1,0,0:0:0:0:
320,192,85892,1,0,0:0:0:0:
448,192,85942,1,0,0:0:0:0:
64,192,85992,1,0,0:0:0:0:
192,192,86042,1,0,0:0:0:0:
320,192,86092,1,0,0:0:0:0:
64,192,86142,1,0,0:0:0:0:
448,192,86192,1,0,0:0:0:0:
192,192,86242,1,0,0:0:0:0:
320,192,86292,1,0,0:0:0:0:
448,192,86342,1,0,0:0:0:0:
448,192,86567,1,0,0:0:0:0:
192,192,86792,1,0,0:0:0:0:
64,192,86867,1,0,0:0:0:0:
448,192,86942,1,0,0:0:0:0:
64,192,87092,1,0,0:0:0:0:
448,192,87167,1,0,0:0:0:0:
320,192,87317,1,0,0:0:0:0:
192,192,87392,1,0,0:0:0:0:
448,192,87542,1,0,0:0:0:0:
448,192,87767,1,0,0:0:0:0:
192,192,87992,1,0,0:0:0:0:
64,192,88442,1,2,1:0:0:40:death_quilt.wav
192,192,88479,1,0,0:0:0:0:
320,192,88517,1,0,0:0:0:0:
64,192,88554,1,0,0:0:0:0:
448,192,88592,1,0,0:0:0:0:
192,192,88629,1,0,0:0:0:0:
320,192,88667,1,0,0:0:0:0:
448,192,88704,1,0,0:0:0:0:
64,192,88742,1,8,2:0:0:40:break2.wav
192,192,88742,1,0,0:0:0:40:kick3.wav
64,192,88842,1,8,2:0:0:40:break2.wav
448,192,88842,1,0,0:0:0:0:
320,192,88942,1,8,0:0:0:40:kick3.wav
192,192,89042,1,8,1:0:0:40:break1.wav
448,192,89042,1,0,0:0:0:0:
320,192,89142,1,0,0:0:0:0:
448,192,89142,1,0,0:0:0:0:
64,192,89242,1,8,2:0:0:40:break2.wav
192,192,89242,1,0,0:0:0:0:
64,192,89342,1,8,1:0:0:40:snare1.wav
448,192,89342,1,8,0:0:0:40:kick3.wav
320,192,89392,1,0,0:0:0:0:
192,192,89442,1,0,0:0:0:0:
448,192,89492,1,8,1:0:0:40:break1.wav
64,192,89542,1,0,0:0:0:0:
320,192,89592,1,0,0:0:0:0:
192,192,89642,1,8,0:0:0:40:kick3.wav
448,192,89642,1,0,0:0:0:0:
64,192,89684,1,0,0:0:0:0:
320,192,89727,1,0,0:0:0:0:
192,192,89770,1,0,0:0:0:0:
64,192,89813,1,0,0:0:0:0:
448,192,89856,1,0,0:0:0:0:
320,192,89899,1,0,0:0:0:0:
64,192,89942,1,8,0:0:0:40:kick3.wav
192,192,89942,1,0,0:0:0:0:
320,192,90042,1,8,1:0:0:40:break1.wav
448,192,90042,1,0,0:0:0:0:
64,192,90142,1,8,0:0:0:40:kick3.wav
192,192,90242,1,8,2:0:0:40:break2.wav
320,192,90242,1,8,0:0:0:40:kick3.wav
64,192,90342,1,8,1:0:0:40:break1.wav
192,192,90342,1,0,0:0:0:0:
448,192,90392,1,8,2:0:0:40:break2.wav
320,192,90442,1,8,0:0:0:40:kick3.wav
64,192,90542,1,4,1:0:0:40:crash.wav
448,192,90542,1,8,1:0:0:40:break1.wav
192,192,90567,1,0,0:0:0:0:
320,192,90592,1,0,0:0:0:0:
64,192,90642,1,8,1:0:0:40:break1.wav
448,192,90642,1,0,0:0:0:0:
192,192,90742,1,8,0:0:0:40:kick3.wav
64,192,90842,1,8,1:0:0:40:break1.wav
320,192,90842,1,0,0:0:0:0:
320,192,90942,1,8,1:0:0:40:break1.wav
320,192,91042,1,8,1:0:0:40:break1.wav
192,192,91142,1,8,0:0:0:40:kick3.wav
448,192,91142,1,0,0:0:0:0:
64,192,91192,1,0,0:0:0:0:
320,192,91217,1,0,0:0:0:0:
192,192,91242,1,0,0:0:0:0:
448,192,91342,1,8,2:0:0:40:break2.wav
64,192,91442,1,8,2:0:0:40:break2.wav
448,192,91442,1,0,0:0:0:0:
320,192,91542,1,8,2:0:0:40:break2.wav
192,192,91642,1,8,0:0:0:40:kick3.wav
448,192,91642,1,0,0:0:0:0:
64,192,91692,1,0,0:0:0:0:
320,192,91717,1,0,0:0:0:0:
192,192,91742,1,8,1:0:0:40:snare1.wav
448,192,91792,1,0,0:0:0:0:
320,192,91842,1,0,0:0:0:0:
192,192,91892,1,8,2:0:0:40:break2.wav
64,192,91942,1,0,0:0:0:0:
320,192,91992,1,0,0:0:0:0:
64,192,92042,1,8,2:0:0:40:break2.wav
448,192,92042,1,0,0:0:0:0:
192,192,92084,1,0,0:0:0:0:
320,192,92127,1,0,0:0:0:0:
448,192,92170,1,0,0:0:0:0:
64,192,92213,1,0,0:0:0:0:
192,192,92256,1,0,0:0:0:0:
320,192,92299,1,0,0:0:0:0:
64,192,92342,1,8,0:0:0:40:kick3.wav
192,192,92342,1,0,0:0:0:0:
448,192,92392,1,0,0:0:0:0:
320,192,92442,1,0,0:0:0:0:
64,192,92492,1,8,1:0:0:40:break1.wav
448,192,92492,1,0,0:0:0:0:
192,192,92542,1,0,0:0:0:0:
64,192,92592,1,0,0:0:0:0:
320,192,92642,1,8,2:0:0:40:break2.wav
448,192,92642,1,0,0:0:0:0:
192,192,92692,1,8,2:0:0:40:break2.wav
320,192,92742,1,0,0:0:0:0:
64,192,92842,1,8,2:0:0:40:break2.wav
192,192,92942,1,4,1:0:0:40:crash.wav
448,192,92942,1,8,1:0:0:40:break1.wav
320,192,92967,1,0,0:0:0:0:
64,192,92992,1,0,0:0:0:0:
192,192,93042,1,8,1:0:0:40:break1.wav
192,192,93142,1,8,1:0:0:40:break1.wav
448,192,93142,1,0,0:0:0:0:
320,192,93192,1,0,0:0:0:0:
448,192,93242,1,8,1:0:0:40:break1.wav
192,192,93342,1,8,1:0:0:40:break1.wav
448,192,93342,1,0,0:0:0:0:
320,192,93392,1,0,0:0:0:0:
64,192,93442,1,8,1:0:0:40:break1.wav
192,192,93442,1,0,0:0:0:0:
320,192,93492,1,0,0:0:0:0:
64,192,93542,1,8,0:0:0:40:kick3.wav
192,192,93542,1,0,0:0:0:0:
320,192,93642,1,8,2:0:0:40:break2.wav
448,192,93642,1,0,0:0:0:0:
448,192,93742,1,8,2:0:0:40:break2.wav
192,192,93842,1,8,1:0:0:40:break1.wav
448,192,93842,1,0,0:0:0:0:
64,192,93942,1,8,2:0:0:40:break2.wav
192,192,93942,1,0,0:0:0:0:
64,192,94042,1,8,2:0:0:40:break2.wav
320,192,94042,1,0,0:0:0:0:
448,192,94142,1,8,1:0:0:40:snare1.wav
192,192,94192,1,0,0:0:0:0:
320,192,94242,1,0,0:0:0:0:
64,192,94292,1,8,1:0:0:40:break1.wav
192,192,94342,1,0,0:0:0:0:
448,192,94392,1,0,0:0:0:0:
64,192,94442,1,8,0:0:0:40:kick3.wav
320,192,94442,1,0,0:0:0:0:
192,192,94484,1,0,0:0:0:0:
448,192,94527,1,0,0:0:0:0:
64,192,94570,1,0,0:0:0:0:
320,192,94613,1,0,0:0:0:0:
448,192,94656,1,0,0:0:0:0:
192,192,94699,1,0,0:0:0:0:
64,192,94742,1,8,0:0:0:40:kick3.wav
320,192,94742,1,0,0:0:0:0:
64,192,94842,1,8,1:0:0:40:break1.wav
192,192,94842,1,0,0:0:0:0:
320,192,94942,1,8,0:0:0:40:kick3.wav
64,192,95042,1,8,2:0:0:40:break2.wav
448,192,95042,1,8,0:0:0:40:kick3.wav
320,192,95142,1,8,1:0:0:40:break1.wav
448,192,95142,1,0,0:0:0:0:
192,192,95192,1,8,2:0:0:40:break2.wav
64,192,95242,1,8,0:0:0:40:kick3.wav
192,192,95342,1,4,1:0:0:40:crash.wav
320,192,95342,1,8,1:0:0:40:break1.wav
64,192,95367,1,0,0:0:0:0:
448,192,95392,1,0,0:0:0:0:
192,192,95442,1,8,1:0:0:40:break1.wav
320,192,95442,1,0,0:0:0:0:
448,192,95542,1,8,0:0:0:40:kick3.wav
64,192,95642,1,8,1:0:0:40:break1.wav
320,192,95642,1,0,0:0:0:0:
192,192,95742,1,8,1:0:0:40:break1.wav
192,192,95842,1,8,1:0:0:40:break1.wav
64,192,95942,1,8,0:0:0:40:kick3.wav
448,192,95942,1,0,0:0:0:0:
320,192,95992,1,0,0:0:0:0:
192,192,96017,1,0,0:0:0:0:
64,192,96042,1,0,0:0:0:0:
448,192,96142,1,8,2:0:0:40:break2.wav
64,192,96242,1,8,2:0:0:40:break2.wav
320,192,96242,1,0,0:0:0:0:
192,192,96342,1,8,2:0:0:40:break2.wav
320,192,96342,1,0,0:0:0:0:
64,192,96442,1,8,0:0:0:40:kick3.wav
448,192,96442,1,0,0:0:0:0:
320,192,96492,1,0,0:0:0:0:
192,192,96517,1,0,0:0:0:0:
64,192,96542,1,8,1:0:0:40:snare1.wav
448,192,96592,1,0,0:0:0:0:
320,192,96642,1,8,0:0:0:40:kick3.wav
64,192,96692,1,0,0:0:0:0:
192,192,96742,1,8,0:0:0:40:kick3.wav
320,192,96792,1,0,0:0:0:0:
192,192,96842,1,8,2:0:0:40:break2.wav
448,192,96842,1,0,0:0:0:0:
64,192,96884,1,0,0:0:0:0:
320,192,96927,1,0,0:0:0:0:
192,192,96970,1,0,0:0:0:0:
448,192,97013,1,0,0:0:0:0:
320,192,97056,1,0,0:0:0:0:
64,192,97099,1,0,0:0:0:0:
192,192,97142,1,8,0:0:0:40:kick3.wav
448,192,97142,1,0,0:0:0:0:
192,192,97217,1,8,0:0:0:40:kick3.wav
320,192,97292,1,8,1:0:0:40:break1.wav
448,192,97292,1,0,0:0:0:0:
192,192,97367,1,8,0:0:0:40:kick3.wav
320,192,97404,1,0,0:0:0:0:
64,192,97442,1,8,2:0:0:40:break2.wav
448,192,97442,1,0,0:0:0:0:
192,192,97492,1,8,2:0:0:40:break2.wav
320,192,97542,1,0,0:0:0:0:
64,192,97592,1,8,2:0:0:40:break2.wav
320,192,97692,1,8,0:0:0:40:kick3.wav
64,192,97742,1,4,1:0:0:40:crash.wav
448,192,97742,1,8,1:0:0:40:break1.wav
192,192,97792,1,0,0:0:0:0:
64,192,97842,1,8,1:0:0:40:break1.wav
64,192,97942,1,8,1:0:0:40:break1.wav
448,192,97942,1,0,0:0:0:0:
320,192,97992,1,0,0:0:0:0:
448,192,98042,1,8,1:0:0:40:break1.wav
64,192,98142,1,0,0:0:0:0:
448,192,98142,1,0,0:0:0:0:
192,192,98192,1,8,1:0:0:40:break1.wav
64,192,98242,1,0,0:0:0:0:
64,192,98342,1,2,1:0:0:40:kick1.wav
320,192,98342,1,2,2:0:0:40:kick2.wav
448,192,98342,1,8,2:0:0:40:break2.wav
192,192,98442,1,8,2:0:0:40:break2.wav
320,192,98442,1,0,0:0:0:0:
64,192,98567,1,0,0:0:0:0:
192,192,98642,1,8,2:0:0:40:break2.wav
320,192,98642,1,0,0:0:0:0:
320,192,98717,1,8,2:0:0:40:break2.wav
448,192,98792,1,8,0:0:0:40:kick3.wav
64,192,98842,1,8,2:0:0:40:break2.wav
192,192,98842,1,0,0:0:0:0:
64,192,98942,1,8,1:0:0:40:snare1.wav
448,192,98942,1,8,0:0:0:40:kick3.wav
320,192,98992,1,0,0:0:0:0:
192,192,99042,1,8,0:0:0:40:kick3.wav
64,192,99092,1,8,2:0:0:40:break2.wav
320,192,99142,1,8,2:0:0:40:break2.wav
448,192,99192,1,0,0:0:0:0:
192,192,99242,1,8,0:0:0:40:kick3.wav
64,192,99284,1,0,0:0:0:0:
320,192,99327,1,0,0:0:0:0:
192,192,99370,1,0,0:0:0:0:
448,192,99413,1,0,0:0:0:0:
320,192,99456,1,0,0:0:0:0:
192,192,99499,1,0,0:0:0:0:
64,192,99542,1,8,0:0:0:40:kick3.wav
448,192,99642,1,8,1:0:0:40:break1.wav
192,192,99692,1,0,0:0:0:0:
320,192,99729,1,0,0:0:0:0:
64,192,99767,1,0,0:0:0:0:
192,192,99804,1,0,0:0:0:0:
320,192,99842,1,8,1:0:0:40:break1.wav
448,192,99842,1,0,0:0:0:0:
64,192,99892,1,8,1:0:0:40:break1.wav
448,192,99942,1,8,1:0:0:40:break1.wav
320,192,99992,1,0,0:0:0:0:
192,192,100042,1,8,0:0:0:40:kick3.wav
64,192,100142,1,4,1:0:0:40:crash.wav
448,192,100142,1,8,0:0:0:40:kick3.wav
320,192,100217,1,8,1:0:0:40:break1.wav
448,192,100217,1,0,0:0:0:0:
64,192,100292,1,8,1:0:0:40:break1.wav
192,192,100292,1,0,0:0:0:0:
448,192,100367,1,0,0:0:0:0:
192,192,100442,1,8,2:0:0:40:break2.wav
320,192,100442,1,0,0:0:0:0:
64,192,100502,1,8,2:0:0:40:break2.wav
320,192,100562,1,8,2:0:0:40:break2.wav
64,192,100622,1,8,2:0:0:40:break2.wav
320,192,100682,1,8,2:0:0:40:break2.wav
64,192,100742,1,8,2:0:0:40:kick3.wav
192,192,100742,1,0,0:0:0:0:
448,192,100817,1,0,0:0:0:0:
192,192,100967,1,8,2:0:0:40:break2.wav
320,192,100967,1,0,0:0:0:0:
64,192,101042,1,8,2:0:0:40:break2.wav
448,192,101042,1,0,0:0:0:0:
64,192,101117,1,8,2:0:0:40:break2.wav
448,192,101117,1,0,0:0:0:0:
192,192,101242,1,8,0:0:0:40:kick3.wav
320,192,101242,1,0,0:0:0:0:
448,192,101342,1,8,1:0:0:40:snare1.wav
64,192,101392,1,0,0:0:0:0:
320,192,101442,1,8,0:0:0:40:kick3.wav
192,192,101492,1,0,0:0:0:0:
64,192,101542,1,8,0:0:0:40:kick3.wav
448,192,101592,1,0,0:0:0:0:
320,192,101642,1,8,1:0:0:40:break1.wav
192,192,101684,1,0,0:0:0:0:
448,192,101727,1,0,0:0:0:0:
64,192,101770,1,0,0:0:0:0:
192,192,101813,1,0,0:0:0:0:
320,192,101856,1,0,0:0:0:0:
64,192,101899,1,0,0:0:0:0:
320,192,101942,1,8,0:0:0:40:kick3.wav
448,192,101942,1,0,0:0:0:0:
192,192,101992,1,0,0:0:0:0:
64,192,102042,1,0,0:0:0:0:
448,192,102142,1,0,0:0:0:0:
64,192,102242,1,8,2:0:0:40:break2.wav
448,192,102242,1,0,0:0:0:0:
192,192,102342,1,8,0:0:0:40:kick3.wav
64,192,102392,1,8,0:0:0:40:kick3.wav
192,192,102442,1,8,2:0:0:40:break2.wav
64,192,102542,1,4,1:0:0:40:crash.wav
320,192,102542,1,8,1:0:0:40:break1.wav
192,192,102592,1,8,1:0:0:40:break1.wav
320,192,102642,1,8,1:0:0:40:break1.wav
448,192,102642,1,0,0:0:0:0:
192,192,102692,1,8,1:0:0:40:break1.wav
64,192,102742,1,8,1:0:0:40:break1.wav
448,192,102742,1,0,0:0:0:0:
320,192,102792,1,8,1:0:0:40:break1.wav
64,192,102842,1,8,2:0:0:40:break2.wav
192,192,102842,1,0,0:0:0:0:
448,192,102892,1,0,0:0:0:0:
192,192,102942,1,8,2:0:0:40:break2.wav
448,192,102992,1,0,0:0:0:0:
320,192,103042,1,8,0:0:0:40:kick3.wav
448,192,103092,1,0,0:0:0:0:
64,192,103142,1,8,0:0:0:40:kick3.wav
192,192,103142,1,0,0:0:0:0:
320,192,103217,1,8,1:0:0:40:break1.wav
192,192,103292,1,8,1:0:0:40:break1.wav
448,192,103292,1,0,0:0:0:0:
64,192,103367,1,8,1:0:0:40:break1.wav
192,192,103442,1,8,2:0:0:40:break2.wav
320,192,103442,1,0,0:0:0:0:
64,192,103542,1,8,2:0:0:40:break2.wav
192,192,103542,1,0,0:0:0:0:
320,192,103642,1,8,2:0:0:40:break2.wav
448,192,103642,1,0,0:0:0:0:
192,192,103742,1,8,1:0:0:40:snare1.wav
320,192,103742,1,8,1:0:0:40:break1.wav
64,192,103842,1,0,0:0:0:0:
320,192,103942,1,8,0:0:0:40:kick3.wav
448,192,103942,1,0,0:0:0:0:
64,192,104042,1,0,0:0:0:0:
192,192,104067,1,0,0:0:0:0:
320,192,104092,1,0,0:0:0:0:
448,192,104117,1,0,0:0:0:0:
64,192,104142,1,8,1:0:0:40:break1.wav
192,192,104142,1,0,0:0:0:0:
448,192,104192,1,0,0:0:0:0:
320,192,104242,1,0,0:0:0:0:
192,192,104292,1,0,0:0:0:0:
64,192,104342,1,8,0:0:0:40:kick3.wav
448,192,104342,1,0,0:0:0:0:
320,192,104442,1,0,0:0:0:0:
64,192,104542,1,8,0:0:0:40:kick3.wav
448,192,104542,1,0,0:0:0:0:
64,192,104642,1,8,0:0:0:40:kick3.wav
192,192,104642,1,0,0:0:0:0:
320,192,104742,1,0,0:0:0:0:
448,192,104742,1,0,0:0:0:0:
64,192,104792,1,8,0:0:0:40:kick3.wav
192,192,104792,1,0,0:0:0:0:
320,192,104867,1,0,0:0:0:0:
448,192,104867,1,0,0:0:0:0:
192,192,104942,1,4,1:0:0:40:crash.wav
448,192,104942,1,8,2:0:0:40:break2.wav
64,192,105092,1,8,0:0:0:40:kick3.wav
192,192,105092,1,0,0:0:0:0:
448,192,105142,1,0,0:0:0:0:
64,192,105192,1,8,2:0:0:40:break2.wav
320,192,105242,1,0,0:0:0:0:
192,192,105292,1,0,0:0:0:0:
320,192,105342,1,8,2:0:0:40:break2.wav
448,192,105342,1,0,0:0:0:0:
64,192,105392,1,0,0:0:0:0:
192,192,105442,1,0,0:0:0:0:
320,192,105492,1,0,0:0:0:0:
64,192,105542,1,8,2:0:0:40:break2.wav
448,192,105542,1,8,0:0:0:40:kick3.wav
320,192,105842,1,0,0:0:0:0:
192,192,105917,1,0,0:0:0:0:
64,192,105992,1,0,0:0:0:0:
448,192,106067,1,0,0:0:0:0:
320,192,106142,1,0,0:0:0:0:
192,192,106217,1,0,0:0:0:0:
64,192,106292,1,0,0:0:0:0:
448,192,106367,1,0,0:0:0:0:
320,192,106442,1,0,0:0:0:0:
192,192,106517,1,0,0:0:0:0:
64,192,106592,1,0,0:0:0:0:
448,192,106667,1,0,0:0:0:0:
320,192,106742,1,0,0:0:0:0:
64,192,106792,1,0,0:0:0:0:
192,192,106842,1,0,0:0:0:0:
448,192,106892,1,0,0:0:0:0:
64,192,106942,1,0,0:0:0:0:
320,192,106992,1,0,0:0:0:0:
448,192,107042,1,0,0:0:0:0:
192,192,107092,1,0,0:0:0:0:
320,192,107142,1,0,0:0:0:0:
448,192,107192,1,0,0:0:0:0:
64,192,107242,1,0,0:0:0:0:
192,192,107292,1,0,0:0:0:0:
320,192,107342,1,0,0:0:0:0:
448,192,107342,1,0,0:0:0:0:
64,192,107417,1,0,0:0:0:0:
192,192,107492,1,0,0:0:0:0:
320,192,107492,1,0,0:0:0:0:
448,192,107567,1,0,0:0:0:0:
64,192,107642,1,0,0:0:0:0:
192,192,107692,1,0,0:0:0:0:
320,192,107742,1,0,0:0:0:0:
192,192,107792,1,0,0:0:0:0:
64,192,107817,1,0,0:0:0:0:
320,192,107867,1,0,0:0:0:0:
448,192,107892,1,0,0:0:0:0:
64,192,107942,1,2,1:0:0:40:kick1.wav
192,192,107942,1,0,0:0:0:0:
448,192,108017,1,8,3:0:0:40:rimshot.wav
448,192,108092,1,8,3:0:0:40:rimshot.wav
192,192,108167,1,8,3:0:0:40:rimshot.wav
320,192,108242,1,0,0:0:0:0:
448,192,108242,1,0,0:0:0:0:
64,192,108317,1,8,3:0:0:40:rimshot.wav
64,192,108392,1,2,1:0:0:40:kick1.wav
448,192,108392,1,8,3:0:0:40:rimshot.wav
320,192,108467,1,8,3:0:0:40:rimshot.wav
192,192,108542,1,0,0:0:0:0:
448,192,108617,1,8,3:0:0:40:rimshot.wav
64,192,108692,1,8,3:0:0:40:rimshot.wav
448,192,108692,1,0,0:0:0:0:
192,192,108767,1,8,3:0:0:40:rimshot.wav
320,192,108842,1,2,1:0:0:40:kick1.wav
448,192,108842,1,0,0:0:0:0:
192,192,108917,1,8,3:0:0:40:rimshot.wav
192,192,108992,1,8,3:0:0:40:rimshot.wav
320,192,109067,1,8,3:0:0:40:rimshot.wav
64,192,109142,1,0,0:0:0:0:
448,192,109142,1,0,0:0:0:0:
320,192,109217,1,8,3:0:0:40:rimshot.wav
64,192,109292,1,2,1:0:0:40:kick1.wav
320,192,109292,1,8,3:0:0:40:rimshot.wav
448,192,109367,1,8,3:0:0:40:rimshot.wav
192,192,109442,1,0,0:0:0:0:
64,192,109517,1,8,3:0:0:40:rimshot.wav
64,192,109592,1,8,3:0:0:40:rimshot.wav
448,192,109592,1,0,0:0:0:0:
320,192,109667,1,8,3:0:0:40:rimshot.wav
64,192,109742,1,2,1:0:0:40:kick1.wav
192,192,109742,1,0,0:0:0:0:
448,192,109817,1,8,3:0:0:40:rimshot.wav
448,192,109892,1,8,3:0:0:40:rimshot.wav
192,192,109967,1,8,3:0:0:40:rimshot.wav
320,192,110042,1,0,0:0:0:0:
448,192,110042,1,0,0:0:0:0:
64,192,110117,1,8,3:0:0:40:rimshot.wav
192,192,110192,1,2,1:0:0:40:kick1.wav
448,192,110192,1,8,3:0:0:40:rimshot.wav
320,192,110242,1,0,0:0:0:0:
192,192,110292,1,0,0:0:0:0:
320,192,110342,1,2,1:0:0:40:kick1.wav
448,192,110342,1,0,0:0:0:0:
64,192,110417,1,8,3:0:0:40:rimshot.wav
64,192,110492,1,8,3:0:0:40:rimshot.wav
448,192,110567,1,8,3:0:0:40:rimshot.wav
64,192,110642,1,0,0:0:0:0:
192,192,110642,1,0,0:0:0:0:
320,192,110717,1,8,3:0:0:40:rimshot.wav
192,192,110792,1,2,1:0:0:40:kick1.wav
320,192,110792,1,8,3:0:0:40:rimshot.wav
448,192,110867,1,8,3:0:0:40:rimshot.wav
64,192,110942,1,0,0:0:0:0:
192,192,111017,1,8,3:0:0:40:rimshot.wav
192,192,111092,1,8,3:0:0:40:rimshot.wav
448,192,111092,1,0,0:0:0:0:
320,192,111167,1,8,3:0:0:40:rimshot.wav
64,192,111242,1,2,1:0:0:40:kick1.wav
192,192,111242,1,0,0:0:0:0:
448,192,111317,1,8,3:0:0:40:rimshot.wav
448,192,111392,1,8,3:0:0:40:rimshot.wav
192,192,111467,1,8,3:0:0:40:rimshot.wav
64,192,111542,1,0,0:0:0:0:
320,192,111542,1,0,0:0:0:0:
192,192,111617,1,8,3:0:0:40:rimshot.wav
192,192,111692,1,2,1:0:0:40:kick1.wav
448,192,111692,1,8,3:0:0:40:rimshot.wav
320,192,111767,1,8,3:0:0:40:rimshot.wav
64,192,111842,1,0,0:0:0:0:
448,192,111917,1,8,3:0:0:40:rimshot.wav
192,192,111992,1,8,3:0:0:40:rimshot.wav
448,192,111992,1,0,0:0:0:0:
64,192,112067,1,8,3:0:0:40:rimshot.wav
320,192,112142,1,2,1:0:0:40:kick1.wav
448,192,112142,1,0,0:0:0:0:
192,192,112217,1,8,3:0:0:40:rimshot.wav
192,192,112292,1,8,3:0:0:40:rimshot.wav
320,192,112367,1,8,3:0:0:40:rimshot.wav
64,192,112442,1,0,0:0:0:0:
448,192,112442,1,0,0:0:0:0:
192,192,112517,1,8,3:0:0:40:rimshot.wav
320,192,112592,1,2,1:0:0:40:kick1.wav
448,192,112592,1,8,3:0:0:40:rimshot.wav
448,192,112667,1,8,3:0:0:40:rimshot.wav
64,192,112742,1,0,0:0:0:0:
192,192,112742,1,0,0:0:0:0:
64,192,112817,1,8,3:0:0:40:rimshot.wav
320,192,112892,1,2,1:0:0:40:kick1.wav
448,192,112892,1,8,3:0:0:40:rimshot.wav
448,192,112967,1,8,3:0:0:40:rimshot.wav
64,192,113042,1,0,0:0:0:0:
192,192,113117,1,8,3:0:0:40:rimshot.wav
192,192,113192,1,8,3:0:0:40:rimshot.wav
320,192,113267,1,8,3:0:0:40:rimshot.wav
64,192,113342,1,2,1:0:0:40:kick1.wav
448,192,113342,1,0,0:0:0:0:
320,192,113417,1,8,3:0:0:40:rimshot.wav
320,192,113492,1,8,3:0:0:40:rimshot.wav
64,192,113567,1,8,3:0:0:40:rimshot.wav
192,192,113642,1,0,0:0:0:0:
448,192,113642,1,0,0:0:0:0:
64,192,113717,1,8,3:0:0:40:rimshot.wav
64,192,113792,1,2,1:0:0:40:kick1.wav
320,192,113792,1,8,3:0:0:40:rimshot.wav
192,192,113867,1,8,3:0:0:40:rimshot.wav
320,192,113942,1,0,0:0:0:0:
448,192,114017,1,8,3:0:0:40:rimshot.wav
192,192,114092,1,8,3:0:0:40:rimshot.wav
448,192,114092,1,0,0:0:0:0:
64,192,114167,1,8,3:0:0:40:rimshot.wav
320,192,114242,1,2,1:0:0:40:kick1.wav
448,192,114242,1,0,0:0:0:0:
192,192,114317,1,8,3:0:0:40:rimshot.wav
192,192,114392,1,8,3:0:0:40:rimshot.wav
64,192,114467,1,8,3:0:0:40:rimshot.wav
192,192,114542,1,0,0:0:0:0:
320,192,114542,1,0,0:0:0:0:
448,192,114617,1,8,3:0:0:40:rimshot.wav
64,192,114692,1,2,1:0:0:40:kick1.wav
448,192,114692,1,8,3:0:0:40:rimshot.wav
192,192,114767,1,8,3:0:0:40:rimshot.wav
448,192,114842,1,0,0:0:0:0:
320,192,114917,1,8,3:0:0:40:rimshot.wav
64,192,114992,1,8,3:0:0:40:rimshot.wav
448,192,115042,1,0,0:0:0:0:
64,192,115092,1,0,0:0:0:0:
320,192,115142,1,2,1:0:0:40:kick1.wav
448,192,115142,1,0,0:0:0:0:
192,192,115217,1,8,3:0:0:40:rimshot.wav
192,192,115292,1,8,3:0:0:40:rimshot.wav
320,192,115367,1,8,3:0:0:40:rimshot.wav
64,192,115442,1,0,0:0:0:0:
448,192,115442,1,0,0:0:0:0:
320,192,115517,1,8,3:0:0:40:rimshot.wav
192,192,115592,1,2,1:0:0:40:kick1.wav
320,192,115592,1,8,3:0:0:40:rimshot.wav
448,192,115667,1,8,3:0:0:40:rimshot.wav
64,192,115742,1,0,0:0:0:0:
192,192,115817,1,8,3:0:0:40:rimshot.wav
192,192,115892,1,8,3:0:0:40:rimshot.wav
448,192,115892,1,0,0:0:0:0:
320,192,115967,1,8,3:0:0:40:rimshot.wav
64,192,116042,1,2,1:0:0:40:kick1.wav
192,192,116042,1,0,0:0:0:0:
448,192,116117,1,8,3:0:0:40:rimshot.wav
448,192,116192,1,8,3:0:0:40:rimshot.wav
64,192,116267,1,8,3:0:0:40:rimshot.wav
320,192,116342,1,0,0:0:0:0:
448,192,116342,1,0,0:0:0:0:
192,192,116417,1,8,3:0:0:40:rimshot.wav
192,192,116492,1,2,1:0:0:40:kick1.wav
448,192,116492,1,8,3:0:0:40:rimshot.wav
320,192,116567,1,8,3:0:0:40:rimshot.wav
64,192,116642,1,0,0:0:0:0:
448,192,116717,1,8,3:0:0:40:rimshot.wav
64,192,116792,1,8,3:0:0:40:rimshot.wav
448,192,116792,1,0,0:0:0:0:
192,192,116867,1,8,3:0:0:40:rimshot.wav
320,192,116942,1,2,1:0:0:40:kick1.wav
448,192,116942,1,0,0:0:0:0:
64,192,117017,1,8,3:0:0:40:rimshot.wav
192,192,117092,1,0,0:0:0:40:snare_short.wav
192,192,117167,1,0,0:0:0:40:snare_short.wav
192,192,117242,1,8,2:0:0:40:snare2.wav
448,192,117242,128,0,117542:0:0:0:0:
64,192,117542,1,2,1:0:0:40:kick1.wav
192,192,117542,1,0,0:0:0:0:
448,192,117617,1,8,3:0:0:40:rimshot.wav
448,192,117692,1,8,3:0:0:40:rimshot.wav
192,192,117767,1,8,3:0:0:40:rimshot.wav
320,192,117842,1,0,0:0:0:0:
448,192,117842,1,0,0:0:0:0:
64,192,117917,1,8,3:0:0:40:rimshot.wav
64,192,117992,1,2,1:0:0:40:kick1.wav
448,192,117992,1,8,3:0:0:40:rimshot.wav
320,192,118067,1,8,3:0:0:40:rimshot.wav
192,192,118142,1,0,0:0:0:0:
448,192,118217,1,8,3:0:0:40:rimshot.wav
64,192,118292,1,8,3:0:0:40:rimshot.wav
448,192,118292,1,0,0:0:0:0:
192,192,118367,1,8,3:0:0:40:rimshot.wav
320,192,118442,1,2,1:0:0:40:kick1.wav
448,192,118442,1,0,0:0:0:0:
192,192,118517,1,8,3:0:0:40:rimshot.wav
192,192,118592,1,8,3:0:0:40:rimshot.wav
320,192,118667,1,8,3:0:0:40:rimshot.wav
64,192,118742,1,0,0:0:0:0:
448,192,118742,1,0,0:0:0:0:
320,192,118817,1,8,3:0:0:40:rimshot.wav
64,192,118892,1,2,1:0:0:40:kick1.wav
320,192,118892,1,8,3:0:0:40:rimshot.wav
448,192,118967,1,8,3:0:0:40:rimshot.wav
192,192,119042,1,0,0:0:0:0:
64,192,119117,1,8,3:0:0:40:rimshot.wav
64,192,119192,1,8,3:0:0:40:rimshot.wav
448,192,119192,1,0,0:0:0:0:
320,192,119267,1,8,3:0:0:40:rimshot.wav
64,192,119342,1,2,1:0:0:40:kick1.wav
192,192,119342,1,0,0:0:0:0:
448,192,119417,1,8,3:0:0:40:rimshot.wav
448,192,119492,1,8,3:0:0:40:rimshot.wav
192,192,119567,1,8,3:0:0:40:rimshot.wav
320,192,119642,1,0,0:0:0:0:
448,192,119642,1,0,0:0:0:0:
64,192,119717,1,8,3:0:0:40:rimshot.wav
192,192,119792,1,2,1:0:0:40:kick1.wav
448,192,119792,1,8,3:0:0:40:rimshot.wav
320,192,119842,1,0,0:0:0:0:
192,192,119892,1,0,0:0:0:0:
320,192,119942,1,2,1:0:0:40:kick1.wav
448,192,119942,1,0,0:0:0:0:
64,192,120017,1,8,3:0:0:40:rimshot.wav
64,192,120092,1,8,3:0:0:40:rimshot.wav
448,192,120167,1,8,3:0:0:40:rimshot.wav
64,192,120242,1,0,0:0:0:0:
192,192,120242,1,0,0:0:0:0:
320,192,120317,1,8,3:0:0:40:rimshot.wav
192,192,120392,1,2,1:0:0:40:kick1.wav
320,192,120392,1,8,3:0:0:40:rimshot.wav
448,192,120467,1,8,3:0:0:40:rimshot.wav
64,192,120542,1,0,0:0:0:0:
192,192,120617,1,8,3:0:0:40:rimshot.wav
192,192,120692,1,8,3:0:0:40:rimshot.wav
448,192,120692,1,0,0:0:0:0:
320,192,120767,1,8,3:0:0:40:rimshot.wav
64,192,120842,1,2,1:0:0:40:kick1.wav
192,192,120842,1,0,0:0:0:0:
448,192,120917,1,8,3:0:0:40:rimshot.wav
448,192,120992,1,8,3:0:0:40:rimshot.wav
192,192,121067,1,8,3:0:0:40:rimshot.wav
64,192,121142,1,0,0:0:0:0:
320,192,121142,1,0,0:0:0:0:
192,192,121217,1,8,3:0:0:40:rimshot.wav
192,192,121292,1,2,1:0:0:40:kick1.wav
448,192,121292,1,8,3:0:0:40:rimshot.wav
320,192,121367,1,8,3:0:0:40:rimshot.wav
64,192,121442,1,0,0:0:0:0:
448,192,121517,1,8,3:0:0:40:rimshot.wav
192,192,121592,1,8,3:0:0:40:rimshot.wav
448,192,121592,1,0,0:0:0:0:
64,192,121667,1,8,3:0:0:40:rimshot.wav
320,192,121742,1,2,1:0:0:40:kick1.wav
448,192,121742,1,0,0:0:0:0:
192,192,121817,1,8,3:0:0:40:rimshot.wav
192,192,121892,1,8,3:0:0:40:rimshot.wav
320,192,121967,1,8,3:0:0:40:rimshot.wav
64,192,122042,1,0,0:0:0:0:
448,192,122042,1,0,0:0:0:0:
192,192,122117,1,8,3:0:0:40:rimshot.wav
320,192,122192,1,2,1:0:0:40:kick1.wav
448,192,122192,1,8,3:0:0:40:rimshot.wav
320,192,122267,1,8,3:0:0:40:rimshot.wav
64,192,122342,1,0,0:0:0:0:
192,192,122342,1,0,0:0:0:0:
64,192,122417,1,8,3:0:0:40:rimshot.wav
320,192,122492,1,2,1:0:0:40:kick1.wav
448,192,122492,1,8,3:0:0:40:rimshot.wav
320,192,122567,1,8,3:0:0:40:rimshot.wav
64,192,122642,1,0,0:0:0:0:
192,192,122717,1,8,3:0:0:40:rimshot.wav
192,192,122792,1,8,3:0:0:40:rimshot.wav
448,192,122867,1,8,3:0:0:40:rimshot.wav
64,192,122942,1,2,1:0:0:40:kick1.wav
320,192,122942,1,0,0:0:0:0:
448,192,123017,1,8,3:0:0:40:rimshot.wav
448,192,123092,1,8,3:0:0:40:rimshot.wav
64,192,123167,1,8,3:0:0:40:rimshot.wav
192,192,123242,1,0,0:0:0:0:
448,192,123242,1,0,0:0:0:0:
64,192,123317,1,8,3:0:0:40:rimshot.wav
64,192,123392,1,2,1:0:0:40:kick1.wav
320,192,123392,1,8,3:0:0:40:rimshot.wav
192,192,123467,1,8,3:0:0:40:rimshot.wav
320,192,123542,1,0,0:0:0:0:
448,192,123617,1,8,3:0:0:40:rimshot.wav
192,192,123692,1,8,3:0:0:40:rimshot.wav
448,192,123692,1,0,0:0:0:0:
64,192,123767,1,8,3:0:0:40:rimshot.wav
320,192,123842,1,2,1:0:0:40:kick1.wav
448,192,123842,1,0,0:0:0:0:
192,192,123917,1,8,3:0:0:40:rimshot.wav
192,192,123992,1,8,3:0:0:40:rimshot.wav
64,192,124067,1,8,3:0:0:40:rimshot.wav
192,192,124142,1,0,0:0:0:0:
320,192,124142,1,0,0:0:0:0:
448,192,124217,1,8,3:0:0:40:rimshot.wav
64,192,124292,1,2,1:0:0:40:kick1.wav
448,192,124292,1,8,3:0:0:40:rimshot.wav
192,192,124367,1,8,3:0:0:40:rimshot.wav
448,192,124442,1,0,0:0:0:0:
320,192,124517,1,8,3:0:0:40:rimshot.wav
64,192,124592,1,8,3:0:0:40:rimshot.wav
448,192,124642,1,0,0:0:0:0:
64,192,124692,1,0,0:0:0:0:
320,192,124742,1,2,1:0:0:40:kick1.wav
448,192,124742,1,0,0:0:0:0:
192,192,124817,1,8,3:0:0:40:rimshot.wav
192,192,124892,1,8,3:0:0:40:rimshot.wav
320,192,124967,1,8,3:0:0:40:rimshot.wav
64,192,125042,1,0,0:0:0:0:
192,192,125042,1,0,0:0:0:0:
448,192,125117,1,8,3:0:0:40:rimshot.wav
320,192,125192,1,2,1:0:0:40:kick1.wav
448,192,125192,1,8,3:0:0:40:rimshot.wav
192,192,125242,1,0,0:0:0:0:
64,192,125292,1,0,0:0:0:0:
320,192,125342,1,0,0:0:0:0:
192,192,125392,1,0,0:0:0:0:
448,192,125442,1,0,0:0:0:0:
320,192,125492,1,8,3:0:0:40:rimshot.wav
64,192,125542,1,0,0:0:0:0:
192,192,125592,1,0,0:0:0:0:
320,192,125642,1,2,1:0:0:40:kick1.wav
448,192,125642,1,0,0:0:0:0:
64,192,125692,1,0,0:0:0:0:
192,192,125742,1,0,0:0:0:0:
448,192,125792,1,8,3:0:0:40:rimshot.wav
64,192,125842,1,0,0:0:0:0:
320,192,125892,1,0,0:0:0:0:
448,192,125942,1,0,0:0:0:0:
192,192,125992,1,0,0:0:0:0:
320,192,126042,1,0,0:0:0:0:
64,192,126092,1,2,1:0:0:40:kick1.wav
448,192,126092,1,8,3:0:0:40:rimshot.wav
192,192,126142,1,0,0:0:0:0:
320,192,126192,1,0,0:0:0:0:
64,192,126242,1,0,0:0:0:0:
448,192,126292,1,0,0:0:0:0:
192,192,126342,1,0,0:0:0:0:
320,192,126392,1,8,3:0:0:40:rimshot.wav
64,192,126442,1,0,0:0:0:0:
192,192,126492,1,0,0:0:0:0:
320,192,126542,1,2,1:0:0:40:kick1.wav
448,192,126542,1,0,0:0:0:0:
192,192,126617,1,0,0:0:0:0:
64,192,126654,1,0,0:0:0:0:
448,192,126692,1,0,0:0:0:0:
192,192,126729,1,0,0:0:0:0:
320,192,126767,1,0,0:0:0:0:
64,192,126804,1,0,0:0:0:0:
448,192,126842,1,0,0:0:0:0:
320,192,126879,1,0,0:0:0:0:
192,192,126917,1,0,0:0:0:0:
64,192,126992,1,2,1:0:0:40:kick1.wav
448,192,126992,1,0,0:0:0:0:
320,192,127067,1,0,0:0:0:0:
64,192,127142,1,2,1:0:0:40:kick1.wav
192,192,127142,1,0,0:0:0:0:
448,192,127142,1,0,0:0:0:0:
64,192,127292,1,2,1:0:0:40:kick1.wav
192,192,127292,1,0,0:0:0:0:
448,192,127292,1,0,0:0:0:0:
320,192,127442,1,0,0:0:0:0:
192,192,127492,1,0,0:0:0:0:
320,192,127542,1,0,0:0:0:0:
448,192,127592,1,0,0:0:0:0:
192,192,127642,1,0,0:0:0:0:
320,192,127692,1,0,0:0:0:0:
64,192,127742,1,0,0:0:0:0:
448,192,127792,1,0,0:0:0:0:
192,192,127842,1,0,0:0:0:0:
192,192,127892,1,0,0:0:0:0:
448,192,128042,128,0,128342:0:0:0:0:
