osu file format v14

[General]
AudioFilename: audio.mp3
AudioLeadIn: 0
PreviewTime: 11062
Countdown: 0
SampleSet: Normal
StackLeniency: 0.2
Mode: 1
LetterboxInBreaks: 0
WidescreenStoryboard: 1

[Editor]
Bookmarks: 28,11062,22096,33131,44165,55200,66234,77269,88303,99338,110372,121407,124165,129683
DistanceSpacing: 0.6
BeatDivisor: 8
GridSize: 32
TimelineZoom: 1.300006

[Metadata]
Title:Options
TitleUnicode:Options
Artist:Frums
ArtistUnicode:Frums
Creator:Nerova Riuz GX
Version:Option C: Muzukashii
Source:osu!
Tags:electronic featured artist fa osu semicolon xyz bofu2017 the bms of fighters ultimate 2017 legenda est a myth vapor vaporwave chillwave synthwave life game information n/a Genjuro _DUSK_
BeatmapID:2264049
BeatmapSetID:1049855

[Difficulty]
HPDrainRate:6
CircleSize:5
OverallDifficulty:5
ApproachRate:9
SliderMultiplier:1.4
SliderTickRate:1

[Events]
//Background and Video events
0,0,"OptionsBG.jpg",0,80
Video,0,"Options.avi" M,0,0,,0,120 S,0,0,,1
//Break Periods
//Storyboard Layer 0 (Background)
//Storyboard Layer 1 (Fail)
//Storyboard Layer 2 (Pass)
//Storyboard Layer 3 (Foreground)
//Storyboard Layer 4 (Overlay)
//Storyboard Sound Samples

[TimingPoints]
28,689.655172413793,4,1,0,20,1,0
28,-125,4,1,0,20,0,0
545,-121.681442849877,4,1,0,20,0,0
890,-119.56516540645,4,1,0,20,0,0
1234,-117.521380077071,4,1,0,20,0,0
1579,-115.546157801388,4,1,0,20,0,0
1924,-113.636363636364,4,1,0,20,0,0
2096,-112.704883389892,4,1,0,20,0,0
2441,-110.887119130468,4,1,0,20,0,0
2786,-109.126940822643,4,1,0,25,0,0
3303,-106.589126630014,4,1,0,25,0,0
3648,-104.961862107403,4,1,0,25,0,0
3993,-103.383429497153,4,1,0,25,0,0
4338,-101.851870713309,4,1,0,25,0,0
4510,-101.102931883922,4,1,0,25,0,0
4683,-100.364926874114,4,1,0,25,0,0
4855,-99.6377172600425,4,1,0,25,0,0
5200,-98.2142681760236,4,1,0,25,0,0
5545,-96.8310114870629,4,1,0,30,0,0
5890,-95.4860862449428,4,1,0,30,0,0
6062,-94.8276270808737,4,1,0,30,0,0
6407,-93.5374070121253,4,1,0,30,0,0
6752,-92.2819101617148,4,1,0,30,0,0
7096,-91.059587572916,4,1,0,30,0,0
7269,-90.4604891198647,4,1,0,30,0,0
7441,-89.8693030725416,4,1,0,30,0,0
7614,-89.2857142857143,4,1,0,30,0,0
7959,-88.1410609539507,4,1,0,30,0,0
8303,-87.0253095707825,4,1,0,35,0,0
8648,-85.9375268554771,4,1,0,35,0,0
8821,-85.4037333387992,4,1,0,35,0,0
9165,-84.3557958758451,4,1,0,35,0,0
9510,-83.3333333333333,4,1,0,35,0,0
10200,-66.6666666666667,4,1,0,25,0,0
11062,-66.6666666666667,4,1,0,60,0,0
57959,-133.333333333333,4,1,0,40,0,0
66234,-100,4,1,0,50,0,0
66752,-97.482514074038,4,1,0,50,0,0
66924,-96.6713165569931,4,1,0,50,0,0
67010,-96.2707595859202,4,1,0,50,0,0
67096,-95.8734164108444,4,1,0,50,0,0
67269,-95.0886701849475,4,1,0,50,0,0
67441,-94.3166663208389,4,1,0,50,0,0
67959,-92.0739943448153,4,1,0,50,0,0
68131,-91.3498956784191,4,1,0,50,0,0
68648,-89.2445980244816,4,1,0,50,0,0
68993,-87.8940841128806,4,1,0,50,0,0
69165,-87.2340778180315,4,1,0,50,0,0
69338,-86.5838347980432,4,1,0,50,0,0
69510,-85.943287743284,4,1,0,50,0,0
69855,-84.6901399504563,4,1,0,50,0,0
70200,-83.4730811834146,4,1,0,50,0,0
70372,-82.8775070445881,4,1,0,50,0,0
70545,-82.2904391676157,4,1,0,50,0,0
71407,-79.4754619511226,4,1,0,50,0,0
71752,-78.4027171245647,4,1,0,50,0,0
72096,-77.3584861872555,4,1,0,50,0,0
72183,-77.1017751141685,4,1,0,50,0,0
72269,-76.8467621769458,4,1,0,50,0,0
72786,-75.3513634075695,4,1,0,50,0,0
72959,-74.8657096333452,4,1,0,50,0,0
74165,-71.6341101575019,4,1,0,50,0,0
74510,-70.7614426559883,4,1,0,50,0,0
74855,-69.9097325533271,4,1,0,50,0,0
74941,-69.7000111520018,4,1,0,50,0,0
75027,-69.4915442688934,4,1,0,50,0,0
75372,-68.6699522949841,4,1,0,50,0,0
75717,-67.8675605276839,4,1,0,50,0,0
76234,-66.6985485728845,4,1,0,50,0,0
77269,-66.6985485728845,4,1,0,60,0,0
97786,-66.6666666666667,4,1,0,60,0,0
97959,-65.2303806584094,4,1,0,60,0,0
98131,-63.8547177461839,4,1,0,60,0,0
98303,-62.5358408537893,4,1,0,60,0,0
98648,-60.0550825216889,4,1,0,60,0,0
98821,-58.8870928325575,4,1,0,60,0,0
98907,-58.3199537639407,4,1,0,60,0,0
98993,-57.7636346727372,4,1,0,60,0,0
99165,-56.6822731858839,4,1,0,60,0,0
99338,-55.6406238871875,4,1,0,70,0,1
121407,-55.6406238871875,4,1,0,60,0,0
121579,-55.6406238871875,4,1,0,55,0,0
122269,-55.6406238871875,4,1,0,50,0,0
122959,-55.6406238871875,4,1,0,45,0,0
123648,-55.6406238871875,4,1,0,40,0,0

[HitObjects]
160,96,28,5,0,0:0:0:0:
160,96,545,1,0,0:0:0:0:
352,96,890,1,8,0:0:0:0:
160,96,1234,1,0,0:0:0:0:
160,96,1579,1,0,0:0:0:0:
160,96,1924,1,0,0:0:0:0:
160,96,2096,1,0,0:0:0:0:
352,96,2441,1,8,0:0:0:0:
160,96,2786,1,0,0:0:0:0:
160,96,3303,1,0,0:0:0:0:
352,96,3648,1,8,0:0:0:0:
160,96,3993,1,0,0:0:0:0:
160,96,4338,1,0,0:0:0:0:
352,96,4510,1,8,0:0:0:0:
160,96,4683,1,0,0:0:0:0:
160,96,4855,1,0,0:0:0:0:
352,96,5200,1,8,0:0:0:0:
160,96,5545,1,0,0:0:0:0:
352,96,5890,1,8,0:0:0:0:
160,96,6062,1,0,0:0:0:0:
352,96,6407,1,8,0:0:0:0:
160,96,6752,1,0,0:0:0:0:
160,96,7096,1,0,0:0:0:0:
352,96,7269,1,8,0:0:0:0:
160,96,7441,1,0,0:0:0:0:
160,96,7614,1,0,0:0:0:0:
352,96,7959,1,8,0:0:0:0:
160,96,8303,1,0,0:0:0:0:
352,96,8648,1,8,0:0:0:0:
160,96,8821,1,0,0:0:0:0:
352,96,9165,1,8,0:0:0:0:
160,96,9510,1,0,0:0:0:0:
352,96,10200,1,8,0:0:0:0:
160,96,10372,1,0,0:0:0:0:
160,96,10545,1,0,0:0:0:0:
352,96,10717,1,8,0:0:0:0:
352,96,10890,1,8,0:0:0:0:
160,288,11062,5,4,0:0:0:0:
160,96,11579,1,0,0:0:0:0:
352,96,11752,1,8,0:0:0:0:
352,96,11924,1,8,0:0:0:0:
160,96,12269,1,0,0:0:0:0:
160,96,12614,1,0,0:0:0:0:
160,96,12786,1,0,0:0:0:0:
352,96,13131,1,8,0:0:0:0:
352,96,13476,1,8,0:0:0:0:
160,96,13821,1,0,0:0:0:0:
160,96,14338,1,0,0:0:0:0:
352,96,14510,1,8,0:0:0:0:
352,96,14683,1,8,0:0:0:0:
160,96,15027,1,0,0:0:0:0:
160,96,15372,1,0,0:0:0:0:
160,96,15545,1,0,0:0:0:0:
352,96,15890,1,8,0:0:0:0:
352,96,16234,1,8,0:0:0:0:
160,96,16579,1,0,0:0:0:0:
160,96,17096,1,0,0:0:0:0:
352,96,17269,1,8,0:0:0:0:
160,96,17441,1,0,0:0:0:0:
160,96,17786,1,0,0:0:0:0:
160,96,18131,1,0,0:0:0:0:
352,96,18303,1,8,0:0:0:0:
160,96,18648,1,0,0:0:0:0:
352,96,18993,1,8,0:0:0:0:
352,96,19079,1,8,0:0:0:0:
352,96,19165,1,8,0:0:0:0:
160,96,19338,1,0,0:0:0:0:
160,96,19855,1,0,0:0:0:0:
352,96,20027,1,8,0:0:0:0:
160,96,20200,1,0,0:0:0:0:
160,96,20545,1,0,0:0:0:0:
160,96,20890,1,0,0:0:0:0:
352,96,21062,1,8,0:0:0:0:
352,96,21407,1,8,0:0:0:0:
160,96,21579,1,0,0:0:0:0:
352,96,21752,1,8,0:0:0:0:
352,96,21924,1,8,0:0:0:0:
160,96,22096,1,0,0:0:0:0:
160,96,22614,1,0,0:0:0:0:
352,96,22786,1,8,0:0:0:0:
352,96,22959,1,8,0:0:0:0:
160,96,23303,1,0,0:0:0:0:
160,96,23648,1,0,0:0:0:0:
160,96,23821,1,0,0:0:0:0:
352,96,24165,1,8,0:0:0:0:
352,96,24510,1,8,0:0:0:0:
160,96,24855,1,0,0:0:0:0:
160,96,25372,1,0,0:0:0:0:
352,96,25545,1,8,0:0:0:0:
352,96,25717,1,8,0:0:0:0:
160,96,26062,1,0,0:0:0:0:
160,96,26407,1,0,0:0:0:0:
160,96,26579,1,0,0:0:0:0:
352,96,26924,1,8,0:0:0:0:
352,96,27269,1,8,0:0:0:0:
352,96,27355,1,8,0:0:0:0:
352,96,27441,1,8,0:0:0:0:
160,96,27614,1,0,0:0:0:0:
160,96,28131,1,0,0:0:0:0:
352,96,28303,1,8,0:0:0:0:
160,96,28476,1,0,0:0:0:0:
160,96,28821,1,0,0:0:0:0:
160,96,29165,1,0,0:0:0:0:
352,96,29338,1,8,0:0:0:0:
160,96,29683,1,0,0:0:0:0:
352,96,30027,1,8,0:0:0:0:
160,96,30372,1,0,0:0:0:0:
160,96,30890,1,0,0:0:0:0:
352,96,31062,1,8,0:0:0:0:
160,96,31234,1,0,0:0:0:0:
160,96,31579,1,0,0:0:0:0:
160,96,31924,1,0,0:0:0:0:
352,96,32096,1,8,0:0:0:0:
352,96,32441,1,8,0:0:0:0:
352,96,32614,1,8,0:0:0:0:
352,96,32700,1,8,0:0:0:0:
352,96,32786,1,8,0:0:0:0:
352,96,32959,1,8,0:0:0:0:
160,96,33131,1,0,0:0:0:0:
352,96,33476,1,8,0:0:0:0:
160,96,33648,1,0,0:0:0:0:
352,96,33821,1,8,0:0:0:0:
160,96,34165,1,0,0:0:0:0:
160,96,34252,1,0,0:0:0:0:
160,96,34338,1,0,0:0:0:0:
160,96,34683,1,0,0:0:0:0:
160,96,34769,1,0,0:0:0:0:
160,96,34855,1,0,0:0:0:0:
352,96,35200,1,8,0:0:0:0:
352,96,35372,1,8,0:0:0:0:
160,96,35545,1,0,0:0:0:0:
160,96,35717,1,0,0:0:0:0:
160,96,35803,1,0,0:0:0:0:
160,96,35890,1,0,0:0:0:0:
352,96,36234,1,8,0:0:0:0:
160,96,36407,1,0,0:0:0:0:
352,96,36579,1,8,0:0:0:0:
352,96,36752,1,8,0:0:0:0:
160,96,37096,1,0,0:0:0:0:
352,96,37441,1,8,0:0:0:0:
160,96,37614,1,0,0:0:0:0:
352,96,37959,1,8,0:0:0:0:
160,96,38131,1,0,0:0:0:0:
352,96,38303,1,8,0:0:0:0:
160,96,38648,1,0,0:0:0:0:
160,96,39165,1,0,0:0:0:0:
352,96,39338,1,8,0:0:0:0:
160,96,39510,1,0,0:0:0:0:
160,96,39855,1,0,0:0:0:0:
352,96,40200,1,8,0:0:0:0:
160,96,40372,1,0,0:0:0:0:
352,96,40717,1,8,0:0:0:0:
160,96,40890,1,0,0:0:0:0:
352,96,41062,1,8,0:0:0:0:
160,96,41407,1,0,0:0:0:0:
160,96,41924,1,0,0:0:0:0:
352,96,42096,1,8,0:0:0:0:
160,96,42269,1,0,0:0:0:0:
160,96,42614,1,0,0:0:0:0:
352,96,42959,1,8,0:0:0:0:
160,96,43131,1,0,0:0:0:0:
352,96,43476,1,8,0:0:0:0:
160,96,43648,1,0,0:0:0:0:
352,96,43821,1,8,0:0:0:0:
352,96,43993,1,8,0:0:0:0:
160,96,44165,1,0,0:0:0:0:
352,96,44510,1,8,0:0:0:0:
352,96,44596,1,8,0:0:0:0:
352,96,44683,1,8,0:0:0:0:
160,96,44855,1,0,0:0:0:0:
352,96,45028,1,8,0:0:0:0:
160,96,45372,1,0,0:0:0:0:
352,96,45717,1,8,0:0:0:0:
352,96,45890,1,8,0:0:0:0:
160,96,46062,1,0,0:0:0:0:
352,96,46234,1,8,0:0:0:0:
352,96,46579,1,8,0:0:0:0:
160,96,46924,1,0,0:0:0:0:
160,96,47441,1,0,0:0:0:0:
352,96,47614,1,8,0:0:0:0:
352,96,47786,1,8,0:0:0:0:
352,96,47872,1,8,0:0:0:0:
352,96,47959,1,8,0:0:0:0:
160,96,48131,1,0,0:0:0:0:
160,96,48476,1,0,0:0:0:0:
160,96,48648,1,0,0:0:0:0:
352,96,48993,1,8,0:0:0:0:
160,96,49165,1,0,0:0:0:0:
352,96,49338,1,8,0:0:0:0:
160,96,49683,1,0,0:0:0:0:
160,96,50200,1,0,0:0:0:0:
352,96,50372,1,8,0:0:0:0:
160,96,50545,1,0,0:0:0:0:
160,96,50890,1,0,0:0:0:0:
160,96,51234,1,0,0:0:0:0:
352,96,51407,1,8,0:0:0:0:
160,96,51579,1,0,0:0:0:0:
352,96,51752,1,8,0:0:0:0:
352,96,52096,1,8,0:0:0:0:
352,96,52183,1,8,0:0:0:0:
352,96,52269,1,8,0:0:0:0:
160,96,52441,1,0,0:0:0:0:
160,96,52959,1,0,0:0:0:0:
352,96,53131,1,8,0:0:0:0:
160,96,53303,1,0,0:0:0:0:
160,96,53648,1,0,0:0:0:0:
160,96,53993,1,0,0:0:0:0:
352,96,54165,1,8,0:0:0:0:
352,96,54510,1,8,0:0:0:0:
160,96,54683,1,0,0:0:0:0:
160,96,54769,1,0,0:0:0:0:
160,96,54855,1,0,0:0:0:0:
352,96,55028,1,8,0:0:0:0:
160,96,55200,1,0,0:0:0:0:
352,96,58648,1,8,0:0:0:0:
352,96,58993,1,8,0:0:0:0:
160,96,60027,1,0,0:0:0:0:
160,96,60200,1,0,0:0:0:0:
352,96,60545,1,8,0:0:0:0:
160,96,60890,1,0,0:0:0:0:
352,96,61062,1,8,0:0:0:0:
160,96,62786,1,0,0:0:0:0:
160,96,62959,1,0,0:0:0:0:
352,96,63303,1,8,0:0:0:0:
352,96,63562,1,8,0:0:0:0:
160,96,63821,1,0,0:0:0:0:
160,96,66234,1,0,0:0:0:0:
160,96,66752,1,0,0:0:0:0:
352,96,66924,1,8,0:0:0:0:
352,96,67010,1,8,0:0:0:0:
352,96,67096,1,8,0:0:0:0:
352,96,67269,1,8,0:0:0:0:
160,96,67441,1,0,0:0:0:0:
160,96,67959,1,0,0:0:0:0:
352,96,68131,1,8,0:0:0:0:
352,96,68648,1,8,0:0:0:0:
160,96,68993,1,0,0:0:0:0:
352,96,69165,1,8,0:0:0:0:
160,96,69338,1,0,0:0:0:0:
352,96,69510,1,8,0:0:0:0:
160,96,69855,1,0,0:0:0:0:
352,96,70200,1,8,0:0:0:0:
352,96,70372,1,8,0:0:0:0:
160,96,70545,1,0,0:0:0:0:
352,96,71407,1,8,0:0:0:0:
160,96,71752,1,0,0:0:0:0:
160,96,72096,1,0,0:0:0:0:
160,96,72183,1,0,0:0:0:0:
160,96,72269,1,0,0:0:0:0:
352,96,72786,1,8,0:0:0:0:
160,96,72959,1,0,0:0:0:0:
352,96,74165,1,8,0:0:0:0:
160,96,74510,1,0,0:0:0:0:
352,96,74855,1,8,0:0:0:0:
352,96,74941,1,8,0:0:0:0:
352,96,75027,1,8,0:0:0:0:
352,96,75372,1,8,0:0:0:0:
160,96,75717,1,0,0:0:0:0:
160,96,76234,1,0,0:0:0:0:
160,96,76579,1,0,0:0:0:0:
352,96,76924,1,8,0:0:0:0:
352,96,77096,1,8,0:0:0:0:
352,96,77183,1,8,0:0:0:0:
352,96,77269,1,8,0:0:0:0:
160,96,77786,1,0,0:0:0:0:
352,96,77959,1,8,0:0:0:0:
352,96,78131,1,8,0:0:0:0:
160,96,78476,1,0,0:0:0:0:
160,96,78821,1,0,0:0:0:0:
352,96,78993,1,0,0:0:0:0:
352,96,79338,1,8,0:0:0:0:
352,96,79683,1,8,0:0:0:0:
160,96,80027,1,0,0:0:0:0:
160,96,80545,1,0,0:0:0:0:
352,96,80717,1,8,0:0:0:0:
352,96,80890,1,8,0:0:0:0:
160,96,81234,1,0,0:0:0:0:
160,96,81579,1,0,0:0:0:0:
352,96,81752,1,8,0:0:0:0:
160,96,81924,1,0,0:0:0:0:
352,96,82096,1,8,0:0:0:0:
352,96,82441,1,8,0:0:0:0:
160,96,82786,1,0,0:0:0:0:
160,96,83303,1,0,0:0:0:0:
352,96,83476,1,8,0:0:0:0:
160,96,83648,1,0,0:0:0:0:
160,96,83993,1,0,0:0:0:0:
352,96,84338,1,8,0:0:0:0:
160,96,84510,1,0,0:0:0:0:
352,96,84855,1,8,0:0:0:0:
160,96,85200,1,8,0:0:0:0:
160,96,85545,1,0,0:0:0:0:
160,96,86062,1,0,0:0:0:0:
352,96,86234,1,8,0:0:0:0:
160,96,86407,1,0,0:0:0:0:
160,96,86752,1,0,0:0:0:0:
352,96,87096,1,8,0:0:0:0:
160,96,87269,1,0,0:0:0:0:
352,96,87614,1,8,0:0:0:0:
160,96,87786,1,0,0:0:0:0:
352,96,87959,1,8,0:0:0:0:
160,96,88131,1,0,0:0:0:0:
160,96,88217,1,0,0:0:0:0:
160,96,88303,1,0,0:0:0:0:
160,96,88821,1,0,0:0:0:0:
160,96,88993,1,0,0:0:0:0:
352,96,89165,1,8,0:0:0:0:
160,96,89510,1,0,0:0:0:0:
352,96,89855,1,8,0:0:0:0:
160,96,90027,1,0,0:0:0:0:
352,96,90372,1,8,0:0:0:0:
160,96,90717,1,0,0:0:0:0:
160,96,91062,1,0,0:0:0:0:
160,96,91579,1,0,0:0:0:0:
160,96,91752,1,0,0:0:0:0:
352,96,91924,1,8,0:0:0:0:
160,96,92269,1,0,0:0:0:0:
352,96,92614,1,8,0:0:0:0:
160,96,92786,1,0,0:0:0:0:
160,96,92959,1,0,0:0:0:0:
352,96,93131,1,8,0:0:0:0:
160,96,93476,1,0,0:0:0:0:
352,96,93821,1,8,0:0:0:0:
160,96,94338,1,0,0:0:0:0:
352,96,94510,1,8,0:0:0:0:
160,96,94683,1,0,0:0:0:0:
160,96,95027,1,0,0:0:0:0:
352,96,95372,1,8,0:0:0:0:
160,96,95545,1,0,0:0:0:0:
352,96,95890,1,8,0:0:0:0:
352,96,96234,1,8,0:0:0:0:
160,96,96579,1,0,0:0:0:0:
160,96,97096,1,0,0:0:0:0:
352,96,97269,1,8,0:0:0:0:
352,96,97441,1,8,0:0:0:0:
160,96,97786,1,0,0:0:0:0:
352,96,97959,1,8,0:0:0:0:
160,96,98131,1,0,0:0:0:0:
160,96,98303,1,0,0:0:0:0:
352,96,98648,1,8,0:0:0:0:
352,96,98821,1,8,0:0:0:0:
352,96,98907,1,8,0:0:0:0:
352,96,98993,1,8,0:0:0:0:
352,96,99165,1,8,0:0:0:0:
160,96,99338,1,0,0:0:0:0:
352,96,99683,1,8,0:0:0:0:
160,96,99855,1,0,0:0:0:0:
352,96,100027,1,8,0:0:0:0:
352,96,100200,1,8,0:0:0:0:
160,96,100545,1,0,0:0:0:0:
160,96,100890,1,0,0:0:0:0:
352,96,101062,1,8,0:0:0:0:
160,96,101407,1,0,0:0:0:0:
352,96,101579,1,8,0:0:0:0:
352,96,101752,1,8,0:0:0:0:
160,96,102096,1,0,0:0:0:0:
160,96,102614,1,0,0:0:0:0:
352,96,102786,1,8,0:0:0:0:
352,96,102959,1,8,0:0:0:0:
160,96,103303,1,0,0:0:0:0:
352,96,103648,1,8,0:0:0:0:
160,96,103821,1,0,0:0:0:0:
160,96,103993,1,0,0:0:0:0:
352,96,104165,1,8,0:0:0:0:
160,96,104338,1,0,0:0:0:0:
352,96,104510,1,8,0:0:0:0:
160,96,104855,1,0,0:0:0:0:
160,96,105372,1,0,0:0:0:0:
352,96,105545,1,8,0:0:0:0:
160,96,105717,1,0,0:0:0:0:
160,96,106062,1,0,0:0:0:0:
160,96,106407,1,0,0:0:0:0:
352,96,106579,1,8,0:0:0:0:
352,96,106924,1,8,0:0:0:0:
352,96,107096,1,8,0:0:0:0:
160,96,107269,1,0,0:0:0:0:
352,96,107441,1,8,0:0:0:0:
160,96,107614,1,0,0:0:0:0:
160,96,108131,1,0,0:0:0:0:
352,96,108303,1,8,0:0:0:0:
352,96,108476,1,8,0:0:0:0:
352,96,108648,1,0,0:0:0:0:
160,96,108821,1,0,0:0:0:0:
160,96,109165,1,0,0:0:0:0:
160,96,109510,1,0,0:0:0:0:
352,96,109683,1,8,0:0:0:0:
160,96,109855,1,0,0:0:0:0:
352,96,110027,1,8,0:0:0:0:
352,96,110200,1,8,0:0:0:0:
160,96,110372,1,0,0:0:0:0:
160,96,110717,1,0,0:0:0:0:
352,96,111062,1,8,0:0:0:0:
160,96,111407,1,0,0:0:0:0:
160,96,111522,1,0,0:0:0:0:
160,96,111637,1,0,0:0:0:0:
352,96,111752,1,8,0:0:0:0:
352,96,112096,1,8,0:0:0:0:
160,96,112269,1,0,0:0:0:0:
352,96,112441,1,8,0:0:0:0:
352,96,112786,1,8,0:0:0:0:
352,96,112959,1,8,0:0:0:0:
160,96,113131,1,0,0:0:0:0:
160,96,113648,1,0,0:0:0:0:
352,96,113821,1,8,0:0:0:0:
352,96,113993,1,8,0:0:0:0:
160,96,114338,1,0,0:0:0:0:
160,96,114683,1,0,0:0:0:0:
352,96,114855,1,8,0:0:0:0:
160,96,115027,1,0,0:0:0:0:
352,96,115200,1,8,0:0:0:0:
352,96,115372,1,8,0:0:0:0:
160,96,115545,1,0,0:0:0:0:
352,96,115890,1,8,0:0:0:0:
160,96,116407,1,0,0:0:0:0:
352,96,116579,1,8,0:0:0:0:
352,96,116752,1,8,0:0:0:0:
160,96,117096,1,0,0:0:0:0:
352,96,117441,1,8,0:0:0:0:
160,96,117614,1,0,0:0:0:0:
160,96,117786,1,0,0:0:0:0:
352,96,117959,1,8,0:0:0:0:
352,96,118303,1,8,0:0:0:0:
160,96,118648,1,0,0:0:0:0:
160,96,119165,1,0,0:0:0:0:
352,96,119338,1,8,0:0:0:0:
160,96,119510,1,0,0:0:0:0:
352,96,119855,1,8,0:0:0:0:
160,96,120027,1,0,0:0:0:0:
352,96,120200,1,8,0:0:0:0:
160,96,120372,1,0,0:0:0:0:
160,96,120459,1,0,0:0:0:0:
160,96,120545,1,0,0:0:0:0:
352,96,120717,1,8,0:0:0:0:
352,96,120890,1,8,0:0:0:0:
352,96,121234,1,8,0:0:0:0:
160,96,121407,1,0,0:0:0:0:
352,96,121752,1,8,0:0:0:0:
160,96,121924,1,0,0:0:0:0:
160,96,122096,1,0,0:0:0:0:
352,96,122441,1,8,0:0:0:0:
352,96,122614,1,8,0:0:0:0:
160,96,122786,1,0,0:0:0:0:
352,96,123131,1,8,0:0:0:0:
160,96,123303,1,0,0:0:0:0:
352,288,123476,1,8,0:0:0:0:
352,288,123821,5,12,0:0:0:0:
