osu file format v14

[General]
AudioFilename: audio.mp3
AudioLeadIn: 0
PreviewTime: 11062
Countdown: 0
SampleSet: Soft
StackLeniency: 0
Mode: 0
LetterboxInBreaks: 0
WidescreenStoryboard: 1

[Editor]
Bookmarks: 28,11062,22096,33131,44165,55200,66234,77269,88303,99338,110372,121407,124165,129683
DistanceSpacing: 1
BeatDivisor: 12
GridSize: 8
TimelineZoom: 4.700003

[Metadata]
Title:Options
TitleUnicode:Options
Artist:Frums
ArtistUnicode:Frums
Creator:Nerova Riuz GX
Version:Option 3: Hyper
Source:osu!
Tags:electronic featured artist fa osu semicolon xyz bofu2017 the bms of fighters ultimate 2017 legenda est a myth vapor vaporwave chillwave synthwave life game information n/a Genjuro _DUSK_
BeatmapID:2264046
BeatmapSetID:1049855

[Difficulty]
HPDrainRate:5
CircleSize:3.3
OverallDifficulty:6.7
ApproachRate:8.3
SliderMultiplier:1.28
SliderTickRate:1

[Events]
//Background and Video events
0,0,"OptionsBG.jpg",0,0
Video,0,"Options.avi" S,0,0,,1
//Break Periods
2,55400,57944
//Storyboard Layer 0 (Background)
//Storyboard Layer 1 (Fail)
//Storyboard Layer 2 (Pass)
//Storyboard Layer 3 (Foreground)
//Storyboard Layer 4 (Overlay)
//Storyboard Sound Samples

[TimingPoints]
28,689.655172413793,4,2,1,50,1,0
10717,-66.6666666666667,4,2,1,50,0,0
11062,-50,4,2,1,50,0,0
35545,-33.3333333333333,4,2,1,50,0,0
35890,-50,4,2,1,50,0,0
55372,-50,4,2,2,50,0,0
58648,-100,4,2,2,50,0,0
66234,-66.6666666666667,4,2,1,50,0,0
76234,-50,4,2,1,50,0,0
99338,-50,4,2,1,50,0,1
111062,-44.4444444444445,4,2,1,50,0,1
111752,-50,4,2,1,50,0,1
121407,-50,4,2,1,50,0,0

[Colours]
Combo1 : 84,168,231
Combo2 : 212,212,212
Combo3 : 106,106,106
Combo4 : 240,77,77

[HitObjects]
256,384,28,5,0,3:0:0:0:
256,384,545,2,0,L|320:384,1,64,0|0,3:0|1:0,0:0:0:0:
416,384,1234,2,0,L|480:384,2,64,0|0|0,3:0|3:0|3:0,0:0:0:0:
320,384,2096,2,0,L|256:384,1,64,0|0,3:0|1:0,0:0:0:0:
256,384,2786,5,0,3:0:0:0:
256,384,3303,2,0,L|192:384,1,64,0|0,3:0|1:0,0:0:0:0:
96,384,3993,2,0,L|32:384,2,64,0|0|0,3:0|3:0|3:0,0:0:0:0:
192,384,4855,2,0,L|256:384,1,64,0|0,3:0|1:0,0:0:0:0:
352,384,5545,38,0,L|416:384,1,64,0|0,3:0|0:0,0:0:0:0:
448,384,6062,2,0,L|512:384,1,64,0|0,3:0|1:0,0:0:0:0:
512,288,6752,1,0,3:0:0:0:
512,192,7096,2,0,L|512:160,1,32,0|2,3:0|0:2,0:0:0:0:
512,128,7441,1,0,3:0:0:0:
512,96,7614,2,0,L|512:32,1,64,0|8,3:0|1:2,0:0:0:0:
424,0,8303,5,0,3:0:0:0:
336,0,8648,1,2,0:2:0:0:
328,0,8734,1,2,0:2:0:0:
320,0,8821,2,0,L|256:0,2,64,0|8|0,3:0|1:2|3:0,0:0:0:0:
320,0,10200,37,0,0:0:0:0:
240,0,10372,1,0,0:0:0:0:
160,0,10545,1,0,0:0:0:0:
80,0,10717,2,0,L|64:0,3,16,2|0|0|0,0:1|0:0|0:0|0:0,0:0:0:0:
0,64,11062,6,0,L|0:192,1,128,0|2,3:0|0:2,0:0:0:0:
0,208,11493,1,2,0:2:0:0:
0,224,11579,1,0,3:0:0:0:
0,320,11752,2,0,L|0:384,1,64,8|8,0:2|1:2,0:0:0:0:
0,384,12269,38,0,L|64:384,1,64,0|0,3:0|0:0,0:0:0:0:
160,384,12614,1,0,3:0:0:0:
160,384,12786,2,0,L|224:384,1,64,0|0,0:2|3:0,0:0:0:0:
384,384,13131,2,0,L|256:384,1,128,8|8,3:2|1:2,0:0:0:0:
384,384,13821,6,0,L|512:384,1,128,0|2,3:0|0:2,0:0:0:0:
512,368,14252,1,2,0:2:0:0:
512,352,14338,1,0,3:0:0:0:
512,256,14510,2,0,L|512:192,1,64,8|8,0:2|1:2,0:0:0:0:
512,192,15027,38,0,L|512:128,1,64,0|0,3:0|0:0,0:0:0:0:
512,0,15372,1,0,3:0:0:0:
512,0,15545,2,0,L|448:0,1,64,2|0,0:2|3:0,0:0:0:0:
320,0,15890,5,8,3:2:0:0:
512,0,16234,1,8,1:2:0:0:
320,0,16579,38,0,L|192:0,1,128,0|2,3:0|0:2,0:0:0:0:
176,0,17010,1,2,0:2:0:0:
160,0,17096,1,0,3:0:0:0:
64,0,17269,2,0,L|0:0,1,64,8|8,0:2|1:2,0:0:0:0:
0,0,17786,6,0,L|0:64,1,64,0|0,3:0|0:0,0:0:0:0:
0,160,18131,1,0,3:0:0:0:
0,160,18303,2,0,L|0:224,1,64,2|0,0:2|3:0,0:0:0:0:
0,384,18648,2,0,L|0:320,1,64,8|0,3:2|0:0,0:0:0:0:
112,384,18993,2,0,L|144:384,3,32,8|0|2|2,1:2|0:0|0:1|0:1,0:0:0:0:
192,384,19338,38,0,L|320:384,1,128,0|2,3:0|0:2,0:0:0:0:
336,384,19769,1,2,0:2:0:0:
352,384,19855,1,0,3:0:0:0:
448,384,20027,2,0,L|512:384,1,64,8|8,0:2|1:2,0:0:0:0:
512,384,20545,6,0,L|512:320,1,64,0|0,3:0|0:0,0:0:0:0:
512,160,20890,1,0,3:0:0:0:
512,160,21062,2,0,L|512:224,1,64,2|0,0:2|3:0,0:0:0:0:
512,320,21407,37,8,3:2:0:0:
512,384,21579,1,8,0:2:0:0:
448,384,21752,1,8,1:2:0:0:
384,384,21924,1,8,3:2:0:0:
320,384,22096,6,0,L|192:384,1,128,0|2,3:0|0:2,0:0:0:0:
176,384,22527,1,2,0:2:0:0:
160,384,22614,1,0,3:0:0:0:
64,384,22786,1,8,0:2:0:0:
64,384,22959,2,0,L|0:384,1,64,8|0,1:2|0:0,0:0:0:0:
0,288,23303,1,0,3:0:0:0:
0,288,23648,38,0,L|0:352,2,64,0|2|0,3:0|0:2|3:0,0:0:0:0:
0,192,24165,2,0,L|0:64,1,128,8|8,3:2|1:2,0:0:0:0:
128,0,24855,6,0,L|256:0,1,128,0|2,3:0|0:2,0:0:0:0:
272,0,25286,1,2,0:2:0:0:
288,0,25372,1,0,3:0:0:0:
448,0,25545,1,8,0:2:0:0:
448,0,25717,2,0,L|384:0,1,64,8|0,1:2|0:0,0:0:0:0:
512,80,26062,1,0,3:0:0:0:
512,80,26407,38,0,L|512:16,2,64,0|2|0,3:0|0:2|3:0,0:0:0:0:
512,240,26924,1,8,3:2:0:0:
512,240,27269,6,0,L|512:272,3,32,8|0|2|2,1:2|0:0|0:1|0:1,0:0:0:0:
512,320,27614,38,0,B|512:384|512:384|448:384,1,128,0|2,3:0|0:2,0:0:0:0:
432,384,28045,1,2,0:2:0:0:
416,384,28131,1,0,3:0:0:0:
320,384,28303,1,8,0:2:0:0:
320,384,28476,2,0,L|256:384,1,64,8|0,1:2|0:0,0:0:0:0:
160,384,28821,1,0,3:0:0:0:
160,384,29165,6,0,L|224:384,2,64,0|2|0,3:0|0:2|3:0,0:0:0:0:
64,384,29683,2,0,L|0:384,1,64,8|0,3:2|0:0,0:0:0:0:
0,256,30027,1,8,1:2:0:0:
0,256,30372,38,0,L|0:128,1,128,0|2,3:0|0:2,0:0:0:0:
0,112,30803,1,2,0:2:0:0:
0,96,30890,1,0,3:0:0:0:
64,0,31062,1,8,0:2:0:0:
64,0,31234,2,0,L|0:0,1,64,8|0,1:2|0:0,0:0:0:0:
160,0,31579,2,0,L|224:0,1,64,0|0,3:0|0:0,0:0:0:0:
320,0,31924,2,0,L|384:0,2,64,0|2|0,3:0|0:2|3:0,0:0:0:0:
160,0,32441,6,0,L|96:0,1,64,8|8,3:2|0:2,0:0:0:0:
80,0,32700,1,8,0:2:0:0:
64,0,32786,1,8,1:2:0:0:
0,80,32959,1,8,1:2:0:0:
0,96,33045,1,0,1:2:0:0:
0,112,33131,1,0,3:0:0:0:
0,304,33476,37,2,0:2:0:0:
0,208,33648,1,0,3:0:0:0:
0,320,33821,2,0,L|0:384,1,64,8|8,0:2|1:2,0:0:0:0:
96,384,34165,1,2,0:3:0:0:
112,384,34252,1,0,0:0:0:0:
128,384,34338,1,2,3:3:0:0:
256,384,34683,5,2,3:3:0:0:
240,384,34769,1,0,0:0:0:0:
224,384,34856,1,2,0:3:0:0:
352,384,35200,37,8,3:2:0:0:
416,384,35372,1,0,0:0:0:0:
480,384,35545,2,0,L|512:384,3,32,8|0|2|0,1:2|0:0|0:1|0:0,0:0:0:0:
512,256,35890,6,0,L|512:192,1,64,0|2,3:0|0:2,0:0:0:0:
512,176,36148,1,0,0:0:0:0:
512,160,36234,2,0,L|512:96,1,64,2|2,0:3|3:3,0:0:0:0:
448,0,36579,2,0,L|384:0,2,64,8|8|0,0:2|1:2|0:0,0:0:0:0:
512,96,37096,2,0,L|512:224,1,128,0|0,3:0|3:0,0:0:0:0:
512,384,37614,2,0,L|512:320,1,64,0|0,0:0|0:0,0:0:0:0:
512,224,37959,37,8,3:2:0:0:
416,384,38303,1,8,1:2:0:0:
512,224,38648,6,0,L|512:160,1,64,0|0,3:0|0:0,0:0:0:0:
512,64,38993,2,0,L|512:32,2,32,2|2|0,0:2|0:2|3:0,0:0:0:0:
416,0,39338,1,8,0:2:0:0:
416,0,39510,2,0,L|352:0,1,64,8|0,1:2|0:0,0:0:0:0:
192,0,39855,2,0,L|320:0,1,128,0|0,3:0|3:0,0:0:0:0:
416,0,40372,1,2,0:2:0:0:
192,0,40717,38,0,L|128:0,2,64,8|0|8,3:2|0:0|1:2,0:0:0:0:
0,96,41407,6,0,L|0:224,1,128,0|2,3:0|0:2,0:0:0:0:
0,240,41838,1,2,0:2:0:0:
0,256,41924,1,0,3:0:0:0:
64,384,42096,2,0,L|0:384,1,64,8|8,0:2|1:2,0:0:0:0:
0,384,42614,38,0,L|0:320,1,64,0|0,3:0|0:0,0:0:0:0:
112,384,42959,1,0,3:0:0:0:
112,384,43131,2,0,L|176:384,1,64,2|0,0:2|3:0,0:0:0:0:
320,384,43476,5,8,3:2:0:0:
384,384,43648,1,8,0:2:0:0:
448,384,43821,1,8,0:2:0:0:
512,384,43993,1,8,0:2:0:0:
512,320,44165,38,0,L|512:256,1,64,0|2,3:0|0:3,0:0:0:0:
512,240,44424,1,2,0:3:0:0:
512,224,44510,2,0,L|512:192,2,32,2|2|2,0:2|0:2|3:3,0:0:0:0:
512,96,44855,1,8,0:2:0:0:
512,96,45028,2,0,L|512:32,1,64,8|0,1:2|0:0,0:0:0:0:
352,0,45372,1,0,3:0:0:0:
352,0,45545,2,0,L|416:0,1,64,0|2,0:3|3:3,0:0:0:0:
256,0,45890,2,0,L|192:0,1,64,2|0,0:3|3:0,0:0:0:0:
64,0,46234,5,8,3:2:0:0:
256,0,46579,1,8,1:2:0:0:
64,0,46924,38,0,L|0:0,1,64,0|0,3:0|0:0,0:0:0:0:
0,96,47269,2,0,L|0:128,2,32,2|2|0,0:2|0:2|3:0,0:0:0:0:
128,0,47614,1,8,0:2:0:0:
128,0,47786,2,0,L|256:0,1,128,8|0,1:2|3:0,0:0:0:0:
416,0,48303,2,0,L|352:0,1,64,0|0,0:0|3:0,0:0:0:0:
256,0,48648,5,2,0:2:0:0:
512,0,48993,1,8,3:2:0:0:
512,0,49338,38,0,L|512:64,1,64,8|0,1:2|0:0,0:0:0:0:
512,160,49683,6,0,L|512:288,1,128,0|2,3:0|0:2,0:0:0:0:
512,304,50114,1,2,0:2:0:0:
512,320,50200,1,0,3:0:0:0:
384,384,50372,1,8,0:2:0:0:
384,384,50545,2,0,L|448:384,1,64,8|0,1:2|0:0,0:0:0:0:
288,384,50890,2,0,L|224:384,2,64,0|0|0,3:0|0:0|3:0,0:0:0:0:
384,384,51407,1,2,0:2:0:0:
128,384,51752,38,0,L|48:384,1,64,8|0,3:2|0:0,0:0:0:0:
0,304,52096,2,0,L|0:272,3,32,8|0|2|2,1:2|0:0|0:1|0:1,0:0:0:0:
0,224,52441,6,0,L|0:160,1,64,0|0,3:0|0:0,0:0:0:0:
0,32,52786,2,0,L|0:64,2,32,2|2|0,0:2|0:2|3:0,0:0:0:0:
112,0,53131,1,8,0:2:0:0:
112,0,53303,2,0,L|240:0,1,128,8|0,1:2|3:0,0:0:0:0:
336,0,53821,1,0,0:0:0:0:
512,0,54165,37,0,0:0:0:0:
512,96,54338,2,0,L|512:128,2,32,2|2|8,3:3|0:3|3:2,0:0:0:0:
512,224,54683,5,8,0:2:0:0:
512,240,54769,1,8,0:2:0:0:
512,256,54855,1,8,0:2:0:0:
512,352,55028,1,8,1:2:0:0:
512,368,55114,1,0,1:0:0:0:
512,384,55200,1,2,3:3:0:0:
0,96,58648,38,0,L|0:64,1,32,0|0,0:0|0:0,0:0:0:0:
64,0,58993,2,0,L|192:0,1,128,0|0,0:0|0:0,0:0:0:0:
352,0,60027,5,0,0:0:0:0:
352,0,60200,2,0,L|288:0,2,64,0|0|0,0:0|0:0|0:0,0:0:0:0:
448,0,61062,2,0,B|512:0|512:0|512:192,1,256,0|0,0:0|0:0,0:0:0:0:
512,288,62786,37,0,0:0:0:0:
512,288,62959,2,0,L|512:320,1,32,0|0,0:0|0:0,0:0:0:0:
448,384,63303,2,0,L|400:384,1,48,0|0,0:0|0:0,0:0:0:0:
320,384,63821,2,0,B|0:384|0:384|0:320,1,384,0|0,0:0|0:0,0:0:0:0:
0,192,66234,6,0,L|0:96,1,96.0000036621095,0|0,3:0|0:0,0:0:0:0:
0,0,66752,1,0,3:0:0:0:
0,0,66924,2,0,L|48:0,2,48.0000018310548,0|2|8,0:0|0:1|1:2,0:0:0:0:
0,96,67441,38,0,L|0:240,1,144.000005493164,0|0,3:0|0:1,0:0:0:0:
0,336,68131,2,0,B|0:384|0:384|96:384,1,144.000005493164,0|8,0:0|1:2,0:0:0:0:
272,384,68993,6,0,L|224:384,2,48.0000018310548,0|2|0,3:0|0:1|0:0,0:0:0:0:
368,384,69510,2,0,L|416:384,1,48.0000018310548,0|0,3:0|0:0,0:0:0:0:
512,384,69855,2,0,L|512:336,1,48.0000018310548,8|2,1:2|0:1,0:0:0:0:
512,240,70200,2,0,L|512:192,1,48.0000018310548,0|2,3:0|0:1,0:0:0:0:
512,96,70545,2,0,B|512:0|512:0|368:0,1,240.000009155274,0|8,0:0|1:2,0:0:0:0:
272,0,71579,37,0,0:0:0:0:
256,0,71665,1,2,0:1:0:0:
240,0,71752,2,0,L|144:0,1,96.0000036621095,0|2,3:0|0:2,0:0:0:0:
48,0,72269,2,0,B|0:0|0:0|0:16,2,60.0000022888184,2|0|2,3:1|0:0|0:1,0:0:0:0:
144,0,72959,6,0,L|480:0,1,336.000012817383,0|8,3:0|1:2,0:0:0:0:
512,128,74510,38,0,L|512:192,1,60.0000022888184,2|0,3:1|0:0,0:0:0:0:
512,288,74941,2,0,L|512:352,2,60.0000022888184,2|0|8,0:2|0:0|1:2,0:0:0:0:
512,128,75717,6,0,L|512:32,1,96.0000036621095,0|0,3:0|0:0,0:0:0:0:
416,0,76234,38,0,L|352:0,1,64,0|0,3:0|0:0,0:0:0:0:
256,0,76579,2,0,L|192:0,1,64,0|0,3:0|0:0,0:0:0:0:
96,0,76924,1,8,1:2:0:0:
0,0,77096,1,8,1:2:0:0:
0,16,77183,1,8,1:2:0:0:
0,32,77269,22,0,L|0:96,1,64,0|0,3:0|0:0,0:0:0:0:
0,192,77614,2,0,L|0:224,2,32,2|2|2,0:2|0:2|3:3,0:0:0:0:
0,320,77959,2,0,L|0:384,2,64,8|8|2,0:2|1:2|0:3,0:0:0:0:
96,384,78476,6,0,L|160:384,1,64,0|0,3:0|0:0,0:0:0:0:
320,384,78821,2,0,L|256:384,2,64,2|2|0,3:3|0:2|3:0,0:0:0:0:
416,384,79338,1,8,3:2:0:0:
416,384,79683,1,8,1:2:0:0:
512,384,80027,6,0,L|512:320,1,64,0|0,3:0|0:0,0:0:0:0:
512,224,80372,1,2,0:2:0:0:
512,208,80459,1,2,0:2:0:0:
512,192,80545,1,0,3:0:0:0:
512,96,80717,1,8,0:2:0:0:
512,0,80890,1,8,1:2:0:0:
352,0,81234,5,0,3:0:0:0:
192,0,81579,1,0,3:0:0:0:
96,0,81751,1,2,0:2:0:0:
0,0,81924,1,2,3:0:0:0:
0,0,82096,2,0,L|0:64,1,64,8|0,3:2|0:0,0:0:0:0:
0,224,82441,2,0,L|0:160,1,64,8|0,1:2|0:0,0:0:0:0:
0,64,82786,6,0,B|0:0|0:0|64:0,1,128,0|2,3:0|0:3,0:0:0:0:
80,0,83217,1,2,0:3:0:0:
96,0,83303,1,2,3:3:0:0:
192,0,83476,2,0,L|256:0,2,64,8|8|2,0:2|1:2|0:3,0:0:0:0:
352,0,83993,6,0,L|416:0,1,64,0|2,3:0|0:3,0:0:0:0:
512,64,84338,2,0,L|512:0,1,64,2|2,3:3|0:2,0:0:0:0:
512,160,84683,1,2,3:3:0:0:
512,160,84855,2,0,L|512:224,1,64,8|0,3:2|0:0,0:0:0:0:
512,320,85200,2,0,L|512:352,3,32,8|0|2|2,1:2|0:0|0:1|0:1,0:0:0:0:
512,384,85545,6,0,L|384:384,1,128,0|2,3:0|0:3,0:0:0:0:
368,384,85976,1,2,0:3:0:0:
352,384,86062,1,0,3:0:0:0:
256,384,86234,1,8,0:2:0:0:
160,384,86407,1,8,0:2:0:0:
0,384,86752,5,2,3:3:0:0:
0,224,87096,1,0,3:0:0:0:
0,224,87269,2,0,L|0:160,1,64,2|2,0:2|3:3,0:0:0:0:
0,64,87614,37,8,3:2:0:0:
0,0,87786,1,8,0:2:0:0:
64,0,87959,1,8,0:2:0:0:
128,0,88131,1,8,1:2:0:0:
192,0,88303,22,0,L|256:0,1,64,0|0,3:0|0:0,0:0:0:0:
384,0,88648,2,0,L|352:0,2,32,2|2|2,0:2|0:2|3:0,0:0:0:0:
512,0,88993,2,0,L|512:64,2,64,8|8|2,0:2|1:2|0:3,0:0:0:0:
512,160,89510,6,0,L|512:224,1,64,0|0,3:0|0:0,0:0:0:0:
512,384,89855,2,0,L|512:320,2,64,2|2|0,3:0|0:2|3:0,0:0:0:0:
416,384,90372,1,8,3:2:0:0:
416,384,90717,1,8,1:2:0:0:
320,384,91062,6,0,L|256:384,1,64,0|0,3:0|0:0,0:0:0:0:
160,384,91407,1,2,0:2:0:0:
144,384,91493,1,2,0:2:0:0:
128,384,91579,1,0,3:0:0:0:
0,384,91752,1,8,0:2:0:0:
0,288,91924,1,8,1:2:0:0:
0,128,92269,5,0,3:0:0:0:
96,0,92614,1,0,3:0:0:0:
192,0,92786,1,2,0:2:0:0:
288,0,92959,1,2,3:3:0:0:
288,0,93131,2,0,L|352:0,1,64,8|0,3:2|0:0,0:0:0:0:
448,0,93476,2,0,L|480:0,3,32,8|0|2|0,1:2|0:0|0:1|0:0,0:0:0:0:
512,0,93821,6,0,L|512:128,1,128,0|2,3:0|0:3,0:0:0:0:
512,144,94252,1,2,0:3:0:0:
512,160,94338,1,2,3:3:0:0:
512,256,94510,1,8,0:2:0:0:
512,256,94683,2,0,L|512:320,1,64,8|2,1:2|0:3,0:0:0:0:
432,384,95027,6,0,L|368:384,2,64,0|2|2,3:0|0:3|3:3,0:0:0:0:
512,320,95545,2,0,L|512:256,1,64,2|2,0:2|3:3,0:0:0:0:
512,160,95890,1,8,3:2:0:0:
512,160,96234,1,8,1:2:0:0:
512,64,96579,6,0,B|512:0|512:0|448:0,1,128,0|2,3:0|0:3,0:0:0:0:
432,0,97010,1,2,0:3:0:0:
416,0,97096,1,0,3:0:0:0:
320,0,97269,1,8,0:2:0:0:
320,0,97441,2,0,L|256:0,1,64,8|0,1:2|0:0,0:0:0:0:
96,0,97786,5,0,3:0:0:0:
96,0,97959,2,0,L|160:0,1,64,2|0,0:3|3:0,0:0:0:0:
0,0,98303,2,0,L|0:64,1,64,2|2,0:2|3:3,0:0:0:0:
0,160,98648,1,8,3:2:0:0:
0,256,98820,37,8,0:2:0:0:
0,272,98907,1,8,0:2:0:0:
0,288,98993,1,8,0:2:0:0:
0,384,99165,1,8,0:2:0:0:
16,384,99251,1,8,0:2:0:0:
32,384,99338,1,0,3:0:0:0:
224,384,99683,22,0,L|192:384,2,32,2|2|0,0:3|0:3|3:0,0:0:0:0:
320,384,100027,1,8,0:2:0:0:
320,384,100200,2,0,L|448:384,1,128,8|0,1:2|3:0,0:0:0:0:
512,304,100717,2,0,L|512:240,1,64,0|0,0:0|3:0,0:0:0:0:
512,80,101062,6,0,L|512:144,1,64,2|0,0:3|3:0,0:0:0:0:
464,0,101407,2,0,L|400:0,2,64,8|0|8,3:2|0:0|0:2,0:0:0:0:
256,0,102096,37,0,3:0:0:0:
256,0,102269,2,0,L|192:0,1,64,2|2,0:3|0:2,0:0:0:0:
176,0,102527,1,2,0:2:0:0:
160,0,102614,1,0,3:0:0:0:
0,0,102786,2,0,L|64:0,2,64,8|8|0,0:2|1:2|0:0,0:0:0:0:
0,96,103303,6,0,L|0:224,1,128,0|2,3:0|3:3,0:0:0:0:
0,384,103821,1,2,0:2:0:0:
0,384,104165,38,0,L|0:320,1,64,8|0,3:2|0:0,0:0:0:0:
0,224,104510,2,0,L|0:160,1,64,8|0,1:2|0:0,0:0:0:0:
0,0,104855,6,0,L|0:64,1,64,0|0,3:0|0:0,0:0:0:0:
96,0,105200,2,0,L|128:0,2,32,2|2|0,0:2|0:2|3:0,0:0:0:0:
224,0,105545,1,8,0:2:0:0:
224,0,105717,2,0,L|352:0,1,128,8|0,1:2|3:0,0:0:0:0:
512,0,106234,38,0,L|448:0,1,64,0|0,0:0|3:0,0:0:0:0:
288,0,106579,2,0,L|352:0,1,64,2|0,0:2|3:0,0:0:0:0:
512,0,106924,5,8,3:2:0:0:
288,0,107269,1,8,0:2:0:0:
512,0,107614,38,0,L|512:128,1,128,0|2,3:0|0:2,0:0:0:0:
512,144,108045,1,2,0:2:0:0:
512,160,108131,1,0,3:0:0:0:
512,256,108303,2,0,L|512:320,1,64,8|8,0:2|1:2,0:0:0:0:
432,384,108648,1,0,0:3:0:0:
432,384,108821,6,0,L|304:384,1,128,0|0,3:0|3:0,0:0:0:0:
192,384,109338,2,0,L|128:384,1,64,2|0,0:3|3:0,0:0:0:0:
0,384,109683,37,8,3:2:0:0:
0,320,109855,1,8,0:2:0:0:
0,256,110028,1,8,0:2:0:0:
0,192,110200,1,8,0:2:0:0:
0,128,110372,6,0,L|0:48,1,64,0|0,3:0|0:0,0:0:0:0:
64,0,110717,1,2,0:2:0:0:
80,0,110803,1,2,0:2:0:0:
96,0,110890,1,0,3:0:0:0:
192,0,111062,38,0,L|240:0,5,48.0000018310548,8|2|2|2|2|2,0:2|0:2|0:2|0:1|0:2|0:1,0:0:0:0:
288,0,111752,6,0,L|416:0,1,128,2|2,0:1|0:2,0:0:0:0:
512,64,112269,1,0,3:0:0:0:
512,64,112441,2,0,L|512:0,1,64,8|0,3:2|0:0,0:0:0:0:
512,160,112786,2,0,L|512:224,1,64,8|2,0:2|0:2,0:0:0:0:
512,384,113131,38,0,L|512:256,1,128,0|2,3:0|0:2,0:0:0:0:
512,240,113562,1,2,0:2:0:0:
512,224,113648,1,0,3:0:0:0:
512,128,113821,1,8,0:2:0:0:
512,128,113993,2,0,L|512:64,2,64,8|0|0,1:2|0:0|3:0,0:0:0:0:
448,0,114510,6,0,L|384:0,1,64,2|0,0:3|3:0,0:0:0:0:
224,0,114855,2,0,L|288:0,1,64,2|0,0:2|3:0,0:0:0:0:
128,0,115200,1,8,3:2:0:0:
128,0,115545,1,8,0:2:0:0:
0,0,115890,38,0,L|0:128,1,128,0|2,3:0|0:2,0:0:0:0:
0,144,116321,1,2,0:2:0:0:
0,160,116407,1,0,3:0:0:0:
0,320,116579,2,0,L|0:256,2,64,8|8|0,0:2|1:2|0:0,0:0:0:0:
80,384,117096,6,0,L|208:384,1,128,0|0,3:0|3:0,0:0:0:0:
368,384,117614,2,0,L|304:384,1,64,2|0,0:2|3:0,0:0:0:0:
464,384,117959,1,8,3:2:0:0:
464,384,118303,38,0,L|496:384,3,32,8|0|2|2,0:2|0:0|0:1|0:1,0:0:0:0:
512,352,118648,6,0,L|512:224,1,128,0|2,3:0|0:2,0:0:0:0:
512,208,119079,1,2,0:2:0:0:
512,192,119165,1,0,3:0:0:0:
512,96,119338,2,0,L|512:32,1,64,8|8,0:2|1:2,0:0:0:0:
368,0,119683,37,0,0:0:0:0:
368,0,119855,2,0,L|432:0,1,64,0|0,3:0|3:0,0:0:0:0:
272,0,120200,2,0,L|208:0,1,64,2|2,0:3|0:2,0:0:0:0:
192,0,120459,1,2,0:2:0:0:
176,0,120545,1,0,3:0:0:0:
16,0,120717,2,0,L|80:0,2,64,8|8|0,0:2|0:2|0:0,0:0:0:0:
0,128,121234,21,0,3:0:0:0:
0,128,121407,2,0,L|0:256,1,128,0|2,3:0|0:2,0:0:0:0:
0,384,121924,5,0,3:0:0:0:
0,384,122096,2,0,L|128:384,1,128,0|2,3:0|0:2,0:0:0:0:
256,384,122614,37,0,0:0:0:0:
256,384,122786,2,0,L|384:384,1,128,2|2,0:3|0:1,0:0:0:0:
512,384,123303,5,0,0:0:0:0:
512,384,123476,2,0,L|512:320,1,64,8|0,0:2|0:0,0:0:0:0:
512,192,123821,1,8,0:2:0:0:
256,192,124165,12,0,129683,0:0:0:0:
