osu file format v14

[General]
AudioFilename: audio.mp3
AudioLeadIn: 0
PreviewTime: 128738
Countdown: 0
SampleSet: Normal
StackLeniency: 0.7
Mode: 1
LetterboxInBreaks: 0
WidescreenStoryboard: 0

[Editor]
DistanceSpacing: 0.8
BeatDivisor: 8
GridSize: 32
TimelineZoom: 4.499999

[Metadata]
Title:Nisemono
TitleUnicode:偽物
Artist:Frums
ArtistUnicode:Frums
Creator:_yu68
Version:Pseudo
Source:osu!
Tags:frumsdotxyz featured artist fa split electronic instrumental
BeatmapID:2322902
BeatmapSetID:1111785

[Difficulty]
HPDrainRate:4
CircleSize:5
OverallDifficulty:8
ApproachRate:5
SliderMultiplier:1.4
SliderTickRate:1

[Events]
//Background and Video events
0,0,"bg.jpg",0,0
//Break Periods
2,128988,135588
2,159488,165067
2,231811,236811
2,321411,336011
//Storyboard Layer 0 (Background)
//Storyboard Layer 1 (Fail)
//Storyboard Layer 2 (Pass)
//Storyboard Layer 3 (Foreground)
//Storyboard Layer 4 (Overlay)
//Storyboard Sound Samples

[TimingPoints]
-12,800,4,1,0,30,1,0
25588,-66.6666666666667,4,1,0,60,0,0
38388,-55.5555555555556,4,1,0,60,0,0
51138,-50,4,1,0,70,0,0
76788,400,4,1,0,50,1,0
83538,-100,4,1,0,60,0,0
86738,-100,4,1,0,70,0,0
89538,-100,4,1,0,80,0,0
115163,-100,4,1,0,60,0,0
128788,400,5,1,0,60,1,0
128838,-100,5,1,0,50,0,0
136738,-100,5,1,0,60,0,0
144738,-100,5,1,0,70,0,0
146588,400,5,1,0,70,1,0
148388,400,5,1,0,70,1,0
150188,400,5,1,0,70,1,0
151988,400,5,1,0,70,1,0
153788,400,5,1,0,70,1,0
155588,400,5,1,0,70,1,0
157388,400,5,1,0,70,1,0
159288,400,5,1,0,70,1,0
159338,-100,5,1,0,50,0,0
161088,400,5,1,0,50,1,0
162888,394.736842105263,5,1,0,50,1,0
163677,382.165605095541,5,1,0,50,1,8
164633,368.098159509202,5,1,0,50,1,0
165369,359.281437125748,5,1,0,50,1,8
166217,-100,5,1,0,80,0,0
166267,352.941176470588,5,1,0,80,1,0
166973,350.877192982456,5,1,0,80,1,8
167324,348.837209302326,5,1,0,80,1,8
167847,346.820809248555,5,1,0,80,1,0
168541,344.827586206897,5,1,0,80,1,8
168886,342.857142857143,5,1,0,80,1,8
169400,340.909090909091,5,1,0,80,1,0
169570,-95.2380952380952,5,1,0,80,0,0
169740,-91.743119266055,5,1,0,80,0,0
169911,-88.4955752212389,5,1,0,80,0,0
170081,-86.9565217391304,5,1,0,80,0,0
170252,-83.3333333333333,5,1,0,80,0,0
170422,-80.6451612903226,5,1,0,80,0,0
170593,-78.125,5,1,0,80,0,0
170764,337.078651685393,5,1,0,80,1,8
170764,-75.187969924812,5,1,0,80,0,0
170932,337.078651685393,5,1,0,80,1,0
170932,-75.187969924812,5,1,0,80,0,0
171438,335.195530726257,6,1,0,80,1,8
171438,-75.187969924812,6,1,0,80,0,0
172443,335.195530726257,6,1,0,80,1,0
172443,-75.187969924812,6,1,0,80,0,0
173198,333.333333333333,6,1,0,80,1,1
173198,-75.187969924812,6,1,0,80,0,1
181198,333.333333333333,7,1,0,80,1,1
181198,-75.187969924812,7,1,0,80,0,1
190481,-75.187969924812,7,1,0,70,0,1
190531,333.333333333333,3,1,0,70,1,0
190531,-100,3,1,0,70,0,0
191481,-100,3,1,0,80,0,0
191531,333.333333333333,6,1,0,80,1,1
191531,-66.6666666666667,6,1,0,80,0,1
199531,333.333333333333,7,1,0,80,1,1
199531,-66.6666666666667,7,1,0,80,0,1
208864,333.333333333333,4,1,0,80,1,0
208864,-66.6666666666667,4,1,0,80,0,0
208872,-100,4,1,0,60,0,0
211481,-100,4,1,0,80,0,0
211530,333.333333333333,6,1,0,80,1,8
211531,260.869565217391,6,1,0,80,1,0
217791,260.869565217391,6,1,0,80,1,8
217792,260.869565217391,7,1,0,80,1,0
225096,258.620689655172,3,1,0,80,1,0
225096,-101.010101010101,3,1,0,80,0,0
225871,258.620689655172,3,1,0,80,1,8
225872,260.869565217391,3,1,0,80,1,0
230567,260.869565217391,4,1,0,80,1,0
231610,260.869565217391,4,1,0,80,1,8
231611,200,4,1,0,80,1,0
231611,-129.87012987013,4,1,0,80,0,0
231661,-200,4,1,0,30,0,0
237961,-200,4,1,0,60,0,0
243861,-200,4,1,0,70,0,0
256761,-100,4,1,0,80,0,0
269986,-100,4,1,0,85,0,0
295586,-100,4,1,0,90,0,0
295611,-100,4,1,0,90,0,1
321211,1000,4,1,0,80,1,0
321211,-13.3333333333333,4,1,0,80,0,0
321261,-100,4,1,0,30,0,0
325211,-135.135135135135,4,1,0,30,0,0
329211,-200,4,1,0,30,0,0
333211,-303.030303030303,4,1,0,30,0,0
337161,-100,4,1,0,70,0,0
369461,-100,4,1,0,60,0,0
369711,-100,4,1,0,50,0,0
369961,-100,4,1,0,40,0,0
370211,-100,4,1,0,30,0,0
370461,-100,4,1,0,20,0,0
370711,-100,4,1,0,10,0,0
370961,-100,4,1,0,5,0,0
373148,-3333.33333333333,4,1,0,5,0,0
373211,-1428.57142857143,4,1,0,5,0,0
377211,-909.090909090909,4,1,0,5,0,0
381211,-625,4,1,0,5,0,0
385211,-10,4,1,0,5,0,0

[HitObjects]
256,192,25788,5,8,0:0:0:0:
256,192,25988,1,8,0:0:0:0:
256,192,26288,1,8,0:0:0:0:
256,192,26588,1,8,0:0:0:0:
256,192,26988,1,8,0:0:0:0:
256,192,27188,1,8,0:0:0:0:
256,192,27788,1,8,0:0:0:0:
256,192,27888,1,8,0:0:0:0:
256,192,27988,1,8,0:0:0:0:
256,192,28588,1,8,0:0:0:0:
256,192,28688,1,8,0:0:0:0:
256,192,28788,1,8,0:0:0:0:
256,192,29088,1,8,0:0:0:0:
256,192,29188,1,8,0:0:0:0:
256,192,29488,1,8,0:0:0:0:
256,192,29588,1,8,0:0:0:0:
256,192,29888,1,8,0:0:0:0:
256,192,30188,1,8,0:0:0:0:
256,192,30488,1,8,0:0:0:0:
256,192,32188,1,8,0:0:0:0:
256,192,32388,1,8,0:0:0:0:
256,192,32688,1,8,0:0:0:0:
256,192,32988,1,8,0:0:0:0:
256,192,33088,1,8,0:0:0:0:
256,192,33188,1,8,0:0:0:0:
256,192,33388,1,8,0:0:0:0:
256,192,33688,1,8,0:0:0:0:
256,192,33988,1,8,0:0:0:0:
256,192,34088,1,8,0:0:0:0:
256,192,34188,1,8,0:0:0:0:
256,192,34288,1,8,0:0:0:0:
256,192,34388,1,8,0:0:0:0:
256,192,34488,1,8,0:0:0:0:
256,192,34588,1,8,0:0:0:0:
256,192,34888,1,8,0:0:0:0:
256,192,35188,1,8,0:0:0:0:
256,192,35388,1,8,0:0:0:0:
256,192,35588,1,8,0:0:0:0:
256,192,38388,1,0,0:0:0:0:
256,192,38788,1,0,0:0:0:0:
256,192,39188,1,0,0:0:0:0:
256,192,39488,1,8,0:0:0:0:
256,192,39588,1,0,0:0:0:0:
256,192,39788,1,8,0:0:0:0:
256,192,39988,1,0,0:0:0:0:
256,192,40088,1,8,0:0:0:0:
256,192,40388,1,0,0:0:0:0:
256,192,40688,1,0,0:0:0:0:
256,192,40788,1,8,0:0:0:0:
256,192,40988,1,0,0:0:0:0:
256,192,41188,1,8,0:0:0:0:
256,192,41288,1,0,0:0:0:0:
256,192,41588,1,0,0:0:0:0:
256,192,41888,1,8,0:0:0:0:
256,192,41988,1,0,0:0:0:0:
256,192,42188,1,8,0:0:0:0:
256,192,42388,1,0,0:0:0:0:
256,192,42788,1,0,0:0:0:0:
256,192,43188,1,0,0:0:0:0:
256,192,43488,1,8,0:0:0:0:
256,192,43588,1,0,0:0:0:0:
256,192,43788,1,8,0:0:0:0:
256,192,43888,1,8,0:0:0:0:
256,192,43988,1,0,0:0:0:0:
256,192,44188,1,8,0:0:0:0:
256,192,44288,1,0,0:0:0:0:
256,192,44488,1,0,0:0:0:0:
256,192,44788,1,0,0:0:0:0:
256,192,44988,1,8,0:0:0:0:
256,192,45188,1,0,0:0:0:0:
256,192,45388,1,0,0:0:0:0:
256,192,45488,1,8,0:0:0:0:
256,192,45588,1,0,0:0:0:0:
256,192,45688,1,0,0:0:0:0:
256,192,45788,1,8,0:0:0:0:
256,192,45888,1,8,0:0:0:0:
256,192,46088,1,8,0:0:0:0:
256,192,46288,1,8,0:0:0:0:
256,192,46388,1,0,0:0:0:0:
256,192,46688,1,0,0:0:0:0:
256,192,46788,1,8,0:0:0:0:
256,192,46988,1,0,0:0:0:0:
256,192,47188,1,8,0:0:0:0:
256,192,47288,1,0,0:0:0:0:
256,192,47488,1,0,0:0:0:0:
256,192,47588,1,8,0:0:0:0:
256,192,47788,1,8,0:0:0:0:
256,192,47888,1,8,0:0:0:0:
256,192,47988,1,0,0:0:0:0:
256,192,48288,1,8,0:0:0:0:
256,192,48388,1,0,0:0:0:0:
256,192,48588,1,8,0:0:0:0:
256,192,48788,1,0,0:0:0:0:
256,192,48888,1,8,0:0:0:0:
256,192,49088,1,8,0:0:0:0:
256,192,49188,1,0,0:0:0:0:
256,192,49388,1,0,0:0:0:0:
256,192,49488,1,8,0:0:0:0:
256,192,49588,1,0,0:0:0:0:
256,192,49788,1,8,0:0:0:0:
256,192,49988,1,0,0:0:0:0:
256,192,50088,1,8,0:0:0:0:
256,192,50188,1,8,0:0:0:0:
256,192,50288,1,8,0:0:0:0:
256,192,50388,1,0,0:0:0:0:
256,192,50588,1,8,0:0:0:0:
256,192,50688,1,8,0:0:0:0:
256,192,50788,1,0,0:0:0:0:
256,192,50888,1,8,0:0:0:0:
256,192,51188,1,0,0:0:0:0:
256,192,51388,1,0,0:0:0:0:
256,192,51488,1,0,0:0:0:0:
256,192,51588,1,0,0:0:0:0:
256,192,51888,1,0,0:0:0:0:
256,192,51988,1,8,0:0:0:0:
256,192,52188,1,8,0:0:0:0:
256,192,52388,1,0,0:0:0:0:
256,192,52588,1,0,0:0:0:0:
256,192,52688,1,8,0:0:0:0:
256,192,52788,1,0,0:0:0:0:
256,192,53088,1,8,0:0:0:0:
256,192,53188,1,0,0:0:0:0:
256,192,53388,1,8,0:0:0:0:
256,192,53454,1,8,0:0:0:0:
256,192,53521,1,8,0:0:0:0:
256,192,53588,1,0,0:0:0:0:
256,192,53888,1,8,0:0:0:0:
256,192,53988,1,0,0:0:0:0:
256,192,54188,1,0,0:0:0:0:
256,192,54288,1,8,0:0:0:0:
256,192,54388,1,0,0:0:0:0:
256,192,54488,1,0,0:0:0:0:
256,192,54688,1,8,0:0:0:0:
256,192,54788,1,0,0:0:0:0:
256,192,54888,1,0,0:0:0:0:
256,192,55088,1,8,0:0:0:0:
256,192,55188,1,0,0:0:0:0:
256,192,55388,1,0,0:0:0:0:
256,192,55488,1,8,0:0:0:0:
256,192,55588,1,0,0:0:0:0:
256,192,55788,1,8,0:0:0:0:
256,192,55988,1,0,0:0:0:0:
256,192,56088,1,0,0:0:0:0:
256,192,56188,1,8,0:0:0:0:
256,192,56388,1,0,0:0:0:0:
256,192,56588,1,0,0:0:0:0:
256,192,56688,1,0,0:0:0:0:
256,192,56788,1,8,0:0:0:0:
256,192,57088,1,8,0:0:0:0:
256,192,57188,1,0,0:0:0:0:
256,192,57288,1,8,0:0:0:0:
256,192,57488,1,8,0:0:0:0:
256,192,57538,1,8,0:0:0:0:
256,192,57588,1,0,0:0:0:0:
256,192,57788,1,8,0:0:0:0:
256,192,57888,1,8,0:0:0:0:
256,192,57988,1,0,0:0:0:0:
256,192,58288,1,0,0:0:0:0:
256,192,58388,1,8,0:0:0:0:
256,192,58588,1,0,0:0:0:0:
256,192,58654,1,8,0:0:0:0:
256,192,58721,1,8,0:0:0:0:
256,192,58788,1,0,0:0:0:0:
256,192,58988,1,8,0:0:0:0:
256,192,59188,1,0,0:0:0:0:
256,192,59288,1,8,0:0:0:0:
256,192,59488,1,8,0:0:0:0:
256,192,59588,1,0,0:0:0:0:
256,192,59688,1,8,0:0:0:0:
256,192,59788,1,0,0:0:0:0:
256,192,59888,1,0,0:0:0:0:
256,192,59988,1,8,0:0:0:0:
256,192,60088,1,8,0:0:0:0:
256,192,60188,1,0,0:0:0:0:
256,192,60388,1,0,0:0:0:0:
256,192,60488,1,8,0:0:0:0:
256,192,60688,1,8,0:0:0:0:
256,192,60788,1,0,0:0:0:0:
256,192,60988,1,8,0:0:0:0:
256,192,61188,1,0,0:0:0:0:
256,192,61288,1,0,0:0:0:0:
256,192,61488,1,0,0:0:0:0:
256,192,61588,1,8,0:0:0:0:
256,192,61788,1,8,0:0:0:0:
256,192,61888,1,0,0:0:0:0:
256,192,61988,1,0,0:0:0:0:
256,192,62188,1,8,0:0:0:0:
256,192,62388,1,0,0:0:0:0:
256,192,62488,1,0,0:0:0:0:
256,192,62588,1,8,0:0:0:0:
256,192,62788,1,0,0:0:0:0:
256,192,63088,1,0,0:0:0:0:
256,192,63188,1,8,0:0:0:0:
256,192,63288,1,8,0:0:0:0:
256,192,63488,1,0,0:0:0:0:
256,192,63588,1,8,0:0:0:0:
256,192,63688,1,8,0:0:0:0:
256,192,63788,1,0,0:0:0:0:
256,192,63888,1,8,0:0:0:0:
256,192,63988,1,0,0:0:0:0:
256,192,64288,1,8,0:0:0:0:
256,192,64388,1,0,0:0:0:0:
256,192,64588,1,0,0:0:0:0:
256,192,64788,1,8,0:0:0:0:
256,192,64988,1,0,0:0:0:0:
256,192,65088,1,8,0:0:0:0:
256,192,65188,1,0,0:0:0:0:
256,192,65388,1,8,0:0:0:0:
256,192,65588,1,0,0:0:0:0:
256,192,65688,1,8,0:0:0:0:
256,192,65888,1,8,0:0:0:0:
256,192,65988,1,0,0:0:0:0:
256,192,66188,1,8,0:0:0:0:
256,192,66288,1,0,0:0:0:0:
256,192,66388,1,8,0:0:0:0:
256,192,66488,1,8,0:0:0:0:
256,192,66688,1,8,0:0:0:0:
256,192,66788,1,0,0:0:0:0:
256,192,66888,1,8,0:0:0:0:
256,192,67088,1,8,0:0:0:0:
256,192,67188,1,0,0:0:0:0:
256,192,67488,1,0,0:0:0:0:
256,192,67588,1,0,0:0:0:0:
256,192,67788,1,0,0:0:0:0:
256,192,67988,1,8,0:0:0:0:
256,192,68188,1,8,0:0:0:0:
256,192,68288,1,0,0:0:0:0:
256,192,68388,1,0,0:0:0:0:
256,192,68488,1,8,0:0:0:0:
256,192,68588,1,0,0:0:0:0:
256,192,68788,1,0,0:0:0:0:
256,192,68888,1,0,0:0:0:0:
256,192,68988,1,8,0:0:0:0:
256,192,69188,1,0,0:0:0:0:
256,192,69388,1,0,0:0:0:0:
256,192,69488,1,0,0:0:0:0:
256,192,69588,1,8,0:0:0:0:
256,192,69888,1,8,0:0:0:0:
256,192,69988,1,0,0:0:0:0:
256,192,70088,1,8,0:0:0:0:
256,192,70288,1,8,0:0:0:0:
256,192,70338,1,8,0:0:0:0:
256,192,70388,1,0,0:0:0:0:
256,192,70588,1,8,0:0:0:0:
256,192,70788,1,0,0:0:0:0:
256,192,70988,1,0,0:0:0:0:
256,192,71088,1,8,0:0:0:0:
256,192,71188,1,8,0:0:0:0:
256,192,71288,1,0,0:0:0:0:
256,192,71388,1,0,0:0:0:0:
256,192,71488,1,8,0:0:0:0:
256,192,71588,1,0,0:0:0:0:
256,192,71688,1,8,0:0:0:0:
256,192,71888,1,8,0:0:0:0:
256,192,71988,1,0,0:0:0:0:
256,192,72088,1,0,0:0:0:0:
256,192,72288,1,8,0:0:0:0:
256,192,72388,1,0,0:0:0:0:
256,192,72588,1,0,0:0:0:0:
256,192,72788,1,8,0:0:0:0:
256,192,72888,1,0,0:0:0:0:
256,192,73088,1,0,0:0:0:0:
256,192,73188,1,8,0:0:0:0:
256,192,73388,1,8,0:0:0:0:
256,192,73454,1,8,0:0:0:0:
256,192,73521,1,8,0:0:0:0:
256,192,73588,1,0,0:0:0:0:
256,192,73888,1,8,0:0:0:0:
256,192,73988,1,0,0:0:0:0:
256,192,74188,1,8,0:0:0:0:
256,192,74388,1,0,0:0:0:0:
256,192,74488,1,8,0:0:0:0:
256,192,74588,1,0,0:0:0:0:
256,192,74688,1,0,0:0:0:0:
256,192,74788,1,8,0:0:0:0:
256,192,74988,1,8,0:0:0:0:
256,192,75088,1,0,0:0:0:0:
256,192,75188,1,0,0:0:0:0:
256,192,75388,1,8,0:0:0:0:
256,192,75588,1,0,0:0:0:0:
256,192,75688,1,0,0:0:0:0:
256,192,75788,1,8,0:0:0:0:
256,192,75888,1,8,0:0:0:0:
256,192,75988,1,0,0:0:0:0:
256,192,76088,1,8,0:0:0:0:
256,192,76188,1,8,0:0:0:0:
256,192,76288,1,8,0:0:0:0:
256,192,76388,1,0,0:0:0:0:
256,192,76438,1,0,0:0:0:0:
256,192,76488,1,0,0:0:0:0:
256,192,76538,1,0,0:0:0:0:
256,192,76588,1,8,0:0:0:0:
256,192,76638,1,8,0:0:0:0:
256,192,76688,1,8,0:0:0:0:
256,192,76738,1,8,0:0:0:0:
256,192,79988,5,8,0:0:0:0:
256,192,80088,1,8,0:0:0:0:
256,192,80588,1,8,0:0:0:0:
256,192,80688,1,8,0:0:0:0:
256,192,81188,1,8,0:0:0:0:
256,192,81288,1,8,0:0:0:0:
256,192,81588,1,8,0:0:0:0:
256,192,81688,1,8,0:0:0:0:
256,192,82188,1,8,0:0:0:0:
256,192,82288,1,8,0:0:0:0:
256,192,82788,1,8,0:0:0:0:
256,192,82888,1,8,0:0:0:0:
256,192,83188,1,8,0:0:0:0:
256,192,83288,1,8,0:0:0:0:
256,192,83588,1,8,0:0:0:0:
256,192,83788,1,8,0:0:0:0:
256,192,83888,1,8,0:0:0:0:
256,192,84188,1,8,0:0:0:0:
256,192,84388,1,8,0:0:0:0:
256,192,84488,1,8,0:0:0:0:
256,192,84788,1,8,0:0:0:0:
256,192,84888,1,8,0:0:0:0:
256,192,85188,1,8,0:0:0:0:
256,192,85388,1,8,0:0:0:0:
256,192,85488,1,8,0:0:0:0:
256,192,85788,1,8,0:0:0:0:
256,192,85988,1,8,0:0:0:0:
256,192,86088,1,8,0:0:0:0:
256,192,86388,1,8,0:0:0:0:
256,192,86488,1,8,0:0:0:0:
256,192,86788,1,8,0:0:0:0:
256,192,86838,1,8,0:0:0:0:
256,192,86988,1,8,0:0:0:0:
256,192,87088,1,8,0:0:0:0:
256,192,87388,1,8,0:0:0:0:
256,192,87438,1,8,0:0:0:0:
256,192,87588,1,8,0:0:0:0:
256,192,87688,1,8,0:0:0:0:
256,192,87988,1,8,0:0:0:0:
256,192,88088,1,8,0:0:0:0:
256,192,88388,1,8,0:0:0:0:
256,192,88438,1,8,0:0:0:0:
256,192,88588,1,8,0:0:0:0:
256,192,88688,1,8,0:0:0:0:
256,192,88988,1,8,0:0:0:0:
256,192,89038,1,8,0:0:0:0:
256,192,89188,1,8,0:0:0:0:
256,192,89288,1,8,0:0:0:0:
256,192,89388,1,0,0:0:0:0:
256,192,89588,1,4,0:0:0:0:
256,192,89788,1,0,0:0:0:0:
256,192,89888,1,8,0:0:0:0:
256,192,89988,1,0,0:0:0:0:
256,192,90088,1,0,0:0:0:0:
256,192,90188,1,8,0:0:0:0:
256,192,90288,1,8,0:0:0:0:
256,192,90388,1,0,0:0:0:0:
256,192,90488,1,8,0:0:0:0:
256,192,90588,1,0,0:0:0:0:
256,192,90688,1,8,0:0:0:0:
256,192,90788,1,8,0:0:0:0:
256,192,90888,1,0,0:0:0:0:
256,192,90988,1,8,0:0:0:0:
256,192,91088,1,8,0:0:0:0:
256,192,91188,1,0,0:0:0:0:
256,192,91288,1,0,0:0:0:0:
256,192,91388,1,8,0:0:0:0:
256,192,91488,1,0,0:0:0:0:
256,192,91588,1,0,0:0:0:0:
256,192,91688,1,8,0:0:0:0:
256,192,91788,1,0,0:0:0:0:
256,192,91888,1,8,0:0:0:0:
256,192,91988,1,0,0:0:0:0:
256,192,92088,1,0,0:0:0:0:
256,192,92188,1,8,0:0:0:0:
256,192,92288,1,8,0:0:0:0:
256,192,92388,1,0,0:0:0:0:
256,192,92488,1,8,0:0:0:0:
256,192,92588,1,8,0:0:0:0:
256,192,92688,1,8,0:0:0:0:
256,192,92788,1,0,0:0:0:0:
256,192,92988,1,8,0:0:0:0:
256,192,93088,1,8,0:0:0:0:
256,192,93188,1,0,0:0:0:0:
256,192,93288,1,0,0:0:0:0:
256,192,93388,1,0,0:0:0:0:
256,192,93488,1,8,0:0:0:0:
256,192,93588,1,0,0:0:0:0:
256,192,93688,1,0,0:0:0:0:
256,192,93788,1,8,0:0:0:0:
256,192,93888,1,0,0:0:0:0:
256,192,93988,1,8,0:0:0:0:
256,192,94088,1,0,0:0:0:0:
256,192,94188,1,0,0:0:0:0:
256,192,94288,1,8,0:0:0:0:
256,192,94388,1,0,0:0:0:0:
256,192,94488,1,8,0:0:0:0:
256,192,94588,1,8,0:0:0:0:
256,192,94688,1,0,0:0:0:0:
256,192,94788,1,8,0:0:0:0:
256,192,94888,1,0,0:0:0:0:
256,192,94988,1,8,0:0:0:0:
256,192,95088,1,8,0:0:0:0:
256,192,95188,1,0,0:0:0:0:
256,192,95388,1,8,0:0:0:0:
256,192,95488,1,0,0:0:0:0:
256,192,95588,1,0,0:0:0:0:
256,192,95688,1,8,0:0:0:0:
256,192,95788,1,8,0:0:0:0:
256,192,95888,1,8,0:0:0:0:
256,192,95988,1,0,0:0:0:0:
256,192,96188,1,0,0:0:0:0:
256,192,96288,1,8,0:0:0:0:
256,192,96388,1,0,0:0:0:0:
256,192,96488,1,0,0:0:0:0:
256,192,96588,1,8,0:0:0:0:
256,192,96688,1,8,0:0:0:0:
256,192,96788,1,0,0:0:0:0:
256,192,96888,1,8,0:0:0:0:
256,192,96988,1,8,0:0:0:0:
256,192,97088,1,0,0:0:0:0:
256,192,97188,1,8,0:0:0:0:
256,192,97288,1,0,0:0:0:0:
256,192,97388,1,8,0:0:0:0:
256,192,97488,1,8,0:0:0:0:
256,192,97588,1,0,0:0:0:0:
256,192,97688,1,0,0:0:0:0:
256,192,97788,1,8,0:0:0:0:
256,192,97888,1,0,0:0:0:0:
256,192,97988,1,8,0:0:0:0:
256,192,98088,1,0,0:0:0:0:
256,192,98188,1,0,0:0:0:0:
256,192,98288,1,8,0:0:0:0:
256,192,98388,1,8,0:0:0:0:
256,192,98488,1,8,0:0:0:0:
256,192,98588,1,0,0:0:0:0:
256,192,98688,1,8,0:0:0:0:
256,192,98788,1,0,0:0:0:0:
256,192,98888,1,0,0:0:0:0:
256,192,98988,1,8,0:0:0:0:
256,192,99088,1,8,0:0:0:0:
256,192,99188,1,0,0:0:0:0:
256,192,99388,1,8,0:0:0:0:
256,192,99488,1,8,0:0:0:0:
256,192,99588,1,0,0:0:0:0:
256,192,99688,1,0,0:0:0:0:
256,192,99788,1,0,0:0:0:0:
256,192,99888,1,8,0:0:0:0:
256,192,99988,1,0,0:0:0:0:
256,192,100088,1,0,0:0:0:0:
256,192,100188,1,8,0:0:0:0:
256,192,100288,1,0,0:0:0:0:
256,192,100388,1,0,0:0:0:0:
256,192,100488,1,8,0:0:0:0:
256,192,100588,1,0,0:0:0:0:
256,192,100688,1,8,0:0:0:0:
256,192,100788,1,0,0:0:0:0:
256,192,100888,1,8,0:0:0:0:
256,192,100988,1,8,0:0:0:0:
256,192,101088,1,0,0:0:0:0:
256,192,101188,1,8,0:0:0:0:
256,192,101288,1,8,0:0:0:0:
256,192,101388,1,0,0:0:0:0:
256,192,101488,1,8,0:0:0:0:
256,192,101588,1,0,0:0:0:0:
256,192,101688,1,0,0:0:0:0:
256,192,101738,1,0,0:0:0:0:
256,192,101788,1,8,0:0:0:0:
256,192,101888,1,8,0:0:0:0:
256,192,101988,1,0,0:0:0:0:
256,192,102088,1,0,0:0:0:0:
256,192,102188,1,8,0:0:0:0:
256,192,102388,1,4,0:0:0:0:
256,192,102588,1,0,0:0:0:0:
256,192,102688,1,8,0:0:0:0:
256,192,102788,1,0,0:0:0:0:
256,192,102888,1,0,0:0:0:0:
256,192,102988,1,8,0:0:0:0:
256,192,103088,1,8,0:0:0:0:
256,192,103188,1,0,0:0:0:0:
256,192,103288,1,8,0:0:0:0:
256,192,103338,1,8,0:0:0:0:
256,192,103388,1,8,0:0:0:0:
256,192,103488,1,8,0:0:0:0:
256,192,103588,1,0,0:0:0:0:
256,192,103688,1,0,0:0:0:0:
256,192,103788,1,8,0:0:0:0:
256,192,103888,1,8,0:0:0:0:
256,192,103988,1,0,0:0:0:0:
256,192,104088,1,8,0:0:0:0:
256,192,104188,1,0,0:0:0:0:
256,192,104288,1,8,0:0:0:0:
256,192,104388,1,8,0:0:0:0:
256,192,104488,1,0,0:0:0:0:
256,192,104588,1,8,0:0:0:0:
256,192,104688,1,8,0:0:0:0:
256,192,104788,1,0,0:0:0:0:
256,192,104888,1,0,0:0:0:0:
256,192,104938,1,0,0:0:0:0:
256,192,104988,1,8,0:0:0:0:
256,192,105088,1,0,0:0:0:0:
256,192,105188,1,8,0:0:0:0:
256,192,105238,1,8,0:0:0:0:
256,192,105288,1,0,0:0:0:0:
256,192,105338,1,0,0:0:0:0:
256,192,105388,1,8,0:0:0:0:
256,192,105488,1,8,0:0:0:0:
256,192,105588,1,0,0:0:0:0:
256,192,105688,1,0,0:0:0:0:
256,192,105788,1,8,0:0:0:0:
256,192,105888,1,8,0:0:0:0:
256,192,105988,1,0,0:0:0:0:
256,192,106088,1,0,0:0:0:0:
256,192,106188,1,0,0:0:0:0:
256,192,106288,1,8,0:0:0:0:
256,192,106388,1,0,0:0:0:0:
256,192,106488,1,8,0:0:0:0:
256,192,106538,1,8,0:0:0:0:
256,192,106588,1,8,0:0:0:0:
256,192,106688,1,8,0:0:0:0:
256,192,106788,1,0,0:0:0:0:
256,192,106888,1,0,0:0:0:0:
256,192,106988,1,8,0:0:0:0:
256,192,107088,1,8,0:0:0:0:
256,192,107188,1,0,0:0:0:0:
256,192,107288,1,0,0:0:0:0:
256,192,107388,1,8,0:0:0:0:
256,192,107488,1,0,0:0:0:0:
256,192,107588,1,8,0:0:0:0:
256,192,107688,1,8,0:0:0:0:
256,192,107788,1,0,0:0:0:0:
256,192,107888,1,8,0:0:0:0:
256,192,107988,1,0,0:0:0:0:
256,192,108088,1,0,0:0:0:0:
256,192,108138,1,0,0:0:0:0:
256,192,108188,1,8,0:0:0:0:
256,192,108288,1,8,0:0:0:0:
256,192,108388,1,0,0:0:0:0:
256,192,108438,1,0,0:0:0:0:
256,192,108488,1,8,0:0:0:0:
256,192,108538,1,8,0:0:0:0:
256,192,108588,1,0,0:0:0:0:
256,192,108688,1,8,0:0:0:0:
256,192,108788,1,0,0:0:0:0:
256,192,108888,1,0,0:0:0:0:
256,192,108988,1,0,0:0:0:0:
256,192,109088,1,8,0:0:0:0:
256,192,109188,1,0,0:0:0:0:
256,192,109288,1,0,0:0:0:0:
256,192,109388,1,8,0:0:0:0:
256,192,109488,1,8,0:0:0:0:
256,192,109588,1,0,0:0:0:0:
256,192,109688,1,8,0:0:0:0:
256,192,109738,1,8,0:0:0:0:
256,192,109788,1,8,0:0:0:0:
256,192,109888,1,8,0:0:0:0:
256,192,109988,1,0,0:0:0:0:
256,192,110088,1,0,0:0:0:0:
256,192,110188,1,0,0:0:0:0:
256,192,110288,1,8,0:0:0:0:
256,192,110388,1,0,0:0:0:0:
256,192,110488,1,8,0:0:0:0:
256,192,110538,1,8,0:0:0:0:
256,192,110588,1,0,0:0:0:0:
256,192,110688,1,8,0:0:0:0:
256,192,110788,1,0,0:0:0:0:
256,192,110888,1,0,0:0:0:0:
256,192,110988,1,8,0:0:0:0:
256,192,111088,1,8,0:0:0:0:
256,192,111188,1,0,0:0:0:0:
256,192,111288,1,0,0:0:0:0:
256,192,111338,1,0,0:0:0:0:
256,192,111388,1,8,0:0:0:0:
256,192,111488,1,8,0:0:0:0:
256,192,111588,1,0,0:0:0:0:
256,192,111638,1,8,0:0:0:0:
256,192,111688,1,0,0:0:0:0:
256,192,111738,1,0,0:0:0:0:
256,192,111788,1,8,0:0:0:0:
256,192,111888,1,8,0:0:0:0:
256,192,111988,1,0,0:0:0:0:
256,192,112088,1,0,0:0:0:0:
256,192,112188,1,8,0:0:0:0:
256,192,112288,1,0,0:0:0:0:
256,192,112388,1,8,0:0:0:0:
256,192,112488,1,8,0:0:0:0:
256,192,112588,1,0,0:0:0:0:
256,192,112688,1,8,0:0:0:0:
256,192,112788,1,0,0:0:0:0:
256,192,112888,1,8,0:0:0:0:
256,192,112938,1,8,0:0:0:0:
256,192,112988,1,8,0:0:0:0:
256,192,113088,1,8,0:0:0:0:
256,192,113188,1,0,0:0:0:0:
256,192,113288,1,0,0:0:0:0:
256,192,113388,1,8,0:0:0:0:
256,192,113488,1,0,0:0:0:0:
256,192,113588,1,0,0:0:0:0:
256,192,113688,1,8,0:0:0:0:
256,192,113738,1,8,0:0:0:0:
256,192,113788,1,0,0:0:0:0:
256,192,113888,1,0,0:0:0:0:
256,192,113988,1,8,0:0:0:0:
256,192,114038,1,0,0:0:0:0:
256,192,114088,1,8,0:0:0:0:
256,192,114138,1,8,0:0:0:0:
256,192,114188,1,0,0:0:0:0:
256,192,114288,1,0,0:0:0:0:
256,192,114388,1,8,0:0:0:0:
256,192,114488,1,0,0:0:0:0:
256,192,114538,1,0,0:0:0:0:
256,192,114588,1,8,0:0:0:0:
256,192,114688,1,8,0:0:0:0:
256,192,114788,1,0,0:0:0:0:
256,192,114888,1,8,0:0:0:0:
256,192,114988,1,8,0:0:0:0:
256,192,115038,1,8,0:0:0:0:
256,192,115088,1,8,0:0:0:0:
256,192,115138,1,8,0:0:0:0:
256,192,115188,1,8,0:0:0:0:
256,192,115388,1,8,0:0:0:0:
256,192,115588,1,8,0:0:0:0:
256,192,115788,1,8,0:0:0:0:
256,192,115888,1,8,0:0:0:0:
256,192,116088,1,8,0:0:0:0:
256,192,116188,1,8,0:0:0:0:
256,192,116288,1,8,0:0:0:0:
256,192,116388,1,8,0:0:0:0:
256,192,116488,1,8,0:0:0:0:
256,192,116588,1,8,0:0:0:0:
256,192,116688,1,8,0:0:0:0:
256,192,116788,1,8,0:0:0:0:
256,192,116988,1,8,0:0:0:0:
256,192,117188,1,8,0:0:0:0:
256,192,117288,1,8,0:0:0:0:
256,192,117488,1,8,0:0:0:0:
256,192,117688,1,8,0:0:0:0:
256,192,117788,1,8,0:0:0:0:
256,192,117888,1,8,0:0:0:0:
256,192,117988,1,8,0:0:0:0:
256,192,118088,1,8,0:0:0:0:
256,192,118138,1,8,0:0:0:0:
256,192,118188,1,8,0:0:0:0:
256,192,118288,1,8,0:0:0:0:
256,192,118388,1,8,0:0:0:0:
256,192,118588,1,8,0:0:0:0:
256,192,118788,1,8,0:0:0:0:
256,192,118888,1,8,0:0:0:0:
256,192,119088,1,8,0:0:0:0:
256,192,119288,1,8,0:0:0:0:
256,192,119388,1,8,0:0:0:0:
256,192,119488,1,8,0:0:0:0:
256,192,119588,1,8,0:0:0:0:
256,192,119688,1,8,0:0:0:0:
256,192,119888,1,8,0:0:0:0:
256,192,119938,1,8,0:0:0:0:
256,192,119988,1,8,0:0:0:0:
256,192,120088,1,8,0:0:0:0:
256,192,120288,1,8,0:0:0:0:
256,192,120388,1,8,0:0:0:0:
256,192,120588,1,8,0:0:0:0:
256,192,120688,1,8,0:0:0:0:
256,192,120888,1,8,0:0:0:0:
256,192,120988,1,8,0:0:0:0:
256,192,121088,1,8,0:0:0:0:
256,192,121188,1,8,0:0:0:0:
256,192,121288,1,8,0:0:0:0:
256,192,121338,1,8,0:0:0:0:
256,192,121388,1,8,0:0:0:0:
256,192,121438,1,8,0:0:0:0:
256,192,121488,1,8,0:0:0:0:
256,192,121588,1,8,0:0:0:0:
256,192,121788,1,8,0:0:0:0:
256,192,121988,1,8,0:0:0:0:
256,192,122188,1,8,0:0:0:0:
256,192,122288,1,8,0:0:0:0:
256,192,122488,1,8,0:0:0:0:
256,192,122588,1,8,0:0:0:0:
256,192,122688,1,8,0:0:0:0:
256,192,122788,1,8,0:0:0:0:
256,192,122888,1,8,0:0:0:0:
256,192,122988,1,8,0:0:0:0:
256,192,123088,1,8,0:0:0:0:
256,192,123188,1,8,0:0:0:0:
256,192,123288,1,8,0:0:0:0:
256,192,123388,1,8,0:0:0:0:
256,192,123588,1,8,0:0:0:0:
256,192,123688,1,8,0:0:0:0:
256,192,123888,1,8,0:0:0:0:
256,192,124088,1,8,0:0:0:0:
256,192,124188,1,8,0:0:0:0:
256,192,124288,1,8,0:0:0:0:
256,192,124388,1,8,0:0:0:0:
256,192,124488,1,8,0:0:0:0:
256,192,124538,1,8,0:0:0:0:
256,192,124588,1,8,0:0:0:0:
256,192,124688,1,8,0:0:0:0:
256,192,124788,1,8,0:0:0:0:
256,192,124888,1,8,0:0:0:0:
256,192,124988,1,8,0:0:0:0:
256,192,125088,1,8,0:0:0:0:
256,192,125288,1,8,0:0:0:0:
256,192,125388,1,8,0:0:0:0:
256,192,125488,1,8,0:0:0:0:
256,192,125588,1,8,0:0:0:0:
256,192,125688,1,8,0:0:0:0:
256,192,125888,1,8,0:0:0:0:
256,192,125988,1,8,0:0:0:0:
256,192,126088,1,8,0:0:0:0:
256,192,126188,1,8,0:0:0:0:
256,192,126288,1,8,0:0:0:0:
256,192,126388,1,8,0:0:0:0:
256,192,126488,1,8,0:0:0:0:
256,192,126538,1,8,0:0:0:0:
256,192,126588,1,8,0:0:0:0:
256,192,126688,1,8,0:0:0:0:
256,192,126788,1,8,0:0:0:0:
256,192,126888,1,8,0:0:0:0:
256,192,126988,1,8,0:0:0:0:
256,192,127038,1,8,0:0:0:0:
256,192,127088,1,8,0:0:0:0:
256,192,127288,1,8,0:0:0:0:
256,192,127338,1,8,0:0:0:0:
256,192,127388,1,8,0:0:0:0:
256,192,127438,1,8,0:0:0:0:
256,192,127488,1,8,0:0:0:0:
256,192,127588,1,8,0:0:0:0:
256,192,127688,1,8,0:0:0:0:
256,192,127788,1,8,0:0:0:0:
256,192,127888,1,8,0:0:0:0:
256,192,127988,1,8,0:0:0:0:
256,192,128038,1,8,0:0:0:0:
256,192,128088,1,8,0:0:0:0:
256,192,128138,1,8,0:0:0:0:
256,192,128788,1,0,0:0:0:0:
256,192,136788,5,0,0:0:0:0:
256,192,137088,1,8,0:0:0:0:
256,192,137188,1,8,0:0:0:0:
256,192,137388,1,0,0:0:0:0:
256,192,137488,1,8,0:0:0:0:
256,192,137788,1,8,0:0:0:0:
256,192,137988,1,0,0:0:0:0:
256,192,138088,1,8,0:0:0:0:
256,192,138288,1,8,0:0:0:0:
256,192,138388,1,0,0:0:0:0:
256,192,138688,1,8,0:0:0:0:
256,192,138788,1,0,0:0:0:0:
256,192,138988,1,0,0:0:0:0:
256,192,139288,1,8,0:0:0:0:
256,192,139388,1,0,0:0:0:0:
256,192,139588,1,0,0:0:0:0:
256,192,139688,1,8,0:0:0:0:
256,192,139988,1,0,0:0:0:0:
256,192,140188,1,8,0:0:0:0:
256,192,140288,1,8,0:0:0:0:
256,192,140388,1,0,0:0:0:0:
256,192,140488,1,8,0:0:0:0:
256,192,140588,1,0,0:0:0:0:
256,192,140788,1,0,0:0:0:0:
256,192,141088,1,8,0:0:0:0:
256,192,141288,1,0,0:0:0:0:
256,192,141388,1,8,0:0:0:0:
256,192,141488,1,8,0:0:0:0:
256,192,141588,1,0,0:0:0:0:
256,192,141788,1,8,0:0:0:0:
256,192,141888,1,0,0:0:0:0:
256,192,142188,1,0,0:0:0:0:
256,192,142388,1,0,0:0:0:0:
256,192,142588,1,8,0:0:0:0:
256,192,142688,1,8,0:0:0:0:
256,192,142788,1,0,0:0:0:0:
256,192,142988,1,8,0:0:0:0:
256,192,143088,1,0,0:0:0:0:
256,192,143288,1,0,0:0:0:0:
256,192,143388,1,8,0:0:0:0:
256,192,143488,1,0,0:0:0:0:
256,192,143588,1,0,0:0:0:0:
256,192,143788,1,8,0:0:0:0:
256,192,143888,1,0,0:0:0:0:
256,192,144088,1,0,0:0:0:0:
256,192,144188,1,8,0:0:0:0:
256,192,144288,1,8,0:0:0:0:
256,192,144488,1,0,0:0:0:0:
256,192,144588,1,8,0:0:0:0:
256,192,144688,1,8,0:0:0:0:
256,192,144788,1,0,0:0:0:0:
256,192,145088,1,0,0:0:0:0:
256,192,145188,1,8,0:0:0:0:
256,192,145388,1,0,0:0:0:0:
256,192,145488,1,8,0:0:0:0:
256,192,145588,1,8,0:0:0:0:
256,192,145688,1,0,0:0:0:0:
256,192,145888,1,0,0:0:0:0:
256,192,145988,1,8,0:0:0:0:
256,192,146088,1,0,0:0:0:0:
256,192,146288,1,0,0:0:0:0:
256,192,146388,1,8,0:0:0:0:
256,192,146588,1,8,0:0:0:0:
256,192,146888,1,0,0:0:0:0:
256,192,146988,1,8,0:0:0:0:
256,192,147188,1,0,0:0:0:0:
256,192,147388,1,8,0:0:0:0:
256,192,147688,1,0,0:0:0:0:
256,192,147788,1,8,0:0:0:0:
256,192,147888,1,0,0:0:0:0:
256,192,148088,1,0,0:0:0:0:
256,192,148188,1,8,0:0:0:0:
256,192,148388,1,8,0:0:0:0:
256,192,148588,1,0,0:0:0:0:
256,192,148688,1,8,0:0:0:0:
256,192,148788,1,8,0:0:0:0:
256,192,149088,1,0,0:0:0:0:
256,192,149188,1,8,0:0:0:0:
256,192,149388,1,0,0:0:0:0:
256,192,149488,1,0,0:0:0:0:
256,192,149588,1,8,0:0:0:0:
256,192,149788,1,0,0:0:0:0:
256,192,150088,1,0,0:0:0:0:
256,192,150188,1,8,0:0:0:0:
256,192,150288,1,0,0:0:0:0:
256,192,150488,1,0,0:0:0:0:
256,192,150588,1,8,0:0:0:0:
256,192,150888,1,8,0:0:0:0:
256,192,150988,1,8,0:0:0:0:
256,192,151188,1,8,0:0:0:0:
256,192,151288,1,0,0:0:0:0:
256,192,151388,1,8,0:0:0:0:
256,192,151588,1,0,0:0:0:0:
256,192,151788,1,8,0:0:0:0:
256,192,151888,1,0,0:0:0:0:
256,192,151988,1,0,0:0:0:0:
256,192,152388,1,8,0:0:0:0:
256,192,152588,1,0,0:0:0:0:
256,192,152688,1,8,0:0:0:0:
256,192,152788,1,8,0:0:0:0:
256,192,153088,1,8,0:0:0:0:
256,192,153188,1,8,0:0:0:0:
256,192,153388,1,0,0:0:0:0:
256,192,153588,1,8,0:0:0:0:
256,192,153788,1,0,0:0:0:0:
256,192,154188,1,8,0:0:0:0:
256,192,154488,1,8,0:0:0:0:
256,192,154588,1,8,0:0:0:0:
256,192,154888,1,8,0:0:0:0:
256,192,154988,1,8,0:0:0:0:
256,192,155188,1,0,0:0:0:0:
256,192,155388,1,8,0:0:0:0:
256,192,155588,1,0,0:0:0:0:
256,192,155988,1,8,0:0:0:0:
256,192,156288,1,8,0:0:0:0:
256,192,156388,1,8,0:0:0:0:
256,192,156788,1,8,0:0:0:0:
256,192,157188,1,8,0:0:0:0:
256,192,157388,1,0,0:0:0:0:
256,192,157788,1,8,0:0:0:0:
256,192,158088,1,8,0:0:0:0:
256,192,158188,1,8,0:0:0:0:
256,192,158721,1,8,0:0:0:0:
256,192,159288,1,0,0:0:0:0:
256,192,166267,5,8,0:0:0:0:
256,192,166619,1,8,0:0:0:0:
256,192,166973,1,8,0:0:0:0:
256,192,167324,1,8,0:0:0:0:
256,192,167672,1,8,0:0:0:0:
256,192,167760,1,0,0:0:0:0:
256,192,167847,1,0,0:0:0:0:
256,192,167933,1,0,0:0:0:0:
256,192,168020,1,8,0:0:0:0:
256,192,168367,1,8,0:0:0:0:
256,192,168713,1,8,0:0:0:0:
256,192,169057,1,8,0:0:0:0:
256,192,169143,1,0,0:0:0:0:
256,192,169228,1,0,0:0:0:0:
256,192,169314,1,0,0:0:0:0:
256,192,169400,1,8,0:0:0:0:
256,192,169570,1,8,0:0:0:0:
256,192,169740,1,8,0:0:0:0:
256,192,169911,1,8,0:0:0:0:
256,192,170081,1,8,0:0:0:0:
256,192,170252,1,8,0:0:0:0:
256,192,170422,1,8,0:0:0:0:
256,192,170593,1,8,0:0:0:0:
256,192,170764,1,8,0:0:0:0:
256,192,170848,1,8,0:0:0:0:
256,192,170932,1,0,0:0:0:0:
256,192,171016,1,8,0:0:0:0:
256,192,171100,1,8,0:0:0:0:
256,192,171184,1,0,0:0:0:0:
256,192,171269,1,0,0:0:0:0:
256,192,171353,1,0,0:0:0:0:
256,192,171438,1,8,0:0:0:0:
256,192,171521,1,8,0:0:0:0:
256,192,171605,1,0,0:0:0:0:
256,192,171689,1,0,0:0:0:0:
256,192,171773,1,8,0:0:0:0:
256,192,171815,1,8,0:0:0:0:
256,192,171856,1,8,0:0:0:0:
256,192,171940,1,8,0:0:0:0:
256,192,172024,1,0,0:0:0:0:
256,192,172066,1,0,0:0:0:0:
256,192,172108,1,8,0:0:0:0:
256,192,172192,1,8,0:0:0:0:
256,192,172275,1,0,0:0:0:0:
256,192,172317,1,0,0:0:0:0:
256,192,172359,1,0,0:0:0:0:
256,192,172401,1,0,0:0:0:0:
256,192,172443,1,8,0:0:0:0:
256,192,172610,1,8,0:0:0:0:
256,192,172694,1,0,0:0:0:0:
256,192,172778,1,8,0:0:0:0:
256,192,172861,1,8,0:0:0:0:
256,192,172945,1,0,0:0:0:0:
256,192,173029,1,8,0:0:0:0:
256,192,173198,1,4,0:0:0:0:
256,192,173364,1,0,0:0:0:0:
256,192,173531,1,8,0:0:0:0:
256,192,173698,1,8,0:0:0:0:
256,192,173781,1,8,0:0:0:0:
256,192,173864,1,0,0:0:0:0:
256,192,173948,1,0,0:0:0:0:
256,192,173989,1,0,0:0:0:0:
256,192,174031,1,8,0:0:0:0:
256,192,174198,1,0,0:0:0:0:
256,192,174364,1,8,0:0:0:0:
256,192,174448,1,0,0:0:0:0:
256,192,174489,1,0,0:0:0:0:
256,192,174531,1,8,0:0:0:0:
256,192,174698,1,8,0:0:0:0:
256,192,174781,1,8,0:0:0:0:
256,192,174864,1,0,0:0:0:0:
256,192,174948,1,0,0:0:0:0:
256,192,175031,1,8,0:0:0:0:
256,192,175114,1,8,0:0:0:0:
256,192,175198,1,0,0:0:0:0:
256,192,175364,1,0,0:0:0:0:
256,192,175531,1,8,0:0:0:0:
256,192,175614,1,8,0:0:0:0:
256,192,175781,1,8,0:0:0:0:
256,192,175864,1,0,0:0:0:0:
256,192,175948,1,0,0:0:0:0:
256,192,175989,1,0,0:0:0:0:
256,192,176031,1,8,0:0:0:0:
256,192,176114,1,0,0:0:0:0:
256,192,176281,1,0,0:0:0:0:
256,192,176364,1,8,0:0:0:0:
256,192,176531,1,8,0:0:0:0:
256,192,176698,1,8,0:0:0:0:
256,192,176781,1,0,0:0:0:0:
256,192,176864,1,0,0:0:0:0:
256,192,176948,1,8,0:0:0:0:
256,192,177031,1,8,0:0:0:0:
256,192,177114,1,8,0:0:0:0:
256,192,177198,1,0,0:0:0:0:
256,192,177364,1,0,0:0:0:0:
256,192,177448,1,0,0:0:0:0:
256,192,177531,1,8,0:0:0:0:
256,192,177698,1,0,0:0:0:0:
256,192,177781,1,8,0:0:0:0:
256,192,177864,1,0,0:0:0:0:
256,192,178031,1,8,0:0:0:0:
256,192,178114,1,8,0:0:0:0:
256,192,178198,1,0,0:0:0:0:
256,192,178281,1,0,0:0:0:0:
256,192,178323,1,0,0:0:0:0:
256,192,178364,1,8,0:0:0:0:
256,192,178448,1,0,0:0:0:0:
256,192,178531,1,8,0:0:0:0:
256,192,178698,1,8,0:0:0:0:
256,192,178739,1,8,0:0:0:0:
256,192,178781,1,8,0:0:0:0:
256,192,178864,1,0,0:0:0:0:
256,192,178906,1,0,0:0:0:0:
256,192,178948,1,8,0:0:0:0:
256,192,178989,1,8,0:0:0:0:
256,192,179031,1,0,0:0:0:0:
256,192,179198,1,0,0:0:0:0:
256,192,179281,1,8,0:0:0:0:
256,192,179323,1,8,0:0:0:0:
256,192,179364,1,0,0:0:0:0:
256,192,179448,1,0,0:0:0:0:
256,192,179531,1,8,0:0:0:0:
256,192,179614,1,8,0:0:0:0:
256,192,179698,1,0,0:0:0:0:
256,192,179781,1,8,0:0:0:0:
256,192,179823,1,8,0:0:0:0:
256,192,179864,1,0,0:0:0:0:
256,192,179948,1,0,0:0:0:0:
256,192,180031,1,8,0:0:0:0:
256,192,180114,1,8,0:0:0:0:
256,192,180198,1,0,0:0:0:0:
256,192,180364,1,8,0:0:0:0:
256,192,180448,1,0,0:0:0:0:
256,192,180531,1,8,0:0:0:0:
256,192,180614,1,8,0:0:0:0:
256,192,180698,1,0,0:0:0:0:
256,192,180739,1,0,0:0:0:0:
256,192,180781,1,0,0:0:0:0:
256,192,180864,1,8,0:0:0:0:
256,192,180906,1,8,0:0:0:0:
256,192,180948,1,0,0:0:0:0:
256,192,180989,1,0,0:0:0:0:
256,192,181031,1,8,0:0:0:0:
256,192,181114,1,8,0:0:0:0:
256,192,181198,1,0,0:0:0:0:
256,192,181364,1,0,0:0:0:0:
256,192,181448,1,8,0:0:0:0:
256,192,181531,1,0,0:0:0:0:
256,192,181614,1,0,0:0:0:0:
256,192,181698,1,8,0:0:0:0:
256,192,181781,1,0,0:0:0:0:
256,192,181864,1,8,0:0:0:0:
256,192,181948,1,0,0:0:0:0:
256,192,181989,1,0,0:0:0:0:
256,192,182031,1,8,0:0:0:0:
256,192,182114,1,8,0:0:0:0:
256,192,182198,1,0,0:0:0:0:
256,192,182364,1,0,0:0:0:0:
256,192,182448,1,8,0:0:0:0:
256,192,182531,1,8,0:0:0:0:
256,192,182698,1,8,0:0:0:0:
256,192,182781,1,0,0:0:0:0:
256,192,182948,1,0,0:0:0:0:
256,192,183031,1,8,0:0:0:0:
256,192,183114,1,0,0:0:0:0:
256,192,183198,1,8,0:0:0:0:
256,192,183281,1,8,0:0:0:0:
256,192,183364,1,8,0:0:0:0:
256,192,183448,1,0,0:0:0:0:
256,192,183531,1,0,0:0:0:0:
256,192,183698,1,8,0:0:0:0:
256,192,183781,1,0,0:0:0:0:
256,192,183864,1,8,0:0:0:0:
256,192,184031,1,0,0:0:0:0:
256,192,184114,1,8,0:0:0:0:
256,192,184281,1,0,0:0:0:0:
256,192,184448,1,8,0:0:0:0:
256,192,184531,1,0,0:0:0:0:
256,192,184698,1,0,0:0:0:0:
256,192,184781,1,0,0:0:0:0:
256,192,184864,1,8,0:0:0:0:
256,192,185031,1,8,0:0:0:0:
256,192,185198,1,8,0:0:0:0:
256,192,185281,1,8,0:0:0:0:
256,192,185364,1,8,0:0:0:0:
256,192,185448,1,8,0:0:0:0:
256,192,185531,1,8,0:0:0:0:
256,192,185586,1,8,0:0:0:0:
256,192,185642,1,8,0:0:0:0:
256,192,185698,1,8,0:0:0:0:
256,192,185753,1,8,0:0:0:0:
256,192,185809,1,8,0:0:0:0:
256,192,185864,1,0,0:0:0:0:
256,192,186031,1,0,0:0:0:0:
256,192,186114,1,8,0:0:0:0:
256,192,186198,1,0,0:0:0:0:
256,192,186364,1,8,0:0:0:0:
256,192,186531,1,0,0:0:0:0:
256,192,186614,1,0,0:0:0:0:
256,192,186698,1,8,0:0:0:0:
256,192,186781,1,8,0:0:0:0:
256,192,186864,1,0,0:0:0:0:
256,192,186948,1,8,0:0:0:0:
256,192,187031,1,8,0:0:0:0:
256,192,187114,1,0,0:0:0:0:
256,192,187198,1,8,0:0:0:0:
256,192,187281,1,0,0:0:0:0:
256,192,187364,1,8,0:0:0:0:
256,192,187406,1,8,0:0:0:0:
256,192,187448,1,8,0:0:0:0:
256,192,187489,1,8,0:0:0:0:
256,192,187531,1,0,0:0:0:0:
256,192,187614,1,0,0:0:0:0:
256,192,187698,1,8,0:0:0:0:
256,192,187864,1,0,0:0:0:0:
256,192,188031,1,0,0:0:0:0:
256,192,188073,1,8,0:0:0:0:
256,192,188114,1,8,0:0:0:0:
256,192,188156,1,8,0:0:0:0:
256,192,188198,1,0,0:0:0:0:
256,192,188364,1,8,0:0:0:0:
256,192,188448,1,0,0:0:0:0:
256,192,188531,1,8,0:0:0:0:
256,192,188614,1,8,0:0:0:0:
256,192,188698,1,0,0:0:0:0:
256,192,188781,1,0,0:0:0:0:
256,192,188948,1,0,0:0:0:0:
256,192,189031,1,8,0:0:0:0:
256,192,189114,1,8,0:0:0:0:
256,192,189198,1,8,0:0:0:0:
256,192,189364,1,8,0:0:0:0:
256,192,189448,1,0,0:0:0:0:
256,192,189531,1,0,0:0:0:0:
256,192,189698,1,0,0:0:0:0:
256,192,189864,1,12,0:0:0:0:
256,192,190031,1,12,0:0:0:0:
256,192,190198,1,12,0:0:0:0:
256,192,190364,1,12,0:0:0:0:
256,192,190531,1,0,0:0:0:0:
256,192,190697,1,8,0:0:0:0:
256,192,190781,1,0,0:0:0:0:
256,192,190864,1,8,0:0:0:0:
256,192,190947,1,0,0:0:0:0:
256,192,191114,1,0,0:0:0:0:
256,192,191197,1,8,0:0:0:0:
256,192,191281,1,0,0:0:0:0:
256,192,191364,1,8,0:0:0:0:
256,192,191531,1,4,0:0:0:0:
256,192,191697,1,0,0:0:0:0:
256,192,191781,1,0,0:0:0:0:
256,192,191864,1,8,0:0:0:0:
256,192,192031,1,0,0:0:0:0:
256,192,192114,1,8,0:0:0:0:
256,192,192197,1,0,0:0:0:0:
256,192,192281,1,0,0:0:0:0:
256,192,192322,1,0,0:0:0:0:
256,192,192364,1,8,0:0:0:0:
256,192,192531,1,0,0:0:0:0:
256,192,192614,1,8,0:0:0:0:
256,192,192697,1,8,0:0:0:0:
256,192,192781,1,0,0:0:0:0:
256,192,192822,1,0,0:0:0:0:
256,192,192864,1,8,0:0:0:0:
256,192,192947,1,8,0:0:0:0:
256,192,193031,1,0,0:0:0:0:
256,192,193114,1,0,0:0:0:0:
256,192,193197,1,8,0:0:0:0:
256,192,193281,1,0,0:0:0:0:
256,192,193364,1,8,0:0:0:0:
256,192,193531,1,4,0:0:0:0:
256,192,193697,1,0,0:0:0:0:
256,192,193864,1,8,0:0:0:0:
256,192,193947,1,8,0:0:0:0:
256,192,194031,1,0,0:0:0:0:
256,192,194114,1,8,0:0:0:0:
256,192,194197,1,0,0:0:0:0:
256,192,194281,1,0,0:0:0:0:
256,192,194322,1,0,0:0:0:0:
256,192,194364,1,8,0:0:0:0:
256,192,194531,1,0,0:0:0:0:
256,192,194697,1,8,0:0:0:0:
256,192,194781,1,0,0:0:0:0:
256,192,194864,1,8,0:0:0:0:
256,192,194947,1,0,0:0:0:0:
256,192,195031,1,0,0:0:0:0:
256,192,195114,1,8,0:0:0:0:
256,192,195156,1,8,0:0:0:0:
256,192,195197,1,0,0:0:0:0:
256,192,195281,1,8,0:0:0:0:
256,192,195364,1,8,0:0:0:0:
256,192,195447,1,8,0:0:0:0:
256,192,195531,1,4,0:0:0:0:
256,192,195697,1,8,0:0:0:0:
256,192,195781,1,0,0:0:0:0:
256,192,195864,1,8,0:0:0:0:
256,192,195947,1,0,0:0:0:0:
256,192,196031,1,0,0:0:0:0:
256,192,196114,1,8,0:0:0:0:
256,192,196197,1,0,0:0:0:0:
256,192,196364,1,8,0:0:0:0:
256,192,196447,1,8,0:0:0:0:
256,192,196531,1,0,0:0:0:0:
256,192,196614,1,8,0:0:0:0:
256,192,196697,1,8,0:0:0:0:
256,192,196781,1,0,0:0:0:0:
256,192,196864,1,8,0:0:0:0:
256,192,196947,1,0,0:0:0:0:
256,192,197031,1,8,0:0:0:0:
256,192,197072,1,8,0:0:0:0:
256,192,197114,1,8,0:0:0:0:
256,192,197156,1,8,0:0:0:0:
256,192,197197,1,0,0:0:0:0:
256,192,197239,1,0,0:0:0:0:
256,192,197281,1,8,0:0:0:0:
256,192,197322,1,8,0:0:0:0:
256,192,197364,1,0,0:0:0:0:
256,192,197531,1,4,0:0:0:0:
256,192,197697,1,8,0:0:0:0:
256,192,197781,1,0,0:0:0:0:
256,192,197864,1,8,0:0:0:0:
256,192,197947,1,8,0:0:0:0:
256,192,198031,1,0,0:0:0:0:
256,192,198114,1,0,0:0:0:0:
256,192,198281,1,0,0:0:0:0:
256,192,198364,1,8,0:0:0:0:
256,192,198447,1,8,0:0:0:0:
256,192,198531,1,8,0:0:0:0:
256,192,198614,1,0,0:0:0:0:
256,192,198697,1,8,0:0:0:0:
256,192,198781,1,0,0:0:0:0:
256,192,198864,1,0,0:0:0:0:
256,192,199031,1,0,0:0:0:0:
256,192,199197,1,8,0:0:0:0:
256,192,199364,1,8,0:0:0:0:
256,192,199447,1,8,0:0:0:0:
256,192,199531,1,4,0:0:0:0:
256,192,199697,1,0,0:0:0:0:
256,192,199781,1,0,0:0:0:0:
256,192,199864,1,8,0:0:0:0:
256,192,200031,1,0,0:0:0:0:
256,192,200114,1,8,0:0:0:0:
256,192,200197,1,0,0:0:0:0:
256,192,200281,1,0,0:0:0:0:
256,192,200322,1,0,0:0:0:0:
256,192,200364,1,8,0:0:0:0:
256,192,200531,1,8,0:0:0:0:
256,192,200614,1,0,0:0:0:0:
256,192,200697,1,0,0:0:0:0:
256,192,200781,1,8,0:0:0:0:
256,192,200822,1,8,0:0:0:0:
256,192,200864,1,8,0:0:0:0:
256,192,201031,1,0,0:0:0:0:
256,192,201114,1,8,0:0:0:0:
256,192,201197,1,8,0:0:0:0:
256,192,201281,1,0,0:0:0:0:
256,192,201322,1,0,0:0:0:0:
256,192,201364,1,8,0:0:0:0:
256,192,201447,1,8,0:0:0:0:
256,192,201531,1,0,0:0:0:0:
256,192,201586,1,8,0:0:0:0:
256,192,201642,1,8,0:0:0:0:
256,192,201697,1,0,0:0:0:0:
256,192,201753,1,8,0:0:0:0:
256,192,201808,1,8,0:0:0:0:
256,192,201864,1,0,0:0:0:0:
256,192,202031,1,0,0:0:0:0:
256,192,202197,1,8,0:0:0:0:
256,192,202281,1,8,0:0:0:0:
256,192,202364,1,0,0:0:0:0:
256,192,202447,1,8,0:0:0:0:
256,192,202531,1,0,0:0:0:0:
256,192,202614,1,0,0:0:0:0:
256,192,202656,1,0,0:0:0:0:
256,192,202697,1,8,0:0:0:0:
256,192,202864,1,0,0:0:0:0:
256,192,203031,1,8,0:0:0:0:
256,192,203114,1,0,0:0:0:0:
256,192,203156,1,0,0:0:0:0:
256,192,203197,1,8,0:0:0:0:
256,192,203281,1,8,0:0:0:0:
256,192,203364,1,0,0:0:0:0:
256,192,203447,1,0,0:0:0:0:
256,192,203531,1,8,0:0:0:0:
256,192,203614,1,8,0:0:0:0:
256,192,203697,1,8,0:0:0:0:
256,192,203781,1,0,0:0:0:0:
256,192,203864,1,8,0:0:0:0:
256,192,203919,1,0,0:0:0:0:
256,192,203975,1,0,0:0:0:0:
256,192,204031,1,8,0:0:0:0:
256,192,204086,1,8,0:0:0:0:
256,192,204142,1,8,0:0:0:0:
256,192,204197,1,0,0:0:0:0:
256,192,204364,1,8,0:0:0:0:
256,192,204447,1,0,0:0:0:0:
256,192,204531,1,0,0:0:0:0:
256,192,204614,1,8,0:0:0:0:
256,192,204697,1,0,0:0:0:0:
256,192,204781,1,8,0:0:0:0:
256,192,204864,1,0,0:0:0:0:
256,192,205031,1,8,0:0:0:0:
256,192,205114,1,0,0:0:0:0:
256,192,205197,1,0,0:0:0:0:
256,192,205281,1,8,0:0:0:0:
256,192,205364,1,8,0:0:0:0:
256,192,205447,1,0,0:0:0:0:
256,192,205531,1,8,0:0:0:0:
256,192,205614,1,0,0:0:0:0:
256,192,205697,1,8,0:0:0:0:
256,192,205739,1,8,0:0:0:0:
256,192,205781,1,8,0:0:0:0:
256,192,205822,1,8,0:0:0:0:
256,192,205864,1,0,0:0:0:0:
256,192,205906,1,0,0:0:0:0:
256,192,205947,1,8,0:0:0:0:
256,192,205989,1,8,0:0:0:0:
256,192,206031,1,0,0:0:0:0:
256,192,206197,1,8,0:0:0:0:
256,192,206364,1,0,0:0:0:0:
256,192,206406,1,8,0:0:0:0:
256,192,206447,1,8,0:0:0:0:
256,192,206489,1,8,0:0:0:0:
256,192,206531,1,0,0:0:0:0:
256,192,206697,1,8,0:0:0:0:
256,192,206781,1,0,0:0:0:0:
256,192,206864,1,8,0:0:0:0:
256,192,206947,1,8,0:0:0:0:
256,192,207031,1,0,0:0:0:0:
256,192,207114,1,0,0:0:0:0:
256,192,207281,1,0,0:0:0:0:
256,192,207364,1,8,0:0:0:0:
256,192,207447,1,8,0:0:0:0:
256,192,207531,1,8,0:0:0:0:
256,192,207614,1,0,0:0:0:0:
256,192,207656,1,0,0:0:0:0:
256,192,207697,1,8,0:0:0:0:
256,192,207781,1,0,0:0:0:0:
256,192,207864,1,8,0:0:0:0:
256,192,207947,1,8,0:0:0:0:
256,192,207989,1,8,0:0:0:0:
256,192,208031,1,0,0:0:0:0:
256,192,208114,1,8,0:0:0:0:
256,192,208197,1,0,0:0:0:0:
256,192,208281,1,0,0:0:0:0:
256,192,208364,1,0,0:0:0:0:
256,192,208447,1,8,0:0:0:0:
256,192,208531,1,0,0:0:0:0:
256,192,208614,1,0,0:0:0:0:
256,192,208697,1,8,0:0:0:0:
256,192,208739,1,8,0:0:0:0:
256,192,208781,1,8,0:0:0:0:
256,192,208822,1,8,0:0:0:0:
256,192,210864,12,0,211364,0:0:0:0:
256,192,211531,5,0,0:0:0:0:
256,192,211661,1,8,0:0:0:0:
256,192,211791,1,0,0:0:0:0:
256,192,211987,1,8,0:0:0:0:
256,192,212052,1,0,0:0:0:0:
256,192,212183,1,8,0:0:0:0:
256,192,212313,1,0,0:0:0:0:
256,192,212378,1,0,0:0:0:0:
256,192,212444,1,8,0:0:0:0:
256,192,212574,1,0,0:0:0:0:
256,192,212704,1,8,0:0:0:0:
256,192,212770,1,8,0:0:0:0:
256,192,212835,1,0,0:0:0:0:
256,192,212900,1,8,0:0:0:0:
256,192,212965,1,0,0:0:0:0:
256,192,213096,1,0,0:0:0:0:
256,192,213226,1,8,0:0:0:0:
256,192,213357,1,0,0:0:0:0:
256,192,213552,1,8,0:0:0:0:
256,192,213617,1,0,0:0:0:0:
256,192,213683,1,0,0:0:0:0:
256,192,213748,1,8,0:0:0:0:
256,192,213878,1,0,0:0:0:0:
256,192,214009,1,8,0:0:0:0:
256,192,214074,1,0,0:0:0:0:
256,192,214139,1,0,0:0:0:0:
256,192,214270,1,8,0:0:0:0:
256,192,214335,1,0,0:0:0:0:
256,192,214400,1,8,0:0:0:0:
256,192,214465,1,8,0:0:0:0:
256,192,214531,1,8,0:0:0:0:
256,192,214596,1,8,0:0:0:0:
256,192,214661,1,0,0:0:0:0:
256,192,214791,1,8,0:0:0:0:
256,192,214857,1,8,0:0:0:0:
256,192,214922,1,0,0:0:0:0:
256,192,215117,1,8,0:0:0:0:
256,192,215183,1,0,0:0:0:0:
256,192,215313,1,0,0:0:0:0:
256,192,215378,1,8,0:0:0:0:
256,192,215444,1,0,0:0:0:0:
256,192,215574,1,8,0:0:0:0:
256,192,215704,1,0,0:0:0:0:
256,192,215748,1,0,0:0:0:0:
256,192,215791,1,0,0:0:0:0:
256,192,215835,1,8,0:0:0:0:
256,192,215900,1,8,0:0:0:0:
256,192,215965,1,0,0:0:0:0:
256,192,216096,1,8,0:0:0:0:
256,192,216226,1,0,0:0:0:0:
256,192,216291,1,0,0:0:0:0:
256,192,216357,1,8,0:0:0:0:
256,192,216422,1,0,0:0:0:0:
256,192,216487,1,0,0:0:0:0:
256,192,216552,1,8,0:0:0:0:
256,192,216683,1,8,0:0:0:0:
256,192,216748,1,0,0:0:0:0:
256,192,216878,1,8,0:0:0:0:
256,192,216944,1,8,0:0:0:0:
256,192,217009,1,0,0:0:0:0:
256,192,217139,1,0,0:0:0:0:
256,192,217204,1,8,0:0:0:0:
256,192,217270,1,0,0:0:0:0:
256,192,217335,1,0,0:0:0:0:
256,192,217400,1,8,0:0:0:0:
256,192,217444,1,0,0:0:0:0:
256,192,217487,1,0,0:0:0:0:
256,192,217531,1,8,0:0:0:0:
256,192,217596,1,8,0:0:0:0:
256,192,217661,1,0,0:0:0:0:
256,192,217704,1,8,0:0:0:0:
256,192,217748,1,8,0:0:0:0:
256,192,217792,1,0,0:0:0:0:
256,192,217922,1,8,0:0:0:0:
256,192,217987,1,8,0:0:0:0:
256,192,218052,1,0,0:0:0:0:
256,192,218118,1,8,0:0:0:0:
256,192,218183,1,8,0:0:0:0:
256,192,218248,1,8,0:0:0:0:
256,192,218313,1,0,0:0:0:0:
256,192,218378,1,0,0:0:0:0:
256,192,218444,1,8,0:0:0:0:
256,192,218509,1,8,0:0:0:0:
256,192,218574,1,0,0:0:0:0:
256,192,218770,1,8,0:0:0:0:
256,192,218835,1,0,0:0:0:0:
256,192,218965,1,8,0:0:0:0:
256,192,219031,1,0,0:0:0:0:
256,192,219096,1,0,0:0:0:0:
256,192,219161,1,8,0:0:0:0:
256,192,219226,1,0,0:0:0:0:
256,192,219357,1,0,0:0:0:0:
256,192,219422,1,8,0:0:0:0:
256,192,219487,1,8,0:0:0:0:
256,192,219552,1,8,0:0:0:0:
256,192,219618,1,0,0:0:0:0:
256,192,219813,1,8,0:0:0:0:
256,192,219878,1,0,0:0:0:0:
256,192,220009,1,8,0:0:0:0:
256,192,220139,1,0,0:0:0:0:
256,192,220205,1,0,0:0:0:0:
256,192,220270,1,8,0:0:0:0:
256,192,220335,1,0,0:0:0:0:
256,192,220400,1,0,0:0:0:0:
256,192,220531,1,0,0:0:0:0:
256,192,220661,1,8,0:0:0:0:
256,192,220726,1,8,0:0:0:0:
256,192,220792,1,0,0:0:0:0:
256,192,220857,1,0,0:0:0:0:
256,192,220922,1,8,0:0:0:0:
256,192,220987,1,0,0:0:0:0:
256,192,221052,1,0,0:0:0:0:
256,192,221118,1,0,0:0:0:0:
256,192,221183,1,8,0:0:0:0:
256,192,221226,1,8,0:0:0:0:
256,192,221270,1,8,0:0:0:0:
256,192,221313,1,8,0:0:0:0:
256,192,221357,1,8,0:0:0:0:
256,192,221400,1,8,0:0:0:0:
256,192,221444,1,0,0:0:0:0:
256,192,221639,1,8,0:0:0:0:
256,192,221705,1,0,0:0:0:0:
256,192,221835,1,8,0:0:0:0:
256,192,221965,1,0,0:0:0:0:
256,192,222031,1,8,0:0:0:0:
256,192,222096,1,0,0:0:0:0:
256,192,222161,1,0,0:0:0:0:
256,192,222226,1,8,0:0:0:0:
256,192,222357,1,8,0:0:0:0:
256,192,222422,1,8,0:0:0:0:
256,192,222487,1,0,0:0:0:0:
256,192,222618,1,8,0:0:0:0:
256,192,222683,1,0,0:0:0:0:
256,192,222813,1,8,0:0:0:0:
256,192,222878,1,0,0:0:0:0:
256,192,223009,1,0,0:0:0:0:
256,192,223074,1,8,0:0:0:0:
256,192,223139,1,8,0:0:0:0:
256,192,223205,1,8,0:0:0:0:
256,192,223270,1,0,0:0:0:0:
256,192,223465,1,8,0:0:0:0:
256,192,223531,1,0,0:0:0:0:
256,192,223661,1,8,0:0:0:0:
256,192,223726,1,0,0:0:0:0:
256,192,223792,1,0,0:0:0:0:
256,192,223922,1,8,0:0:0:0:
256,192,223987,1,8,0:0:0:0:
256,192,224052,1,0,0:0:0:0:
256,192,224183,1,8,0:0:0:0:
256,192,224313,1,0,0:0:0:0:
256,192,224444,1,0,0:0:0:0:
256,192,224509,1,8,0:0:0:0:
256,192,224574,1,0,0:0:0:0:
256,192,224639,1,0,0:0:0:0:
256,192,224705,1,8,0:0:0:0:
256,192,224748,1,0,0:0:0:0:
256,192,224792,1,0,0:0:0:0:
256,192,224835,1,8,0:0:0:0:
256,192,224878,1,0,0:0:0:0:
256,192,224922,1,0,0:0:0:0:
256,192,224965,1,8,0:0:0:0:
256,192,225009,1,8,0:0:0:0:
256,192,225052,1,8,0:0:0:0:
256,192,225096,1,0,0:0:0:0:
256,192,225613,1,8,0:0:0:0:
256,192,225656,1,8,0:0:0:0:
256,192,225699,1,8,0:0:0:0:
256,192,225742,1,8,0:0:0:0:
256,192,225785,1,8,0:0:0:0:
256,192,225828,1,8,0:0:0:0:
256,192,225872,1,0,0:0:0:0:
256,192,226132,1,8,0:0:0:0:
256,192,226263,1,0,0:0:0:0:
256,192,226524,1,0,0:0:0:0:
256,192,226654,1,8,0:0:0:0:
256,192,226785,1,0,0:0:0:0:
256,192,226850,1,0,0:0:0:0:
256,192,226915,1,8,0:0:0:0:
256,192,226958,1,8,0:0:0:0:
256,192,227002,1,8,0:0:0:0:
256,192,227045,1,0,0:0:0:0:
256,192,227176,1,8,0:0:0:0:
256,192,227306,1,0,0:0:0:0:
256,192,227372,1,8,0:0:0:0:
256,192,227502,1,8,0:0:0:0:
256,192,227567,1,0,0:0:0:0:
256,192,227698,1,8,0:0:0:0:
256,192,227828,1,0,0:0:0:0:
256,192,227893,1,0,0:0:0:0:
256,192,227958,1,8,0:0:0:0:
256,192,228089,1,8,0:0:0:0:
256,192,228154,1,8,0:0:0:0:
256,192,228219,1,0,0:0:0:0:
256,192,228285,1,8,0:0:0:0:
256,192,228350,1,8,0:0:0:0:
256,192,228480,1,0,0:0:0:0:
256,192,228545,1,8,0:0:0:0:
256,192,228611,1,0,0:0:0:0:
256,192,228676,1,8,0:0:0:0:
256,192,228741,1,0,0:0:0:0:
256,192,228872,1,8,0:0:0:0:
256,192,229002,1,0,0:0:0:0:
256,192,229067,1,0,0:0:0:0:
256,192,229132,1,8,0:0:0:0:
256,192,229263,1,8,0:0:0:0:
256,192,229328,1,8,0:0:0:0:
256,192,229393,1,0,0:0:0:0:
256,192,229458,1,0,0:0:0:0:
256,192,229524,1,8,0:0:0:0:
256,192,229654,1,0,0:0:0:0:
256,192,229719,1,8,0:0:0:0:
256,192,229785,1,8,0:0:0:0:
256,192,229850,1,8,0:0:0:0:
256,192,229915,1,0,0:0:0:0:
256,192,229980,1,0,0:0:0:0:
256,192,230045,1,8,0:0:0:0:
256,192,230176,1,0,0:0:0:0:
256,192,230241,1,8,0:0:0:0:
256,192,230306,1,0,0:0:0:0:
256,192,230372,1,0,0:0:0:0:
256,192,230437,1,8,0:0:0:0:
256,192,230502,1,8,0:0:0:0:
256,192,230567,1,0,0:0:0:0:
256,192,230653,1,0,0:0:0:0:
256,192,230740,1,0,0:0:0:0:
256,192,230827,1,8,0:0:0:0:
256,192,230914,1,8,0:0:0:0:
256,192,231001,1,8,0:0:0:0:
256,192,231088,1,0,0:0:0:0:
256,192,231175,1,8,0:0:0:0:
256,192,231262,1,0,0:0:0:0:
256,192,231349,1,8,0:0:0:0:
256,192,231393,1,8,0:0:0:0:
256,192,231436,1,0,0:0:0:0:
256,192,231480,1,8,0:0:0:0:
256,192,231523,1,8,0:0:0:0:
256,192,231567,1,0,0:0:0:0:
256,192,231611,1,0,0:0:0:0:
256,192,238011,5,8,0:0:0:0:
256,192,238811,1,8,0:0:0:0:
256,192,239611,1,8,0:0:0:0:
256,192,240411,1,8,0:0:0:0:
256,192,240611,1,8,0:0:0:0:
256,192,241211,1,8,0:0:0:0:
256,192,242011,1,8,0:0:0:0:
256,192,242811,1,8,0:0:0:0:
256,192,243011,1,8,0:0:0:0:
256,192,243611,1,8,0:0:0:0:
256,192,243911,1,8,0:0:0:0:
256,192,244011,1,8,0:0:0:0:
256,192,244111,1,8,0:0:0:0:
256,192,244311,1,8,0:0:0:0:
256,192,244411,1,0,0:0:0:0:
256,192,244711,1,0,0:0:0:0:
256,192,245011,1,0,0:0:0:0:
256,192,245211,1,8,0:0:0:0:
256,192,246011,1,0,0:0:0:0:
256,192,246611,1,0,0:0:0:0:
256,192,246811,1,8,0:0:0:0:
256,192,247611,1,0,0:0:0:0:
256,192,247911,1,0,0:0:0:0:
256,192,248011,1,8,0:0:0:0:
256,192,248211,1,0,0:0:0:0:
256,192,248411,1,8,0:0:0:0:
256,192,249211,1,0,0:0:0:0:
256,192,249811,1,8,0:0:0:0:
256,192,250011,1,8,0:0:0:0:
256,192,250211,1,8,0:0:0:0:
256,192,250811,1,0,0:0:0:0:
256,192,251111,1,0,0:0:0:0:
256,192,251411,1,0,0:0:0:0:
256,192,251611,1,8,0:0:0:0:
256,192,252411,1,0,0:0:0:0:
256,192,253011,1,0,0:0:0:0:
256,192,253211,1,8,0:0:0:0:
256,192,254011,1,0,0:0:0:0:
256,192,254311,1,0,0:0:0:0:
256,192,254411,1,8,0:0:0:0:
256,192,254511,1,8,0:0:0:0:
256,192,254611,1,0,0:0:0:0:
256,192,254811,1,8,0:0:0:0:
256,192,255611,1,0,0:0:0:0:
256,192,256211,1,8,0:0:0:0:
256,192,256411,1,8,0:0:0:0:
256,192,256611,1,8,0:0:0:0:
256,192,256811,1,8,0:0:0:0:
256,192,256861,1,8,0:0:0:0:
256,192,256911,1,8,0:0:0:0:
256,192,256961,1,8,0:0:0:0:
256,192,257011,1,8,0:0:0:0:
256,192,257061,1,8,0:0:0:0:
256,192,257111,1,8,0:0:0:0:
256,192,257161,1,8,0:0:0:0:
256,192,257211,1,0,0:0:0:0:
256,192,257411,1,0,0:0:0:0:
256,192,257511,1,8,0:0:0:0:
256,192,257611,1,0,0:0:0:0:
256,192,257711,1,8,0:0:0:0:
256,192,257811,1,0,0:0:0:0:
256,192,257911,1,8,0:0:0:0:
256,192,258011,1,0,0:0:0:0:
256,192,258111,1,0,0:0:0:0:
256,192,258211,1,8,0:0:0:0:
256,192,258311,1,0,0:0:0:0:
256,192,258411,1,0,0:0:0:0:
256,192,258511,1,8,0:0:0:0:
256,192,258611,1,0,0:0:0:0:
256,192,258711,1,8,0:0:0:0:
256,192,258811,1,0,0:0:0:0:
256,192,258911,1,0,0:0:0:0:
256,192,259011,1,8,0:0:0:0:
256,192,259111,1,8,0:0:0:0:
256,192,259211,1,0,0:0:0:0:
256,192,259311,1,8,0:0:0:0:
256,192,259411,1,0,0:0:0:0:
256,192,259511,1,8,0:0:0:0:
256,192,259611,1,0,0:0:0:0:
256,192,259711,1,0,0:0:0:0:
256,192,259811,1,0,0:0:0:0:
256,192,259911,1,8,0:0:0:0:
256,192,260011,1,0,0:0:0:0:
256,192,260211,1,0,0:0:0:0:
256,192,260311,1,0,0:0:0:0:
256,192,260411,1,0,0:0:0:0:
256,192,260511,1,0,0:0:0:0:
256,192,260561,1,0,0:0:0:0:
256,192,260611,1,8,0:0:0:0:
256,192,260711,1,0,0:0:0:0:
256,192,260811,1,8,0:0:0:0:
256,192,260911,1,8,0:0:0:0:
256,192,261011,1,0,0:0:0:0:
256,192,261111,1,8,0:0:0:0:
256,192,261211,1,0,0:0:0:0:
256,192,261311,1,8,0:0:0:0:
256,192,261361,1,8,0:0:0:0:
256,192,261411,1,8,0:0:0:0:
256,192,261511,1,0,0:0:0:0:
256,192,261611,1,8,0:0:0:0:
256,192,261711,1,0,0:0:0:0:
256,192,261811,1,0,0:0:0:0:
256,192,261911,1,8,0:0:0:0:
256,192,262011,1,0,0:0:0:0:
256,192,262111,1,8,0:0:0:0:
256,192,262161,1,8,0:0:0:0:
256,192,262211,1,0,0:0:0:0:
256,192,262311,1,8,0:0:0:0:
256,192,262411,1,0,0:0:0:0:
256,192,262461,1,0,0:0:0:0:
256,192,262511,1,8,0:0:0:0:
256,192,262611,1,0,0:0:0:0:
256,192,262661,1,0,0:0:0:0:
256,192,262711,1,8,0:0:0:0:
256,192,262761,1,8,0:0:0:0:
256,192,262811,1,0,0:0:0:0:
256,192,262911,1,8,0:0:0:0:
256,192,263011,1,0,0:0:0:0:
256,192,263111,1,8,0:0:0:0:
256,192,263161,1,8,0:0:0:0:
256,192,263211,1,0,0:0:0:0:
256,192,263311,1,8,0:0:0:0:
256,192,263361,1,0,0:0:0:0:
256,192,263411,1,8,0:0:0:0:
256,192,263511,1,0,0:0:0:0:
256,192,263611,1,0,0:0:0:0:
256,192,263677,1,8,0:0:0:0:
256,192,263744,1,8,0:0:0:0:
256,192,263811,1,0,0:0:0:0:
256,192,264011,1,0,0:0:0:0:
256,192,264111,1,8,0:0:0:0:
256,192,264211,1,0,0:0:0:0:
256,192,264311,1,8,0:0:0:0:
256,192,264411,1,0,0:0:0:0:
256,192,264511,1,0,0:0:0:0:
256,192,264611,1,8,0:0:0:0:
256,192,264711,1,0,0:0:0:0:
256,192,264811,1,0,0:0:0:0:
256,192,264911,1,8,0:0:0:0:
256,192,265011,1,0,0:0:0:0:
256,192,265111,1,8,0:0:0:0:
256,192,265211,1,0,0:0:0:0:
256,192,265311,1,0,0:0:0:0:
256,192,265411,1,8,0:0:0:0:
256,192,265561,1,8,0:0:0:0:
256,192,265611,1,0,0:0:0:0:
256,192,265711,1,8,0:0:0:0:
256,192,265811,1,0,0:0:0:0:
256,192,265911,1,8,0:0:0:0:
256,192,266011,1,0,0:0:0:0:
256,192,266111,1,0,0:0:0:0:
256,192,266211,1,8,0:0:0:0:
256,192,266311,1,8,0:0:0:0:
256,192,266411,1,0,0:0:0:0:
256,192,266444,1,0,0:0:0:0:
256,192,266477,1,0,0:0:0:0:
256,192,266511,1,8,0:0:0:0:
256,192,266611,1,0,0:0:0:0:
256,192,266711,1,8,0:0:0:0:
256,192,266811,1,0,0:0:0:0:
256,192,266911,1,0,0:0:0:0:
256,192,267011,1,8,0:0:0:0:
256,192,267211,1,0,0:0:0:0:
256,192,267311,1,0,0:0:0:0:
256,192,267411,1,0,0:0:0:0:
256,192,267511,1,8,0:0:0:0:
256,192,267611,1,0,0:0:0:0:
256,192,267711,1,0,0:0:0:0:
256,192,267811,1,8,0:0:0:0:
256,192,267961,1,8,0:0:0:0:
256,192,268011,1,0,0:0:0:0:
256,192,268111,1,8,0:0:0:0:
256,192,268211,1,0,0:0:0:0:
256,192,268261,1,0,0:0:0:0:
256,192,268311,1,8,0:0:0:0:
256,192,268411,1,0,0:0:0:0:
256,192,268511,1,0,0:0:0:0:
256,192,268611,1,8,0:0:0:0:
256,192,268761,1,8,0:0:0:0:
256,192,268811,1,0,0:0:0:0:
256,192,268911,1,8,0:0:0:0:
256,192,269011,1,0,0:0:0:0:
256,192,269111,1,8,0:0:0:0:
256,192,269161,1,0,0:0:0:0:
256,192,269211,1,0,0:0:0:0:
256,192,269311,1,8,0:0:0:0:
256,192,269361,1,0,0:0:0:0:
256,192,269411,1,8,0:0:0:0:
256,192,269511,1,0,0:0:0:0:
256,192,269711,1,0,0:0:0:0:
256,192,269761,1,0,0:0:0:0:
256,192,269811,1,8,0:0:0:0:
256,192,269861,1,8,0:0:0:0:
256,192,269911,1,8,0:0:0:0:
256,192,269961,1,8,0:0:0:0:
256,192,270011,1,0,0:0:0:0:
256,192,270211,1,8,0:0:0:0:
256,192,270311,1,0,0:0:0:0:
256,192,270411,1,0,0:0:0:0:
256,192,270461,1,0,0:0:0:0:
256,192,270511,1,0,0:0:0:0:
256,192,270611,1,8,0:0:0:0:
256,192,270711,1,0,0:0:0:0:
256,192,270811,1,0,0:0:0:0:
256,192,270911,1,0,0:0:0:0:
256,192,271011,1,8,0:0:0:0:
256,192,271111,1,0,0:0:0:0:
256,192,271161,1,0,0:0:0:0:
256,192,271211,1,8,0:0:0:0:
256,192,271261,1,8,0:0:0:0:
256,192,271311,1,0,0:0:0:0:
256,192,271411,1,8,0:0:0:0:
256,192,271511,1,8,0:0:0:0:
256,192,271611,1,0,0:0:0:0:
256,192,271811,1,8,0:0:0:0:
256,192,271911,1,0,0:0:0:0:
256,192,271961,1,0,0:0:0:0:
256,192,272011,1,0,0:0:0:0:
256,192,272111,1,0,0:0:0:0:
256,192,272211,1,8,0:0:0:0:
256,192,272311,1,8,0:0:0:0:
256,192,272411,1,0,0:0:0:0:
256,192,272511,1,0,0:0:0:0:
256,192,272561,1,0,0:0:0:0:
256,192,272611,1,8,0:0:0:0:
256,192,272711,1,8,0:0:0:0:
256,192,272811,1,0,0:0:0:0:
256,192,272911,1,8,0:0:0:0:
256,192,273011,1,8,0:0:0:0:
256,192,273061,1,8,0:0:0:0:
256,192,273111,1,8,0:0:0:0:
256,192,273161,1,8,0:0:0:0:
256,192,273211,1,0,0:0:0:0:
256,192,273411,1,8,0:0:0:0:
256,192,273511,1,0,0:0:0:0:
256,192,273561,1,8,0:0:0:0:
256,192,273611,1,0,0:0:0:0:
256,192,273711,1,0,0:0:0:0:
256,192,273811,1,8,0:0:0:0:
256,192,273911,1,8,0:0:0:0:
256,192,273961,1,8,0:0:0:0:
256,192,274011,1,0,0:0:0:0:
256,192,274061,1,0,0:0:0:0:
256,192,274111,1,0,0:0:0:0:
256,192,274211,1,8,0:0:0:0:
256,192,274311,1,0,0:0:0:0:
256,192,274411,1,0,0:0:0:0:
256,192,274511,1,8,0:0:0:0:
256,192,274561,1,0,0:0:0:0:
256,192,274611,1,8,0:0:0:0:
256,192,274661,1,8,0:0:0:0:
256,192,274711,1,8,0:0:0:0:
256,192,274761,1,8,0:0:0:0:
256,192,274811,1,0,0:0:0:0:
256,192,274911,1,0,0:0:0:0:
256,192,275011,1,8,0:0:0:0:
256,192,275161,1,0,0:0:0:0:
256,192,275211,1,0,0:0:0:0:
256,192,275311,1,8,0:0:0:0:
256,192,275411,1,0,0:0:0:0:
256,192,275511,1,0,0:0:0:0:
256,192,275561,1,0,0:0:0:0:
256,192,275611,1,8,0:0:0:0:
256,192,275711,1,8,0:0:0:0:
256,192,275761,1,0,0:0:0:0:
256,192,275811,1,8,0:0:0:0:
256,192,275911,1,0,0:0:0:0:
256,192,276011,1,8,0:0:0:0:
256,192,276111,1,8,0:0:0:0:
256,192,276211,1,0,0:0:0:0:
256,192,276244,1,0,0:0:0:0:
256,192,276277,1,0,0:0:0:0:
256,192,276311,1,8,0:0:0:0:
256,192,276411,1,0,0:0:0:0:
256,192,276611,1,8,0:0:0:0:
256,192,276711,1,0,0:0:0:0:
256,192,276811,1,0,0:0:0:0:
256,192,276861,1,0,0:0:0:0:
256,192,276911,1,0,0:0:0:0:
256,192,277011,1,8,0:0:0:0:
256,192,277111,1,8,0:0:0:0:
256,192,277161,1,8,0:0:0:0:
256,192,277211,1,0,0:0:0:0:
256,192,277311,1,0,0:0:0:0:
256,192,277411,1,8,0:0:0:0:
256,192,277511,1,0,0:0:0:0:
256,192,277561,1,0,0:0:0:0:
256,192,277611,1,8,0:0:0:0:
256,192,277661,1,0,0:0:0:0:
256,192,277711,1,0,0:0:0:0:
256,192,277811,1,8,0:0:0:0:
256,192,277911,1,0,0:0:0:0:
256,192,278011,1,0,0:0:0:0:
256,192,278211,1,8,0:0:0:0:
256,192,278311,1,0,0:0:0:0:
256,192,278361,1,0,0:0:0:0:
256,192,278411,1,0,0:0:0:0:
256,192,278511,1,0,0:0:0:0:
256,192,278611,1,8,0:0:0:0:
256,192,278711,1,8,0:0:0:0:
256,192,278811,1,0,0:0:0:0:
256,192,278911,1,0,0:0:0:0:
256,192,278961,1,0,0:0:0:0:
256,192,279011,1,8,0:0:0:0:
256,192,279111,1,0,0:0:0:0:
256,192,279211,1,8,0:0:0:0:
256,192,279244,1,8,0:0:0:0:
256,192,279277,1,8,0:0:0:0:
256,192,279311,1,0,0:0:0:0:
256,192,279411,1,0,0:0:0:0:
256,192,279511,1,8,0:0:0:0:
256,192,279611,1,0,0:0:0:0:
256,192,279811,1,8,0:0:0:0:
256,192,279911,1,0,0:0:0:0:
256,192,279961,1,8,0:0:0:0:
256,192,280011,1,0,0:0:0:0:
256,192,280111,1,0,0:0:0:0:
256,192,280211,1,8,0:0:0:0:
256,192,280311,1,0,0:0:0:0:
256,192,280361,1,0,0:0:0:0:
256,192,280411,1,0,0:0:0:0:
256,192,280511,1,0,0:0:0:0:
256,192,280611,1,8,0:0:0:0:
256,192,280711,1,8,0:0:0:0:
256,192,280761,1,8,0:0:0:0:
256,192,280811,1,0,0:0:0:0:
256,192,280861,1,8,0:0:0:0:
256,192,280911,1,0,0:0:0:0:
256,192,281011,1,8,0:0:0:0:
256,192,281111,1,8,0:0:0:0:
256,192,281161,1,8,0:0:0:0:
256,192,281211,1,0,0:0:0:0:
256,192,281311,1,0,0:0:0:0:
256,192,281411,1,8,0:0:0:0:
256,192,281561,1,0,0:0:0:0:
256,192,281611,1,0,0:0:0:0:
256,192,281711,1,0,0:0:0:0:
256,192,281811,1,8,0:0:0:0:
256,192,281911,1,0,0:0:0:0:
256,192,281961,1,8,0:0:0:0:
256,192,282011,1,0,0:0:0:0:
256,192,282061,1,0,0:0:0:0:
256,192,282111,1,8,0:0:0:0:
256,192,282161,1,8,0:0:0:0:
256,192,282211,1,0,0:0:0:0:
256,192,282311,1,8,0:0:0:0:
256,192,282361,1,8,0:0:0:0:
256,192,282411,1,8,0:0:0:0:
256,192,282511,1,8,0:0:0:0:
256,192,282611,1,0,0:0:0:0:
256,192,282661,1,0,0:0:0:0:
256,192,282711,1,0,0:0:0:0:
256,192,282761,1,0,0:0:0:0:
256,192,282811,1,0,0:0:0:0:
256,192,283011,1,8,0:0:0:0:
256,192,283111,1,0,0:0:0:0:
256,192,283161,1,0,0:0:0:0:
256,192,283211,1,0,0:0:0:0:
256,192,283311,1,0,0:0:0:0:
256,192,283411,1,8,0:0:0:0:
256,192,283461,1,0,0:0:0:0:
256,192,283511,1,8,0:0:0:0:
256,192,283561,1,8,0:0:0:0:
256,192,283611,1,0,0:0:0:0:
256,192,283711,1,0,0:0:0:0:
256,192,283811,1,8,0:0:0:0:
256,192,283911,1,0,0:0:0:0:
256,192,283961,1,8,0:0:0:0:
256,192,284011,1,0,0:0:0:0:
256,192,284111,1,0,0:0:0:0:
256,192,284211,1,8,0:0:0:0:
256,192,284261,1,8,0:0:0:0:
256,192,284311,1,0,0:0:0:0:
256,192,284361,1,0,0:0:0:0:
256,192,284411,1,0,0:0:0:0:
256,192,284611,1,8,0:0:0:0:
256,192,284711,1,8,0:0:0:0:
256,192,284761,1,8,0:0:0:0:
256,192,284811,1,0,0:0:0:0:
256,192,284911,1,0,0:0:0:0:
256,192,285011,1,8,0:0:0:0:
256,192,285111,1,0,0:0:0:0:
256,192,285161,1,0,0:0:0:0:
256,192,285211,1,0,0:0:0:0:
256,192,285311,1,0,0:0:0:0:
256,192,285411,1,8,0:0:0:0:
256,192,285511,1,0,0:0:0:0:
256,192,285561,1,0,0:0:0:0:
256,192,285611,1,8,0:0:0:0:
256,192,285711,1,0,0:0:0:0:
256,192,285761,1,0,0:0:0:0:
256,192,285811,1,8,0:0:0:0:
256,192,285861,1,8,0:0:0:0:
256,192,285911,1,8,0:0:0:0:
256,192,285961,1,8,0:0:0:0:
256,192,286011,1,0,0:0:0:0:
256,192,286211,1,8,0:0:0:0:
256,192,286311,1,0,0:0:0:0:
256,192,286361,1,0,0:0:0:0:
256,192,286411,1,0,0:0:0:0:
256,192,286511,1,0,0:0:0:0:
256,192,286611,1,8,0:0:0:0:
256,192,286661,1,8,0:0:0:0:
256,192,286711,1,0,0:0:0:0:
256,192,286761,1,8,0:0:0:0:
256,192,286811,1,0,0:0:0:0:
256,192,286911,1,0,0:0:0:0:
256,192,287011,1,8,0:0:0:0:
256,192,287111,1,8,0:0:0:0:
256,192,287161,1,8,0:0:0:0:
256,192,287211,1,0,0:0:0:0:
256,192,287311,1,8,0:0:0:0:
256,192,287411,1,0,0:0:0:0:
256,192,287444,1,0,0:0:0:0:
256,192,287477,1,0,0:0:0:0:
256,192,287511,1,8,0:0:0:0:
256,192,287611,1,0,0:0:0:0:
256,192,287711,1,0,0:0:0:0:
256,192,287811,1,8,0:0:0:0:
256,192,287961,1,8,0:0:0:0:
256,192,288011,1,0,0:0:0:0:
256,192,288111,1,8,0:0:0:0:
256,192,288211,1,0,0:0:0:0:
256,192,288311,1,0,0:0:0:0:
256,192,288361,1,0,0:0:0:0:
256,192,288411,1,8,0:0:0:0:
256,192,288461,1,8,0:0:0:0:
256,192,288511,1,8,0:0:0:0:
256,192,288561,1,0,0:0:0:0:
256,192,288611,1,8,0:0:0:0:
256,192,288711,1,0,0:0:0:0:
256,192,288811,1,8,0:0:0:0:
256,192,288911,1,8,0:0:0:0:
256,192,289011,1,0,0:0:0:0:
256,192,289044,1,0,0:0:0:0:
256,192,289077,1,0,0:0:0:0:
256,192,289111,1,8,0:0:0:0:
256,192,289161,1,8,0:0:0:0:
256,192,289211,1,0,0:0:0:0:
256,192,289411,1,8,0:0:0:0:
256,192,289511,1,0,0:0:0:0:
256,192,289561,1,0,0:0:0:0:
256,192,289611,1,0,0:0:0:0:
256,192,289711,1,0,0:0:0:0:
256,192,289811,1,8,0:0:0:0:
256,192,289861,1,0,0:0:0:0:
256,192,289911,1,0,0:0:0:0:
256,192,289961,1,8,0:0:0:0:
256,192,290011,1,0,0:0:0:0:
256,192,290111,1,0,0:0:0:0:
256,192,290211,1,8,0:0:0:0:
256,192,290311,1,8,0:0:0:0:
256,192,290361,1,8,0:0:0:0:
256,192,290411,1,0,0:0:0:0:
256,192,290511,1,0,0:0:0:0:
256,192,290611,1,8,0:0:0:0:
256,192,290661,1,8,0:0:0:0:
256,192,290711,1,0,0:0:0:0:
256,192,290761,1,8,0:0:0:0:
256,192,290811,1,0,0:0:0:0:
256,192,291011,1,8,0:0:0:0:
256,192,291111,1,0,0:0:0:0:
256,192,291161,1,0,0:0:0:0:
256,192,291211,1,0,0:0:0:0:
256,192,291311,1,0,0:0:0:0:
256,192,291411,1,8,0:0:0:0:
256,192,291511,1,8,0:0:0:0:
256,192,291561,1,8,0:0:0:0:
256,192,291611,1,0,0:0:0:0:
256,192,291711,1,0,0:0:0:0:
256,192,291761,1,0,0:0:0:0:
256,192,291811,1,8,0:0:0:0:
256,192,291911,1,0,0:0:0:0:
256,192,292011,1,8,0:0:0:0:
256,192,292044,1,8,0:0:0:0:
256,192,292077,1,8,0:0:0:0:
256,192,292111,1,0,0:0:0:0:
256,192,292161,1,0,0:0:0:0:
256,192,292211,1,8,0:0:0:0:
256,192,292311,1,8,0:0:0:0:
256,192,292411,1,0,0:0:0:0:
256,192,292611,1,8,0:0:0:0:
256,192,292711,1,8,0:0:0:0:
256,192,292761,1,8,0:0:0:0:
256,192,292811,1,0,0:0:0:0:
256,192,292911,1,0,0:0:0:0:
256,192,293011,1,8,0:0:0:0:
256,192,293061,1,8,0:0:0:0:
256,192,293111,1,8,0:0:0:0:
256,192,293161,1,8,0:0:0:0:
256,192,293211,1,0,0:0:0:0:
256,192,293311,1,0,0:0:0:0:
256,192,293361,1,0,0:0:0:0:
256,192,293411,1,8,0:0:0:0:
256,192,293511,1,0,0:0:0:0:
256,192,293561,1,8,0:0:0:0:
256,192,293611,1,0,0:0:0:0:
256,192,293711,1,8,0:0:0:0:
256,192,293811,1,0,0:0:0:0:
256,192,293861,1,0,0:0:0:0:
256,192,293911,1,8,0:0:0:0:
256,192,293961,1,8,0:0:0:0:
256,192,294011,1,0,0:0:0:0:
256,192,294111,1,0,0:0:0:0:
256,192,294211,1,8,0:0:0:0:
256,192,294311,1,0,0:0:0:0:
256,192,294361,1,8,0:0:0:0:
256,192,294411,1,0,0:0:0:0:
256,192,294561,1,0,0:0:0:0:
256,192,294611,1,8,0:0:0:0:
256,192,294711,1,0,0:0:0:0:
256,192,294761,1,0,0:0:0:0:
256,192,294811,1,0,0:0:0:0:
256,192,294911,1,8,0:0:0:0:
256,192,294961,1,8,0:0:0:0:
256,192,295011,1,0,0:0:0:0:
256,192,295061,1,8,0:0:0:0:
256,192,295111,1,8,0:0:0:0:
256,192,295161,1,8,0:0:0:0:
256,192,295211,1,0,0:0:0:0:
256,192,295261,1,8,0:0:0:0:
256,192,295311,1,0,0:0:0:0:
256,192,295361,1,0,0:0:0:0:
256,192,295411,1,8,0:0:0:0:
256,192,295461,1,8,0:0:0:0:
256,192,295511,1,8,0:0:0:0:
256,192,295561,1,8,0:0:0:0:
256,192,295611,1,0,0:0:0:0:
256,192,295711,1,0,0:0:0:0:
256,192,295811,1,8,0:0:0:0:
256,192,295911,1,0,0:0:0:0:
256,192,295961,1,8,0:0:0:0:
256,192,296011,1,0,0:0:0:0:
256,192,296111,1,0,0:0:0:0:
256,192,296211,1,8,0:0:0:0:
256,192,296311,1,8,0:0:0:0:
256,192,296361,1,8,0:0:0:0:
256,192,296411,1,0,0:0:0:0:
256,192,296511,1,0,0:0:0:0:
256,192,296611,1,8,0:0:0:0:
256,192,296661,1,0,0:0:0:0:
256,192,296711,1,8,0:0:0:0:
256,192,296761,1,8,0:0:0:0:
256,192,296811,1,0,0:0:0:0:
256,192,296911,1,0,0:0:0:0:
256,192,297011,1,8,0:0:0:0:
256,192,297111,1,8,0:0:0:0:
256,192,297211,1,0,0:0:0:0:
256,192,297311,1,0,0:0:0:0:
256,192,297361,1,0,0:0:0:0:
256,192,297411,1,8,0:0:0:0:
256,192,297511,1,8,0:0:0:0:
256,192,297611,1,0,0:0:0:0:
256,192,297661,1,0,0:0:0:0:
256,192,297711,1,0,0:0:0:0:
256,192,297811,1,8,0:0:0:0:
256,192,297911,1,0,0:0:0:0:
256,192,297961,1,8,0:0:0:0:
256,192,298011,1,0,0:0:0:0:
256,192,298111,1,0,0:0:0:0:
256,192,298211,1,8,0:0:0:0:
256,192,298261,1,8,0:0:0:0:
256,192,298311,1,0,0:0:0:0:
256,192,298361,1,0,0:0:0:0:
256,192,298411,1,8,0:0:0:0:
256,192,298511,1,0,0:0:0:0:
256,192,298611,1,8,0:0:0:0:
256,192,298661,1,0,0:0:0:0:
256,192,298711,1,8,0:0:0:0:
256,192,298761,1,8,0:0:0:0:
256,192,298811,1,0,0:0:0:0:
256,192,298861,1,0,0:0:0:0:
256,192,298911,1,0,0:0:0:0:
256,192,298961,1,0,0:0:0:0:
256,192,299011,1,8,0:0:0:0:
256,192,299111,1,8,0:0:0:0:
256,192,299211,1,0,0:0:0:0:
256,192,299311,1,0,0:0:0:0:
256,192,299411,1,8,0:0:0:0:
256,192,299511,1,8,0:0:0:0:
256,192,299561,1,8,0:0:0:0:
256,192,299611,1,0,0:0:0:0:
256,192,299711,1,0,0:0:0:0:
256,192,299811,1,8,0:0:0:0:
256,192,299861,1,8,0:0:0:0:
256,192,299911,1,0,0:0:0:0:
256,192,299961,1,8,0:0:0:0:
256,192,300011,1,0,0:0:0:0:
256,192,300111,1,0,0:0:0:0:
256,192,300211,1,8,0:0:0:0:
256,192,300311,1,8,0:0:0:0:
256,192,300411,1,0,0:0:0:0:
256,192,300511,1,0,0:0:0:0:
256,192,300561,1,0,0:0:0:0:
256,192,300611,1,8,0:0:0:0:
256,192,300711,1,8,0:0:0:0:
256,192,300811,1,0,0:0:0:0:
256,192,300861,1,0,0:0:0:0:
256,192,300911,1,8,0:0:0:0:
256,192,301011,1,0,0:0:0:0:
256,192,301061,1,8,0:0:0:0:
256,192,301111,1,0,0:0:0:0:
256,192,301161,1,0,0:0:0:0:
256,192,301211,1,8,0:0:0:0:
256,192,301311,1,0,0:0:0:0:
256,192,301361,1,0,0:0:0:0:
256,192,301411,1,8,0:0:0:0:
256,192,301511,1,0,0:0:0:0:
256,192,301611,1,8,0:0:0:0:
256,192,301677,1,8,0:0:0:0:
256,192,301744,1,8,0:0:0:0:
256,192,301811,1,0,0:0:0:0:
256,192,301911,1,0,0:0:0:0:
256,192,301961,1,8,0:0:0:0:
256,192,302011,1,0,0:0:0:0:
256,192,302061,1,0,0:0:0:0:
256,192,302111,1,0,0:0:0:0:
256,192,302211,1,8,0:0:0:0:
256,192,302311,1,0,0:0:0:0:
256,192,302361,1,8,0:0:0:0:
256,192,302411,1,8,0:0:0:0:
256,192,302511,1,0,0:0:0:0:
256,192,302611,1,8,0:0:0:0:
256,192,302711,1,0,0:0:0:0:
256,192,302761,1,8,0:0:0:0:
256,192,302811,1,0,0:0:0:0:
256,192,302911,1,0,0:0:0:0:
256,192,303011,1,8,0:0:0:0:
256,192,303061,1,0,0:0:0:0:
256,192,303111,1,8,0:0:0:0:
256,192,303161,1,8,0:0:0:0:
256,192,303211,1,0,0:0:0:0:
256,192,303311,1,0,0:0:0:0:
256,192,303361,1,0,0:0:0:0:
256,192,303411,1,8,0:0:0:0:
256,192,303511,1,8,0:0:0:0:
256,192,303611,1,0,0:0:0:0:
256,192,303711,1,8,0:0:0:0:
256,192,303761,1,0,0:0:0:0:
256,192,303811,1,8,0:0:0:0:
256,192,303911,1,8,0:0:0:0:
256,192,304011,1,0,0:0:0:0:
256,192,304061,1,0,0:0:0:0:
256,192,304111,1,0,0:0:0:0:
256,192,304211,1,8,0:0:0:0:
256,192,304311,1,8,0:0:0:0:
256,192,304361,1,8,0:0:0:0:
256,192,304411,1,0,0:0:0:0:
256,192,304511,1,0,0:0:0:0:
256,192,304611,1,8,0:0:0:0:
256,192,304711,1,0,0:0:0:0:
256,192,304761,1,8,0:0:0:0:
256,192,304811,1,0,0:0:0:0:
256,192,304861,1,0,0:0:0:0:
256,192,304911,1,8,0:0:0:0:
256,192,304961,1,8,0:0:0:0:
256,192,305011,1,0,0:0:0:0:
256,192,305061,1,8,0:0:0:0:
256,192,305111,1,8,0:0:0:0:
256,192,305161,1,8,0:0:0:0:
256,192,305211,1,0,0:0:0:0:
256,192,305311,1,0,0:0:0:0:
256,192,305411,1,8,0:0:0:0:
256,192,305511,1,0,0:0:0:0:
256,192,305561,1,0,0:0:0:0:
256,192,305611,1,0,0:0:0:0:
256,192,305711,1,0,0:0:0:0:
256,192,305811,1,8,0:0:0:0:
256,192,305911,1,8,0:0:0:0:
256,192,305961,1,8,0:0:0:0:
256,192,306011,1,0,0:0:0:0:
256,192,306111,1,0,0:0:0:0:
256,192,306161,1,0,0:0:0:0:
256,192,306211,1,8,0:0:0:0:
256,192,306261,1,8,0:0:0:0:
256,192,306311,1,8,0:0:0:0:
256,192,306411,1,0,0:0:0:0:
256,192,306511,1,0,0:0:0:0:
256,192,306561,1,0,0:0:0:0:
256,192,306611,1,8,0:0:0:0:
256,192,306711,1,8,0:0:0:0:
256,192,306811,1,0,0:0:0:0:
256,192,306861,1,8,0:0:0:0:
256,192,306911,1,0,0:0:0:0:
256,192,306961,1,0,0:0:0:0:
256,192,307011,1,8,0:0:0:0:
256,192,307111,1,0,0:0:0:0:
256,192,307161,1,8,0:0:0:0:
256,192,307211,1,0,0:0:0:0:
256,192,307261,1,0,0:0:0:0:
256,192,307311,1,8,0:0:0:0:
256,192,307411,1,0,0:0:0:0:
256,192,307461,1,8,0:0:0:0:
256,192,307511,1,0,0:0:0:0:
256,192,307561,1,8,0:0:0:0:
256,192,307611,1,0,0:0:0:0:
256,192,307711,1,0,0:0:0:0:
256,192,307761,1,0,0:0:0:0:
256,192,307811,1,8,0:0:0:0:
256,192,307911,1,0,0:0:0:0:
256,192,308011,1,8,0:0:0:0:
256,192,308061,1,8,0:0:0:0:
256,192,308111,1,8,0:0:0:0:
256,192,308161,1,8,0:0:0:0:
256,192,308211,1,8,0:0:0:0:
256,192,308261,1,8,0:0:0:0:
256,192,308311,1,8,0:0:0:0:
256,192,308361,1,8,0:0:0:0:
256,192,308411,1,0,0:0:0:0:
256,192,308461,1,0,0:0:0:0:
256,192,308511,1,0,0:0:0:0:
256,192,308611,1,8,0:0:0:0:
256,192,308711,1,0,0:0:0:0:
256,192,308761,1,8,0:0:0:0:
256,192,308811,1,0,0:0:0:0:
256,192,308861,1,0,0:0:0:0:
256,192,308911,1,0,0:0:0:0:
256,192,309011,1,8,0:0:0:0:
256,192,309111,1,8,0:0:0:0:
256,192,309161,1,8,0:0:0:0:
256,192,309211,1,0,0:0:0:0:
256,192,309311,1,0,0:0:0:0:
256,192,309411,1,8,0:0:0:0:
256,192,309461,1,0,0:0:0:0:
256,192,309511,1,0,0:0:0:0:
256,192,309561,1,8,0:0:0:0:
256,192,309611,1,0,0:0:0:0:
256,192,309711,1,8,0:0:0:0:
256,192,309761,1,0,0:0:0:0:
256,192,309811,1,8,0:0:0:0:
256,192,309911,1,8,0:0:0:0:
256,192,310011,1,0,0:0:0:0:
256,192,310061,1,0,0:0:0:0:
256,192,310111,1,0,0:0:0:0:
256,192,310211,1,8,0:0:0:0:
256,192,310311,1,0,0:0:0:0:
256,192,310361,1,0,0:0:0:0:
256,192,310411,1,8,0:0:0:0:
256,192,310511,1,0,0:0:0:0:
256,192,310611,1,8,0:0:0:0:
256,192,310661,1,0,0:0:0:0:
256,192,310711,1,8,0:0:0:0:
256,192,310761,1,8,0:0:0:0:
256,192,310811,1,0,0:0:0:0:
256,192,310911,1,0,0:0:0:0:
256,192,310961,1,0,0:0:0:0:
256,192,311011,1,8,0:0:0:0:
256,192,311111,1,0,0:0:0:0:
256,192,311211,1,8,0:0:0:0:
256,192,311261,1,0,0:0:0:0:
256,192,311311,1,0,0:0:0:0:
256,192,311361,1,0,0:0:0:0:
256,192,311411,1,8,0:0:0:0:
256,192,311511,1,8,0:0:0:0:
256,192,311561,1,8,0:0:0:0:
256,192,311611,1,0,0:0:0:0:
256,192,311661,1,0,0:0:0:0:
256,192,311711,1,0,0:0:0:0:
256,192,311811,1,8,0:0:0:0:
256,192,311911,1,0,0:0:0:0:
256,192,311961,1,0,0:0:0:0:
256,192,312011,1,8,0:0:0:0:
256,192,312061,1,0,0:0:0:0:
256,192,312111,1,0,0:0:0:0:
256,192,312211,1,8,0:0:0:0:
256,192,312311,1,8,0:0:0:0:
256,192,312361,1,8,0:0:0:0:
256,192,312411,1,0,0:0:0:0:
256,192,312511,1,0,0:0:0:0:
256,192,312611,1,8,0:0:0:0:
256,192,312661,1,0,0:0:0:0:
256,192,312711,1,0,0:0:0:0:
256,192,312761,1,8,0:0:0:0:
256,192,312811,1,0,0:0:0:0:
256,192,312911,1,8,0:0:0:0:
256,192,312961,1,0,0:0:0:0:
256,192,313011,1,8,0:0:0:0:
256,192,313061,1,8,0:0:0:0:
256,192,313111,1,0,0:0:0:0:
256,192,313161,1,8,0:0:0:0:
256,192,313211,1,0,0:0:0:0:
256,192,313261,1,0,0:0:0:0:
256,192,313311,1,0,0:0:0:0:
256,192,313411,1,8,0:0:0:0:
256,192,313511,1,0,0:0:0:0:
256,192,313561,1,0,0:0:0:0:
256,192,313611,1,8,0:0:0:0:
256,192,313661,1,0,0:0:0:0:
256,192,313711,1,8,0:0:0:0:
256,192,313811,1,0,0:0:0:0:
256,192,313861,1,8,0:0:0:0:
256,192,313911,1,8,0:0:0:0:
256,192,313961,1,0,0:0:0:0:
256,192,314011,1,8,0:0:0:0:
256,192,314111,1,0,0:0:0:0:
256,192,314161,1,0,0:0:0:0:
256,192,314211,1,8,0:0:0:0:
256,192,314261,1,0,0:0:0:0:
256,192,314311,1,0,0:0:0:0:
256,192,314361,1,0,0:0:0:0:
256,192,314411,1,8,0:0:0:0:
256,192,314461,1,8,0:0:0:0:
256,192,314511,1,0,0:0:0:0:
256,192,314561,1,8,0:0:0:0:
256,192,314611,1,0,0:0:0:0:
256,192,314711,1,8,0:0:0:0:
256,192,314811,1,0,0:0:0:0:
256,192,314861,1,0,0:0:0:0:
256,192,314911,1,0,0:0:0:0:
256,192,315011,1,8,0:0:0:0:
256,192,315111,1,0,0:0:0:0:
256,192,315161,1,0,0:0:0:0:
256,192,315211,1,0,0:0:0:0:
256,192,315261,1,8,0:0:0:0:
256,192,315311,1,0,0:0:0:0:
256,192,315411,1,8,0:0:0:0:
256,192,315461,1,0,0:0:0:0:
256,192,315511,1,8,0:0:0:0:
256,192,315561,1,8,0:0:0:0:
256,192,315611,1,0,0:0:0:0:
256,192,315711,1,0,0:0:0:0:
256,192,315761,1,0,0:0:0:0:
256,192,315811,1,8,0:0:0:0:
256,192,315911,1,0,0:0:0:0:
256,192,316011,1,8,0:0:0:0:
256,192,316061,1,8,0:0:0:0:
256,192,316111,1,0,0:0:0:0:
256,192,316161,1,0,0:0:0:0:
256,192,316211,1,8,0:0:0:0:
256,192,316311,1,0,0:0:0:0:
256,192,316361,1,8,0:0:0:0:
256,192,316411,1,0,0:0:0:0:
256,192,316511,1,0,0:0:0:0:
256,192,316561,1,0,0:0:0:0:
256,192,316611,1,8,0:0:0:0:
256,192,316711,1,8,0:0:0:0:
256,192,316761,1,0,0:0:0:0:
256,192,316811,1,0,0:0:0:0:
256,192,316861,1,8,0:0:0:0:
256,192,316911,1,0,0:0:0:0:
256,192,317011,1,8,0:0:0:0:
256,192,317111,1,0,0:0:0:0:
256,192,317161,1,0,0:0:0:0:
256,192,317211,1,0,0:0:0:0:
256,192,317311,1,0,0:0:0:0:
256,192,317411,1,8,0:0:0:0:
256,192,317511,1,0,0:0:0:0:
256,192,317561,1,0,0:0:0:0:
256,192,317611,1,8,0:0:0:0:
256,192,317661,1,8,0:0:0:0:
256,192,317711,1,0,0:0:0:0:
256,192,317811,1,8,0:0:0:0:
256,192,317911,1,8,0:0:0:0:
256,192,318011,1,0,0:0:0:0:
256,192,318061,1,8,0:0:0:0:
256,192,318111,1,0,0:0:0:0:
256,192,318161,1,0,0:0:0:0:
256,192,318211,1,8,0:0:0:0:
256,192,318261,1,0,0:0:0:0:
256,192,318311,1,8,0:0:0:0:
256,192,318361,1,8,0:0:0:0:
256,192,318411,1,0,0:0:0:0:
256,192,318461,1,0,0:0:0:0:
256,192,318511,1,8,0:0:0:0:
256,192,318561,1,0,0:0:0:0:
256,192,318611,1,0,0:0:0:0:
256,192,318661,1,0,0:0:0:0:
256,192,318711,1,8,0:0:0:0:
256,192,318811,1,0,0:0:0:0:
256,192,318861,1,0,0:0:0:0:
256,192,318911,1,8,0:0:0:0:
256,192,318961,1,8,0:0:0:0:
256,192,319011,1,0,0:0:0:0:
256,192,319061,1,8,0:0:0:0:
256,192,319111,1,0,0:0:0:0:
256,192,319161,1,8,0:0:0:0:
256,192,319211,1,0,0:0:0:0:
256,192,319261,1,0,0:0:0:0:
256,192,319311,1,0,0:0:0:0:
256,192,319361,1,8,0:0:0:0:
256,192,319411,1,0,0:0:0:0:
256,192,319461,1,0,0:0:0:0:
256,192,319511,1,8,0:0:0:0:
256,192,319611,1,0,0:0:0:0:
256,192,319661,1,0,0:0:0:0:
256,192,319711,1,8,0:0:0:0:
256,192,319761,1,0,0:0:0:0:
256,192,319811,1,0,0:0:0:0:
256,192,319861,1,8,0:0:0:0:
256,192,319911,1,8,0:0:0:0:
256,192,319961,1,8,0:0:0:0:
256,192,320011,1,0,0:0:0:0:
256,192,320061,1,0,0:0:0:0:
256,192,320111,1,8,0:0:0:0:
256,192,320161,1,0,0:0:0:0:
256,192,320211,1,8,0:0:0:0:
256,192,320261,1,8,0:0:0:0:
256,192,320311,1,0,0:0:0:0:
256,192,320361,1,8,0:0:0:0:
256,192,320411,1,0,0:0:0:0:
256,192,320461,1,0,0:0:0:0:
256,192,320511,1,8,0:0:0:0:
256,192,320561,1,8,0:0:0:0:
256,192,320611,1,0,0:0:0:0:
256,192,320661,1,8,0:0:0:0:
256,192,320711,1,8,0:0:0:0:
256,192,320761,1,0,0:0:0:0:
256,192,320811,1,8,0:0:0:0:
256,192,320861,1,8,0:0:0:0:
256,192,320911,1,0,0:0:0:0:
256,192,320961,1,0,0:0:0:0:
256,192,321011,1,8,0:0:0:0:
256,192,321061,1,8,0:0:0:0:
256,192,321111,1,8,0:0:0:0:
256,192,321211,1,4,0:0:0:0:
256,192,337211,5,0,0:0:0:0:
256,192,338211,1,0,0:0:0:0:
256,192,339211,1,8,0:0:0:0:
256,192,340211,1,8,0:0:0:0:
256,192,341211,1,8,0:0:0:0:
256,192,341711,1,0,0:0:0:0:
256,192,342211,1,8,0:0:0:0:
256,192,345211,1,0,0:0:0:0:
256,192,346211,1,0,0:0:0:0:
256,192,347211,1,8,0:0:0:0:
256,192,348211,1,8,0:0:0:0:
256,192,349211,1,0,0:0:0:0:
256,192,349711,1,8,0:0:0:0:
256,192,350211,1,8,0:0:0:0:
256,192,353211,1,0,0:0:0:0:
256,192,354211,1,0,0:0:0:0:
256,192,355211,1,8,0:0:0:0:
256,192,356211,1,8,0:0:0:0:
256,192,357211,1,8,0:0:0:0:
256,192,357711,1,0,0:0:0:0:
256,192,358211,1,0,0:0:0:0:
256,192,361211,1,0,0:0:0:0:
256,192,362211,1,0,0:0:0:0:
256,192,363211,1,8,0:0:0:0:
256,192,364211,1,8,0:0:0:0:
256,192,365211,1,0,0:0:0:0:
256,192,365711,1,8,0:0:0:0:
256,192,366211,1,0,0:0:0:0:
256,192,369211,1,0,0:0:0:0:
256,192,373148,12,0,385211,0:0:0:0:
