osu file format v14

[General]
AudioFilename: audio.ogg
AudioLeadIn: 0
PreviewTime: 101565
Countdown: 0
SampleSet: Normal
StackLeniency: 0.7
Mode: 1
LetterboxInBreaks: 0
WidescreenStoryboard: 0

[Editor]
Bookmarks: 36224
DistanceSpacing: 1
BeatDivisor: 8
GridSize: 32
TimelineZoom: 3.499999

[Metadata]
Title:NEERWUISSALEARNTD
TitleUnicode:NEERWUISSALEARNTD
Artist:Frums
ArtistUnicode:Frums
Creator:ikin5050
Version:NEWTREASUREISLAND
Source:
Tags:Hivie Vulkin Nifty mashcore hardcore mathbreak breakcore electronic lolicore.jp edsillforrecordings frumsdotxyz Reinterpret My Roots experimental frums.xyz newtreasureisland japanese サカナクション 新宝島 sakanaction 834.194 LOLI-ELF
BeatmapID:3314103
BeatmapSetID:1623177

[Difficulty]
HPDrainRate:5
CircleSize:5
OverallDifficulty:7.5
ApproachRate:5
SliderMultiplier:1.4
SliderTickRate:1

[Events]
//Background and Video events
0,0,"loliquestionmark.jpg",0,0
//Break Periods
//Storyboard Layer 0 (Background)
//Storyboard Layer 1 (Fail)
//Storyboard Layer 2 (Pass)
//Storyboard Layer 3 (Foreground)
//Storyboard Layer 4 (Overlay)
//Storyboard Sound Samples

[TimingPoints]
178,857.142857142857,4,1,0,70,1,0
178,-30.8641975308642,4,1,0,70,0,0
3606,594.059405940594,4,1,0,70,1,0
3606,-44.5326278659612,4,1,0,70,0,0
8358,618.556701030928,10,1,0,70,1,0
8358,-42.7689594356261,10,1,0,70,0,0
10832,-27.3224043715847,10,1,0,70,0,0
13652,264.550264550265,4,1,0,70,1,8
13652,-111.111111111111,4,1,0,70,0,0
14181,-111.111111111111,4,1,0,70,0,0
14225,-107.142895408177,4,1,0,70,0,0
14269,-103.448240190262,4,1,0,70,0,0
14313,396.825396825397,3,1,0,90,1,0
14313,-66.6666666666667,3,1,0,90,0,0
23836,264.550264550265,6,1,0,70,1,0
23836,-99.9999999999998,6,1,0,70,0,0
24034,-111.111111111111,6,1,0,70,0,0
25158,264.550264550265,3,1,0,70,1,0
25158,-99.9999999999998,3,1,0,70,0,0
25951,-111.111111111111,3,1,0,70,0,0
26745,264.550264550265,10,1,0,100,1,0
26745,-86.9565217391304,6,1,0,100,0,0
28861,-86.9565217391304,6,1,0,100,0,0
28927,-88.3977900552486,6,1,0,100,0,0
28993,-89.8876404494382,6,1,0,100,0,0
29059,-91.4285714285714,6,1,0,100,0,0
29125,-93.0232558139535,6,1,0,100,0,0
29192,-94.6745562130178,6,1,0,100,0,0
29258,264.550264550265,9,1,0,100,1,0
29258,-96.3855421686747,6,1,0,100,0,0
29390,-100,6,1,0,100,0,0
31242,-100,6,1,0,100,0,0
31308,-97.5609756097561,6,1,0,100,0,0
31374,-95.2380952380952,6,1,0,100,0,0
31440,-93.0232558139535,6,1,0,100,0,0
31506,264.550264550265,5,1,0,100,1,0
31506,-90.9090909090909,6,1,0,100,0,0
31639,-92.7043528401833,6,1,0,100,0,0
31771,-94.5719484469395,6,1,0,100,0,0
31903,-96.5162460971243,6,1,0,100,0,0
31969,-97.5187333486763,6,1,0,100,0,0
32036,-98.5422642844403,6,1,0,100,0,0
32168,-100.655164465506,6,1,0,100,0,0
32234,-101.745960685361,6,1,0,100,0,0
32300,-102.860657752762,6,1,0,100,0,0
32432,-105.164856428938,6,1,0,100,0,0
32696,264.550264550265,6,1,0,100,1,0
32696,-90.9090909090909,6,1,0,100,0,0
32828,-92.7043528401833,6,1,0,100,0,0
32894,-93.6288384312675,6,1,0,100,0,0
32960,-94.5719484469395,6,1,0,100,0,0
33092,-96.5162460971243,6,1,0,100,0,0
33158,-97.5187333486763,6,1,0,100,0,0
33224,-98.5422642844403,6,1,0,100,0,0
33290,-99.5875085396288,6,1,0,100,0,0
33356,-100.655164465506,6,1,0,100,0,0
33489,-102.860657752762,6,1,0,100,0,0
33621,-83.571861354282,6,1,0,100,0,0
34018,264.550264550265,9,1,0,100,1,0
34018,-83.571861354282,6,1,0,100,0,0
35739,-83.3333333333333,6,1,0,100,0,0
35869,-88.1642181993869,6,1,0,100,0,0
35958,-91.7085392572159,6,1,0,100,0,0
36046,-95.5497694861811,6,1,0,100,0,0
36134,-99.7267487085386,6,1,0,100,0,0
36266,264.550264550265,10,1,0,100,1,0
36266,-86.9565217391304,6,1,0,100,0,0
38779,264.550264550265,9,1,0,100,1,0
38779,-86.9565217391304,6,1,0,100,0,0
41159,264.550264550265,6,1,0,100,1,0
41159,-86.9565217391304,6,1,0,100,0,0
42217,264.550264550265,7,1,0,100,1,0
42217,-86.9565217391304,6,1,0,100,0,0
43143,-86.9565217391304,6,1,0,100,0,0
43187,-86.1244101554459,6,1,0,100,0,0
43231,-85.3080730441845,6,1,0,100,0,0
43275,-84.5070660583285,6,1,0,100,0,0
43319,-83.7209613845438,6,1,0,100,0,0
43363,-82.9492781753813,6,1,0,100,0,0
43407,-82.1917583036279,6,1,0,100,0,0
43473,-81.0811029948927,6,1,0,100,0,0
43539,264.550264550265,7,1,0,100,1,0
43539,-80,6,1,0,100,0,0
45260,264.550264550265,4,1,0,100,1,0
45260,-80,4,1,0,100,0,0
45524,-80,4,1,0,100,0,0
45722,-92.3369560199079,4,1,0,100,0,0
45921,-109.172808546921,4,1,0,100,0,0
46054,396.825396825397,3,1,0,70,1,0
46054,-83.0124211485764,4,1,0,70,0,0
49228,-83.3333333333333,4,1,0,70,0,0
49360,-80.3212851405623,4,1,0,70,0,0
49493,-76.6283524904215,4,1,0,70,0,0
49625,-74.0740740740741,4,1,0,70,0,0
54784,-83.4285809632665,4,1,0,70,0,0
55180,-80.3212851405623,4,1,0,70,0,0
55445,-74.0740740740741,4,1,0,70,0,0
62720,-66.6666666666667,4,1,0,85,0,0
67879,-74.0740740740741,4,1,0,85,0,0
69598,-74.0740740740741,4,1,0,85,0,0
69665,-73.7039166261295,4,1,0,85,0,0
69731,-73.3374940138271,4,1,0,85,0,0
69863,-72.6153658471054,4,1,0,85,0,0
69995,-71.9073717999422,4,1,0,85,0,0
70061,-71.5585012215036,4,1,0,85,0,0
70128,-71.2130502187309,4,1,0,85,0,0
70260,-70.5319590886425,4,1,0,85,0,0
70392,-69.8638214392506,4,1,0,85,0,0
70458,-69.5344529307381,4,1,0,85,0,0
70524,-69.208223321095,4,1,0,85,0,0
71053,-66.6666666666667,4,1,0,85,0,0
76874,-63.4920634920635,4,1,0,85,0,0
76918,-60.6060606060606,4,1,0,85,0,0
76962,-57.9710144927536,4,1,0,85,0,0
77006,264.550264550265,5,1,0,100,1,1
77006,-83.3333333333333,5,1,0,100,0,1
78328,264.550264550265,4,1,0,100,1,1
78328,-83.3333333333333,4,1,0,100,0,1
79650,-83.3333333333333,4,1,0,100,0,1
79716,-84.2044281424672,4,1,0,100,0,1
79783,-85.0939266762653,4,1,0,100,0,1
79849,-86.002344423909,4,1,0,100,0,1
79915,-86.9304426063485,4,1,0,100,0,1
79981,-87.8787905417815,4,1,0,100,0,1
80047,-88.8480582701105,4,1,0,100,0,1
80113,-89.8389457220042,4,1,0,100,0,1
80179,-90.8521018633766,4,1,0,100,0,1
80245,-91.8884547669893,4,1,0,100,0,1
80312,-92.9487239069695,4,1,0,100,0,1
80378,-94.0337468310627,4,1,0,100,0,1
80444,264.550264550265,5,1,0,100,1,1
80444,-95.1444006568769,4,1,0,100,0,1
81502,-95.2380952380952,4,1,0,100,0,1
81546,-93.0232558139535,4,1,0,100,0,1
81590,-90.9090909090909,4,1,0,100,0,1
81634,-88.8888888888889,4,1,0,100,0,1
81678,-86.9565217391304,4,1,0,100,0,1
81722,-85.1063829787234,4,1,0,100,0,1
81766,264.550264550265,4,1,0,100,1,1
81766,-83.3333333333333,4,1,0,100,0,1
83882,264.550264550265,5,1,0,100,1,1
83882,-83.3333333333333,5,1,0,100,0,1
83948,-83.6820083682008,5,1,0,100,0,1
84080,-84.3881856540084,5,1,0,100,0,1
84146,-84.7457627118644,5,1,0,100,0,1
84278,-85.4700854700855,5,1,0,100,0,1
84411,-86.2068965517241,5,1,0,100,0,1
84477,-86.5800865800866,5,1,0,100,0,1
84543,-86.9565217391304,5,1,0,100,0,1
84609,-87.3362445414847,5,1,0,100,0,1
84675,-87.719298245614,5,1,0,100,0,1
84741,-88.1057268722467,5,1,0,100,0,1
84807,-88.495575221239,5,1,0,100,0,1
84940,-89.2857142857143,5,1,0,100,0,1
85006,-89.6860986547085,5,1,0,100,0,1
85072,-90.0900900900901,5,1,0,100,0,1
85116,-90.3614185658378,5,1,0,100,0,1
85160,-90.6344684696279,5,1,0,100,0,1
85204,-90.9090909090909,5,1,0,100,0,1
85337,-89.6860986547085,5,1,0,100,0,1
85403,-89.086859688196,5,1,0,100,0,1
85469,-88.495575221239,5,1,0,100,0,1
85535,-87.9120879120879,5,1,0,100,0,1
85601,-87.3362445414847,5,1,0,100,0,1
85733,-86.2068965517241,5,1,0,100,0,1
85866,-85.1063829787234,5,1,0,100,0,1
85932,-84.5665961945032,5,1,0,100,0,1
85998,-84.0336134453782,5,1,0,100,0,1
86064,-83.5073068893528,5,1,0,100,0,1
86130,-82.9875518672199,5,1,0,100,0,1
86262,-81.9672131147541,5,1,0,100,0,1
86329,-81.4663951120163,5,1,0,100,0,1
86395,-80.9716599190283,5,1,0,100,0,1
86439,-80.6451612903226,5,1,0,100,0,1
86483,-80.3212851405622,5,1,0,100,0,1
86526,264.550264550265,5,1,0,100,1,1
86526,-80.0000000000001,5,1,0,100,0,1
86658,-80.8080808080808,5,1,0,100,0,1
86790,-81.6326530612245,5,1,0,100,0,1
86922,-82.4742268041237,5,1,0,100,0,1
86988,-82.9015544041451,5,1,0,100,0,1
87055,-83.3333333333333,5,1,0,100,0,1
87584,-83.3333333333333,5,1,0,100,0,1
87848,264.550264550265,4,1,0,100,1,1
87848,-83.3333333333333,4,1,0,100,0,1
88906,-83.3333333333333,4,1,0,100,0,1
89964,264.550264550265,5,1,0,100,1,1
89964,-83.3333333333333,5,1,0,100,0,1
90757,-83.3333333333333,5,1,0,100,0,1
90823,-84.6560846560847,5,1,0,100,0,1
90889,-86.0215053763441,5,1,0,100,0,1
90956,-87.431693989071,5,1,0,100,0,1
91022,-88.8888888888889,5,1,0,100,0,1
91088,-90.3954802259887,5,1,0,100,0,1
91154,-91.9540229885058,5,1,0,100,0,1
91220,-93.5672514619883,5,1,0,100,0,1
91286,264.550264550265,4,1,0,100,1,1
91286,-83.3333333333333,4,1,0,100,0,1
93402,264.550264550265,5,1,0,100,1,1
93402,-83.3333333333333,5,1,0,100,0,1
93490,-83.0903632627592,5,1,0,100,0,1
93578,-82.8488059001606,5,1,0,100,0,1
93666,-82.6087172022741,5,1,0,100,0,1
93798,-82.2511142969709,5,1,0,100,0,1
93931,-81.8965270139789,5,1,0,100,0,1
94063,-81.5450503785321,5,1,0,100,0,1
94129,-81.370474072519,5,1,0,100,0,1
94195,-81.196577726642,5,1,0,100,0,1
94261,-81.0234230613728,5,1,0,100,0,1
94327,-80.8510707107294,5,1,0,100,0,1
94394,-80.6793849649125,5,1,0,100,0,1
94460,-80.508491633155,5,1,0,100,0,1
94526,-80.3382561938787,5,1,0,100,0,1
94592,-80.1688034325075,5,1,0,100,0,1
94636,-80.0561674070528,5,1,0,100,0,1
94680,-79.9439113517956,5,1,0,100,0,1
94724,-79.8319059388551,5,1,0,100,0,1
94857,-79.4978913184328,5,1,0,100,0,1
94989,-79.166660069445,5,1,0,100,0,1
95055,-79.0021085662776,5,1,0,100,0,1
95121,-78.8381775451526,5,1,0,100,0,1
95187,-78.6749254358394,5,1,0,100,0,1
95253,-78.5124096714727,5,1,0,100,0,1
95386,-78.1893229351959,5,1,0,100,0,1
95452,-78.028744228799,5,1,0,100,0,1
95518,-77.8688237369093,5,1,0,100,0,1
95584,-77.7096178085577,5,1,0,100,0,1
95650,-77.5510014160813,5,1,0,100,0,1
95782,-77.2357629387281,5,1,0,100,0,1
95849,-77.079132520611,5,1,0,100,0,1
95915,-76.9230769230769,5,1,0,100,0,1
96047,264.550264550265,4,1,0,70,1,0
96047,-66.6666666666667,4,1,0,70,0,0
97502,-100,4,1,0,70,0,0
97634,-93.7499707031342,4,1,0,70,0,0
97766,-88.2353200692118,4,1,0,70,0,0
97898,-83.3333333333333,4,1,0,70,0,0
98031,-78.9473476454348,4,1,0,70,0,0
98163,-75.0000187500047,4,1,0,70,0,0
98295,-71.4285714285714,4,1,0,70,0,0
98427,-68.1818026859539,4,1,0,70,0,0
98560,-65.2174054820447,4,1,0,70,0,0
98692,-62.5,4,1,0,70,0,0
98824,-59.9999880000024,4,1,0,70,0,0
98957,-57.6923187869844,4,1,0,70,0,0
99089,-55.5555555555556,4,1,0,70,0,0
99221,264.550264550265,10,1,0,70,1,0
99221,-54.054054054054,10,1,0,70,0,0
99222,-200,10,1,0,70,0,0
100014,-200,10,1,0,40,0,0
101542,-200,10,1,0,100,0,0
101609,264.550264550265,4,1,0,100,1,1
101609,-76.9230769230769,4,1,0,100,0,1
105048,-76.9230769230769,4,1,0,100,0,1
105114,-77.9220981615839,4,1,0,100,0,1
105180,-78.9473476454348,4,1,0,100,0,1
105268,-80.3571715561327,4,1,0,100,0,1
105356,-81.8181966942176,4,1,0,100,0,1
105444,-83.3333333333333,4,1,0,100,0,1
105511,-84.5070660583285,4,1,0,100,0,1
105577,-85.7142612244968,4,1,0,100,0,1
105643,-86.9565217391304,4,1,0,100,0,1
105709,-88.2353200692118,4,1,0,100,0,1
105753,-89.1089285364215,4,1,0,100,0,1
105797,-90.0000090000009,4,1,0,100,0,1
105841,-90.9090909090909,4,1,0,100,0,1
109016,-90.9090909090909,4,1,0,100,0,1
109082,-89.8876404494382,4,1,0,100,0,1
109148,-88.8888888888889,4,1,0,100,0,1
109214,-87.9120879120879,4,1,0,100,0,1
109280,-86.9565217391304,4,1,0,100,0,1
109347,-86.0215053763441,4,1,0,100,0,1
109413,-85.1063829787234,4,1,0,100,0,1
109479,-84.2105263157895,4,1,0,100,0,1
109545,-83.3333333333333,4,1,0,100,0,1
109611,-82.4742268041237,4,1,0,100,0,1
109677,-81.6326530612245,4,1,0,100,0,1
109743,-80.8080808080808,4,1,0,100,0,1
109810,-80,4,1,0,100,0,1
109876,-79.2079207920792,4,1,0,100,0,1
109942,-78.4313725490196,4,1,0,100,0,1
110008,-77.6699029126214,4,1,0,100,0,1
110074,-76.9230769230769,4,1,0,100,0,1
113513,-76.9230769230769,4,1,0,100,0,1
113579,-77.9151161558552,4,1,0,100,0,1
113646,-78.9330150754165,4,1,0,100,0,1
113734,-80.3323832690139,4,1,0,100,0,1
113822,-81.7822645345485,4,1,0,100,0,1
113910,-83.2854442029167,4,1,0,100,0,1
113976,-84.4496165142914,4,1,0,100,0,1
114042,-85.646796039007,4,1,0,100,0,1
114109,-86.8784067195235,4,1,0,100,0,1
114175,-88.1458779020928,4,1,0,100,0,1
114219,-89.0116854540664,4,1,0,100,0,1
114263,-89.8945896042301,4,1,0,100,0,1
114307,-90.7952666611584,4,1,0,100,0,1
117482,-90.9090909090909,4,1,0,100,0,1
117548,-90.3954802259887,4,1,0,100,0,1
117614,-89.8876404494382,4,1,0,100,0,1
117680,-89.3854748603352,4,1,0,100,0,1
117746,-88.8888888888889,4,1,0,100,0,1
117812,-88.3977900552486,4,1,0,100,0,1
117878,-87.9120879120879,4,1,0,100,0,1
117944,-87.431693989071,4,1,0,100,0,1
118011,-86.9565217391304,4,1,0,100,0,1
118077,-86.4864864864865,4,1,0,100,0,1
118143,-86.0215053763441,4,1,0,100,0,1
118209,-85.5614973262032,4,1,0,100,0,1
118275,-85.1063829787234,4,1,0,100,0,1
118341,-84.6560846560847,4,1,0,100,0,1
118407,-84.2105263157895,4,1,0,100,0,1
118474,-83.7696335078534,4,1,0,100,0,1
118540,-83.3333333333335,4,1,0,100,0,1
118804,-71.4285714285714,4,1,0,100,0,1
118848,-72.5646224245001,4,1,0,100,0,1
118892,-73.7373945923944,4,1,0,100,0,1
118936,-74.9486414434509,4,1,0,100,0,1
118980,-76.2004040145421,4,1,0,100,0,1
119025,-77.4946896763899,4,1,0,100,0,1
119069,-78.8337026692303,4,1,0,100,0,1
119201,-83.1434890333738,4,1,0,100,0,1
119333,-71.4285714285714,4,1,0,100,0,1
119377,-72.5646224245001,4,1,0,100,0,1
119421,-73.7373945923944,4,1,0,100,0,1
119465,-74.9486414434509,4,1,0,100,0,1
119509,-76.2004040145421,4,1,0,100,0,1
119554,-77.4946896763899,4,1,0,100,0,1
119598,-78.8337026692303,4,1,0,100,0,1
119730,-83.1434890333738,4,1,0,100,0,1
119862,-71.4285714285714,4,1,0,100,0,1
119906,-72.5646224245001,4,1,0,100,0,1
119950,-73.7373945923944,4,1,0,100,0,1
119994,-74.9486414434509,4,1,0,100,0,1
120038,-76.2004040145421,4,1,0,100,0,1
120083,-77.4946896763899,4,1,0,100,0,1
120127,-78.8337026692303,4,1,0,100,0,1
120259,-83.1434890333738,4,1,0,100,0,1
120656,-71.4285714285714,4,1,0,100,0,1
120700,-72.5646224245001,4,1,0,100,0,1
120744,-73.7373945923944,4,1,0,100,0,1
120788,-74.9486414434509,4,1,0,100,0,1
120832,-76.2004040145421,4,1,0,100,0,1
120876,-77.4946896763899,4,1,0,100,0,1
120920,-78.8337026692303,4,1,0,100,0,1
121053,-83.1434890333738,4,1,0,100,0,1
121185,-71.4285714285714,4,1,0,100,0,1
121229,-72.5646224245001,4,1,0,100,0,1
121273,-73.7373945923944,4,1,0,100,0,1
121317,-74.9486414434509,4,1,0,100,0,1
121361,-76.2004040145421,4,1,0,100,0,1
121405,-77.4946896763899,4,1,0,100,0,1
121450,-78.8337026692303,4,1,0,100,0,1
121582,-83.1434890333738,4,1,0,100,0,1
121714,-71.4285714285714,4,1,0,100,0,1
121758,-72.5646224245001,4,1,0,100,0,1
121802,-73.7373945923944,4,1,0,100,0,1
121846,-74.9486414434509,4,1,0,100,0,1
121890,-76.2004040145421,4,1,0,100,0,1
121935,-77.4946896763899,4,1,0,100,0,1
121979,-78.8337026692303,4,1,0,100,0,1
122111,-83.1434890333738,4,1,0,100,0,1
122508,-71.4285714285714,4,1,0,100,0,1
122552,-72.5646224245001,4,1,0,100,0,1
122596,-73.7373945923944,4,1,0,100,0,1
122640,-74.9486414434509,4,1,0,100,0,1
122684,-76.2004040145421,4,1,0,100,0,1
122728,-77.4946896763899,4,1,0,100,0,1
122772,-78.8337026692303,4,1,0,100,0,1
122905,-83.1434890333738,4,1,0,100,0,1
123037,-71.4285714285714,4,1,0,100,0,1
123081,-72.5646224245001,4,1,0,100,0,1
123125,-73.7373945923944,4,1,0,100,0,1
123169,-74.9486414434509,4,1,0,100,0,1
123213,-76.2004040145421,4,1,0,100,0,1
123257,-77.4946896763899,4,1,0,100,0,1
123301,-78.8337026692303,4,1,0,100,0,1
123434,-83.1434890333738,4,1,0,100,0,1
123566,-71.4285714285714,4,1,0,100,0,1
123610,-72.5646224245001,4,1,0,100,0,1
123654,-73.7373945923944,4,1,0,100,0,1
123698,-74.9486414434509,4,1,0,100,0,1
123742,-76.2004040145421,4,1,0,100,0,1
123786,-77.4946896763899,4,1,0,100,0,1
123831,-78.8337026692303,4,1,0,100,0,1
123963,-83.1434890333738,4,1,0,100,0,1
124360,-71.4285714285714,4,1,0,100,0,1
124404,-72.5646224245001,4,1,0,100,0,1
124448,-73.7373945923944,4,1,0,100,0,1
124492,-74.9486414434509,4,1,0,100,0,1
124536,-76.2004040145421,4,1,0,100,0,1
124580,-77.4946896763899,4,1,0,100,0,1
124624,-78.8337026692303,4,1,0,100,0,1
124756,-83.1434890333738,4,1,0,100,0,1
124889,-71.4285714285714,4,1,0,100,0,1
124933,-72.5646224245001,4,1,0,100,0,1
124977,-73.7373945923944,4,1,0,100,0,1
125021,-74.9486414434509,4,1,0,100,0,1
125065,-76.2004040145421,4,1,0,100,0,1
125109,-77.4946896763899,4,1,0,100,0,1
125153,-78.8337026692303,4,1,0,100,0,1
125286,-83.1434890333738,4,1,0,100,0,1
125418,-71.4285714285714,4,1,0,100,0,1
125462,-72.5646224245001,4,1,0,100,0,1
125506,-73.7373945923944,4,1,0,100,0,1
125550,-74.9486414434509,4,1,0,100,0,1
125594,-76.2004040145421,4,1,0,100,0,1
125638,-77.4946896763899,4,1,0,100,0,1
125682,-78.8337026692303,4,1,0,100,0,1
125815,-83.1434890333738,4,1,0,100,0,1
126211,-71.4285714285714,4,1,0,100,0,1
126255,-72.5646224245001,4,1,0,100,0,1
126299,-73.7373945923944,4,1,0,100,0,1
126343,-74.9486414434509,4,1,0,100,0,1
126387,-76.2004040145421,4,1,0,100,0,1
126432,-77.4946896763899,4,1,0,100,0,1
126476,-78.8337026692303,4,1,0,100,0,1
126608,-83.1434890333738,4,1,0,100,0,1
126741,-71.4285714285714,4,1,0,100,0,1
126785,-72.5646224245001,4,1,0,100,0,1
126829,-73.7373945923944,4,1,0,100,0,1
126873,-74.9486414434509,4,1,0,100,0,1
126917,-76.2004040145421,4,1,0,100,0,1
126961,-77.4946896763899,4,1,0,100,0,1
127005,-78.8337026692303,4,1,0,100,0,1
127137,-83.1434890333738,4,1,0,100,0,1
127270,-71.4285714285714,4,1,0,100,0,1
127314,-72.5646224245001,4,1,0,100,0,1
127358,-73.7373945923944,4,1,0,100,0,1
127402,-74.9486414434509,4,1,0,100,0,1
127446,-76.2004040145421,4,1,0,100,0,1
127490,-77.4946896763899,4,1,0,100,0,1
127534,-78.8337026692303,4,1,0,100,0,1
127666,-83.1434890333738,4,1,0,100,0,1
128063,-71.4285714285714,4,1,0,100,0,1
128107,-72.5646224245001,4,1,0,100,0,1
128151,-73.7373945923944,4,1,0,100,0,1
128195,-74.9486414434509,4,1,0,100,0,1
128239,-76.2004040145421,4,1,0,100,0,1
128284,-77.4946896763899,4,1,0,100,0,1
128328,-78.8337026692303,4,1,0,100,0,1
128460,-83.1434890333738,4,1,0,100,0,1
128592,-71.4285714285714,4,1,0,100,0,1
128636,-72.5646224245001,4,1,0,100,0,1
128680,-73.7373945923944,4,1,0,100,0,1
128724,-74.9486414434509,4,1,0,100,0,1
128768,-76.2004040145421,4,1,0,100,0,1
128813,-77.4946896763899,4,1,0,100,0,1
128857,-78.8337026692303,4,1,0,100,0,1
128989,-83.1434890333738,4,1,0,100,0,1
129122,-71.4285714285714,4,1,0,100,0,1
129166,-72.5646224245001,4,1,0,100,0,1
129210,-73.7373945923944,4,1,0,100,0,1
129254,-74.9486414434509,4,1,0,100,0,1
129298,-76.2004040145421,4,1,0,100,0,1
129342,-77.4946896763899,4,1,0,100,0,1
129386,-78.8337026692303,4,1,0,100,0,1
129518,-83.1434890333738,4,1,0,100,0,1
129915,-71.4285714285714,4,1,0,100,0,1
129959,-72.5646224245001,4,1,0,100,0,1
130003,-73.7373945923944,4,1,0,100,0,1
130047,-74.9486414434509,4,1,0,100,0,1
130091,-76.2004040145421,4,1,0,100,0,1
130136,-77.4946896763899,4,1,0,100,0,1
130180,-78.8337026692303,4,1,0,100,0,1
130312,-83.1434890333738,4,1,0,100,0,1
130444,-71.4285714285714,4,1,0,100,0,1
130488,-72.5646224245001,4,1,0,100,0,1
130532,-73.7373945923944,4,1,0,100,0,1
130576,-74.9486414434509,4,1,0,100,0,1
130620,-76.2004040145421,4,1,0,100,0,1
130665,-77.4946896763899,4,1,0,100,0,1
130709,-78.8337026692303,4,1,0,100,0,1
130841,-83.1434890333738,4,1,0,100,0,1
130973,-71.4285714285714,4,1,0,100,0,1
131017,-72.5646224245001,4,1,0,100,0,1
131061,-73.7373945923944,4,1,0,100,0,1
131105,-74.9486414434509,4,1,0,100,0,1
131149,-76.2004040145421,4,1,0,100,0,1
131194,-77.4946896763899,4,1,0,100,0,1
131238,-78.8337026692303,4,1,0,100,0,1
131370,-83.1434890333738,4,1,0,100,0,1
131767,-71.4285714285714,4,1,0,100,0,1
131811,-72.5646224245001,4,1,0,100,0,1
131855,-73.7373945923944,4,1,0,100,0,1
131899,-74.9486414434509,4,1,0,100,0,1
131943,-76.2004040145421,4,1,0,100,0,1
131987,-77.4946896763899,4,1,0,100,0,1
132032,-78.8337026692303,4,1,0,100,0,1
132164,-83.1434890333738,4,1,0,100,0,1
132296,-71.4285714285714,4,1,0,100,0,1
132340,-72.5646224245001,4,1,0,100,0,1
132384,-73.7373945923944,4,1,0,100,0,1
132428,-74.9486414434509,4,1,0,100,0,1
132472,-76.2004040145421,4,1,0,100,0,1
132517,-77.4946896763899,4,1,0,100,0,1
132561,-78.8337026692303,4,1,0,100,0,1
132693,-83.1434890333738,4,1,0,100,0,1
132825,-71.4285714285714,4,1,0,100,0,1
132869,-72.5646224245001,4,1,0,100,0,1
132913,-73.7373945923944,4,1,0,100,0,1
132957,-74.9486414434509,4,1,0,100,0,1
133001,-76.2004040145421,4,1,0,100,0,1
133046,-77.4946896763899,4,1,0,100,0,1
133090,-78.8337026692303,4,1,0,100,0,1
133222,-83.1434890333738,4,1,0,100,0,1
133619,-71.4285714285714,4,1,0,100,0,1
133663,-72.5646224245001,4,1,0,100,0,1
133707,-73.7373945923944,4,1,0,100,0,1
133751,-74.9486414434509,4,1,0,100,0,1
133795,-76.2004040145421,4,1,0,100,0,1
133839,-77.4946896763899,4,1,0,100,0,1
133883,-78.8337026692303,4,1,0,100,0,1
134016,-83.1434890333738,4,1,0,100,0,1
134148,-71.4285714285714,4,1,0,100,0,1
134192,-72.5646224245001,4,1,0,100,0,1
134236,-73.7373945923944,4,1,0,100,0,1
134280,-74.9486414434509,4,1,0,100,0,1
134324,-76.2004040145421,4,1,0,100,0,1
134368,-77.4946896763899,4,1,0,100,0,1
134413,-78.8337026692303,4,1,0,100,0,1
134545,-83.1434890333738,4,1,0,100,0,1
134677,-71.4285714285714,4,1,0,100,0,1
134721,-72.5646224245001,4,1,0,100,0,1
134765,-73.7373945923944,4,1,0,100,0,1
134809,-74.9486414434509,4,1,0,100,0,1
134853,-76.2004040145421,4,1,0,100,0,1
134898,-77.4946896763899,4,1,0,100,0,1
134942,-78.8337026692303,4,1,0,100,0,1
135074,-83.1434890333738,4,1,0,100,0,1
135206,-83.3333333333333,4,1,0,100,0,1
135272,-84.6560846560847,4,1,0,100,0,1
135338,-86.0215053763441,4,1,0,100,0,1
135405,-87.431693989071,4,1,0,100,0,1
135471,-88.8888888888889,4,1,0,100,0,1
135537,-90.3954802259887,4,1,0,100,0,1
135603,-91.9540229885058,4,1,0,100,0,1
135669,-93.5672514619883,4,1,0,100,0,1
135735,-95.2380952380952,4,1,0,100,0,1
135801,-96.969696969697,4,1,0,100,0,1
135868,-98.7654320987654,4,1,0,100,0,1
135934,-100.62893081761,4,1,0,100,0,1
136000,-102.564102564103,4,1,0,100,0,1
136066,-104.575163398693,4,1,0,100,0,1
136132,-106.666666666667,4,1,0,100,0,1
136198,-108.843537414966,4,1,0,100,0,1
136265,-111.111111111111,4,1,0,100,0,0
136529,-90.9090909090909,4,1,0,100,0,0
148698,-90.9090909090909,4,1,0,100,0,0
148764,-93.0232558139535,4,1,0,100,0,0
148830,-95.2380952380952,4,1,0,100,0,0
148896,-97.5609756097561,4,1,0,100,0,0
148962,264.550264550265,4,1,0,100,1,0
148962,-100,4,1,0,100,0,0
149490,397.350993377483,4,1,0,90,1,8
149490,-73.2363242460326,4,1,0,90,0,0
149754,-75.7617118635553,4,1,0,85,0,0
149887,372.670807453416,4,1,0,80,1,8
149887,-82.1962659279926,4,1,0,80,0,0
150352,-87.9847181408791,4,1,0,75,0,0
150632,372.670807453416,4,1,0,70,1,0
150632,-91.8664086035401,4,1,0,70,0,0
151004,384.615384615384,4,1,0,65,1,8
151004,-91.7843166274254,4,1,0,65,0,0
151388,504.201680672269,4,1,0,60,1,8
151388,-67.9012585330514,4,1,0,60,0,0
151934,-72.522769376655,4,1,0,50,0,0
152396,555.555555555555,4,1,0,45,1,0
152396,-69.8412884656135,4,1,0,45,0,0
153507,705.882352941177,4,1,0,40,1,0
153507,-63.4242398484722,4,1,0,40,0,0

[HitObjects]
256,192,178,5,4,0:0:0:0:
256,192,1463,8,0,3392,0:0:0:0:
256,192,3606,5,0,0:0:0:0:
256,192,4200,8,0,5685,0:0:0:0:
256,192,5982,5,0,0:0:0:0:
256,192,6279,8,0,8061,0:0:0:0:
256,192,8358,5,4,0:0:0:0:
256,192,8667,8,0,10522,0:0:0:0:
173,128,10832,6,4,L|307:81,10,128.099997703285
256,192,13652,1,8,0:0:0:0:
256,192,13784,1,8,0:0:0:0:
256,192,13916,1,8,0:0:0:0:
256,192,14048,1,8,0:0:0:0:
256,192,14181,1,0,0:0:0:0:
256,192,14225,1,0,0:0:0:0:
256,192,14269,1,0,0:0:0:0:
256,192,14313,1,8,0:0:0:0:
256,192,14445,1,0,0:0:0:0:
256,192,14577,1,8,0:0:0:0:
256,192,14709,1,8,0:0:0:0:
256,192,14775,1,8,0:0:0:0:
256,192,14842,1,0,0:0:0:0:
256,192,14908,1,0,0:0:0:0:
256,192,14974,1,0,0:0:0:0:
256,192,15106,1,8,0:0:0:0:
256,192,15172,1,8,0:0:0:0:
256,192,15238,1,0,0:0:0:0:
256,192,15371,1,0,0:0:0:0:
256,192,15503,1,8,0:0:0:0:
256,192,15547,1,8,0:0:0:0:
256,192,15591,1,8,0:0:0:0:
256,192,15635,1,0,0:0:0:0:
256,192,15701,1,0,0:0:0:0:
256,192,15768,1,8,0:0:0:0:
256,192,15900,1,0,0:0:0:0:
256,192,15944,1,0,0:0:0:0:
256,192,15988,1,0,0:0:0:0:
256,192,16032,1,8,0:0:0:0:
256,192,16131,1,8,0:0:0:0:
256,192,16230,1,8,0:0:0:0:
256,192,16297,1,0,0:0:0:0:
256,192,16429,1,8,0:0:0:0:
256,192,16561,1,8,0:0:0:0:
256,192,16693,1,0,0:0:0:0:
256,192,16826,1,0,0:0:0:0:
256,192,16958,1,8,0:0:0:0:
256,192,17024,1,8,0:0:0:0:
256,192,17090,1,0,0:0:0:0:
256,192,17156,1,0,0:0:0:0:
256,192,17223,1,8,0:0:0:0:
256,192,17289,1,8,0:0:0:0:
256,192,17355,1,8,0:0:0:0:
256,192,17421,1,0,0:0:0:0:
256,192,17487,1,8,0:0:0:0:
256,192,17553,1,8,0:0:0:0:
256,192,17619,1,8,0:0:0:0:
256,192,17686,1,8,0:0:0:0:
256,192,17752,1,0,0:0:0:0:
256,192,17884,1,0,0:0:0:0:
256,192,18016,1,8,0:0:0:0:
256,192,18060,1,0,0:0:0:0:
256,192,18104,1,0,0:0:0:0:
256,192,18148,1,8,0:0:0:0:
256,192,18281,1,0,0:0:0:0:
256,192,18413,1,0,0:0:0:0:
256,192,18479,1,0,0:0:0:0:
256,192,18545,1,8,0:0:0:0:
256,192,18678,1,8,0:0:0:0:
256,192,18711,1,8,0:0:0:0:
256,192,18876,1,0,0:0:0:0:
256,192,18942,1,8,0:0:0:0:
256,192,18986,1,8,0:0:0:0:
256,192,19030,1,8,0:0:0:0:
256,192,19074,1,0,0:0:0:0:
256,192,19207,1,8,0:0:0:0:
256,192,19273,1,0,0:0:0:0:
256,192,19339,1,8,0:0:0:0:
256,192,19471,1,0,0:0:0:0:
256,192,19537,1,8,0:0:0:0:
256,192,19604,1,8,0:0:0:0:
256,192,19670,1,8,0:0:0:0:
256,192,19736,1,0,0:0:0:0:
256,192,19802,1,0,0:0:0:0:
256,192,19868,1,8,0:0:0:0:
256,192,19934,1,8,0:0:0:0:
256,192,20000,1,0,0:0:0:0:
256,192,20066,1,0,0:0:0:0:
256,192,20133,1,8,0:0:0:0:
256,192,20199,1,0,0:0:0:0:
256,192,20265,1,0,0:0:0:0:
256,192,20397,1,8,0:0:0:0:
256,192,20463,1,8,0:0:0:0:
256,192,20529,1,0,0:0:0:0:
256,192,20596,1,0,0:0:0:0:
256,192,20662,1,8,0:0:0:0:
256,192,20706,1,8,0:0:0:0:
256,192,20750,1,8,0:0:0:0:
256,192,20794,1,0,0:0:0:0:
256,192,20926,1,8,0:0:0:0:
256,192,21032,1,0,0:0:0:0:
256,192,21138,1,8,0:0:0:0:
256,192,21244,1,0,0:0:0:0:
256,192,21350,1,8,0:0:0:0:
256,192,21455,1,0,0:0:0:0:
256,192,21588,1,0,0:0:0:0:
256,192,21720,1,8,0:0:0:0:
256,192,21753,1,8,0:0:0:0:
256,192,21852,1,0,0:0:0:0:
256,192,21885,1,0,0:0:0:0:
256,192,21984,1,8,0:0:0:0:
256,192,22051,1,8,0:0:0:0:
256,192,22117,1,0,0:0:0:0:
256,192,22183,1,0,0:0:0:0:
256,192,22249,1,8,0:0:0:0:
256,192,22315,1,8,0:0:0:0:
256,192,22381,1,8,0:0:0:0:
256,192,22447,1,0,0:0:0:0:
256,192,22514,1,8,0:0:0:0:
256,192,22580,1,8,0:0:0:0:
256,192,22646,1,0,0:0:0:0:
256,192,22745,1,8,0:0:0:0:
256,192,22844,1,0,0:0:0:0:
256,192,22910,1,0,0:0:0:0:
256,192,22977,1,8,0:0:0:0:
256,192,23043,1,0,0:0:0:0:
256,192,23142,1,8,0:0:0:0:
256,192,23241,1,8,0:0:0:0:
256,192,23307,1,0,0:0:0:0:
256,192,23373,1,0,0:0:0:0:
256,192,23439,1,8,0:0:0:0:
256,192,23539,1,0,0:0:0:0:
256,192,23638,1,8,0:0:0:0:
256,192,23737,1,0,0:0:0:0:
256,192,23836,1,8,0:0:0:0:
256,192,24034,1,8,0:0:0:0:
256,192,24100,1,0,0:0:0:0:
256,192,24232,1,0,0:0:0:0:
256,192,24365,1,8,0:0:0:0:
256,192,24629,1,0,0:0:0:0:
256,192,24828,1,0,0:0:0:0:
256,192,24927,1,8,0:0:0:0:
256,192,25026,1,0,0:0:0:0:
256,192,25158,1,8,0:0:0:0:
256,192,25290,1,8,0:0:0:0:
256,192,25422,1,8,0:0:0:0:
256,192,25554,1,8,0:0:0:0:
256,192,25687,1,8,0:0:0:0:
256,192,25819,1,8,0:0:0:0:
256,192,26083,1,0,0:0:0:0:
256,192,26348,1,0,0:0:0:0:
256,192,26613,1,0,0:0:0:0:
256,192,26745,1,8,0:0:0:0:
256,192,26811,1,8,0:0:0:0:
256,192,26877,1,0,0:0:0:0:
256,224,26943,1,0,0:0:0:0:
256,224,27009,1,8,0:0:0:0:
256,192,27075,1,0,0:0:0:0:
256,192,27141,1,0,0:0:0:0:
256,192,27207,1,0,0:0:0:0:
256,192,27274,1,8,0:0:0:0:
256,192,27340,1,8,0:0:0:0:
256,192,27406,1,8,0:0:0:0:
256,192,27472,1,0,0:0:0:0:
256,192,27538,1,8,0:0:0:0:
256,192,27604,1,0,0:0:0:0:
256,192,27670,1,8,0:0:0:0:
256,192,27737,1,8,0:0:0:0:
256,192,27803,1,0,0:0:0:0:
256,192,27869,1,0,0:0:0:0:
256,192,27935,1,8,0:0:0:0:
256,192,28001,1,8,0:0:0:0:
256,192,28067,1,8,0:0:0:0:
256,192,28133,1,8,0:0:0:0:
256,192,28200,1,0,0:0:0:0:
256,192,28266,1,0,0:0:0:0:
256,192,28332,1,8,0:0:0:0:
256,192,28398,1,0,0:0:0:0:
256,192,28464,1,8,0:0:0:0:
256,192,28530,1,8,0:0:0:0:
256,192,28596,1,0,0:0:0:0:
256,192,28662,1,0,0:0:0:0:
256,192,28729,1,8,0:0:0:0:
256,192,28795,1,0,0:0:0:0:
256,192,28861,1,8,0:0:0:0:
256,192,28927,1,0,0:0:0:0:
256,192,28993,1,8,0:0:0:0:
256,192,29059,1,8,0:0:0:0:
256,192,29125,1,0,0:0:0:0:
256,192,29192,1,8,0:0:0:0:
256,192,29258,1,0,0:0:0:0:
256,192,29390,1,8,0:0:0:0:
256,192,29522,1,0,0:0:0:0:
256,192,29588,1,0,0:0:0:0:
256,192,29655,1,8,0:0:0:0:
256,192,29787,1,0,0:0:0:0:
256,192,29919,1,8,0:0:0:0:
256,192,29985,1,0,0:0:0:0:
256,192,30051,1,8,0:0:0:0:
256,192,30118,1,8,0:0:0:0:
256,192,30184,1,0,0:0:0:0:
256,192,30250,1,0,0:0:0:0:
256,192,30316,1,8,0:0:0:0:
256,192,30448,1,0,0:0:0:0:
256,192,30514,1,8,0:0:0:0:
256,192,30647,1,0,0:0:0:0:
256,192,30713,1,8,0:0:0:0:
256,192,30845,1,0,0:0:0:0:
256,192,30911,1,8,0:0:0:0:
256,192,31043,1,0,0:0:0:0:
256,192,31110,1,8,0:0:0:0:
256,192,31176,1,8,0:0:0:0:
256,192,31242,1,0,0:0:0:0:
256,192,31308,1,8,0:0:0:0:
256,192,31374,1,8,0:0:0:0:
256,192,31440,1,8,0:0:0:0:
256,192,31506,1,0,0:0:0:0:
256,192,31639,1,0,0:0:0:0:
256,192,31771,1,8,0:0:0:0:
256,192,31903,1,0,0:0:0:0:
256,192,31969,1,0,0:0:0:0:
256,192,32036,1,8,0:0:0:0:
256,192,32168,1,0,0:0:0:0:
256,192,32234,1,8,0:0:0:0:
256,192,32300,1,8,0:0:0:0:
256,192,32432,1,0,0:0:0:0:
256,192,32696,1,8,0:0:0:0:
256,192,32829,1,0,0:0:0:0:
256,192,32895,1,0,0:0:0:0:
256,192,32961,1,8,0:0:0:0:
256,192,33092,1,0,0:0:0:0:
256,192,33158,1,0,0:0:0:0:
256,192,33224,1,8,0:0:0:0:
256,192,33290,1,0,0:0:0:0:
256,192,33356,1,8,0:0:0:0:
256,192,33489,1,8,0:0:0:0:
256,192,33621,1,0,0:0:0:0:
256,192,33687,1,0,0:0:0:0:
256,192,33753,1,8,0:0:0:0:
256,192,33797,1,8,0:0:0:0:
256,192,33841,1,8,0:0:0:0:
256,192,33885,1,0,0:0:0:0:
256,192,33929,1,0,0:0:0:0:
256,192,33974,1,0,0:0:0:0:
256,192,34018,1,8,0:0:0:0:
256,192,34150,1,0,0:0:0:0:
256,192,34216,1,8,0:0:0:0:
256,192,34348,1,0,0:0:0:0:
256,192,34414,1,8,0:0:0:0:
256,192,34547,1,8,0:0:0:0:
256,192,34679,1,0,0:0:0:0:
256,192,34745,1,0,0:0:0:0:
256,192,34811,1,8,0:0:0:0:
256,192,34944,1,8,0:0:0:0:
256,192,35076,1,8,0:0:0:0:
256,192,35208,1,0,0:0:0:0:
256,192,35274,1,8,0:0:0:0:
256,192,35407,1,8,0:0:0:0:
256,192,35473,1,0,0:0:0:0:
256,192,35605,1,8,0:0:0:0:
256,192,35671,1,8,0:0:0:0:
256,192,35737,1,0,0:0:0:0:
256,192,35869,1,0,0:0:0:0:
256,192,35958,1,8,0:0:0:0:
256,192,36046,1,0,0:0:0:0:
256,192,36134,1,8,0:0:0:0:
256,192,36266,1,8,0:0:0:0:
256,192,36331,1,0,0:0:0:0:
256,192,36398,1,8,0:0:0:0:
256,192,36464,1,0,0:0:0:0:
256,192,36530,1,8,0:0:0:0:
256,192,36596,1,0,0:0:0:0:
256,192,36662,1,0,0:0:0:0:
256,192,36728,1,0,0:0:0:0:
256,192,36794,1,8,0:0:0:0:
256,192,36861,1,8,0:0:0:0:
256,192,36927,1,8,0:0:0:0:
256,192,36993,1,0,0:0:0:0:
256,192,37059,1,8,0:0:0:0:
256,192,37125,1,0,0:0:0:0:
256,192,37191,1,8,0:0:0:0:
256,192,37257,1,8,0:0:0:0:
256,192,37324,1,0,0:0:0:0:
256,192,37390,1,0,0:0:0:0:
256,192,37456,1,8,0:0:0:0:
256,192,37522,1,0,0:0:0:0:
256,192,37588,1,8,0:0:0:0:
256,192,37654,1,8,0:0:0:0:
256,192,37720,1,8,0:0:0:0:
256,192,37786,1,0,0:0:0:0:
256,192,37853,1,8,0:0:0:0:
256,192,37919,1,0,0:0:0:0:
256,192,37985,1,8,0:0:0:0:
256,192,38051,1,0,0:0:0:0:
256,192,38117,1,0,0:0:0:0:
256,192,38183,1,0,0:0:0:0:
256,192,38249,1,8,0:0:0:0:
256,192,38316,1,8,0:0:0:0:
256,192,38382,1,0,0:0:0:0:
256,192,38448,1,0,0:0:0:0:
256,192,38514,1,8,0:0:0:0:
256,192,38646,1,0,0:0:0:0:
256,192,38779,1,8,0:0:0:0:
256,192,38845,1,8,0:0:0:0:
256,192,38911,1,0,0:0:0:0:
256,192,38977,1,0,0:0:0:0:
256,192,39043,1,8,0:0:0:0:
256,192,39109,1,0,0:0:0:0:
256,192,39175,1,8,0:0:0:0:
256,192,39242,1,8,0:0:0:0:
256,192,39308,1,0,0:0:0:0:
256,192,39374,1,0,0:0:0:0:
256,192,39440,1,8,0:0:0:0:
256,192,39506,1,8,0:0:0:0:
256,192,39572,1,0,0:0:0:0:
256,192,39638,1,0,0:0:0:0:
256,192,39704,1,8,0:0:0:0:
256,192,39771,1,0,0:0:0:0:
256,192,39837,1,8,0:0:0:0:
256,192,39903,1,8,0:0:0:0:
256,192,39969,1,0,0:0:0:0:
256,192,40035,1,0,0:0:0:0:
256,192,40101,1,0,0:0:0:0:
256,192,40167,1,0,0:0:0:0:
256,192,40234,1,8,0:0:0:0:
256,192,40300,1,0,0:0:0:0:
256,192,40366,1,8,0:0:0:0:
256,192,40432,1,0,0:0:0:0:
256,192,40498,1,8,0:0:0:0:
256,192,40564,1,0,0:0:0:0:
256,192,40630,1,0,0:0:0:0:
256,192,40697,1,0,0:0:0:0:
256,192,40763,1,8,0:0:0:0:
256,192,40807,1,8,0:0:0:0:
256,192,40851,1,8,0:0:0:0:
256,192,40895,1,8,0:0:0:0:
256,192,40961,1,0,0:0:0:0:
256,192,41027,1,0,0:0:0:0:
256,192,41093,1,8,0:0:0:0:
256,192,41159,1,0,0:0:0:0:
256,192,41225,1,0,0:0:0:0:
256,192,41291,1,8,0:0:0:0:
256,192,41357,1,8,0:0:0:0:
256,192,41423,1,0,0:0:0:0:
256,192,41489,1,0,0:0:0:0:
256,192,41555,1,8,0:0:0:0:
256,192,41621,1,8,0:0:0:0:
256,192,41688,1,8,0:0:0:0:
256,192,41754,1,0,0:0:0:0:
256,192,41820,1,0,0:0:0:0:
256,192,41886,1,0,0:0:0:0:
256,192,41952,1,8,0:0:0:0:
256,192,42217,1,0,0:0:0:0:
256,192,42283,1,8,0:0:0:0:
256,192,42349,1,0,0:0:0:0:
256,192,42415,1,8,0:0:0:0:
256,192,42481,1,0,0:0:0:0:
256,192,42547,1,0,0:0:0:0:
256,192,42614,1,8,0:0:0:0:
256,192,42680,1,8,0:0:0:0:
256,192,42746,1,8,0:0:0:0:
256,192,42812,1,8,0:0:0:0:
256,192,42878,1,0,0:0:0:0:
256,192,42944,1,8,0:0:0:0:
256,192,43010,1,0,0:0:0:0:
256,192,43076,1,8,0:0:0:0:
256,192,43143,1,0,0:0:0:0:
256,192,43187,1,8,0:0:0:0:
256,192,43231,1,8,0:0:0:0:
256,192,43275,1,0,0:0:0:0:
256,192,43319,1,8,0:0:0:0:
256,192,43363,1,8,0:0:0:0:
256,192,43407,1,0,0:0:0:0:
256,192,43473,1,0,0:0:0:0:
256,192,43539,1,8,0:0:0:0:
256,192,43671,1,0,0:0:0:0:
256,192,43737,1,8,0:0:0:0:
256,192,43869,1,0,0:0:0:0:
256,192,43935,1,8,0:0:0:0:
256,192,44001,1,0,0:0:0:0:
256,192,44068,1,8,0:0:0:0:
256,192,44200,1,0,0:0:0:0:
256,192,44266,1,0,0:0:0:0:
256,192,44332,1,8,0:0:0:0:
256,192,44464,1,8,0:0:0:0:
256,192,44597,1,8,0:0:0:0:
256,192,44729,1,0,0:0:0:0:
256,192,44795,1,0,0:0:0:0:
256,192,44861,1,8,0:0:0:0:
256,192,44927,1,8,0:0:0:0:
256,192,44993,1,0,0:0:0:0:
256,192,45126,1,8,0:0:0:0:
256,192,45192,1,0,0:0:0:0:
256,192,45260,1,8,0:0:0:0:
256,192,45392,1,0,0:0:0:0:
256,192,45524,1,8,0:0:0:0:
256,192,45722,1,8,0:0:0:0:
256,192,45921,1,8,0:0:0:0:
256,192,46054,1,0,0:0:0:0:
256,192,46583,1,0,0:0:0:0:
256,192,46979,1,0,0:0:0:0:
256,192,47376,1,0,0:0:0:0:
256,192,47773,1,0,0:0:0:0:
256,192,48170,1,0,0:0:0:0:
256,192,48567,1,0,0:0:0:0:
256,192,48964,1,0,0:0:0:0:
256,192,49228,1,8,0:0:0:0:
256,192,49360,1,8,0:0:0:0:
256,192,49493,1,8,0:0:0:0:
256,192,49625,1,0,0:0:0:0:
256,192,49889,1,0,0:0:0:0:
256,192,50154,1,8,0:0:0:0:
256,192,50286,1,0,0:0:0:0:
256,192,50419,1,8,0:0:0:0:
256,192,50617,1,8,0:0:0:0:
256,192,50683,1,0,0:0:0:0:
256,192,50749,1,0,0:0:0:0:
256,192,50815,1,8,0:0:0:0:
256,192,51080,1,0,0:0:0:0:
256,192,51345,1,8,0:0:0:0:
256,192,51477,1,0,0:0:0:0:
256,192,51609,1,8,0:0:0:0:
256,192,51874,1,0,0:0:0:0:
256,192,52006,1,8,0:0:0:0:
256,192,52138,1,0,0:0:0:0:
256,192,52270,1,8,0:0:0:0:
256,192,52403,1,8,0:0:0:0:
256,192,52667,1,0,0:0:0:0:
256,192,52932,1,8,0:0:0:0:
256,192,53196,1,8,0:0:0:0:
256,192,53461,1,0,0:0:0:0:
256,192,53725,1,8,0:0:0:0:
256,192,53792,1,8,0:0:0:0:
256,192,53858,1,8,0:0:0:0:
256,192,53924,1,0,0:0:0:0:
256,192,53990,1,8,0:0:0:0:
256,192,54056,1,8,0:0:0:0:
256,192,54122,1,8,0:0:0:0:
256,192,54343,1,0,0:0:0:0:
256,192,54784,1,0,0:0:0:0:
256,192,55180,1,8,0:0:0:0:
256,192,55445,1,0,0:0:0:0:
256,192,55577,1,0,0:0:0:0:
256,192,55710,1,8,0:0:0:0:
256,192,55776,1,8,0:0:0:0:
256,192,55842,1,8,0:0:0:0:
256,192,55974,1,8,0:0:0:0:
256,192,56106,1,0,0:0:0:0:
256,192,56173,1,0,0:0:0:0:
256,192,56239,1,0,0:0:0:0:
256,192,56371,1,8,0:0:0:0:
256,192,56503,1,8,0:0:0:0:
224,192,56768,1,0,0:0:0:0:
256,192,56944,1,0,0:0:0:0:
256,192,57032,1,8,0:0:0:0:
256,192,57121,1,8,0:0:0:0:
256,192,57209,1,8,0:0:0:0:
256,192,57297,1,0,0:0:0:0:
256,192,57473,1,8,0:0:0:0:
256,192,57650,1,8,0:0:0:0:
256,192,57826,1,0,0:0:0:0:
256,192,58002,1,8,0:0:0:0:
256,192,58091,1,8,0:0:0:0:
256,192,58179,1,0,0:0:0:0:
256,192,58267,1,0,0:0:0:0:
256,192,58355,1,8,0:0:0:0:
256,192,58487,1,8,0:0:0:0:
256,192,58620,1,8,0:0:0:0:
256,192,58752,1,8,0:0:0:0:
256,192,58884,1,0,0:0:0:0:
256,192,59149,1,0,0:0:0:0:
256,192,59215,1,8,0:0:0:0:
256,192,59281,1,0,0:0:0:0:
256,192,59347,1,0,0:0:0:0:
256,192,59413,1,8,0:0:0:0:
256,192,59590,1,0,0:0:0:0:
256,192,59711,1,8,0:0:0:0:
256,192,59777,1,0,0:0:0:0:
256,192,59876,1,8,0:0:0:0:
256,192,59942,1,0,0:0:0:0:
256,192,60119,1,0,0:0:0:0:
256,192,60295,1,8,0:0:0:0:
256,192,60471,1,0,0:0:0:0:
256,192,60560,1,0,0:0:0:0:
256,192,60648,1,8,0:0:0:0:
256,192,60736,1,8,0:0:0:0:
256,192,60824,1,0,0:0:0:0:
256,192,61001,1,8,0:0:0:0:
256,192,61133,1,8,0:0:0:0:
256,192,61265,1,0,0:0:0:0:
256,192,61397,1,8,0:0:0:0:
256,192,61530,1,8,0:0:0:0:
256,192,61662,1,0,0:0:0:0:
256,192,61728,1,0,0:0:0:0:
256,192,61794,1,8,0:0:0:0:
256,192,61927,1,8,0:0:0:0:
256,192,62059,1,0,0:0:0:0:
256,192,62125,1,0,0:0:0:0:
256,192,62191,1,8,0:0:0:0:
256,192,62323,1,0,0:0:0:0:
256,192,62456,1,8,0:0:0:0:
256,192,62720,1,0,0:0:0:0:
256,192,62786,1,0,0:0:0:0:
256,192,62852,1,8,0:0:0:0:
256,192,62919,1,8,0:0:0:0:
256,192,62985,1,0,0:0:0:0:
256,192,63117,1,8,0:0:0:0:
256,192,63249,1,0,0:0:0:0:
256,192,63315,1,0,0:0:0:0:
256,192,63382,1,8,0:0:0:0:
256,192,63514,1,8,0:0:0:0:
256,192,63646,1,0,0:0:0:0:
256,192,63712,1,0,0:0:0:0:
256,192,63778,1,8,0:0:0:0:
256,192,63845,1,8,0:0:0:0:
256,192,63911,1,0,0:0:0:0:
256,192,64043,1,0,0:0:0:0:
256,192,64109,1,8,0:0:0:0:
256,192,64175,1,0,0:0:0:0:
256,192,64307,1,8,0:0:0:0:
256,192,64440,1,8,0:0:0:0:
256,192,64506,1,8,0:0:0:0:
256,192,64572,1,0,0:0:0:0:
256,192,64704,1,0,0:0:0:0:
256,192,64837,1,0,0:0:0:0:
256,192,64903,1,8,0:0:0:0:
256,192,64969,1,8,0:0:0:0:
256,192,65035,1,8,0:0:0:0:
256,192,65101,1,0,0:0:0:0:
256,192,65233,1,8,0:0:0:0:
256,192,65366,1,0,0:0:0:0:
256,192,65432,1,0,0:0:0:0:
256,192,65498,1,8,0:0:0:0:
256,192,65630,1,8,0:0:0:0:
256,192,65762,1,0,0:0:0:0:
256,192,65829,1,0,0:0:0:0:
256,192,65895,1,8,0:0:0:0:
256,192,65961,1,8,0:0:0:0:
256,192,66027,1,0,0:0:0:0:
256,192,66159,1,8,0:0:0:0:
256,192,66225,1,8,0:0:0:0:
256,192,66292,1,0,0:0:0:0:
256,192,66358,1,8,0:0:0:0:
256,192,66424,1,0,0:0:0:0:
256,192,66556,1,0,0:0:0:0:
256,192,66688,1,8,0:0:0:0:
256,192,66821,1,0,0:0:0:0:
256,192,66887,1,8,0:0:0:0:
256,192,66953,1,8,0:0:0:0:
256,192,67019,1,0,0:0:0:0:
256,192,67151,1,0,0:0:0:0:
256,192,67218,1,8,0:0:0:0:
256,192,67262,1,8,0:0:0:0:
256,192,67306,1,8,0:0:0:0:
256,192,67350,1,0,0:0:0:0:
256,192,67394,1,0,0:0:0:0:
256,192,67438,1,0,0:0:0:0:
256,192,67482,1,8,0:0:0:0:
256,192,67879,1,0,0:0:0:0:
256,192,68011,1,8,0:0:0:0:
256,192,68408,1,0,0:0:0:0:
256,192,68474,1,0,0:0:0:0:
256,192,68540,1,8,0:0:0:0:
256,192,68673,1,8,0:0:0:0:
256,192,68805,1,0,0:0:0:0:
256,192,68937,1,0,0:0:0:0:
256,192,69069,1,8,0:0:0:0:
256,192,69202,1,8,0:0:0:0:
256,192,69334,1,8,0:0:0:0:
256,192,69466,1,0,0:0:0:0:
256,192,69598,1,8,0:0:0:0:
256,192,69665,1,8,0:0:0:0:
256,192,69731,1,8,0:0:0:0:
256,192,69863,1,0,0:0:0:0:
256,192,69995,1,8,0:0:0:0:
256,192,70061,1,8,0:0:0:0:
256,192,70128,1,0,0:0:0:0:
256,192,70260,1,8,0:0:0:0:
256,192,70392,1,0,0:0:0:0:
256,192,70458,1,0,0:0:0:0:
256,192,70524,1,8,0:0:0:0:
256,192,70568,1,8,0:0:0:0:
256,192,70613,1,8,0:0:0:0:
256,192,70657,1,0,0:0:0:0:
256,192,70723,1,0,0:0:0:0:
256,192,70789,1,0,0:0:0:0:
256,192,70855,1,8,0:0:0:0:
256,192,70921,1,0,0:0:0:0:
256,192,71054,1,8,0:0:0:0:
256,192,71186,1,0,0:0:0:0:
256,192,71252,1,0,0:0:0:0:
256,192,71318,1,8,0:0:0:0:
256,192,71450,1,8,0:0:0:0:
256,192,71583,1,0,0:0:0:0:
256,192,71649,1,8,0:0:0:0:
256,192,71715,1,0,0:0:0:0:
256,192,71847,1,8,0:0:0:0:
256,192,71979,1,0,0:0:0:0:
256,192,72112,1,8,0:0:0:0:
256,192,72244,1,8,0:0:0:0:
256,192,72376,1,0,0:0:0:0:
256,192,72442,1,0,0:0:0:0:
256,192,72509,1,8,0:0:0:0:
256,192,72641,1,0,0:0:0:0:
256,192,72773,1,8,0:0:0:0:
256,192,72839,1,8,0:0:0:0:
256,192,72905,1,0,0:0:0:0:
256,192,73038,1,0,0:0:0:0:
256,192,73104,1,0,0:0:0:0:
256,192,73170,1,8,0:0:0:0:
256,192,73302,1,8,0:0:0:0:
256,192,73434,1,0,0:0:0:0:
256,192,73567,1,8,0:0:0:0:
256,192,73699,1,8,0:0:0:0:
256,192,73765,1,8,0:0:0:0:
256,192,73831,1,0,0:0:0:0:
256,192,73964,1,8,0:0:0:0:
256,192,74096,1,0,0:0:0:0:
256,192,74228,1,0,0:0:0:0:
256,192,74294,1,8,0:0:0:0:
256,192,74360,1,8,0:0:0:0:
256,192,74493,1,0,0:0:0:0:
255,70,74625,2,0,L|300:61,12,26.2500010013581
256,192,75550,1,8,0:0:0:0:
256,192,75815,1,0,0:0:0:0:
256,192,75881,1,8,0:0:0:0:
256,192,75947,1,0,0:0:0:0:
256,192,76013,1,0,0:0:0:0:
256,192,76079,1,8,0:0:0:0:
256,192,76211,1,0,0:0:0:0:
256,192,76277,1,0,0:0:0:0:
256,192,76344,1,8,0:0:0:0:
256,192,76476,1,8,0:0:0:0:
256,192,76608,1,8,0:0:0:0:
256,192,76740,1,0,0:0:0:0:
256,192,76874,1,8,0:0:0:0:
256,192,76918,1,8,0:0:0:0:
256,192,76962,1,8,0:0:0:0:
256,192,77006,1,0,0:0:0:0:
256,192,77138,1,0,0:0:0:0:
256,192,77270,1,8,0:0:0:0:
256,192,77402,1,0,0:0:0:0:
256,192,77468,1,8,0:0:0:0:
256,192,77535,1,8,0:0:0:0:
256,192,77601,1,8,0:0:0:0:
256,192,77667,1,0,0:0:0:0:
256,192,77799,1,8,0:0:0:0:
256,192,77865,1,8,0:0:0:0:
256,192,77931,1,0,0:0:0:0:
256,192,78064,1,8,0:0:0:0:
256,192,78196,1,0,0:0:0:0:
256,192,78240,1,0,0:0:0:0:
256,192,78284,1,0,0:0:0:0:
256,192,78328,1,8,0:0:0:0:
256,192,78394,1,8,0:0:0:0:
256,192,78460,1,0,0:0:0:0:
256,192,78592,1,8,0:0:0:0:
256,192,78658,1,8,0:0:0:0:
256,192,78724,1,0,0:0:0:0:
256,192,78857,1,8,0:0:0:0:
256,192,78923,1,8,0:0:0:0:
256,192,78989,1,8,0:0:0:0:
256,192,79055,1,0,0:0:0:0:
256,192,79121,1,8,0:0:0:0:
256,192,79253,1,8,0:0:0:0:
256,192,79386,1,0,0:0:0:0:
256,192,79518,1,8,0:0:0:0:
256,192,79650,1,0,0:0:0:0:
256,192,79716,1,0,0:0:0:0:
256,192,79783,1,8,0:0:0:0:
256,192,79849,1,8,0:0:0:0:
256,192,79915,1,0,0:0:0:0:
256,192,79981,1,0,0:0:0:0:
256,192,80047,1,8,0:0:0:0:
256,192,80113,1,8,0:0:0:0:
256,192,80179,1,8,0:0:0:0:
256,192,80245,1,8,0:0:0:0:
256,192,80312,1,0,0:0:0:0:
256,192,80378,1,0,0:0:0:0:
256,192,80444,1,8,0:0:0:0:
256,192,80576,1,0,0:0:0:0:
256,192,80708,1,8,0:0:0:0:
256,192,80774,1,8,0:0:0:0:
256,192,80840,1,0,0:0:0:0:
256,192,80973,1,8,0:0:0:0:
256,192,81105,1,0,0:0:0:0:
256,192,81171,1,0,0:0:0:0:
256,192,81237,1,8,0:0:0:0:
256,192,81369,1,8,0:0:0:0:
256,192,81502,1,0,0:0:0:0:
256,192,81546,1,8,0:0:0:0:
256,192,81590,1,8,0:0:0:0:
256,192,81634,1,0,0:0:0:0:
256,192,81678,1,8,0:0:0:0:
256,192,81722,1,8,0:0:0:0:
256,192,81766,1,0,0:0:0:0:
256,192,81898,1,0,0:0:0:0:
256,192,82030,1,8,0:0:0:0:
256,192,82162,1,8,0:0:0:0:
256,192,82228,1,8,0:0:0:0:
256,192,82295,1,0,0:0:0:0:
256,192,82361,1,8,0:0:0:0:
256,192,82427,1,8,0:0:0:0:
256,192,82493,1,0,0:0:0:0:
256,192,82559,1,8,0:0:0:0:
256,192,82625,1,8,0:0:0:0:
256,192,82691,1,0,0:0:0:0:
256,192,82758,1,0,0:0:0:0:
256,192,82824,1,0,0:0:0:0:
256,192,82890,1,0,0:0:0:0:
256,192,82956,1,8,0:0:0:0:
256,192,83154,1,8,0:0:0:0:
256,192,83221,1,0,0:0:0:0:
256,192,83353,1,0,0:0:0:0:
256,192,83485,1,8,0:0:0:0:
256,192,83551,1,8,0:0:0:0:
256,192,83617,1,0,0:0:0:0:
256,192,83683,1,0,0:0:0:0:
256,192,83750,1,8,0:0:0:0:
256,192,83816,1,0,0:0:0:0:
256,192,83882,1,8,0:0:0:0:
256,192,83948,1,8,0:0:0:0:
256,192,84080,1,0,0:0:0:0:
256,192,84146,1,8,0:0:0:0:
256,192,84278,1,0,0:0:0:0:
256,192,84411,1,8,0:0:0:0:
256,192,84477,1,8,0:0:0:0:
256,192,84543,1,0,0:0:0:0:
256,192,84609,1,8,0:0:0:0:
256,192,84675,1,0,0:0:0:0:
256,192,84741,1,0,0:0:0:0:
256,192,84807,1,8,0:0:0:0:
256,192,84940,1,0,0:0:0:0:
256,192,85006,1,0,0:0:0:0:
256,192,85072,1,8,0:0:0:0:
256,192,85116,1,8,0:0:0:0:
256,192,85160,1,8,0:0:0:0:
256,192,85204,1,0,0:0:0:0:
256,192,85337,1,0,0:0:0:0:
256,192,85403,1,0,0:0:0:0:
256,192,85469,1,8,0:0:0:0:
256,192,85535,1,8,0:0:0:0:
256,192,85601,1,0,0:0:0:0:
256,192,85733,1,8,0:0:0:0:
256,192,85866,1,0,0:0:0:0:
256,192,85932,1,8,0:0:0:0:
256,192,85998,1,0,0:0:0:0:
256,192,86064,1,0,0:0:0:0:
256,192,86130,1,8,0:0:0:0:
256,192,86262,1,0,0:0:0:0:
256,192,86329,1,0,0:0:0:0:
256,192,86395,1,8,0:0:0:0:
256,192,86439,1,8,0:0:0:0:
256,192,86483,1,8,0:0:0:0:
256,192,86527,1,0,0:0:0:0:
267,192,86658,1,8,0:0:0:0:
262,192,86790,1,0,0:0:0:0:
267,191,86922,1,8,0:0:0:0:
267,192,86988,1,8,0:0:0:0:
267,192,87055,1,0,0:0:0:0:
256,192,87187,1,0,0:0:0:0:
256,192,87319,1,8,0:0:0:0:
267,192,87385,1,0,0:0:0:0:
267,192,87451,1,8,0:0:0:0:
262,192,87584,1,0,0:0:0:0:
262,192,87650,1,0,0:0:0:0:
267,191,87716,1,8,0:0:0:0:
267,192,87782,1,0,0:0:0:0:
267,192,87848,1,8,0:0:0:0:
256,192,87914,1,8,0:0:0:0:
256,192,87980,1,0,0:0:0:0:
256,192,88112,1,8,0:0:0:0:
256,192,88244,1,0,0:0:0:0:
256,192,88377,1,8,0:0:0:0:
256,192,88421,1,8,0:0:0:0:
256,192,88465,1,8,0:0:0:0:
256,192,88509,1,0,0:0:0:0:
256,192,88575,1,0,0:0:0:0:
256,192,88641,1,8,0:0:0:0:
256,192,88773,1,8,0:0:0:0:
256,192,88840,1,8,0:0:0:0:
256,192,88906,1,0,0:0:0:0:
256,192,89038,1,0,0:0:0:0:
256,192,89170,1,8,0:0:0:0:
256,192,89236,1,8,0:0:0:0:
256,192,89303,1,0,0:0:0:0:
256,192,89369,1,0,0:0:0:0:
256,192,89435,1,8,0:0:0:0:
256,192,89501,1,8,0:0:0:0:
256,192,89567,1,8,0:0:0:0:
256,192,89633,1,8,0:0:0:0:
256,192,89699,1,0,0:0:0:0:
256,192,89765,1,0,0:0:0:0:
256,192,89832,1,0,0:0:0:0:
256,192,89898,1,0,0:0:0:0:
256,192,89964,1,8,0:0:0:0:
256,192,90030,1,0,0:0:0:0:
256,192,90096,1,8,0:0:0:0:
256,192,90162,1,0,0:0:0:0:
256,192,90228,1,8,0:0:0:0:
256,192,90294,1,8,0:0:0:0:
256,192,90360,1,8,0:0:0:0:
256,192,90426,1,8,0:0:0:0:
256,192,90493,1,0,0:0:0:0:
256,192,90625,1,0,0:0:0:0:
256,192,90757,1,8,0:0:0:0:
256,192,90823,1,8,0:0:0:0:
256,192,90889,1,0,0:0:0:0:
256,192,90956,1,8,0:0:0:0:
256,192,91022,1,0,0:0:0:0:
256,192,91088,1,0,0:0:0:0:
256,192,91154,1,0,0:0:0:0:
256,192,91220,1,0,0:0:0:0:
256,192,91286,1,12,0:0:0:0:
256,192,91484,1,0,0:0:0:0:
256,192,91550,1,8,0:0:0:0:
256,192,91682,1,8,0:0:0:0:
256,192,91748,1,8,0:0:0:0:
256,192,91815,1,0,0:0:0:0:
256,192,91881,1,8,0:0:0:0:
256,192,91947,1,0,0:0:0:0:
256,192,92013,1,0,0:0:0:0:
256,192,92079,1,8,0:0:0:0:
256,192,92145,1,8,0:0:0:0:
256,192,92211,1,0,0:0:0:0:
256,192,92278,1,8,0:0:0:0:
256,192,92344,1,0,0:0:0:0:
256,192,92410,1,8,0:0:0:0:
256,192,92476,1,0,0:0:0:0:
256,192,92608,1,8,0:0:0:0:
256,192,92674,1,0,0:0:0:0:
256,192,92741,1,8,0:0:0:0:
256,192,92807,1,8,0:0:0:0:
256,192,92873,1,0,0:0:0:0:
256,192,92939,1,0,0:0:0:0:
256,192,93005,1,8,0:0:0:0:
256,192,93137,1,0,0:0:0:0:
256,192,93270,1,8,0:0:0:0:
256,192,93336,1,8,0:0:0:0:
256,192,93402,1,0,0:0:0:0:
256,192,93490,1,0,0:0:0:0:
256,192,93578,1,0,0:0:0:0:
256,192,93666,1,8,0:0:0:0:
256,192,93798,1,8,0:0:0:0:
256,192,93931,1,8,0:0:0:0:
256,192,94063,1,0,0:0:0:0:
256,192,94129,1,0,0:0:0:0:
256,192,94195,1,8,0:0:0:0:
256,192,94261,1,0,0:0:0:0:
256,192,94327,1,8,0:0:0:0:
256,192,94394,1,0,0:0:0:0:
256,192,94460,1,8,0:0:0:0:
256,192,94526,1,8,0:0:0:0:
256,192,94592,1,0,0:0:0:0:
256,192,94636,1,0,0:0:0:0:
256,192,94680,1,0,0:0:0:0:
256,192,94724,1,8,0:0:0:0:
256,192,94857,1,0,0:0:0:0:
256,192,94989,1,8,0:0:0:0:
256,192,95055,1,8,0:0:0:0:
256,192,95121,1,0,0:0:0:0:
256,192,95187,1,0,0:0:0:0:
256,192,95253,1,8,0:0:0:0:
256,192,95386,1,0,0:0:0:0:
256,192,95452,1,0,0:0:0:0:
256,192,95518,1,8,0:0:0:0:
256,192,95584,1,8,0:0:0:0:
256,192,95650,1,0,0:0:0:0:
256,192,95782,1,0,0:0:0:0:
256,192,95849,1,0,0:0:0:0:
256,192,95915,1,8,0:0:0:0:
128,128,96047,2,0,L|192:96,16,52.5000020027161
256,192,97502,1,0,0:0:0:0:
256,192,97634,1,0,0:0:0:0:
256,192,97766,1,0,0:0:0:0:
256,192,97898,1,0,0:0:0:0:
256,192,98031,1,0,0:0:0:0:
256,192,98163,1,0,0:0:0:0:
256,192,98295,1,0,0:0:0:0:
256,192,98427,1,8,0:0:0:0:
256,192,98560,1,8,0:0:0:0:
256,192,98692,1,8,0:0:0:0:
256,192,98824,1,8,0:0:0:0:
256,192,98957,1,8,0:0:0:0:
256,192,99089,1,8,0:0:0:0:
256,192,100014,8,0,101337,0:0:0:0:
256,192,101609,5,12,0:0:0:0:
256,192,101741,1,0,0:0:0:0:
256,192,101807,1,0,0:0:0:0:
256,192,101873,1,8,0:0:0:0:
256,192,101939,1,8,0:0:0:0:
256,192,102005,1,0,0:0:0:0:
256,192,102138,1,8,0:0:0:0:
256,192,102204,1,8,0:0:0:0:
256,192,102270,1,0,0:0:0:0:
256,192,102336,1,8,0:0:0:0:
256,192,102402,1,0,0:0:0:0:
256,192,102468,1,0,0:0:0:0:
256,192,102534,1,8,0:0:0:0:
256,192,102667,1,0,0:0:0:0:
256,192,102733,1,0,0:0:0:0:
256,192,102799,1,8,0:0:0:0:
256,192,102865,1,0,0:0:0:0:
256,192,102931,1,8,0:0:0:0:
256,192,102997,1,8,0:0:0:0:
256,192,103064,1,0,0:0:0:0:
256,192,103196,1,8,0:0:0:0:
256,192,103262,1,8,0:0:0:0:
256,192,103328,1,0,0:0:0:0:
256,192,103394,1,0,0:0:0:0:
256,192,103460,1,8,0:0:0:0:
256,192,103526,1,0,0:0:0:0:
256,192,103593,1,0,0:0:0:0:
256,192,103659,1,0,0:0:0:0:
256,192,103725,1,8,0:0:0:0:
256,192,103857,1,8,0:0:0:0:
256,192,103989,1,8,0:0:0:0:
256,192,104034,1,8,0:0:0:0:
256,192,104078,1,0,0:0:0:0:
256,192,104122,1,0,0:0:0:0:
256,192,104254,1,8,0:0:0:0:
256,192,104386,1,0,0:0:0:0:
256,192,104452,1,0,0:0:0:0:
256,192,104519,1,0,0:0:0:0:
256,192,104651,1,8,0:0:0:0:
256,192,104717,1,8,0:0:0:0:
256,192,104783,1,0,0:0:0:0:
256,192,104849,1,0,0:0:0:0:
256,192,104915,1,8,0:0:0:0:
256,192,104982,1,0,0:0:0:0:
256,192,105048,1,8,0:0:0:0:
256,192,105114,1,0,0:0:0:0:
256,192,105180,1,8,0:0:0:0:
256,192,105268,1,8,0:0:0:0:
256,192,105356,1,8,0:0:0:0:
256,192,105444,1,0,0:0:0:0:
256,192,105511,1,0,0:0:0:0:
256,192,105577,1,8,0:0:0:0:
256,192,105643,1,8,0:0:0:0:
256,192,105709,1,0,0:0:0:0:
256,192,105753,1,0,0:0:0:0:
256,192,105797,1,0,0:0:0:0:
256,192,105841,1,8,0:0:0:0:
256,192,105974,1,0,0:0:0:0:
256,192,106106,1,0,0:0:0:0:
256,192,106238,1,8,0:0:0:0:
256,192,106282,1,8,0:0:0:0:
256,192,106326,1,8,0:0:0:0:
256,192,106370,1,8,0:0:0:0:
256,192,106437,1,0,0:0:0:0:
256,192,106503,1,0,0:0:0:0:
256,192,106569,1,0,0:0:0:0:
256,192,106635,1,8,0:0:0:0:
256,192,106767,1,0,0:0:0:0:
256,192,106900,1,8,0:0:0:0:
256,192,106933,1,8,0:0:0:0:
256,192,107032,1,0,0:0:0:0:
256,192,107164,1,8,0:0:0:0:
256,192,107230,1,8,0:0:0:0:
256,192,107296,1,0,0:0:0:0:
256,192,107362,1,8,0:0:0:0:
256,192,107429,1,0,0:0:0:0:
256,192,107495,1,0,0:0:0:0:
256,192,107561,1,8,0:0:0:0:
256,192,107627,1,0,0:0:0:0:
256,192,107693,1,8,0:0:0:0:
256,192,107759,1,8,0:0:0:0:
256,192,107825,1,0,0:0:0:0:
256,192,107958,1,0,0:0:0:0:
256,192,108090,1,8,0:0:0:0:
256,192,108156,1,8,0:0:0:0:
256,192,108222,1,0,0:0:0:0:
256,192,108288,1,8,0:0:0:0:
256,192,108355,1,0,0:0:0:0:
256,192,108421,1,0,0:0:0:0:
256,192,108487,1,8,0:0:0:0:
256,192,108553,1,8,0:0:0:0:
256,192,108619,1,0,0:0:0:0:
256,192,108685,1,8,0:0:0:0:
256,192,108751,1,0,0:0:0:0:
256,192,108884,1,8,0:0:0:0:
256,192,109016,1,0,0:0:0:0:
256,192,109060,1,0,0:0:0:0:
256,192,109104,1,0,0:0:0:0:
256,192,109148,1,8,0:0:0:0:
256,192,109214,1,8,0:0:0:0:
256,192,109280,1,0,0:0:0:0:
256,192,109347,1,0,0:0:0:0:
256,192,109413,1,0,0:0:0:0:
256,192,109479,1,8,0:0:0:0:
256,192,109545,1,0,0:0:0:0:
256,192,109611,1,0,0:0:0:0:
256,192,109677,1,8,0:0:0:0:
256,192,109743,1,8,0:0:0:0:
256,192,109810,1,0,0:0:0:0:
256,192,109876,1,8,0:0:0:0:
256,192,109942,1,8,0:0:0:0:
256,192,110008,1,8,0:0:0:0:
256,192,110074,1,0,0:0:0:0:
256,192,110206,1,8,0:0:0:0:
256,192,110273,1,8,0:0:0:0:
256,192,110339,1,0,0:0:0:0:
256,192,110405,1,0,0:0:0:0:
256,192,110471,1,8,0:0:0:0:
256,192,110603,1,8,0:0:0:0:
256,192,110669,1,8,0:0:0:0:
256,192,110735,1,0,0:0:0:0:
256,192,110802,1,0,0:0:0:0:
256,192,110868,1,8,0:0:0:0:
256,192,110934,1,0,0:0:0:0:
256,192,111000,1,0,0:0:0:0:
256,192,111132,1,8,0:0:0:0:
256,192,111198,1,0,0:0:0:0:
256,192,111265,1,0,0:0:0:0:
256,192,111331,1,0,0:0:0:0:
256,192,111397,1,8,0:0:0:0:
256,192,111463,1,8,0:0:0:0:
256,192,111529,1,0,0:0:0:0:
256,192,111661,1,0,0:0:0:0:
256,192,111728,1,0,0:0:0:0:
256,192,111794,1,8,0:0:0:0:
256,192,111860,1,8,0:0:0:0:
256,192,111926,1,0,0:0:0:0:
256,192,111992,1,0,0:0:0:0:
256,192,112058,1,8,0:0:0:0:
256,192,112124,1,8,0:0:0:0:
256,192,112191,1,0,0:0:0:0:
256,192,112323,1,0,0:0:0:0:
256,192,112455,1,8,0:0:0:0:
256,192,112499,1,8,0:0:0:0:
256,192,112543,1,8,0:0:0:0:
256,192,112587,1,8,0:0:0:0:
256,192,112720,1,0,0:0:0:0:
256,192,112786,1,8,0:0:0:0:
256,192,112852,1,0,0:0:0:0:
256,192,112918,1,0,0:0:0:0:
256,192,112984,1,8,0:0:0:0:
256,192,113116,1,0,0:0:0:0:
256,192,113249,1,8,0:0:0:0:
256,192,113315,1,8,0:0:0:0:
256,192,113381,1,0,0:0:0:0:
256,192,113447,1,0,0:0:0:0:
256,192,113513,1,8,0:0:0:0:
256,192,113579,1,8,0:0:0:0:
256,192,113646,1,0,0:0:0:0:
256,192,113734,1,8,0:0:0:0:
256,192,113822,1,0,0:0:0:0:
256,192,113910,1,8,0:0:0:0:
256,192,113976,1,8,0:0:0:0:
256,192,114042,1,0,0:0:0:0:
224,160,114109,1,0,0:0:0:0:
224,160,114175,1,8,0:0:0:0:
224,160,114219,1,8,0:0:0:0:
224,160,114263,1,8,0:0:0:0:
224,160,114307,1,0,0:0:0:0:
224,160,114439,1,0,0:0:0:0:
224,160,114571,1,8,0:0:0:0:
224,160,114638,1,8,0:0:0:0:
224,160,114704,1,0,0:0:0:0:
224,160,114748,1,0,0:0:0:0:
224,160,114792,1,0,0:0:0:0:
224,160,114836,1,8,0:0:0:0:
256,192,114902,1,8,0:0:0:0:
224,160,114968,1,0,0:0:0:0:
224,160,115034,1,0,0:0:0:0:
224,160,115101,1,8,0:0:0:0:
224,160,115233,1,0,0:0:0:0:
224,160,115365,1,8,0:0:0:0:
224,160,115398,1,8,0:0:0:0:
224,160,115497,1,0,0:0:0:0:
224,160,115564,1,0,0:0:0:0:
224,160,115630,1,8,0:0:0:0:
224,160,115762,1,8,0:0:0:0:
224,160,115828,1,8,0:0:0:0:
224,160,115894,1,0,0:0:0:0:
224,160,115960,1,0,0:0:0:0:
224,160,116026,1,8,0:0:0:0:
256,192,116093,1,0,0:0:0:0:
224,160,116159,1,8,0:0:0:0:
224,160,116225,1,0,0:0:0:0:
224,160,116291,1,0,0:0:0:0:
224,160,116357,1,0,0:0:0:0:
224,160,116423,1,8,0:0:0:0:
224,160,116556,1,0,0:0:0:0:
224,160,116688,1,8,0:0:0:0:
224,160,116820,1,0,0:0:0:0:
256,192,116886,1,0,0:0:0:0:
224,160,116952,1,8,0:0:0:0:
263,194,117019,1,0,0:0:0:0:
224,160,117085,1,8,0:0:0:0:
224,160,117151,1,8,0:0:0:0:
256,192,117217,1,0,0:0:0:0:
256,192,117283,1,0,0:0:0:0:
224,160,117349,1,8,0:0:0:0:
256,192,117482,1,0,0:0:0:0:
256,192,117548,1,8,0:0:0:0:
256,192,117614,1,0,0:0:0:0:
256,192,117680,1,8,0:0:0:0:
256,192,117746,1,0,0:0:0:0:
256,192,117812,1,8,0:0:0:0:
256,192,117878,1,8,0:0:0:0:
256,192,117944,1,8,0:0:0:0:
256,192,118011,1,0,0:0:0:0:
256,192,118077,1,8,0:0:0:0:
256,192,118143,1,0,0:0:0:0:
256,192,118209,1,0,0:0:0:0:
256,192,118275,1,8,0:0:0:0:
256,192,118341,1,8,0:0:0:0:
256,192,118407,1,8,0:0:0:0:
256,192,118474,1,8,0:0:0:0:
256,192,118540,1,0,0:0:0:0:
256,192,118672,1,8,0:0:0:0:
256,192,118804,1,0,0:0:0:0:
256,192,118848,1,0,0:0:0:0:
256,192,118892,1,0,0:0:0:0:
256,192,118937,1,8,0:0:0:0:
256,192,118981,1,8,0:0:0:0:
256,192,119025,1,8,0:0:0:0:
256,192,119069,1,0,0:0:0:0:
256,192,119201,1,0,0:0:0:0:
256,192,119333,1,8,0:0:0:0:
256,192,119377,1,8,0:0:0:0:
256,192,119422,1,8,0:0:0:0:
256,192,119466,1,0,0:0:0:0:
256,192,119510,1,0,0:0:0:0:
256,192,119554,1,0,0:0:0:0:
256,192,119598,1,8,0:0:0:0:
256,192,119730,1,8,0:0:0:0:
256,192,119862,1,0,0:0:0:0:
256,192,119907,1,0,0:0:0:0:
256,192,119951,1,0,0:0:0:0:
256,192,119995,1,8,0:0:0:0:
256,192,120039,1,8,0:0:0:0:
256,192,120083,1,8,0:0:0:0:
256,192,120127,1,0,0:0:0:0:
256,192,120259,1,0,0:0:0:0:
256,192,120392,1,8,0:0:0:0:
256,192,120458,1,8,0:0:0:0:
256,192,120524,1,0,0:0:0:0:
256,192,120656,1,0,0:0:0:0:
256,192,120700,1,8,0:0:0:0:
256,192,120744,1,8,0:0:0:0:
256,192,120788,1,0,0:0:0:0:
256,192,120832,1,8,0:0:0:0:
256,192,120877,1,8,0:0:0:0:
256,192,120921,1,0,0:0:0:0:
256,192,121053,1,8,0:0:0:0:
256,192,121185,1,0,0:0:0:0:
256,192,121229,1,8,0:0:0:0:
256,192,121273,1,8,0:0:0:0:
256,192,121317,1,0,0:0:0:0:
256,192,121362,1,8,0:0:0:0:
256,192,121406,1,8,0:0:0:0:
256,192,121450,1,0,0:0:0:0:
256,192,121582,1,0,0:0:0:0:
256,192,121714,1,8,0:0:0:0:
256,192,121758,1,0,0:0:0:0:
256,192,121803,1,0,0:0:0:0:
256,192,121847,1,8,0:0:0:0:
256,192,121891,1,0,0:0:0:0:
256,192,121935,1,0,0:0:0:0:
256,192,121979,1,8,0:0:0:0:
256,192,122111,1,0,0:0:0:0:
256,192,122243,1,8,0:0:0:0:
256,192,122310,1,8,0:0:0:0:
256,192,122376,1,0,0:0:0:0:
256,192,122508,1,8,0:0:0:0:
256,192,122552,1,8,0:0:0:0:
256,192,122596,1,8,0:0:0:0:
256,192,122640,1,0,0:0:0:0:
256,192,122684,1,0,0:0:0:0:
256,192,122728,1,0,0:0:0:0:
256,192,122773,1,8,0:0:0:0:
256,192,122905,1,0,0:0:0:0:
256,192,123037,1,8,0:0:0:0:
256,192,123081,1,8,0:0:0:0:
256,192,123125,1,8,0:0:0:0:
256,192,123169,1,0,0:0:0:0:
256,192,123213,1,0,0:0:0:0:
256,192,123258,1,0,0:0:0:0:
256,192,123302,1,8,0:0:0:0:
256,192,123434,1,8,0:0:0:0:
256,192,123566,1,0,0:0:0:0:
256,192,123610,1,0,0:0:0:0:
256,192,123654,1,0,0:0:0:0:
256,192,123698,1,8,0:0:0:0:
256,192,123743,1,8,0:0:0:0:
256,192,123787,1,8,0:0:0:0:
256,192,123831,1,0,0:0:0:0:
256,192,123963,1,0,0:0:0:0:
256,192,124029,1,0,0:0:0:0:
256,192,124095,1,8,0:0:0:0:
256,192,124228,1,0,0:0:0:0:
256,192,124360,1,8,0:0:0:0:
256,192,124404,1,0,0:0:0:0:
256,192,124448,1,0,0:0:0:0:
256,192,124492,1,8,0:0:0:0:
256,192,124536,1,0,0:0:0:0:
256,192,124580,1,0,0:0:0:0:
256,192,124624,1,8,0:0:0:0:
256,192,124757,1,8,0:0:0:0:
256,192,124889,1,0,0:0:0:0:
256,192,124933,1,8,0:0:0:0:
256,192,124977,1,8,0:0:0:0:
256,192,125021,1,0,0:0:0:0:
256,192,125065,1,8,0:0:0:0:
256,192,125109,1,8,0:0:0:0:
256,192,125153,1,0,0:0:0:0:
256,192,125286,1,0,0:0:0:0:
256,192,125418,1,8,0:0:0:0:
256,192,125462,1,0,0:0:0:0:
256,192,125506,1,0,0:0:0:0:
256,192,125550,1,8,0:0:0:0:
256,192,125594,1,0,0:0:0:0:
256,192,125638,1,0,0:0:0:0:
256,192,125683,1,8,0:0:0:0:
256,192,125815,1,0,0:0:0:0:
256,192,125947,1,0,0:0:0:0:
256,192,126013,1,0,0:0:0:0:
256,192,126079,1,8,0:0:0:0:
256,192,126212,1,0,0:0:0:0:
256,192,126256,1,0,0:0:0:0:
256,192,126300,1,0,0:0:0:0:
256,192,126344,1,8,0:0:0:0:
256,192,126388,1,8,0:0:0:0:
256,192,126432,1,8,0:0:0:0:
256,192,126476,1,0,0:0:0:0:
256,192,126609,1,0,0:0:0:0:
256,192,126741,1,8,0:0:0:0:
256,192,126785,1,8,0:0:0:0:
256,192,126829,1,8,0:0:0:0:
256,192,126873,1,0,0:0:0:0:
256,192,126917,1,0,0:0:0:0:
256,192,126961,1,0,0:0:0:0:
256,192,127005,1,8,0:0:0:0:
256,192,127138,1,0,0:0:0:0:
256,192,127270,1,0,0:0:0:0:
256,192,127314,1,0,0:0:0:0:
256,192,127358,1,0,0:0:0:0:
256,192,127402,1,8,0:0:0:0:
256,192,127446,1,8,0:0:0:0:
256,192,127490,1,8,0:0:0:0:
256,192,127534,1,0,0:0:0:0:
256,192,127667,1,8,0:0:0:0:
256,192,127799,1,0,0:0:0:0:
256,192,127865,1,0,0:0:0:0:
256,192,127931,1,0,0:0:0:0:
256,192,128064,1,8,0:0:0:0:
256,192,128108,1,0,0:0:0:0:
256,192,128152,1,0,0:0:0:0:
256,192,128196,1,8,0:0:0:0:
256,192,128240,1,0,0:0:0:0:
256,192,128284,1,0,0:0:0:0:
256,192,128328,1,8,0:0:0:0:
256,192,128460,1,8,0:0:0:0:
256,192,128593,1,0,0:0:0:0:
256,192,128637,1,8,0:0:0:0:
256,192,128681,1,8,0:0:0:0:
256,192,128725,1,0,0:0:0:0:
256,192,128769,1,8,0:0:0:0:
256,192,128813,1,8,0:0:0:0:
256,192,128857,1,0,0:0:0:0:
256,192,128989,1,0,0:0:0:0:
256,192,129122,1,8,0:0:0:0:
256,192,129166,1,0,0:0:0:0:
256,192,129210,1,0,0:0:0:0:
256,192,129254,1,8,0:0:0:0:
256,192,129298,1,0,0:0:0:0:
256,192,129342,1,0,0:0:0:0:
256,192,129386,1,8,0:0:0:0:
256,192,129519,1,8,0:0:0:0:
256,192,129651,1,0,0:0:0:0:
256,192,129717,1,0,0:0:0:0:
256,192,129783,1,8,0:0:0:0:
256,192,129915,1,0,0:0:0:0:
256,192,129959,1,0,0:0:0:0:
256,192,130004,1,0,0:0:0:0:
256,192,130048,1,8,0:0:0:0:
256,192,130092,1,8,0:0:0:0:
256,192,130136,1,8,0:0:0:0:
256,192,130180,1,0,0:0:0:0:
256,192,130312,1,0,0:0:0:0:
256,192,130444,1,8,0:0:0:0:
256,192,130489,1,8,0:0:0:0:
256,192,130533,1,8,0:0:0:0:
256,192,130577,1,0,0:0:0:0:
256,192,130621,1,0,0:0:0:0:
256,192,130665,1,0,0:0:0:0:
256,192,130709,1,8,0:0:0:0:
256,192,130841,1,8,0:0:0:0:
256,192,130974,1,0,0:0:0:0:
256,192,131018,1,0,0:0:0:0:
256,192,131062,1,0,0:0:0:0:
256,192,131106,1,8,0:0:0:0:
256,192,131150,1,8,0:0:0:0:
256,192,131194,1,8,0:0:0:0:
256,192,131238,1,0,0:0:0:0:
256,192,131370,1,8,0:0:0:0:
256,192,131503,1,0,0:0:0:0:
256,192,131569,1,0,0:0:0:0:
256,192,131635,1,0,0:0:0:0:
256,192,131767,1,8,0:0:0:0:
256,192,131811,1,0,0:0:0:0:
256,192,131855,1,0,0:0:0:0:
256,192,131900,1,8,0:0:0:0:
256,192,131944,1,0,0:0:0:0:
256,192,131988,1,0,0:0:0:0:
256,192,132032,1,8,0:0:0:0:
256,192,132164,1,8,0:0:0:0:
256,192,132296,1,0,0:0:0:0:
256,192,132340,1,8,0:0:0:0:
256,192,132385,1,8,0:0:0:0:
256,192,132429,1,0,0:0:0:0:
256,192,132473,1,8,0:0:0:0:
256,192,132517,1,8,0:0:0:0:
256,192,132561,1,0,0:0:0:0:
256,192,132693,1,0,0:0:0:0:
256,192,132825,1,8,0:0:0:0:
256,192,132870,1,0,0:0:0:0:
256,192,132914,1,0,0:0:0:0:
256,192,132958,1,8,0:0:0:0:
256,192,133002,1,0,0:0:0:0:
256,192,133046,1,0,0:0:0:0:
256,192,133090,1,8,0:0:0:0:
256,192,133222,1,0,0:0:0:0:
256,192,133355,1,8,0:0:0:0:
256,192,133421,1,0,0:0:0:0:
256,192,133487,1,8,0:0:0:0:
256,192,133619,1,0,0:0:0:0:
256,192,133663,1,0,0:0:0:0:
256,192,133707,1,0,0:0:0:0:
256,192,133751,1,8,0:0:0:0:
256,192,133795,1,8,0:0:0:0:
256,192,133840,1,8,0:0:0:0:
256,192,133884,1,0,0:0:0:0:
256,192,134016,1,0,0:0:0:0:
256,192,134148,1,8,0:0:0:0:
256,192,134192,1,8,0:0:0:0:
256,192,134236,1,8,0:0:0:0:
256,192,134280,1,0,0:0:0:0:
256,192,134325,1,0,0:0:0:0:
256,192,134369,1,0,0:0:0:0:
256,192,134413,1,8,0:0:0:0:
256,192,134545,1,8,0:0:0:0:
256,192,134677,1,0,0:0:0:0:
256,192,134721,1,0,0:0:0:0:
256,192,134765,1,0,0:0:0:0:
256,192,134810,1,8,0:0:0:0:
256,192,134854,1,8,0:0:0:0:
256,192,134898,1,8,0:0:0:0:
256,192,134942,1,0,0:0:0:0:
256,192,135074,1,8,0:0:0:0:
256,192,135206,1,8,0:0:0:0:
256,192,135273,1,8,0:0:0:0:
256,192,135339,1,0,0:0:0:0:
256,192,135405,1,0,0:0:0:0:
256,192,135471,1,8,0:0:0:0:
256,192,135537,1,0,0:0:0:0:
256,192,135603,1,0,0:0:0:0:
256,192,135669,1,0,0:0:0:0:
256,192,135735,1,8,0:0:0:0:
256,192,135802,1,8,0:0:0:0:
256,192,135868,1,8,0:0:0:0:
256,192,135934,1,0,0:0:0:0:
256,192,136000,1,8,0:0:0:0:
256,192,136066,1,8,0:0:0:0:
256,192,136132,1,0,0:0:0:0:
256,192,136198,1,8,0:0:0:0:
256,192,136265,1,0,0:0:0:0:
256,192,136529,1,12,0:0:0:0:
256,192,136661,1,0,0:0:0:0:
256,192,136728,1,0,0:0:0:0:
256,192,136793,1,8,0:0:0:0:
256,192,136926,1,8,0:0:0:0:
256,192,137058,1,0,0:0:0:0:
256,192,137124,1,0,0:0:0:0:
256,192,137191,1,8,0:0:0:0:
256,192,137257,1,8,0:0:0:0:
256,192,137323,1,0,0:0:0:0:
256,192,137454,1,0,0:0:0:0:
256,192,137521,1,0,0:0:0:0:
256,192,137587,1,8,0:0:0:0:
256,192,137719,1,8,0:0:0:0:
256,192,137851,1,0,0:0:0:0:
256,192,137917,1,8,0:0:0:0:
256,192,137984,1,8,0:0:0:0:
256,192,138050,1,8,0:0:0:0:
256,192,138116,1,0,0:0:0:0:
256,192,138248,1,0,0:0:0:0:
256,192,138381,1,8,0:0:0:0:
256,192,138447,1,8,0:0:0:0:
256,192,138513,1,0,0:0:0:0:
256,192,138646,1,8,0:0:0:0:
256,192,138777,1,0,0:0:0:0:
256,192,138843,1,0,0:0:0:0:
256,192,138909,1,8,0:0:0:0:
256,192,138976,1,8,0:0:0:0:
256,192,139042,1,0,0:0:0:0:
256,192,139174,1,8,0:0:0:0:
256,192,139306,1,0,0:0:0:0:
256,192,139373,1,0,0:0:0:0:
256,192,139439,1,8,0:0:0:0:
256,192,139571,1,8,0:0:0:0:
256,192,139637,1,8,0:0:0:0:
256,192,139704,1,8,0:0:0:0:
256,192,139835,1,0,0:0:0:0:
256,192,139968,1,8,0:0:0:0:
256,192,140034,1,8,0:0:0:0:
256,192,140100,1,0,0:0:0:0:
256,192,140233,1,8,0:0:0:0:
256,192,140365,1,0,0:0:0:0:
256,192,140497,1,0,0:0:0:0:
256,192,140630,1,8,0:0:0:0:
256,192,140696,1,0,0:0:0:0:
256,192,140761,1,8,0:0:0:0:
256,192,140894,1,0,0:0:0:0:
256,192,141026,1,8,0:0:0:0:
256,192,141092,1,8,0:0:0:0:
256,192,141159,1,0,0:0:0:0:
256,192,141225,1,0,0:0:0:0:
256,192,141290,1,8,0:0:0:0:
256,192,141423,1,0,0:0:0:0:
256,192,141556,1,8,0:0:0:0:
256,192,141622,1,8,0:0:0:0:
256,192,141688,1,0,0:0:0:0:
256,192,141820,1,8,0:0:0:0:
256,192,141952,1,0,0:0:0:0:
256,192,142018,1,0,0:0:0:0:
256,192,142084,1,8,0:0:0:0:
256,192,142216,1,0,0:0:0:0:
256,192,142260,1,0,0:0:0:0:
256,192,142305,1,8,0:0:0:0:
256,192,142349,1,8,0:0:0:0:
256,192,142481,1,0,0:0:0:0:
256,192,142548,1,0,0:0:0:0:
256,192,142613,1,8,0:0:0:0:
256,192,142745,1,0,0:0:0:0:
256,192,142878,1,8,0:0:0:0:
256,192,142944,1,0,0:0:0:0:
256,192,143010,1,8,0:0:0:0:
256,192,143076,1,0,0:0:0:0:
256,192,143142,1,8,0:0:0:0:
256,192,143275,1,0,0:0:0:0:
256,192,143407,1,8,0:0:0:0:
256,192,143473,1,8,0:0:0:0:
256,192,143540,1,8,0:0:0:0:
256,192,143606,1,8,0:0:0:0:
256,192,143671,1,0,0:0:0:0:
256,192,143804,1,0,0:0:0:0:
256,192,143870,1,0,0:0:0:0:
256,192,143936,1,8,0:0:0:0:
256,192,144002,1,8,0:0:0:0:
256,192,144068,1,0,0:0:0:0:
256,192,144200,1,8,0:0:0:0:
256,192,144267,1,8,0:0:0:0:
256,192,144333,1,8,0:0:0:0:
256,192,144399,1,8,0:0:0:0:
256,192,144466,1,0,0:0:0:0:
256,192,144598,1,0,0:0:0:0:
256,192,144663,1,0,0:0:0:0:
256,192,144730,1,8,0:0:0:0:
256,192,144862,1,0,0:0:0:0:
256,192,144994,1,8,0:0:0:0:
256,192,145061,1,8,0:0:0:0:
256,192,145127,1,0,0:0:0:0:
256,192,145193,1,0,0:0:0:0:
256,192,145259,1,8,0:0:0:0:
256,192,145391,1,0,0:0:0:0:
256,192,145458,1,0,0:0:0:0:
256,192,145524,1,8,0:0:0:0:
256,192,145656,1,0,0:0:0:0:
288,192,145722,1,8,0:0:0:0:
256,192,145788,1,8,0:0:0:0:
256,192,145854,1,8,0:0:0:0:
256,192,145921,1,0,0:0:0:0:
256,192,146052,1,8,0:0:0:0:
256,192,146185,1,0,0:0:0:0:
256,192,146251,1,0,0:0:0:0:
256,192,146317,1,8,0:0:0:0:
256,192,146384,1,8,0:0:0:0:
256,192,146450,1,0,0:0:0:0:
256,192,146581,1,8,0:0:0:0:
256,192,146714,1,8,0:0:0:0:
256,192,146780,1,8,0:0:0:0:
256,192,146846,1,0,0:0:0:0:
256,192,146979,1,0,0:0:0:0:
256,192,147045,1,8,0:0:0:0:
256,192,147111,1,0,0:0:0:0:
256,192,147243,1,8,0:0:0:0:
256,192,147375,1,0,0:0:0:0:
256,192,147441,1,0,0:0:0:0:
256,192,147507,1,0,0:0:0:0:
256,192,147574,1,0,0:0:0:0:
256,192,147640,1,8,0:0:0:0:
256,192,147773,1,0,0:0:0:0:
256,192,147904,1,8,0:0:0:0:
288,192,147971,1,8,0:0:0:0:
256,192,148037,1,0,0:0:0:0:
256,192,148169,1,0,0:0:0:0:
256,192,148235,1,8,0:0:0:0:
256,192,148302,1,0,0:0:0:0:
256,192,148367,1,8,0:0:0:0:
256,192,148434,1,0,0:0:0:0:
256,192,148566,1,0,0:0:0:0:
256,192,148698,1,8,0:0:0:0:
256,192,148765,1,8,0:0:0:0:
256,192,148831,1,0,0:0:0:0:
256,192,148897,1,0,0:0:0:0:
256,192,148962,1,8,0:0:0:0:
256,192,149490,1,8,0:0:0:0:
256,192,149754,1,0,0:0:0:0:
256,192,149887,1,8,0:0:0:0:
256,192,150352,1,0,0:0:0:0:
256,192,150632,1,8,0:0:0:0:
256,192,151004,1,8,0:0:0:0:
256,192,151388,1,8,0:0:0:0:
256,192,151934,1,0,0:0:0:0:
256,192,152396,1,8,0:0:0:0:
256,192,153507,1,8,0:0:0:0:
256,192,153683,8,0,155977,0:0:0:0:
