osu file format v14

[General]
AudioFilename: audio.ogg
AudioLeadIn: 0
PreviewTime: 101565
Countdown: 0
SampleSet: Normal
StackLeniency: 0.7
Mode: 1
LetterboxInBreaks: 0
WidescreenStoryboard: 1

[Editor]
Bookmarks: 36224
DistanceSpacing: 1
BeatDivisor: 8
GridSize: 32
TimelineZoom: 3.499999

[Metadata]
Title:NEERWUISSALEARNTD
TitleUnicode:NEERWUISSALEARNTD
Artist:Frums
ArtistUnicode:Frums
Creator:ikin5050
Version:INNER ONI
Source:
Tags:Hivie Vulkin Nifty mashcore hardcore mathbreak breakcore electronic lolicore.jp edsillforrecordings frumsdotxyz Reinterpret My Roots experimental frums.xyz newtreasureisland japanese サカナクション 新宝島 sakanaction 834.194 LOLI-ELF
BeatmapID:3325955
BeatmapSetID:1623177

[Difficulty]
HPDrainRate:5
CircleSize:5
OverallDifficulty:6
ApproachRate:5
SliderMultiplier:1.4
SliderTickRate:1

[Events]
//Background and Video events
0,0,"loliquestionmark.jpg",0,0
//Break Periods
//Storyboard Layer 0 (Background)
//Storyboard Layer 1 (Fail)
//Storyboard Layer 2 (Pass)
//Storyboard Layer 3 (Foreground)
//Storyboard Layer 4 (Overlay)
//Storyboard Sound Samples

[TimingPoints]
178,857.142857142857,4,1,0,70,1,0
178,-30.8641975308642,4,1,0,70,0,0
3606,594.059405940594,4,1,0,70,1,0
3606,-44.5326278659612,4,1,0,70,0,0
8358,618.556701030928,10,1,0,70,1,0
8358,-42.7689594356261,10,1,0,70,0,0
13652,264.550264550265,4,1,0,70,1,8
13652,-111.111111111111,4,1,0,70,0,0
14181,-107.146683810136,4,1,0,70,0,0
14247,-103.448989303375,4,1,0,70,0,0
14313,396.825396825397,3,1,0,90,1,0
14313,-66.6666666666667,3,1,0,90,0,0
23836,264.550264550265,6,1,0,90,1,0
23836,-99.9999999999998,6,1,0,90,0,0
24034,-111.111111111111,6,1,0,90,0,0
25158,264.550264550265,3,1,0,70,1,0
25158,-111.111111111111,3,1,0,70,0,0
26613,-105.263157894737,3,1,0,70,0,0
26745,264.550264550265,10,1,0,100,1,0
26745,-99.9999999999998,6,1,0,100,0,0
29258,264.550264550265,9,1,0,100,1,0
31506,264.550264550265,5,1,0,100,1,0
32696,264.550264550265,6,1,0,100,1,0
34018,264.550264550265,9,1,0,100,1,0
36266,264.550264550265,10,1,0,100,1,0
38779,264.550264550265,9,1,0,100,1,0
41159,264.550264550265,6,1,0,100,1,0
42217,264.550264550265,7,1,0,100,1,0
43539,264.550264550265,7,1,0,100,1,0
45260,264.550264550265,4,1,0,100,1,0
45260,-99.9999999999998,4,1,0,100,0,0
45524,-100,4,1,0,100,0,0
45722,-105.895184945941,4,1,0,100,0,0
45921,-112.528976211374,4,1,0,100,0,0
46054,396.825396825397,3,1,0,75,1,0
46054,-78.4313725490196,4,1,0,75,0,0
56768,-74.0740740740741,4,1,0,75,0,0
62720,-70.1754385964912,4,1,0,85,0,0
71053,-66.6666666666667,4,1,0,90,0,0
74625,-44.4444444444445,5,1,0,50,0,0
75550,-66.6666666666667,5,1,0,70,0,0
75815,-66.6666666666667,5,1,0,100,0,0
77006,264.550264550265,5,1,0,100,1,1
77006,-90.9090909090909,5,1,0,100,0,1
78328,264.550264550265,4,1,0,100,1,1
78328,-90.9090909090909,4,1,0,100,0,1
80444,264.550264550265,5,1,0,100,1,1
80444,-90.9090909090909,5,1,0,100,0,1
81766,264.550264550265,4,1,0,100,1,1
81766,-90.9090909090909,4,1,0,100,0,1
83882,264.550264550265,5,1,0,100,1,1
83882,-90.9090909090909,5,1,0,100,0,1
86526,264.550264550265,5,1,0,100,1,1
86526,-90.9090909090909,4,1,0,100,0,1
87584,-90.9090909090909,5,1,0,100,0,1
87848,264.550264550265,4,1,0,100,1,1
87848,-90.9090909090909,4,1,0,100,0,1
89964,264.550264550265,5,1,0,100,1,1
89964,-90.9090909090909,5,1,0,100,0,1
91286,264.550264550265,4,1,0,100,1,1
91286,-90.9090909090909,4,1,0,100,0,1
93402,264.550264550265,5,1,0,100,1,1
93402,-90.9090909090909,5,1,0,100,0,1
96047,264.550264550265,4,1,0,70,1,0
96047,-71.4285714285714,4,1,0,70,0,0
97502,-133.333333333333,4,1,0,70,0,0
97634,-129.729785829097,4,1,0,70,0,0
97766,-126.315736288111,4,1,0,70,0,0
97898,-123.076923076923,4,1,0,70,0,0
98031,-120.000048000019,4,1,0,70,0,0
98163,-117.073125044634,4,1,0,70,0,0
98295,-114.285714285714,4,1,0,70,0,0
98427,-111.627948512725,4,1,0,70,0,0
98560,-109.090869421502,4,1,0,70,0,0
98692,-106.666666666667,4,1,0,70,0,0
98824,-104.347862381865,4,1,0,70,0,0
98957,-102.127624807617,4,1,0,70,0,0
99089,-100,4,1,0,70,0,0
99221,264.550264550265,10,1,0,50,1,0
99221,-99.9999999999998,10,1,0,50,0,0
100014,-133.333333333333,10,1,0,50,0,0
101609,264.550264550265,4,1,0,100,1,1
101609,-90.9090909090909,4,1,0,100,0,1
118540,-90.9090909090909,7,1,0,100,0,1
118804,-90.9090909090909,7,1,0,100,0,1
118870,-92.2882123957835,7,1,0,100,0,1
118936,-93.709909729244,7,1,0,100,0,1
119002,-95.1760042258146,7,1,0,100,0,1
119069,-96.6887020218575,7,1,0,100,0,1
119201,-99.8631874332165,7,1,0,100,0,1
119333,-90.9090909090909,7,1,0,100,0,1
119399,-92.2882123957835,7,1,0,100,0,1
119465,-93.709909729244,7,1,0,100,0,1
119531,-95.1760042258146,7,1,0,100,0,1
119598,-96.6887020218575,7,1,0,100,0,1
119730,-99.8631874332165,7,1,0,100,0,1
119862,-90.9090909090909,7,1,0,100,0,1
119928,-92.2882123957835,7,1,0,100,0,1
119994,-93.709909729244,7,1,0,100,0,1
120060,-95.1760042258146,7,1,0,100,0,1
120127,-96.6887020218575,7,1,0,100,0,1
120259,-99.8631874332165,7,1,0,100,0,1
120656,-90.9090909090909,7,1,0,100,0,1
120722,-92.2882123957835,7,1,0,100,0,1
120788,-93.709909729244,7,1,0,100,0,1
120854,-95.1760042258146,7,1,0,100,0,1
120920,-96.6887020218575,7,1,0,100,0,1
121053,-99.8631874332165,7,1,0,100,0,1
121185,-90.9090909090909,7,1,0,100,0,1
121251,-92.2882123957835,7,1,0,100,0,1
121317,-93.709909729244,7,1,0,100,0,1
121383,-95.1760042258146,7,1,0,100,0,1
121450,-96.6887020218575,7,1,0,100,0,1
121582,-99.8631874332165,7,1,0,100,0,1
121714,-90.9090909090909,7,1,0,100,0,1
121780,-92.2882123957835,7,1,0,100,0,1
121846,-93.709909729244,7,1,0,100,0,1
121912,-95.1760042258146,7,1,0,100,0,1
121979,-96.6887020218575,7,1,0,100,0,1
122111,-99.8631874332165,7,1,0,100,0,1
122508,-90.9090909090909,7,1,0,100,0,1
122574,-92.2882123957835,7,1,0,100,0,1
122640,-93.709909729244,7,1,0,100,0,1
122706,-95.1760042258146,7,1,0,100,0,1
122772,-96.6887020218575,7,1,0,100,0,1
122905,-99.8631874332165,7,1,0,100,0,1
123037,-90.9090909090909,7,1,0,100,0,1
123103,-92.2882123957835,7,1,0,100,0,1
123169,-93.709909729244,7,1,0,100,0,1
123235,-95.1760042258146,7,1,0,100,0,1
123301,-96.6887020218575,7,1,0,100,0,1
123434,-99.8631874332165,7,1,0,100,0,1
123566,-90.9090909090909,7,1,0,100,0,1
123632,-92.2882123957835,7,1,0,100,0,1
123698,-93.709909729244,7,1,0,100,0,1
123764,-95.1760042258146,7,1,0,100,0,1
123831,-96.6887020218575,7,1,0,100,0,1
123963,-99.8631874332165,7,1,0,100,0,1
124360,-90.9090909090909,7,1,0,100,0,1
124426,-92.2882123957835,7,1,0,100,0,1
124492,-93.709909729244,7,1,0,100,0,1
124558,-95.1760042258146,7,1,0,100,0,1
124624,-96.6887020218575,7,1,0,100,0,1
124756,-99.8631874332165,7,1,0,100,0,1
124889,-90.9090909090909,7,1,0,100,0,1
124955,-92.2882123957835,7,1,0,100,0,1
125021,-93.709909729244,7,1,0,100,0,1
125087,-95.1760042258146,7,1,0,100,0,1
125153,-96.6887020218575,7,1,0,100,0,1
125286,-99.8631874332165,7,1,0,100,0,1
125418,-90.9090909090909,7,1,0,100,0,1
125484,-92.2882123957835,7,1,0,100,0,1
125550,-93.709909729244,7,1,0,100,0,1
125616,-95.1760042258146,7,1,0,100,0,1
125682,-96.6887020218575,7,1,0,100,0,1
125815,-99.8631874332165,7,1,0,100,0,1
126211,-90.9090909090909,7,1,0,100,0,1
126277,-92.2882123957835,7,1,0,100,0,1
126343,-93.709909729244,7,1,0,100,0,1
126409,-95.1760042258146,7,1,0,100,0,1
126476,-96.6887020218575,7,1,0,100,0,1
126608,-99.8631874332165,7,1,0,100,0,1
126741,-90.9090909090909,7,1,0,100,0,1
126807,-92.2882123957835,7,1,0,100,0,1
126873,-93.709909729244,7,1,0,100,0,1
126939,-95.1760042258146,7,1,0,100,0,1
127005,-96.6887020218575,7,1,0,100,0,1
127137,-99.8631874332165,7,1,0,100,0,1
127270,-90.9090909090909,7,1,0,100,0,1
127336,-92.2882123957835,7,1,0,100,0,1
127402,-93.709909729244,7,1,0,100,0,1
127468,-95.1760042258146,7,1,0,100,0,1
127534,-96.6887020218575,7,1,0,100,0,1
127666,-99.8631874332165,7,1,0,100,0,1
128063,-90.9090909090909,7,1,0,100,0,1
128129,-92.2882123957835,7,1,0,100,0,1
128195,-93.709909729244,7,1,0,100,0,1
128261,-95.1760042258146,7,1,0,100,0,1
128328,-96.6887020218575,7,1,0,100,0,1
128460,-99.8631874332165,7,1,0,100,0,1
128592,-90.9090909090909,7,1,0,100,0,1
128658,-92.2882123957835,7,1,0,100,0,1
128724,-93.709909729244,7,1,0,100,0,1
128790,-95.1760042258146,7,1,0,100,0,1
128857,-96.6887020218575,7,1,0,100,0,1
128989,-99.8631874332165,7,1,0,100,0,1
129122,-90.9090909090909,7,1,0,100,0,1
129188,-92.2882123957835,7,1,0,100,0,1
129254,-93.709909729244,7,1,0,100,0,1
129320,-95.1760042258146,7,1,0,100,0,1
129386,-96.6887020218575,7,1,0,100,0,1
129518,-99.8631874332165,7,1,0,100,0,1
129915,-90.9090909090909,7,1,0,100,0,1
129981,-92.2882123957835,7,1,0,100,0,1
130047,-93.709909729244,7,1,0,100,0,1
130113,-95.1760042258146,7,1,0,100,0,1
130180,-96.6887020218575,7,1,0,100,0,1
130312,-99.8631874332165,7,1,0,100,0,1
130444,-90.9090909090909,7,1,0,100,0,1
130510,-92.2882123957835,7,1,0,100,0,1
130576,-93.709909729244,7,1,0,100,0,1
130642,-95.1760042258146,7,1,0,100,0,1
130709,-96.6887020218575,7,1,0,100,0,1
130841,-99.8631874332165,7,1,0,100,0,1
130973,-90.9090909090909,7,1,0,100,0,1
131039,-92.2882123957835,7,1,0,100,0,1
131105,-93.709909729244,7,1,0,100,0,1
131171,-95.1760042258146,7,1,0,100,0,1
131238,-96.6887020218575,7,1,0,100,0,1
131370,-99.8631874332165,7,1,0,100,0,1
131767,-90.9090909090909,7,1,0,100,0,1
131833,-92.2882123957835,7,1,0,100,0,1
131899,-93.709909729244,7,1,0,100,0,1
131965,-95.1760042258146,7,1,0,100,0,1
132032,-96.6887020218575,7,1,0,100,0,1
132164,-99.8631874332165,7,1,0,100,0,1
132296,-90.9090909090909,7,1,0,100,0,1
132362,-92.2882123957835,7,1,0,100,0,1
132428,-93.709909729244,7,1,0,100,0,1
132494,-95.1760042258146,7,1,0,100,0,1
132561,-96.6887020218575,7,1,0,100,0,1
132693,-99.8631874332165,7,1,0,100,0,1
132825,-90.9090909090909,7,1,0,100,0,1
132891,-92.2882123957835,7,1,0,100,0,1
132957,-93.709909729244,7,1,0,100,0,1
133023,-95.1760042258146,7,1,0,100,0,1
133090,-96.6887020218575,7,1,0,100,0,1
133222,-99.8631874332165,7,1,0,100,0,1
133619,-90.9090909090909,7,1,0,100,0,1
133685,-92.2882123957835,7,1,0,100,0,1
133751,-93.709909729244,7,1,0,100,0,1
133817,-95.1760042258146,7,1,0,100,0,1
133883,-96.6887020218575,7,1,0,100,0,1
134016,-99.8631874332165,7,1,0,100,0,1
134148,-90.9090909090909,7,1,0,100,0,1
134214,-92.2882123957835,7,1,0,100,0,1
134280,-93.709909729244,7,1,0,100,0,1
134346,-95.1760042258146,7,1,0,100,0,1
134413,-96.6887020218575,7,1,0,100,0,1
134545,-99.8631874332165,7,1,0,100,0,1
134677,-90.9090909090909,7,1,0,100,0,1
134743,-92.2882123957835,7,1,0,100,0,1
134809,-93.709909729244,7,1,0,100,0,1
134875,-95.1760042258146,7,1,0,100,0,1
134942,-96.6887020218575,7,1,0,100,0,1
135074,-99.8631874332165,7,1,0,100,0,1
135206,-100,7,1,0,100,0,1
135338,-101.910828025478,7,1,0,100,0,1
135405,-102.893890675241,7,1,0,100,0,1
135471,-103.896103896104,7,1,0,100,0,1
135537,-104.918032786885,7,1,0,100,0,1
135603,-105.960264900662,7,1,0,100,0,1
135735,-108.108108108108,7,1,0,100,0,1
135868,-110.344827586207,7,1,0,100,0,1
135934,-111.498257839721,7,1,0,100,0,1
136000,-112.676056338028,7,1,0,100,0,1
136066,-113.879003558719,7,1,0,100,0,1
136132,-115.107913669065,7,1,0,100,0,1
136264,-117.647058823529,7,1,0,100,0,1
136529,-99.9999999999998,4,1,0,100,0,0
148962,264.550264550265,4,1,0,90,1,0
148962,-99.9999999999998,4,1,0,90,0,0
149490,397.350993377483,4,1,0,80,1,8
149490,-69.6751244774247,4,1,0,80,0,0
149754,-70.7723839453686,4,1,0,80,0,0
149887,372.670807453416,4,1,0,75,1,8
149887,-76.0582282218541,4,1,0,75,0,0
150352,-78.3912362360669,4,1,0,75,0,0
150632,372.670807453416,4,1,0,70,1,0
150632,-79.8611011284736,4,1,0,70,0,0
151004,384.615384615384,4,1,0,65,1,8
151004,-78.7401574803149,4,1,0,65,0,0
151388,504.201680672269,4,1,0,60,1,8
151388,-59.0277703993066,4,1,0,60,0,0
151934,-60.6709363302778,4,1,0,60,0,0
152396,555.555555555555,4,1,0,45,1,0
152396,-56.3910071230866,4,1,0,45,0,0
153507,705.882352941177,4,1,0,40,1,0
153507,-46.8474426807761,4,1,0,40,0,0
153683,-47.1750735666968,4,1,0,40,0,0

[HitObjects]
256,192,178,5,4,0:0:0:0:
256,192,1463,8,4,3392,0:0:0:0:
256,192,3606,5,4,0:0:0:0:
256,192,4200,8,4,5685,0:0:0:0:
256,192,5982,5,4,0:0:0:0:
256,192,6279,8,4,8061,0:0:0:0:
256,192,8358,5,4,0:0:0:0:
256,192,8667,8,0,10522,0:0:0:0:
114,129,10832,6,4,L|198:83,10,81.8350522930394
256,192,13652,1,8,0:0:0:0:
256,192,13784,1,8,0:0:0:0:
256,192,13916,1,8,0:0:0:0:
256,192,14048,1,8,0:0:0:0:
256,192,14181,1,0,0:0:0:0:
256,192,14247,1,0,0:0:0:0:
256,192,14313,1,8,0:0:0:0:
256,192,14445,1,0,0:0:0:0:
256,192,14577,1,8,0:0:0:0:
256,192,14709,1,8,0:0:0:0:
256,192,14775,1,8,0:0:0:0:
256,192,14842,1,0,0:0:0:0:
256,192,14908,1,8,0:0:0:0:
256,192,14974,1,0,0:0:0:0:
256,192,15106,1,8,0:0:0:0:
256,192,15238,1,0,0:0:0:0:
256,192,15371,1,0,0:0:0:0:
256,192,15503,1,8,0:0:0:0:
256,192,15569,1,0,0:0:0:0:
256,192,15635,1,8,0:0:0:0:
256,192,15701,1,8,0:0:0:0:
256,192,15768,1,0,0:0:0:0:
256,192,15900,1,0,0:0:0:0:
256,192,15966,1,0,0:0:0:0:
256,192,16032,1,8,0:0:0:0:
256,192,16131,1,8,0:0:0:0:
256,192,16230,1,8,0:0:0:0:
256,192,16297,1,0,0:0:0:0:
256,192,16429,1,8,0:0:0:0:
256,192,16561,1,0,0:0:0:0:
256,192,16693,1,0,0:0:0:0:
256,192,16826,1,0,0:0:0:0:
256,192,16958,1,8,0:0:0:0:
256,192,17024,1,0,0:0:0:0:
256,192,17090,1,0,0:0:0:0:
256,192,17223,1,8,0:0:0:0:
256,192,17289,1,8,0:0:0:0:
256,192,17355,1,0,0:0:0:0:
256,192,17421,1,0,0:0:0:0:
256,192,17487,1,8,0:0:0:0:
256,192,17553,1,8,0:0:0:0:
256,192,17619,1,8,0:0:0:0:
256,192,17752,1,0,0:0:0:0:
256,192,17884,1,0,0:0:0:0:
256,192,18016,1,0,0:0:0:0:
256,192,18082,1,8,0:0:0:0:
256,192,18148,1,8,0:0:0:0:
256,192,18281,1,0,0:0:0:0:
256,192,18413,1,0,0:0:0:0:
256,192,18479,1,0,0:0:0:0:
256,192,18545,1,8,0:0:0:0:
256,192,18678,1,8,0:0:0:0:
256,192,19074,1,0,0:0:0:0:
256,192,19207,1,8,0:0:0:0:
256,192,19273,1,0,0:0:0:0:
256,192,19339,1,8,0:0:0:0:
256,192,19471,1,0,0:0:0:0:
256,192,19604,1,8,0:0:0:0:
256,192,19670,1,8,0:0:0:0:
256,192,19736,1,0,0:0:0:0:
256,192,19802,1,0,0:0:0:0:
256,192,19868,1,8,0:0:0:0:
258,196,20000,1,0,0:0:0:0:
256,192,20066,1,8,0:0:0:0:
256,192,20199,1,0,0:0:0:0:
256,192,20265,1,8,0:0:0:0:
259,196,20397,1,0,0:0:0:0:
256,192,20529,1,0,0:0:0:0:
256,192,20596,1,0,0:0:0:0:
256,192,20662,1,8,0:0:0:0:
256,192,20794,1,8,0:0:0:0:
256,192,20926,1,0,0:0:0:0:
256,192,21032,1,0,0:0:0:0:
256,192,21138,1,0,0:0:0:0:
256,192,21244,1,8,0:0:0:0:
256,192,21350,1,8,0:0:0:0:
256,192,21455,1,0,0:0:0:0:
256,192,21588,1,0,0:0:0:0:
256,192,21720,1,8,0:0:0:0:
256,192,21852,1,0,0:0:0:0:
256,192,21984,1,8,0:0:0:0:
256,192,22051,1,8,0:0:0:0:
256,192,22117,1,0,0:0:0:0:
256,192,22183,1,0,0:0:0:0:
256,192,22249,1,8,0:0:0:0:
256,192,22381,1,8,0:0:0:0:
256,192,22514,1,8,0:0:0:0:
256,192,22580,1,0,0:0:0:0:
256,192,22646,1,0,0:0:0:0:
256,192,22745,1,8,0:0:0:0:
256,192,22844,1,8,0:0:0:0:
256,192,22910,1,0,0:0:0:0:
256,192,22977,1,0,0:0:0:0:
256,192,23043,1,8,0:0:0:0:
256,192,23142,1,0,0:0:0:0:
256,192,23241,1,8,0:0:0:0:
256,192,23307,1,0,0:0:0:0:
256,192,23439,1,8,0:0:0:0:
256,192,23539,1,0,0:0:0:0:
256,192,23638,1,0,0:0:0:0:
256,192,23737,1,8,0:0:0:0:
256,192,23836,1,0,0:0:0:0:
256,192,24034,1,8,0:0:0:0:
256,192,24100,1,0,0:0:0:0:
256,192,24232,1,0,0:0:0:0:
256,192,24365,1,8,0:0:0:0:
256,192,24629,1,0,0:0:0:0:
256,192,24828,1,0,0:0:0:0:
256,192,24927,1,8,0:0:0:0:
256,192,25026,1,0,0:0:0:0:
256,192,25158,1,8,0:0:0:0:
256,192,25290,1,8,0:0:0:0:
256,192,25422,1,8,0:0:0:0:
256,192,25554,1,8,0:0:0:0:
256,192,25687,1,8,0:0:0:0:
256,192,25819,1,8,0:0:0:0:
256,192,26083,1,0,0:0:0:0:
256,192,26348,1,0,0:0:0:0:
256,192,26613,1,0,0:0:0:0:
256,192,26745,1,8,0:0:0:0:
256,192,26877,1,0,0:0:0:0:
256,224,26943,1,0,0:0:0:0:
256,224,27009,1,8,0:0:0:0:
256,192,27141,1,0,0:0:0:0:
256,192,27207,1,0,0:0:0:0:
256,192,27274,1,8,0:0:0:0:
256,192,27406,1,0,0:0:0:0:
256,192,27538,1,8,0:0:0:0:
256,192,27604,1,0,0:0:0:0:
256,192,27670,1,8,0:0:0:0:
256,192,27737,1,8,0:0:0:0:
256,192,27803,1,0,0:0:0:0:
256,192,27935,1,8,0:0:0:0:
256,192,28067,1,8,0:0:0:0:
256,192,28200,1,0,0:0:0:0:
256,192,28266,1,8,0:0:0:0:
256,192,28332,1,0,0:0:0:0:
256,192,28398,1,8,0:0:0:0:
256,192,28464,1,0,0:0:0:0:
256,192,28596,1,0,0:0:0:0:
256,192,28729,1,8,0:0:0:0:
256,192,28795,1,8,0:0:0:0:
256,192,28861,1,0,0:0:0:0:
256,192,28927,1,0,0:0:0:0:
256,192,28993,1,8,0:0:0:0:
256,192,29125,1,0,0:0:0:0:
256,192,29258,1,0,0:0:0:0:
256,192,29390,1,8,0:0:0:0:
256,192,29522,1,0,0:0:0:0:
256,192,29588,1,0,0:0:0:0:
256,192,29655,1,8,0:0:0:0:
256,192,29787,1,0,0:0:0:0:
256,192,29919,1,8,0:0:0:0:
256,192,29985,1,0,0:0:0:0:
256,192,30051,1,8,0:0:0:0:
256,192,30183,1,0,0:0:0:0:
256,192,30316,1,8,0:0:0:0:
256,192,30448,1,0,0:0:0:0:
256,192,30514,1,8,0:0:0:0:
256,192,30646,1,0,0:0:0:0:
256,192,30713,1,0,0:0:0:0:
256,192,30845,1,0,0:0:0:0:
256,192,30911,1,8,0:0:0:0:
256,192,31043,1,8,0:0:0:0:
256,192,31109,1,0,0:0:0:0:
256,192,31175,1,0,0:0:0:0:
256,192,31242,1,8,0:0:0:0:
256,192,31308,1,8,0:0:0:0:
256,192,31374,1,8,0:0:0:0:
256,192,31506,1,0,0:0:0:0:
256,192,31638,1,0,0:0:0:0:
256,192,31770,1,8,0:0:0:0:
256,192,31902,1,0,0:0:0:0:
256,192,31968,1,0,0:0:0:0:
256,192,32035,1,8,0:0:0:0:
256,192,32167,1,0,0:0:0:0:
256,192,32299,1,8,0:0:0:0:
256,192,32431,1,0,0:0:0:0:
256,192,32696,1,8,0:0:0:0:
256,192,32828,1,0,0:0:0:0:
256,192,32894,1,0,0:0:0:0:
256,192,32960,1,8,0:0:0:0:
256,192,33092,1,0,0:0:0:0:
256,192,33225,1,8,0:0:0:0:
256,192,33291,1,0,0:0:0:0:
256,192,33357,1,8,0:0:0:0:
256,192,33490,1,8,0:0:0:0:
256,192,33622,1,0,0:0:0:0:
256,192,33688,1,0,0:0:0:0:
256,192,33754,1,8,0:0:0:0:
256,192,33820,1,8,0:0:0:0:
256,192,33886,1,0,0:0:0:0:
256,192,34018,1,8,0:0:0:0:
256,192,34216,1,8,0:0:0:0:
256,192,34414,1,8,0:0:0:0:
256,192,34481,1,8,0:0:0:0:
256,192,34547,1,8,0:0:0:0:
256,192,34679,1,0,0:0:0:0:
256,192,34811,1,8,0:0:0:0:
256,192,34877,1,0,0:0:0:0:
256,192,34944,1,8,0:0:0:0:
256,192,35076,1,8,0:0:0:0:
256,192,35274,1,8,0:0:0:0:
256,192,35340,1,0,0:0:0:0:
256,192,35473,1,0,0:0:0:0:
256,192,35605,1,0,0:0:0:0:
256,192,35671,1,0,0:0:0:0:
256,192,35737,1,8,0:0:0:0:
256,192,35869,1,0,0:0:0:0:
256,192,36265,1,0,0:0:0:0:
256,192,36332,1,0,0:0:0:0:
256,192,36398,1,8,0:0:0:0:
256,192,36464,1,0,0:0:0:0:
256,192,36530,1,8,0:0:0:0:
256,192,36596,1,0,0:0:0:0:
256,192,36662,1,0,0:0:0:0:
256,192,36728,1,0,0:0:0:0:
256,192,36794,1,8,0:0:0:0:
256,192,36927,1,0,0:0:0:0:
256,192,37059,1,8,0:0:0:0:
256,192,37125,1,0,0:0:0:0:
256,192,37191,1,8,0:0:0:0:
256,192,37324,1,0,0:0:0:0:
256,192,37456,1,8,0:0:0:0:
256,192,37522,1,8,0:0:0:0:
256,192,37588,1,0,0:0:0:0:
256,192,37720,1,0,0:0:0:0:
256,192,37786,1,0,0:0:0:0:
256,192,37853,1,8,0:0:0:0:
256,192,37919,1,8,0:0:0:0:
256,192,37985,1,0,0:0:0:0:
256,192,38117,1,8,0:0:0:0:
256,192,38249,1,8,0:0:0:0:
256,192,38316,1,8,0:0:0:0:
256,192,38382,1,0,0:0:0:0:
256,192,38514,1,8,0:0:0:0:
256,192,38646,1,0,0:0:0:0:
256,192,38779,1,8,0:0:0:0:
256,192,38845,1,8,0:0:0:0:
256,192,38911,1,0,0:0:0:0:
256,192,38977,1,0,0:0:0:0:
256,192,39043,1,8,0:0:0:0:
256,192,39175,1,8,0:0:0:0:
256,192,39242,1,8,0:0:0:0:
256,192,39308,1,0,0:0:0:0:
256,192,39440,1,0,0:0:0:0:
256,192,39506,1,0,0:0:0:0:
256,192,39572,1,8,0:0:0:0:
256,192,39638,1,0,0:0:0:0:
256,192,39704,1,8,0:0:0:0:
256,192,39837,1,8,0:0:0:0:
256,192,39969,1,0,0:0:0:0:
256,192,40035,1,0,0:0:0:0:
256,192,40101,1,0,0:0:0:0:
256,192,40234,1,8,0:0:0:0:
256,192,40300,1,0,0:0:0:0:
256,192,40366,1,8,0:0:0:0:
256,192,40432,1,8,0:0:0:0:
256,192,40498,1,0,0:0:0:0:
256,192,40630,1,0,0:0:0:0:
256,192,40763,1,8,0:0:0:0:
256,192,40829,1,8,0:0:0:0:
256,192,40895,1,8,0:0:0:0:
256,192,41027,1,0,0:0:0:0:
256,192,41158,1,0,0:0:0:0:
256,192,41225,1,0,0:0:0:0:
256,192,41291,1,8,0:0:0:0:
256,192,41357,1,8,0:0:0:0:
256,192,41423,1,0,0:0:0:0:
256,192,41555,1,8,0:0:0:0:
256,192,41621,1,8,0:0:0:0:
256,192,41688,1,8,0:0:0:0:
256,192,41820,1,0,0:0:0:0:
256,192,41952,1,8,0:0:0:0:
256,192,42217,1,0,0:0:0:0:
256,192,42283,1,0,0:0:0:0:
256,192,42349,1,8,0:0:0:0:
256,192,42415,1,8,0:0:0:0:
256,192,42481,1,0,0:0:0:0:
256,192,42547,1,8,0:0:0:0:
256,192,42614,1,0,0:0:0:0:
256,192,42680,1,0,0:0:0:0:
256,192,42746,1,8,0:0:0:0:
256,192,42812,1,8,0:0:0:0:
256,192,42878,1,0,0:0:0:0:
256,192,43010,1,0,0:0:0:0:
256,192,43143,1,8,0:0:0:0:
256,192,43209,1,8,0:0:0:0:
256,192,43275,1,8,0:0:0:0:
256,192,43341,1,8,0:0:0:0:
256,192,43407,1,0,0:0:0:0:
256,192,43538,1,8,0:0:0:0:
256,192,43671,1,0,0:0:0:0:
256,192,43737,1,8,0:0:0:0:
256,192,43869,1,8,0:0:0:0:
256,192,43935,1,8,0:0:0:0:
256,192,44068,1,0,0:0:0:0:
256,192,44200,1,0,0:0:0:0:
256,192,44266,1,0,0:0:0:0:
256,192,44332,1,8,0:0:0:0:
256,192,44464,1,8,0:0:0:0:
256,192,44597,1,8,0:0:0:0:
256,192,44729,1,0,0:0:0:0:
256,192,44795,1,0,0:0:0:0:
256,192,44861,1,8,0:0:0:0:
256,192,44927,1,8,0:0:0:0:
256,192,44993,1,0,0:0:0:0:
256,192,45126,1,8,0:0:0:0:
256,192,45192,1,0,0:0:0:0:
256,192,45260,1,8,0:0:0:0:
256,192,45392,1,0,0:0:0:0:
256,192,45524,1,8,0:0:0:0:
256,192,45722,1,8,0:0:0:0:
256,192,45921,1,8,0:0:0:0:
256,192,46054,1,0,0:0:0:0:
256,192,46583,1,0,0:0:0:0:
256,192,46979,1,0,0:0:0:0:
256,192,47376,1,0,0:0:0:0:
256,192,47773,1,0,0:0:0:0:
256,192,48170,1,0,0:0:0:0:
256,192,48567,1,0,0:0:0:0:
256,192,48964,1,0,0:0:0:0:
256,192,49228,1,8,0:0:0:0:
256,192,49360,1,8,0:0:0:0:
256,192,49493,1,8,0:0:0:0:
256,192,49625,1,0,0:0:0:0:
256,192,49889,1,0,0:0:0:0:
256,192,50154,1,8,0:0:0:0:
256,192,50286,1,0,0:0:0:0:
256,192,50419,1,8,0:0:0:0:
256,192,50617,1,8,0:0:0:0:
256,192,50683,1,0,0:0:0:0:
256,192,50749,1,0,0:0:0:0:
256,192,50815,1,8,0:0:0:0:
256,192,51080,1,0,0:0:0:0:
256,192,51345,1,8,0:0:0:0:
256,192,51477,1,0,0:0:0:0:
256,192,51609,1,8,0:0:0:0:
256,192,51874,1,0,0:0:0:0:
256,192,52006,1,8,0:0:0:0:
256,192,52138,1,0,0:0:0:0:
256,192,52270,1,8,0:0:0:0:
256,192,52403,1,8,0:0:0:0:
256,192,52667,1,0,0:0:0:0:
256,192,52932,1,8,0:0:0:0:
256,192,53196,1,8,0:0:0:0:
256,192,53461,1,0,0:0:0:0:
256,192,53725,1,8,0:0:0:0:
256,192,53792,1,8,0:0:0:0:
256,192,53858,1,8,0:0:0:0:
256,192,53990,1,0,0:0:0:0:
256,192,54056,1,8,0:0:0:0:
256,192,54122,1,8,0:0:0:0:
256,192,54343,1,0,0:0:0:0:
256,192,54784,1,0,0:0:0:0:
256,192,55180,1,8,0:0:0:0:
256,192,55445,1,0,0:0:0:0:
256,192,55577,1,0,0:0:0:0:
256,192,55710,1,8,0:0:0:0:
256,192,55776,1,8,0:0:0:0:
256,192,55842,1,8,0:0:0:0:
256,192,55974,1,8,0:0:0:0:
256,192,56106,1,0,0:0:0:0:
256,192,56173,1,0,0:0:0:0:
256,192,56239,1,0,0:0:0:0:
256,192,56371,1,8,0:0:0:0:
256,192,56503,1,8,0:0:0:0:
224,192,56768,1,0,0:0:0:0:
256,192,56944,1,0,0:0:0:0:
256,192,57032,1,8,0:0:0:0:
256,192,57121,1,8,0:0:0:0:
256,192,57209,1,8,0:0:0:0:
256,192,57297,1,0,0:0:0:0:
256,192,57473,1,8,0:0:0:0:
256,192,57650,1,8,0:0:0:0:
256,192,57826,1,0,0:0:0:0:
256,192,58002,1,8,0:0:0:0:
256,192,58091,1,8,0:0:0:0:
256,192,58179,1,0,0:0:0:0:
256,192,58267,1,0,0:0:0:0:
256,192,58355,1,8,0:0:0:0:
256,192,58487,1,8,0:0:0:0:
256,192,58620,1,8,0:0:0:0:
256,192,58752,1,8,0:0:0:0:
256,192,58884,1,0,0:0:0:0:
256,192,59149,1,0,0:0:0:0:
256,192,59215,1,0,0:0:0:0:
256,192,59281,1,0,0:0:0:0:
256,192,59413,1,8,0:0:0:0:
256,192,59590,1,0,0:0:0:0:
256,192,59777,1,0,0:0:0:0:
256,192,59942,1,0,0:0:0:0:
256,192,60119,1,0,0:0:0:0:
256,192,60295,1,8,0:0:0:0:
256,192,60471,1,0,0:0:0:0:
256,192,60560,1,0,0:0:0:0:
256,192,60648,1,8,0:0:0:0:
256,192,60736,1,8,0:0:0:0:
256,192,60824,1,0,0:0:0:0:
256,192,61001,1,8,0:0:0:0:
256,192,61133,1,8,0:0:0:0:
256,192,61265,1,0,0:0:0:0:
256,192,61397,1,8,0:0:0:0:
256,192,61530,1,8,0:0:0:0:
256,192,61662,1,0,0:0:0:0:
256,192,61728,1,0,0:0:0:0:
256,192,61794,1,8,0:0:0:0:
256,192,61927,1,8,0:0:0:0:
256,192,62059,1,0,0:0:0:0:
256,192,62125,1,0,0:0:0:0:
256,192,62191,1,8,0:0:0:0:
256,192,62323,1,0,0:0:0:0:
256,192,62456,1,8,0:0:0:0:
256,192,62720,1,0,0:0:0:0:
256,192,62919,1,8,0:0:0:0:
256,192,62985,1,0,0:0:0:0:
256,192,63117,1,8,0:0:0:0:
256,192,63249,1,0,0:0:0:0:
256,192,63382,1,8,0:0:0:0:
256,192,63514,1,8,0:0:0:0:
256,192,63646,1,0,0:0:0:0:
256,192,63778,1,8,0:0:0:0:
256,192,63911,1,0,0:0:0:0:
256,192,64043,1,0,0:0:0:0:
256,192,64109,1,8,0:0:0:0:
256,192,64175,1,0,0:0:0:0:
256,192,64307,1,8,0:0:0:0:
256,192,64440,1,8,0:0:0:0:
256,192,64572,1,0,0:0:0:0:
256,192,64704,1,0,0:0:0:0:
256,192,64837,1,8,0:0:0:0:
256,192,65101,1,0,0:0:0:0:
256,192,65233,1,8,0:0:0:0:
256,192,65366,1,0,0:0:0:0:
256,192,65498,1,8,0:0:0:0:
256,192,65630,1,8,0:0:0:0:
256,192,65762,1,0,0:0:0:0:
256,192,65829,1,0,0:0:0:0:
256,192,65895,1,8,0:0:0:0:
256,192,66027,1,0,0:0:0:0:
256,192,66159,1,8,0:0:0:0:
256,192,66292,1,0,0:0:0:0:
256,192,66358,1,8,0:0:0:0:
256,192,66424,1,0,0:0:0:0:
256,192,66556,1,0,0:0:0:0:
256,192,66688,1,8,0:0:0:0:
256,192,66821,1,0,0:0:0:0:
256,192,66887,1,8,0:0:0:0:
256,192,66953,1,8,0:0:0:0:
256,192,67151,1,0,0:0:0:0:
256,192,67218,1,8,0:0:0:0:
256,192,67284,1,8,0:0:0:0:
256,192,67350,1,8,0:0:0:0:
256,192,67482,1,0,0:0:0:0:
256,192,67879,1,0,0:0:0:0:
256,192,68011,1,8,0:0:0:0:
256,192,68408,1,0,0:0:0:0:
256,192,68474,1,0,0:0:0:0:
256,192,68540,1,8,0:0:0:0:
256,192,68673,1,8,0:0:0:0:
256,192,68805,1,0,0:0:0:0:
256,192,68937,1,0,0:0:0:0:
256,192,69069,1,8,0:0:0:0:
256,192,69202,1,8,0:0:0:0:
256,192,69334,1,8,0:0:0:0:
256,192,69466,1,0,0:0:0:0:
256,192,69598,1,8,0:0:0:0:
256,192,69665,1,8,0:0:0:0:
256,192,69731,1,8,0:0:0:0:
256,192,69863,1,0,0:0:0:0:
256,192,69995,1,8,0:0:0:0:
256,192,70128,1,0,0:0:0:0:
256,192,70260,1,8,0:0:0:0:
256,192,70392,1,0,0:0:0:0:
256,192,70458,1,0,0:0:0:0:
256,192,70524,1,8,0:0:0:0:
256,192,70657,1,0,0:0:0:0:
256,192,70789,1,0,0:0:0:0:
256,192,71054,1,0,0:0:0:0:
256,192,71186,1,0,0:0:0:0:
256,192,71318,1,8,0:0:0:0:
256,192,71450,1,8,0:0:0:0:
256,192,71583,1,0,0:0:0:0:
256,192,71649,1,8,0:0:0:0:
256,192,71715,1,0,0:0:0:0:
256,192,71847,1,8,0:0:0:0:
256,192,71979,1,0,0:0:0:0:
256,192,72112,1,8,0:0:0:0:
256,192,72244,1,8,0:0:0:0:
256,192,72376,1,0,0:0:0:0:
256,192,72442,1,0,0:0:0:0:
256,192,72509,1,8,0:0:0:0:
256,192,72641,1,0,0:0:0:0:
256,192,72773,1,8,0:0:0:0:
256,192,72839,1,8,0:0:0:0:
256,192,72905,1,0,0:0:0:0:
256,192,73038,1,0,0:0:0:0:
256,192,73170,1,8,0:0:0:0:
256,192,73302,1,8,0:0:0:0:
256,192,73434,1,0,0:0:0:0:
256,192,73567,1,8,0:0:0:0:
256,192,73699,1,8,0:0:0:0:
256,192,73765,1,8,0:0:0:0:
256,192,73831,1,0,0:0:0:0:
256,192,73964,1,8,0:0:0:0:
256,192,74096,1,0,0:0:0:0:
256,192,74228,1,0,0:0:0:0:
256,192,74294,1,8,0:0:0:0:
256,192,74360,1,8,0:0:0:0:
256,192,74493,1,0,0:0:0:0:
140,93,74625,2,0,L|202:85,12,39.3750015020371
256,192,75551,1,8,0:0:0:0:
256,192,75815,1,0,0:0:0:0:
256,192,75948,1,0,0:0:0:0:
256,192,76014,1,0,0:0:0:0:
256,192,76080,1,8,0:0:0:0:
256,192,76212,1,0,0:0:0:0:
256,192,76278,1,0,0:0:0:0:
256,192,76345,1,8,0:0:0:0:
256,192,76477,1,0,0:0:0:0:
256,192,76609,1,8,0:0:0:0:
256,192,76741,1,0,0:0:0:0:
256,192,76874,1,8,0:0:0:0:
256,192,77006,1,4,0:0:0:0:
256,192,77138,1,0,0:0:0:0:
256,192,77270,1,8,0:0:0:0:
256,192,77402,1,0,0:0:0:0:
256,192,77468,1,8,0:0:0:0:
256,192,77535,1,8,0:0:0:0:
256,192,77601,1,8,0:0:0:0:
256,192,77667,1,0,0:0:0:0:
256,192,77799,1,8,0:0:0:0:
256,192,77865,1,8,0:0:0:0:
256,192,77931,1,0,0:0:0:0:
256,192,77998,1,0,0:0:0:0:
256,192,78064,1,8,0:0:0:0:
256,192,78196,1,0,0:0:0:0:
256,192,78262,1,0,0:0:0:0:
256,192,78328,1,8,0:0:0:0:
256,192,78460,1,0,0:0:0:0:
256,192,78526,1,0,0:0:0:0:
256,192,78592,1,8,0:0:0:0:
256,192,78724,1,0,0:0:0:0:
256,192,78857,1,8,0:0:0:0:
256,192,78923,1,8,0:0:0:0:
256,192,78989,1,8,0:0:0:0:
256,192,79121,1,8,0:0:0:0:
256,192,79253,1,8,0:0:0:0:
256,192,79386,1,0,0:0:0:0:
256,192,79518,1,8,0:0:0:0:
256,192,79650,1,0,0:0:0:0:
256,192,79716,1,0,0:0:0:0:
256,192,79783,1,8,0:0:0:0:
224,224,79849,1,8,0:0:0:0:
256,192,79915,1,0,0:0:0:0:
256,192,80047,1,8,0:0:0:0:
256,192,80113,1,8,0:0:0:0:
256,192,80179,1,8,0:0:0:0:
256,192,80245,1,8,0:0:0:0:
256,192,80312,1,0,0:0:0:0:
256,192,80444,1,8,0:0:0:0:
256,192,80576,1,0,0:0:0:0:
256,192,80708,1,8,0:0:0:0:
256,192,80774,1,8,0:0:0:0:
256,192,80840,1,0,0:0:0:0:
256,192,80973,1,8,0:0:0:0:
256,192,81105,1,0,0:0:0:0:
256,192,81171,1,0,0:0:0:0:
256,192,81237,1,8,0:0:0:0:
256,192,81369,1,8,0:0:0:0:
224,224,81436,1,8,0:0:0:0:
256,192,81502,1,0,0:0:0:0:
256,192,81568,1,0,0:0:0:0:
256,192,81634,1,0,0:0:0:0:
256,192,81700,1,0,0:0:0:0:
256,192,81766,1,8,0:0:0:0:
256,192,82030,1,8,0:0:0:0:
256,192,82162,1,8,0:0:0:0:
256,192,82228,1,8,0:0:0:0:
256,192,82295,1,0,0:0:0:0:
256,192,82361,1,0,0:0:0:0:
256,192,82427,1,8,0:0:0:0:
256,192,82559,1,8,0:0:0:0:
256,192,82625,1,8,0:0:0:0:
256,192,82691,1,0,0:0:0:0:
256,192,82758,1,0,0:0:0:0:
256,192,82824,1,0,0:0:0:0:
256,192,82956,1,8,0:0:0:0:
256,192,83088,1,0,0:0:0:0:
256,192,83154,1,8,0:0:0:0:
256,192,83287,1,0,0:0:0:0:
256,192,83353,1,0,0:0:0:0:
256,192,83485,1,8,0:0:0:0:
256,192,83551,1,8,0:0:0:0:
256,192,83617,1,0,0:0:0:0:
256,192,83750,1,8,0:0:0:0:
256,192,83882,1,8,0:0:0:0:
256,192,83948,1,8,0:0:0:0:
256,192,84080,1,0,0:0:0:0:
256,192,84212,1,8,0:0:0:0:
256,192,84278,1,0,0:0:0:0:
256,192,84411,1,8,0:0:0:0:
256,192,84543,1,0,0:0:0:0:
256,192,84609,1,0,0:0:0:0:
256,192,84675,1,0,0:0:0:0:
256,192,84807,1,8,0:0:0:0:
256,192,84940,1,0,0:0:0:0:
256,192,85006,1,0,0:0:0:0:
256,192,85072,1,8,0:0:0:0:
256,192,85204,1,8,0:0:0:0:
256,192,85337,1,0,0:0:0:0:
256,192,85469,1,8,0:0:0:0:
256,192,85601,1,0,0:0:0:0:
256,192,85733,1,8,0:0:0:0:
256,192,85799,1,8,0:0:0:0:
256,192,85866,1,0,0:0:0:0:
256,192,85932,1,0,0:0:0:0:
256,192,85998,1,8,0:0:0:0:
256,192,86130,1,8,0:0:0:0:
256,192,86196,1,8,0:0:0:0:
256,192,86262,1,0,0:0:0:0:
256,192,86329,1,0,0:0:0:0:
256,192,86395,1,0,0:0:0:0:
256,192,86461,1,8,0:0:0:0:
256,192,86527,1,0,0:0:0:0:
267,192,86658,1,8,0:0:0:0:
256,192,86724,1,8,0:0:0:0:
262,192,86790,1,0,0:0:0:0:
256,192,86922,1,0,0:0:0:0:
267,192,86988,1,8,0:0:0:0:
256,192,87055,1,8,0:0:0:0:
256,192,87121,1,8,0:0:0:0:
256,192,87187,1,0,0:0:0:0:
256,192,87319,1,8,0:0:0:0:
267,192,87385,1,0,0:0:0:0:
267,192,87451,1,8,0:0:0:0:
262,192,87584,1,0,0:0:0:0:
267,191,87716,1,8,0:0:0:0:
267,192,87782,1,0,0:0:0:0:
267,192,87848,1,8,0:0:0:0:
256,192,87914,1,8,0:0:0:0:
256,192,87980,1,0,0:0:0:0:
256,192,88112,1,0,0:0:0:0:
256,192,88244,1,0,0:0:0:0:
262,192,88310,1,0,0:0:0:0:
256,192,88377,1,8,0:0:0:0:
256,192,88509,1,0,0:0:0:0:
256,192,88641,1,8,0:0:0:0:
256,192,88707,1,8,0:0:0:0:
256,192,88773,1,8,0:0:0:0:
256,192,88840,1,8,0:0:0:0:
256,192,88906,1,0,0:0:0:0:
256,192,89038,1,0,0:0:0:0:
256,192,89170,1,8,0:0:0:0:
256,192,89236,1,8,0:0:0:0:
256,192,89303,1,0,0:0:0:0:
256,192,89435,1,8,0:0:0:0:
256,192,89501,1,8,0:0:0:0:
256,192,89567,1,8,0:0:0:0:
256,192,89633,1,8,0:0:0:0:
256,192,89699,1,0,0:0:0:0:
256,192,89832,1,0,0:0:0:0:
256,192,89964,1,0,0:0:0:0:
256,192,90030,1,8,0:0:0:0:
256,192,90096,1,0,0:0:0:0:
256,192,90228,1,0,0:0:0:0:
256,192,90360,1,8,0:0:0:0:
256,192,90426,1,8,0:0:0:0:
256,192,90493,1,0,0:0:0:0:
256,192,90625,1,0,0:0:0:0:
256,192,90691,1,0,0:0:0:0:
256,192,90757,1,8,0:0:0:0:
256,192,90823,1,8,0:0:0:0:
256,192,90889,1,0,0:0:0:0:
256,192,90956,1,8,0:0:0:0:
256,192,91022,1,8,0:0:0:0:
256,192,91088,1,8,0:0:0:0:
256,192,91154,1,0,0:0:0:0:
256,192,91286,1,8,0:0:0:0:
256,192,91550,1,8,0:0:0:0:
256,192,91682,1,8,0:0:0:0:
256,192,91748,1,8,0:0:0:0:
256,192,91815,1,0,0:0:0:0:
256,192,91947,1,0,0:0:0:0:
256,192,92013,1,0,0:0:0:0:
256,192,92079,1,8,0:0:0:0:
256,192,92145,1,8,0:0:0:0:
256,192,92211,1,0,0:0:0:0:
256,192,92344,1,8,0:0:0:0:
256,192,92476,1,0,0:0:0:0:
256,192,92608,1,8,0:0:0:0:
256,192,92674,1,0,0:0:0:0:
256,192,92807,1,8,0:0:0:0:
256,192,92873,1,0,0:0:0:0:
256,192,93005,1,8,0:0:0:0:
256,192,93137,1,0,0:0:0:0:
256,192,93203,1,0,0:0:0:0:
256,192,93270,1,8,0:0:0:0:
256,192,93402,1,0,0:0:0:0:
256,192,93490,1,0,0:0:0:0:
256,192,93578,1,0,0:0:0:0:
256,192,93666,1,8,0:0:0:0:
256,192,93798,1,8,0:0:0:0:
256,192,93931,1,8,0:0:0:0:
256,192,93997,1,8,0:0:0:0:
256,192,94063,1,0,0:0:0:0:
256,192,94195,1,8,0:0:0:0:
256,192,94261,1,8,0:0:0:0:
256,192,94327,1,0,0:0:0:0:
256,192,94394,1,8,0:0:0:0:
256,192,94460,1,0,0:0:0:0:
256,192,94526,1,0,0:0:0:0:
256,192,94592,1,8,0:0:0:0:
256,192,94724,1,8,0:0:0:0:
256,192,94857,1,0,0:0:0:0:
256,192,94923,1,0,0:0:0:0:
256,192,94989,1,8,0:0:0:0:
256,192,95055,1,8,0:0:0:0:
256,192,95121,1,0,0:0:0:0:
256,192,95253,1,8,0:0:0:0:
256,192,95386,1,0,0:0:0:0:
256,192,95452,1,0,0:0:0:0:
256,192,95518,1,8,0:0:0:0:
256,192,95650,1,0,0:0:0:0:
256,192,95782,1,0,0:0:0:0:
256,192,95849,1,0,0:0:0:0:
256,192,95915,1,8,0:0:0:0:
179,105,96047,2,0,L|227:82,16,48.9999985046387
256,192,97502,1,0,0:0:0:0:
256,192,97634,1,0,0:0:0:0:
256,192,97766,1,0,0:0:0:0:
256,192,97898,1,0,0:0:0:0:
256,192,98031,1,0,0:0:0:0:
256,192,98163,1,0,0:0:0:0:
256,192,98295,1,0,0:0:0:0:
256,192,98427,1,8,0:0:0:0:
256,192,98560,1,8,0:0:0:0:
256,192,98692,1,8,0:0:0:0:
256,192,98824,1,8,0:0:0:0:
256,192,98957,1,8,0:0:0:0:
256,192,99089,1,8,0:0:0:0:
256,192,101609,1,12,0:0:0:0:
256,192,101741,1,0,0:0:0:0:
256,192,101807,1,0,0:0:0:0:
256,192,101873,1,8,0:0:0:0:
256,192,101939,1,8,0:0:0:0:
256,192,102005,1,0,0:0:0:0:
256,192,102138,1,8,0:0:0:0:
256,192,102204,1,8,0:0:0:0:
256,192,102270,1,0,0:0:0:0:
256,192,102402,1,0,0:0:0:0:
256,192,102534,1,8,0:0:0:0:
256,192,102601,1,8,0:0:0:0:
256,192,102667,1,0,0:0:0:0:
256,192,102799,1,8,0:0:0:0:
256,192,102931,1,0,0:0:0:0:
256,192,103064,1,0,0:0:0:0:
256,192,103130,1,8,0:0:0:0:
256,192,103196,1,8,0:0:0:0:
256,192,103262,1,8,0:0:0:0:
256,192,103328,1,0,0:0:0:0:
256,192,103460,1,8,0:0:0:0:
256,192,103593,1,0,0:0:0:0:
256,192,103659,1,8,0:0:0:0:
256,192,103725,1,0,0:0:0:0:
256,192,103857,1,8,0:0:0:0:
256,192,103989,1,8,0:0:0:0:
224,224,104056,1,8,0:0:0:0:
256,192,104122,1,0,0:0:0:0:
256,192,104254,1,8,0:0:0:0:
256,192,104386,1,0,0:0:0:0:
224,224,104452,1,0,0:0:0:0:
256,192,104519,1,0,0:0:0:0:
256,192,104651,1,8,0:0:0:0:
256,192,104783,1,0,0:0:0:0:
224,224,104849,1,0,0:0:0:0:
256,192,104915,1,8,0:0:0:0:
256,192,104982,1,0,0:0:0:0:
256,192,105048,1,8,0:0:0:0:
256,192,105180,1,8,0:0:0:0:
256,192,105268,1,8,0:0:0:0:
256,192,105356,1,8,0:0:0:0:
256,192,105444,1,0,0:0:0:0:
256,192,105577,1,8,0:0:0:0:
224,224,105643,1,8,0:0:0:0:
256,192,105709,1,8,0:0:0:0:
224,224,105775,1,8,0:0:0:0:
256,192,105841,1,0,0:0:0:0:
224,224,105974,1,8,0:0:0:0:
256,192,106106,1,0,0:0:0:0:
256,192,106238,1,8,0:0:0:0:
256,192,106304,1,8,0:0:0:0:
256,192,106370,1,8,0:0:0:0:
256,192,106437,1,0,0:0:0:0:
256,192,106503,1,0,0:0:0:0:
256,192,106569,1,0,0:0:0:0:
256,192,106635,1,8,0:0:0:0:
256,192,106767,1,0,0:0:0:0:
256,192,106900,1,8,0:0:0:0:
256,192,106966,1,8,0:0:0:0:
256,192,107032,1,0,0:0:0:0:
256,192,107164,1,8,0:0:0:0:
256,192,107296,1,0,0:0:0:0:
256,192,107362,1,0,0:0:0:0:
256,192,107429,1,8,0:0:0:0:
256,192,107495,1,0,0:0:0:0:
256,192,107561,1,8,0:0:0:0:
256,192,107693,1,8,0:0:0:0:
256,192,107825,1,0,0:0:0:0:
256,192,107892,1,0,0:0:0:0:
256,192,107958,1,0,0:0:0:0:
256,192,108090,1,8,0:0:0:0:
256,192,108156,1,8,0:0:0:0:
256,192,108222,1,0,0:0:0:0:
256,192,108355,1,0,0:0:0:0:
256,192,108487,1,8,0:0:0:0:
256,192,108553,1,8,0:0:0:0:
256,192,108619,1,0,0:0:0:0:
256,192,108685,1,8,0:0:0:0:
256,192,108751,1,0,0:0:0:0:
256,192,108884,1,8,0:0:0:0:
256,192,109016,1,0,0:0:0:0:
256,192,109082,1,8,0:0:0:0:
256,192,109148,1,8,0:0:0:0:
256,192,109214,1,8,0:0:0:0:
256,192,109280,1,0,0:0:0:0:
256,192,109413,1,8,0:0:0:0:
256,192,109479,1,0,0:0:0:0:
256,192,109545,1,8,0:0:0:0:
256,192,109611,1,8,0:0:0:0:
256,192,109677,1,0,0:0:0:0:
256,192,109743,1,0,0:0:0:0:
256,192,109810,1,8,0:0:0:0:
256,192,109942,1,8,0:0:0:0:
256,192,110008,1,8,0:0:0:0:
256,192,110074,1,0,0:0:0:0:
256,192,110206,1,8,0:0:0:0:
256,192,110339,1,0,0:0:0:0:
256,192,110405,1,0,0:0:0:0:
256,192,110471,1,8,0:0:0:0:
256,192,110537,1,0,0:0:0:0:
256,192,110603,1,8,0:0:0:0:
256,192,110735,1,0,0:0:0:0:
256,192,110868,1,8,0:0:0:0:
256,192,110934,1,0,0:0:0:0:
256,192,111000,1,0,0:0:0:0:
256,192,111132,1,8,0:0:0:0:
256,192,111198,1,8,0:0:0:0:
256,192,111265,1,0,0:0:0:0:
256,192,111331,1,0,0:0:0:0:
256,192,111397,1,8,0:0:0:0:
256,192,111529,1,0,0:0:0:0:
256,192,111661,1,0,0:0:0:0:
256,192,111728,1,0,0:0:0:0:
256,192,111794,1,8,0:0:0:0:
256,192,111926,1,0,0:0:0:0:
256,192,112058,1,0,0:0:0:0:
256,192,112124,1,0,0:0:0:0:
256,192,112191,1,8,0:0:0:0:
256,192,112323,1,0,0:0:0:0:
256,192,112455,1,8,0:0:0:0:
256,192,112521,1,8,0:0:0:0:
256,192,112587,1,8,0:0:0:0:
256,192,112720,1,0,0:0:0:0:
256,192,112786,1,8,0:0:0:0:
256,192,112852,1,0,0:0:0:0:
256,192,112984,1,8,0:0:0:0:
256,192,113116,1,0,0:0:0:0:
256,192,113183,1,0,0:0:0:0:
256,192,113249,1,8,0:0:0:0:
256,192,113381,1,0,0:0:0:0:
256,192,113447,1,0,0:0:0:0:
256,192,113513,1,8,0:0:0:0:
256,192,113579,1,8,0:0:0:0:
256,192,113646,1,0,0:0:0:0:
256,192,113734,1,8,0:0:0:0:
256,192,113822,1,0,0:0:0:0:
256,192,113910,1,0,0:0:0:0:
256,192,114042,1,8,0:0:0:0:
256,192,114109,1,8,0:0:0:0:
256,192,114175,1,8,0:0:0:0:
256,192,114241,1,8,0:0:0:0:
224,160,114307,1,0,0:0:0:0:
224,160,114439,1,0,0:0:0:0:
224,160,114571,1,8,0:0:0:0:
224,160,114704,1,0,0:0:0:0:
224,160,114770,1,0,0:0:0:0:
224,160,114836,1,8,0:0:0:0:
224,160,114968,1,0,0:0:0:0:
224,160,115101,1,8,0:0:0:0:
224,160,115233,1,0,0:0:0:0:
224,160,115365,1,8,0:0:0:0:
256,160,115431,1,8,0:0:0:0:
224,160,115497,1,0,0:0:0:0:
224,160,115564,1,0,0:0:0:0:
224,160,115630,1,8,0:0:0:0:
224,160,115762,1,8,0:0:0:0:
224,160,115894,1,0,0:0:0:0:
224,160,116026,1,8,0:0:0:0:
224,160,116159,1,8,0:0:0:0:
224,160,116225,1,0,0:0:0:0:
224,160,116291,1,0,0:0:0:0:
256,192,116357,1,0,0:0:0:0:
224,160,116423,1,8,0:0:0:0:
224,160,116556,1,0,0:0:0:0:
224,160,116688,1,8,0:0:0:0:
224,160,116820,1,0,0:0:0:0:
256,192,116886,1,0,0:0:0:0:
224,160,116952,1,8,0:0:0:0:
224,160,117085,1,8,0:0:0:0:
256,192,117217,1,0,0:0:0:0:
224,160,117349,1,8,0:0:0:0:
256,192,117482,1,0,0:0:0:0:
256,192,117548,1,0,0:0:0:0:
256,192,117614,1,8,0:0:0:0:
256,192,117680,1,8,0:0:0:0:
256,192,117746,1,0,0:0:0:0:
256,192,117878,1,8,0:0:0:0:
224,160,117944,1,8,0:0:0:0:
256,192,118011,1,0,0:0:0:0:
256,192,118077,1,8,0:0:0:0:
256,192,118143,1,0,0:0:0:0:
256,192,118209,1,0,0:0:0:0:
256,192,118275,1,8,0:0:0:0:
224,160,118341,1,8,0:0:0:0:
256,192,118407,1,0,0:0:0:0:
256,192,118540,1,0,0:0:0:0:
256,192,118804,1,0,0:0:0:0:
256,192,118870,1,0,0:0:0:0:
256,192,118937,1,0,0:0:0:0:
256,192,119003,1,0,0:0:0:0:
256,192,119069,1,8,0:0:0:0:
256,192,119201,1,0,0:0:0:0:
256,192,119333,1,8,0:0:0:0:
256,192,119400,1,8,0:0:0:0:
256,192,119466,1,8,0:0:0:0:
256,192,119532,1,8,0:0:0:0:
256,192,119598,1,0,0:0:0:0:
256,192,119730,1,8,0:0:0:0:
256,192,119862,1,0,0:0:0:0:
256,192,119929,1,0,0:0:0:0:
256,192,119995,1,0,0:0:0:0:
256,192,120061,1,0,0:0:0:0:
256,192,120127,1,8,0:0:0:0:
256,192,120259,1,0,0:0:0:0:
256,192,120392,1,8,0:0:0:0:
256,192,120524,1,0,0:0:0:0:
256,192,120656,1,0,0:0:0:0:
256,192,120722,1,0,0:0:0:0:
256,192,120788,1,0,0:0:0:0:
256,192,120855,1,0,0:0:0:0:
256,192,120921,1,8,0:0:0:0:
256,192,121053,1,0,0:0:0:0:
256,192,121185,1,8,0:0:0:0:
256,192,121251,1,8,0:0:0:0:
256,192,121317,1,8,0:0:0:0:
256,192,121384,1,8,0:0:0:0:
256,192,121450,1,0,0:0:0:0:
256,192,121582,1,0,0:0:0:0:
256,192,121714,1,8,0:0:0:0:
256,192,121780,1,8,0:0:0:0:
256,192,121847,1,8,0:0:0:0:
256,192,121913,1,8,0:0:0:0:
256,192,121979,1,0,0:0:0:0:
256,192,122111,1,0,0:0:0:0:
256,192,122243,1,8,0:0:0:0:
256,192,122376,1,0,0:0:0:0:
256,192,122508,1,8,0:0:0:0:
256,192,122574,1,8,0:0:0:0:
256,192,122640,1,8,0:0:0:0:
256,192,122706,1,8,0:0:0:0:
256,192,122773,1,0,0:0:0:0:
256,192,122905,1,8,0:0:0:0:
256,192,123037,1,0,0:0:0:0:
256,192,123103,1,0,0:0:0:0:
256,192,123169,1,0,0:0:0:0:
256,192,123235,1,0,0:0:0:0:
256,192,123302,1,8,0:0:0:0:
256,192,123434,1,8,0:0:0:0:
256,192,123566,1,0,0:0:0:0:
256,192,123632,1,0,0:0:0:0:
256,192,123698,1,0,0:0:0:0:
256,192,123765,1,0,0:0:0:0:
256,192,123831,1,8,0:0:0:0:
256,192,123963,1,0,0:0:0:0:
256,192,124095,1,8,0:0:0:0:
256,192,124228,1,0,0:0:0:0:
256,192,124360,1,8,0:0:0:0:
256,192,124426,1,8,0:0:0:0:
256,192,124492,1,8,0:0:0:0:
256,192,124558,1,8,0:0:0:0:
256,192,124624,1,0,0:0:0:0:
256,192,124757,1,8,0:0:0:0:
256,192,124889,1,0,0:0:0:0:
256,192,124955,1,0,0:0:0:0:
256,192,125021,1,0,0:0:0:0:
256,192,125087,1,0,0:0:0:0:
256,192,125153,1,8,0:0:0:0:
256,192,125286,1,0,0:0:0:0:
256,192,125418,1,8,0:0:0:0:
256,192,125484,1,8,0:0:0:0:
256,192,125550,1,8,0:0:0:0:
256,192,125616,1,8,0:0:0:0:
256,192,125683,1,0,0:0:0:0:
256,192,125815,1,8,0:0:0:0:
256,192,125947,1,0,0:0:0:0:
256,192,126079,1,8,0:0:0:0:
256,192,126212,1,0,0:0:0:0:
256,192,126278,1,0,0:0:0:0:
256,192,126344,1,0,0:0:0:0:
256,192,126410,1,0,0:0:0:0:
256,192,126476,1,8,0:0:0:0:
256,192,126609,1,0,0:0:0:0:
256,192,126741,1,8,0:0:0:0:
256,192,126807,1,8,0:0:0:0:
256,192,126873,1,8,0:0:0:0:
256,192,126939,1,8,0:0:0:0:
256,192,127005,1,0,0:0:0:0:
256,192,127138,1,8,0:0:0:0:
256,192,127270,1,0,0:0:0:0:
256,192,127336,1,0,0:0:0:0:
256,192,127402,1,8,0:0:0:0:
256,192,127468,1,8,0:0:0:0:
256,192,127534,1,0,0:0:0:0:
256,192,127667,1,8,0:0:0:0:
256,192,127799,1,0,0:0:0:0:
256,192,127931,1,0,0:0:0:0:
256,192,128064,1,8,0:0:0:0:
256,192,128130,1,8,0:0:0:0:
256,192,128196,1,8,0:0:0:0:
256,192,128262,1,8,0:0:0:0:
256,192,128328,1,0,0:0:0:0:
256,192,128460,1,8,0:0:0:0:
256,192,128593,1,0,0:0:0:0:
256,192,128659,1,0,0:0:0:0:
256,192,128725,1,8,0:0:0:0:
256,192,128791,1,8,0:0:0:0:
256,192,128857,1,0,0:0:0:0:
256,192,128989,1,0,0:0:0:0:
256,192,129122,1,8,0:0:0:0:
256,192,129188,1,8,0:0:0:0:
256,192,129254,1,0,0:0:0:0:
256,192,129320,1,0,0:0:0:0:
256,192,129386,1,8,0:0:0:0:
256,192,129519,1,8,0:0:0:0:
256,192,129651,1,0,0:0:0:0:
256,192,129783,1,8,0:0:0:0:
256,192,129915,1,0,0:0:0:0:
256,192,129982,1,0,0:0:0:0:
256,192,130048,1,8,0:0:0:0:
256,192,130114,1,8,0:0:0:0:
256,192,130180,1,0,0:0:0:0:
256,192,130312,1,0,0:0:0:0:
256,192,130444,1,8,0:0:0:0:
256,192,130511,1,8,0:0:0:0:
256,192,130577,1,0,0:0:0:0:
256,192,130643,1,0,0:0:0:0:
256,192,130709,1,8,0:0:0:0:
256,192,130841,1,8,0:0:0:0:
256,192,130974,1,0,0:0:0:0:
256,192,131040,1,0,0:0:0:0:
256,192,131106,1,8,0:0:0:0:
256,192,131172,1,8,0:0:0:0:
256,192,131238,1,0,0:0:0:0:
256,192,131370,1,8,0:0:0:0:
256,192,131503,1,8,0:0:0:0:
256,192,131635,1,0,0:0:0:0:
256,192,131767,1,8,0:0:0:0:
256,192,131833,1,8,0:0:0:0:
256,192,131900,1,8,0:0:0:0:
256,192,131966,1,8,0:0:0:0:
256,192,132032,1,0,0:0:0:0:
256,192,132164,1,8,0:0:0:0:
256,192,132296,1,0,0:0:0:0:
256,192,132362,1,0,0:0:0:0:
256,192,132429,1,0,0:0:0:0:
256,192,132495,1,0,0:0:0:0:
256,192,132561,1,8,0:0:0:0:
256,192,132693,1,0,0:0:0:0:
256,192,132825,1,8,0:0:0:0:
256,192,132892,1,8,0:0:0:0:
256,192,132958,1,0,0:0:0:0:
256,192,133024,1,0,0:0:0:0:
256,192,133090,1,8,0:0:0:0:
256,192,133222,1,0,0:0:0:0:
256,192,133355,1,8,0:0:0:0:
256,192,133487,1,8,0:0:0:0:
256,192,133619,1,0,0:0:0:0:
256,192,133685,1,0,0:0:0:0:
256,192,133751,1,0,0:0:0:0:
256,192,133817,1,0,0:0:0:0:
256,192,133884,1,8,0:0:0:0:
256,192,134016,1,0,0:0:0:0:
256,192,134148,1,8,0:0:0:0:
256,192,134214,1,8,0:0:0:0:
256,192,134280,1,0,0:0:0:0:
256,192,134347,1,0,0:0:0:0:
256,192,134413,1,8,0:0:0:0:
256,192,134545,1,8,0:0:0:0:
256,192,134677,1,0,0:0:0:0:
256,192,134743,1,0,0:0:0:0:
256,192,134810,1,8,0:0:0:0:
256,192,134876,1,8,0:0:0:0:
256,192,134942,1,0,0:0:0:0:
256,192,135074,1,8,0:0:0:0:
256,192,135206,1,8,0:0:0:0:
256,192,135339,1,0,0:0:0:0:
256,192,135405,1,0,0:0:0:0:
256,192,135471,1,8,0:0:0:0:
256,192,135537,1,0,0:0:0:0:
256,192,135603,1,0,0:0:0:0:
256,192,135735,1,8,0:0:0:0:
256,192,135868,1,0,0:0:0:0:
256,192,135934,1,8,0:0:0:0:
256,192,136000,1,8,0:0:0:0:
256,192,136066,1,8,0:0:0:0:
256,192,136132,1,0,0:0:0:0:
256,192,136265,1,0,0:0:0:0:
256,192,136529,1,12,0:0:0:0:
256,192,136661,1,0,0:0:0:0:
256,192,136727,1,0,0:0:0:0:
256,192,136793,1,8,0:0:0:0:
256,192,136925,1,8,0:0:0:0:
256,192,137058,1,0,0:0:0:0:
256,192,137124,1,0,0:0:0:0:
256,192,137190,1,8,0:0:0:0:
256,192,137256,1,8,0:0:0:0:
256,192,137322,1,0,0:0:0:0:
256,192,137454,1,0,0:0:0:0:
256,192,137587,1,8,0:0:0:0:
256,192,137719,1,8,0:0:0:0:
256,192,137851,1,0,0:0:0:0:
256,192,137917,1,8,0:0:0:0:
256,192,137984,1,8,0:0:0:0:
256,192,138050,1,8,0:0:0:0:
256,192,138116,1,0,0:0:0:0:
256,192,138248,1,0,0:0:0:0:
256,192,138380,1,8,0:0:0:0:
256,192,138513,1,8,0:0:0:0:
256,192,138645,1,8,0:0:0:0:
256,192,138777,1,0,0:0:0:0:
256,192,138843,1,0,0:0:0:0:
256,192,138909,1,8,0:0:0:0:
256,192,139042,1,0,0:0:0:0:
256,192,139174,1,8,0:0:0:0:
256,192,139306,1,0,0:0:0:0:
256,192,139372,1,0,0:0:0:0:
256,192,139439,1,8,0:0:0:0:
256,192,139505,1,0,0:0:0:0:
256,192,139571,1,0,0:0:0:0:
256,192,139703,1,8,0:0:0:0:
256,192,139835,1,0,0:0:0:0:
256,192,139968,1,8,0:0:0:0:
256,192,140034,1,8,0:0:0:0:
256,192,140100,1,0,0:0:0:0:
256,192,140232,1,8,0:0:0:0:
256,192,140364,1,0,0:0:0:0:
256,192,140497,1,8,0:0:0:0:
256,192,140563,1,8,0:0:0:0:
256,192,140629,1,0,0:0:0:0:
256,192,140761,1,8,0:0:0:0:
256,192,140894,1,0,0:0:0:0:
256,192,140960,1,0,0:0:0:0:
256,192,141026,1,8,0:0:0:0:
256,192,141092,1,8,0:0:0:0:
256,192,141158,1,0,0:0:0:0:
256,192,141290,1,8,0:0:0:0:
256,192,141423,1,8,0:0:0:0:
256,192,141555,1,0,0:0:0:0:
256,192,141687,1,0,0:0:0:0:
256,192,141820,1,8,0:0:0:0:
256,192,141886,1,8,0:0:0:0:
256,192,141952,1,0,0:0:0:0:
256,192,142018,1,0,0:0:0:0:
256,192,142084,1,8,0:0:0:0:
256,192,142216,1,0,0:0:0:0:
256,192,142282,1,8,0:0:0:0:
256,192,142349,1,8,0:0:0:0:
256,192,142481,1,0,0:0:0:0:
256,192,142613,1,8,0:0:0:0:
256,192,142679,1,8,0:0:0:0:
256,192,142745,1,0,0:0:0:0:
256,192,142878,1,8,0:0:0:0:
256,192,143010,1,8,0:0:0:0:
256,192,143076,1,0,0:0:0:0:
256,192,143142,1,8,0:0:0:0:
256,192,143275,1,0,0:0:0:0:
256,192,143407,1,8,0:0:0:0:
256,192,143473,1,8,0:0:0:0:
256,192,143539,1,8,0:0:0:0:
256,192,143671,1,0,0:0:0:0:
256,192,143804,1,0,0:0:0:0:
256,192,143936,1,8,0:0:0:0:
256,192,144068,1,0,0:0:0:0:
256,192,144134,1,0,0:0:0:0:
256,192,144200,1,8,0:0:0:0:
256,192,144267,1,8,0:0:0:0:
256,192,144333,1,8,0:0:0:0:
256,192,144465,1,0,0:0:0:0:
256,192,144597,1,0,0:0:0:0:
256,192,144730,1,8,0:0:0:0:
256,192,144862,1,0,0:0:0:0:
256,192,144994,1,8,0:0:0:0:
256,192,145060,1,8,0:0:0:0:
256,192,145126,1,0,0:0:0:0:
256,192,145193,1,0,0:0:0:0:
256,192,145259,1,8,0:0:0:0:
256,192,145391,1,0,0:0:0:0:
256,192,145523,1,8,0:0:0:0:
256,192,145589,1,8,0:0:0:0:
256,192,145655,1,8,0:0:0:0:
256,192,145722,1,8,0:0:0:0:
256,192,145788,1,0,0:0:0:0:
256,192,145920,1,0,0:0:0:0:
256,192,146052,1,8,0:0:0:0:
256,192,146185,1,0,0:0:0:0:
256,192,146251,1,0,0:0:0:0:
256,192,146317,1,8,0:0:0:0:
256,192,146449,1,0,0:0:0:0:
256,192,146581,1,8,0:0:0:0:
256,192,146714,1,8,0:0:0:0:
256,192,146780,1,8,0:0:0:0:
256,192,146846,1,0,0:0:0:0:
256,192,146978,1,0,0:0:0:0:
256,192,147111,1,0,0:0:0:0:
256,192,147243,1,8,0:0:0:0:
256,192,147375,1,0,0:0:0:0:
256,192,147441,1,0,0:0:0:0:
256,192,147507,1,0,0:0:0:0:
256,192,147640,1,8,0:0:0:0:
256,192,147772,1,0,0:0:0:0:
256,192,147904,1,8,0:0:0:0:
256,192,148036,1,0,0:0:0:0:
256,192,148169,1,0,0:0:0:0:
256,192,148301,1,8,0:0:0:0:
256,192,148367,1,8,0:0:0:0:
256,192,148433,1,0,0:0:0:0:
256,192,148566,1,0,0:0:0:0:
256,192,148632,1,0,0:0:0:0:
256,192,148698,1,8,0:0:0:0:
256,192,148764,1,8,0:0:0:0:
256,192,148830,1,0,0:0:0:0:
256,192,148962,1,8,0:0:0:0:
256,192,149490,1,8,0:0:0:0:
256,192,149754,1,0,0:0:0:0:
256,192,149887,1,8,0:0:0:0:
256,192,150352,1,0,0:0:0:0:
256,192,150632,1,8,0:0:0:0:
256,192,151004,1,8,0:0:0:0:
256,192,151388,1,8,0:0:0:0:
256,192,151934,1,0,0:0:0:0:
256,192,152396,1,8,0:0:0:0:
256,192,153507,1,8,0:0:0:0:
256,192,153683,8,0,155977,0:0:0:0:
