osu file format v14

[General]
AudioFilename: audio.ogg
AudioLeadIn: 0
PreviewTime: 44774
Countdown: 0
SampleSet: Soft
StackLeniency: 0.7
Mode: 3
LetterboxInBreaks: 0
SpecialStyle: 0
WidescreenStoryboard: 1

[Editor]
DistanceSpacing: 0.8
BeatDivisor: 16
GridSize: 16
TimelineZoom: 0.1

[Metadata]
Title:My Capacitance (Cut Ver.)
TitleUnicode:My Capacitance (Cut Ver.)
Artist:Frums
ArtistUnicode:Frums
Creator:Flade
Version:Hidden's HARD
Source:
Tags:electronic instrumental short version vignette hidden is fun hidden_is_fun dendro_ digital fusion rumble in the prairie 12 windeu hates you elastance
BeatmapID:4500284
BeatmapSetID:1930030

[Difficulty]
HPDrainRate:7
CircleSize:4
OverallDifficulty:7
ApproachRate:5
SliderMultiplier:1.6
SliderTickRate:1

[Events]
//Background and Video events
0,0,"lol_dead_world.jpg",0,0
//Break Periods
//Storyboard Layer 0 (Background)
//Storyboard Layer 1 (Fail)
//Storyboard Layer 2 (Pass)
//Storyboard Layer 3 (Foreground)
//Storyboard Layer 4 (Overlay)
//Storyboard Sound Samples

[TimingPoints]
29,338.983050847458,4,2,1,30,1,0

[HitObjects]
448,192,198,5,0,0:0:0:0:
192,192,452,1,0,0:0:0:0:
448,192,706,1,0,0:0:0:0:
64,192,932,1,0,0:0:0:0:
192,192,1045,1,0,0:0:0:0:
320,192,1045,1,0,0:0:0:0:
320,192,1384,128,0,1554:0:0:0:0:
64,192,1554,128,0,1723:0:0:0:0:
448,192,1723,128,0,2062:0:0:0:0:
192,192,2062,128,0,2571:0:0:0:0:
320,192,2571,128,0,2825:0:0:0:0:
448,192,2825,128,0,3079:0:0:0:0:
64,192,3079,128,0,3334:0:0:0:0:
320,192,3334,128,0,3588:0:0:0:0:
192,192,3588,128,0,3842:0:0:0:0:
64,192,3842,128,0,4096:0:0:0:0:
448,192,4096,128,0,4351:0:0:0:0:
320,192,4351,128,0,4605:0:0:0:0:
192,192,4605,128,0,4859:0:0:0:0:
448,192,4859,128,0,5113:0:0:0:0:
320,192,5283,1,0,0:0:0:0:
64,192,5537,128,0,5791:0:0:0:0:
448,192,5791,1,0,0:0:0:0:
192,192,5961,1,0,0:0:0:0:
64,192,6300,128,0,6639:0:0:0:0:
320,192,6639,1,0,0:0:0:0:
448,192,6808,128,0,6978:0:0:0:0:
192,192,6978,128,0,7147:0:0:0:0:
320,192,7147,128,0,7317:0:0:0:0:
64,192,7317,128,0,7486:0:0:0:0:
448,192,7486,128,0,7740:0:0:0:0:
192,192,7740,128,0,7995:0:0:0:0:
320,192,7995,128,0,8334:0:0:0:0:
64,192,8334,128,0,8673:0:0:0:0:
448,192,8673,128,0,9012:0:0:0:0:
320,192,9012,128,0,9351:0:0:0:0:
64,192,9351,128,0,9859:0:0:0:0:
448,192,9520,1,0,0:0:0:0:
320,192,9859,1,0,0:0:0:0:
192,192,10198,1,0,0:0:0:0:
448,192,10367,128,0,10537:0:0:0:0:
320,192,10537,128,0,10706:0:0:0:0:
64,192,10706,1,0,0:0:0:0:
448,192,10876,1,0,0:0:0:0:
192,192,10961,1,0,0:0:0:0:
448,192,11215,1,0,0:0:0:0:
64,192,11469,1,0,0:0:0:0:
320,192,11808,1,0,0:0:0:0:
448,192,12062,1,0,0:0:0:0:
64,192,12232,1,0,0:0:0:0:
320,192,12232,1,0,0:0:0:0:
192,192,12401,1,0,0:0:0:0:
64,192,12571,1,0,0:0:0:0:
448,192,12571,1,0,0:0:0:0:
320,192,12910,1,0,0:0:0:0:
448,192,12910,1,0,0:0:0:0:
448,192,13249,1,0,0:0:0:0:
192,192,13249,1,0,0:0:0:0:
320,192,13418,1,0,0:0:0:0:
64,192,13418,1,0,0:0:0:0:
448,192,13588,128,0,13927:0:0:0:0:
192,192,13588,1,0,0:0:0:0:
320,192,13927,1,0,0:0:0:0:
64,192,13927,128,0,14181:0:0:0:0:
192,192,14181,128,0,14435:0:0:0:0:
448,192,14435,128,0,14605:0:0:0:0:
64,192,14605,1,0,0:0:0:0:
192,192,14605,1,0,0:0:0:0:
320,192,14774,1,0,0:0:0:0:
448,192,14774,1,0,0:0:0:0:
64,192,14944,1,0,0:0:0:0:
448,192,14944,1,0,0:0:0:0:
64,192,15113,1,0,0:0:0:0:
192,192,15283,1,0,0:0:0:0:
448,192,15283,1,0,0:0:0:0:
448,192,15452,1,0,0:0:0:0:
64,192,15622,1,0,0:0:0:0:
320,192,15622,1,0,0:0:0:0:
192,192,15735,1,0,0:0:0:0:
448,192,15848,1,0,0:0:0:0:
192,192,15961,1,0,0:0:0:0:
64,192,15961,1,0,0:0:0:0:
320,192,16130,1,0,0:0:0:0:
448,192,16130,1,0,0:0:0:0:
64,192,16300,1,0,0:0:0:0:
448,192,16300,1,0,0:0:0:0:
192,192,16639,1,0,0:0:0:0:
448,192,16639,1,0,0:0:0:0:
320,192,16808,1,0,0:0:0:0:
64,192,16978,1,0,0:0:0:0:
448,192,16978,1,0,0:0:0:0:
64,192,17147,1,0,0:0:0:0:
320,192,17317,1,0,0:0:0:0:
448,192,17317,1,0,0:0:0:0:
192,192,17430,1,0,0:0:0:0:
64,192,17543,1,0,0:0:0:0:
320,192,17656,1,0,0:0:0:0:
448,192,17656,1,0,0:0:0:0:
448,192,17825,1,0,0:0:0:0:
64,192,17995,1,0,0:0:0:0:
192,192,17995,1,0,0:0:0:0:
64,192,18164,1,0,0:0:0:0:
192,192,18334,1,0,0:0:0:0:
448,192,18334,1,0,0:0:0:0:
320,192,18503,1,0,0:0:0:0:
192,192,18588,1,0,0:0:0:0:
64,192,18673,1,0,0:0:0:0:
192,192,18842,1,0,0:0:0:0:
320,192,18927,1,0,0:0:0:0:
448,192,19012,1,0,0:0:0:0:
192,192,19181,1,0,0:0:0:0:
64,192,19351,1,0,0:0:0:0:
448,192,19351,1,0,0:0:0:0:
320,192,19520,1,0,0:0:0:0:
192,192,19605,1,0,0:0:0:0:
64,192,19690,1,0,0:0:0:0:
320,192,19859,1,0,0:0:0:0:
192,192,20029,1,0,0:0:0:0:
64,192,20029,1,0,0:0:0:0:
448,192,20198,1,0,0:0:0:0:
320,192,20198,1,0,0:0:0:0:
64,192,20367,1,0,0:0:0:0:
448,192,20367,1,0,0:0:0:0:
192,192,20537,1,0,0:0:0:0:
320,192,20537,1,0,0:0:0:0:
448,192,20706,128,0,20876:0:0:0:0:
64,192,20876,1,0,0:0:0:0:
320,192,20961,128,0,21130:0:0:0:0:
192,192,21130,1,0,0:0:0:0:
448,192,21257,1,0,0:0:0:0:
64,192,21384,128,0,21723:0:0:0:0:
320,192,21384,1,0,0:0:0:0:
192,192,21723,1,0,0:0:0:0:
320,192,21836,1,0,0:0:0:0:
448,192,21949,1,0,0:0:0:0:
192,192,22062,1,0,0:0:0:0:
320,192,22175,1,0,0:0:0:0:
64,192,22288,1,0,0:0:0:0:
448,192,22401,1,0,0:0:0:0:
320,192,22514,1,0,0:0:0:0:
192,192,22627,1,0,0:0:0:0:
64,192,22740,128,0,23079:0:0:0:0:
448,192,22740,128,0,23079:0:0:0:0:
192,192,23079,1,0,0:0:0:0:
320,192,23079,1,0,0:0:0:0:
320,192,23334,1,0,0:0:0:0:
448,192,23334,1,0,0:0:0:0:
64,192,23503,1,0,0:0:0:0:
192,192,23588,1,0,0:0:0:0:
320,192,23588,1,0,0:0:0:0:
320,192,23842,1,0,0:0:0:0:
448,192,23842,1,0,0:0:0:0:
192,192,24012,1,0,0:0:0:0:
64,192,24096,1,0,0:0:0:0:
448,192,24096,1,0,0:0:0:0:
64,192,24351,1,0,0:0:0:0:
192,192,24351,1,0,0:0:0:0:
448,192,24520,1,0,0:0:0:0:
320,192,24605,1,0,0:0:0:0:
192,192,24605,1,0,0:0:0:0:
64,192,24859,1,0,0:0:0:0:
448,192,24859,1,0,0:0:0:0:
192,192,25029,1,0,0:0:0:0:
320,192,25113,1,0,0:0:0:0:
448,192,25113,1,0,0:0:0:0:
64,192,25367,128,0,25537:0:0:0:0:
320,192,25537,1,0,0:0:0:0:
448,192,25622,1,0,0:0:0:0:
192,192,25622,1,0,0:0:0:0:
64,192,25791,1,0,0:0:0:0:
320,192,25791,1,0,0:0:0:0:
192,192,26045,1,0,0:0:0:0:
64,192,26045,1,0,0:0:0:0:
448,192,26215,1,0,0:0:0:0:
192,192,26300,1,0,0:0:0:0:
320,192,26300,1,0,0:0:0:0:
192,192,26554,1,0,0:0:0:0:
64,192,26554,1,0,0:0:0:0:
320,192,26723,1,0,0:0:0:0:
64,192,26808,1,0,0:0:0:0:
448,192,26808,1,0,0:0:0:0:
320,192,27062,1,0,0:0:0:0:
448,192,27062,1,0,0:0:0:0:
64,192,27232,1,0,0:0:0:0:
192,192,27317,1,0,0:0:0:0:
320,192,27317,1,0,0:0:0:0:
64,192,27571,1,0,0:0:0:0:
448,192,27571,1,0,0:0:0:0:
320,192,27740,1,0,0:0:0:0:
64,192,27825,1,0,0:0:0:0:
192,192,27825,1,0,0:0:0:0:
448,192,27995,128,0,28164:0:0:0:0:
64,192,28164,1,0,0:0:0:0:
320,192,28164,1,0,0:0:0:0:
192,192,28334,1,0,0:0:0:0:
448,192,28334,1,0,0:0:0:0:
192,192,28503,1,0,0:0:0:0:
320,192,28503,1,0,0:0:0:0:
448,192,28757,1,0,0:0:0:0:
320,192,28757,1,0,0:0:0:0:
64,192,28927,1,0,0:0:0:0:
192,192,29012,1,0,0:0:0:0:
320,192,29012,1,0,0:0:0:0:
448,192,29266,1,0,0:0:0:0:
320,192,29266,1,0,0:0:0:0:
192,192,29435,1,0,0:0:0:0:
64,192,29520,1,0,0:0:0:0:
448,192,29520,1,0,0:0:0:0:
64,192,29774,1,0,0:0:0:0:
192,192,29774,1,0,0:0:0:0:
448,192,29944,1,0,0:0:0:0:
192,192,30029,1,0,0:0:0:0:
320,192,30029,1,0,0:0:0:0:
448,192,30283,1,0,0:0:0:0:
64,192,30283,1,0,0:0:0:0:
320,192,30452,1,0,0:0:0:0:
192,192,30537,1,0,0:0:0:0:
64,192,30537,1,0,0:0:0:0:
448,192,30706,128,0,30876:0:0:0:0:
192,192,30706,1,0,0:0:0:0:
64,192,30876,1,0,0:0:0:0:
320,192,30876,1,0,0:0:0:0:
192,192,31045,1,0,0:0:0:0:
448,192,31045,1,0,0:0:0:0:
320,192,31215,1,0,0:0:0:0:
192,192,31215,1,0,0:0:0:0:
64,192,31384,128,0,31893:0:0:0:0:
320,192,31893,1,0,0:0:0:0:
448,192,31893,1,0,0:0:0:0:
192,192,32006,1,0,0:0:0:0:
448,192,32119,1,0,0:0:0:0:
320,192,32274,1,0,0:0:0:0:
64,192,32401,128,0,32571:0:0:0:0:
192,192,32401,1,0,0:0:0:0:
448,192,32571,128,0,32740:0:0:0:0:
320,192,32740,128,0,32910:0:0:0:0:
64,192,32910,128,0,33079:0:0:0:0:
192,192,33079,128,0,33277:0:0:0:0:
448,192,33277,1,0,0:0:0:0:
320,192,33277,128,0,33503:0:0:0:0:
64,192,33503,1,0,0:0:0:0:
192,192,33503,128,0,33701:0:0:0:0:
448,192,33701,128,0,33870:0:0:0:0:
320,192,33701,1,0,0:0:0:0:
320,192,34096,1,0,0:0:0:0:
192,192,34181,1,0,0:0:0:0:
64,192,34181,1,0,0:0:0:0:
448,192,34351,1,0,0:0:0:0:
320,192,34435,1,0,0:0:0:0:
192,192,34435,1,0,0:0:0:0:
192,192,34690,1,0,0:0:0:0:
64,192,34690,1,0,0:0:0:0:
320,192,34859,1,0,0:0:0:0:
448,192,34944,1,0,0:0:0:0:
64,192,34944,1,0,0:0:0:0:
448,192,35198,1,0,0:0:0:0:
320,192,35198,1,0,0:0:0:0:
64,192,35367,1,0,0:0:0:0:
192,192,35452,1,0,0:0:0:0:
320,192,35452,1,0,0:0:0:0:
448,192,35706,1,0,0:0:0:0:
64,192,35706,1,0,0:0:0:0:
320,192,35876,1,0,0:0:0:0:
192,192,35961,1,0,0:0:0:0:
64,192,35961,1,0,0:0:0:0:
448,192,36215,128,0,36384:0:0:0:0:
320,192,36215,1,0,0:0:0:0:
192,192,36384,1,0,0:0:0:0:
64,192,36469,1,0,0:0:0:0:
320,192,36469,1,0,0:0:0:0:
448,192,36639,1,0,0:0:0:0:
192,192,36639,1,0,0:0:0:0:
320,192,36893,1,0,0:0:0:0:
448,192,36893,1,0,0:0:0:0:
64,192,37062,1,0,0:0:0:0:
320,192,37147,1,0,0:0:0:0:
192,192,37147,1,0,0:0:0:0:
320,192,37401,1,0,0:0:0:0:
448,192,37401,1,0,0:0:0:0:
192,192,37571,1,0,0:0:0:0:
448,192,37656,1,0,0:0:0:0:
64,192,37656,1,0,0:0:0:0:
192,192,37910,1,0,0:0:0:0:
64,192,37910,1,0,0:0:0:0:
448,192,38079,1,0,0:0:0:0:
320,192,38164,1,0,0:0:0:0:
192,192,38164,1,0,0:0:0:0:
448,192,38418,1,0,0:0:0:0:
64,192,38418,1,0,0:0:0:0:
192,192,38588,1,0,0:0:0:0:
448,192,38673,1,0,0:0:0:0:
320,192,38673,1,0,0:0:0:0:
64,192,38842,128,0,39012:0:0:0:0:
448,192,39012,1,0,0:0:0:0:
192,192,39012,1,0,0:0:0:0:
320,192,39181,1,0,0:0:0:0:
64,192,39181,1,0,0:0:0:0:
320,192,39520,1,0,0:0:0:0:
64,192,39605,1,0,0:0:0:0:
192,192,39605,1,0,0:0:0:0:
448,192,39774,1,0,0:0:0:0:
320,192,39859,1,0,0:0:0:0:
192,192,39859,1,0,0:0:0:0:
64,192,40113,1,0,0:0:0:0:
192,192,40113,1,0,0:0:0:0:
320,192,40283,1,0,0:0:0:0:
448,192,40367,1,0,0:0:0:0:
64,192,40367,1,0,0:0:0:0:
448,192,40622,1,0,0:0:0:0:
320,192,40622,1,0,0:0:0:0:
64,192,40791,1,0,0:0:0:0:
320,192,40876,1,0,0:0:0:0:
192,192,40876,1,0,0:0:0:0:
64,192,41130,1,0,0:0:0:0:
448,192,41130,1,0,0:0:0:0:
192,192,41300,1,0,0:0:0:0:
320,192,41384,1,0,0:0:0:0:
448,192,41384,1,0,0:0:0:0:
64,192,41554,128,0,41723:0:0:0:0:
320,192,41554,1,0,0:0:0:0:
448,192,41723,1,0,0:0:0:0:
192,192,41723,1,0,0:0:0:0:
320,192,41893,1,0,0:0:0:0:
64,192,41893,1,0,0:0:0:0:
64,192,42062,1,0,0:0:0:0:
448,192,42062,128,0,42232:0:0:0:0:
320,192,42232,128,0,42401:0:0:0:0:
64,192,42401,128,0,42571:0:0:0:0:
192,192,42571,128,0,42740:0:0:0:0:
448,192,42740,128,0,42910:0:0:0:0:
320,192,42910,128,0,43079:0:0:0:0:
192,192,43079,128,0,43249:0:0:0:0:
64,192,43249,128,0,43418:0:0:0:0:
320,192,43418,1,0,0:0:0:0:
448,192,43418,128,0,43588:0:0:0:0:
192,192,43588,128,0,43757:0:0:0:0:
320,192,43757,128,0,43927:0:0:0:0:
448,192,43927,128,0,44096:0:0:0:0:
64,192,43927,1,0,0:0:0:0:
192,192,44096,128,0,44266:0:0:0:0:
448,192,44266,1,0,0:0:0:0:
320,192,44266,1,0,0:0:0:0:
64,192,44435,1,0,0:0:0:0:
192,192,44435,1,0,0:0:0:0:
320,192,44605,1,0,0:0:0:0:
448,192,44605,1,0,0:0:0:0:
64,192,44774,1,0,0:0:0:0:
448,192,44774,1,0,0:0:0:0:
320,192,45029,1,0,0:0:0:0:
64,192,45113,1,0,0:0:0:0:
448,192,45283,1,0,0:0:0:0:
192,192,45452,1,0,0:0:0:0:
448,192,45537,1,0,0:0:0:0:
320,192,45537,1,0,0:0:0:0:
64,192,45706,1,0,0:0:0:0:
320,192,45791,1,0,0:0:0:0:
192,192,45791,1,0,0:0:0:0:
320,192,46045,1,0,0:0:0:0:
448,192,46045,1,0,0:0:0:0:
192,192,46130,1,0,0:0:0:0:
320,192,46300,1,0,0:0:0:0:
64,192,46469,1,0,0:0:0:0:
448,192,46554,1,0,0:0:0:0:
320,192,46723,1,0,0:0:0:0:
64,192,46808,1,0,0:0:0:0:
192,192,46808,1,0,0:0:0:0:
448,192,47062,1,0,0:0:0:0:
320,192,47147,1,0,0:0:0:0:
192,192,47147,1,0,0:0:0:0:
64,192,47317,1,0,0:0:0:0:
320,192,47317,1,0,0:0:0:0:
64,192,47486,1,0,0:0:0:0:
448,192,47486,1,0,0:0:0:0:
448,192,47740,1,0,0:0:0:0:
64,192,47825,1,0,0:0:0:0:
192,192,47825,1,0,0:0:0:0:
320,192,47995,1,0,0:0:0:0:
192,192,48164,1,0,0:0:0:0:
448,192,48249,1,0,0:0:0:0:
320,192,48249,1,0,0:0:0:0:
64,192,48418,1,0,0:0:0:0:
320,192,48503,1,0,0:0:0:0:
192,192,48503,1,0,0:0:0:0:
320,192,48757,1,0,0:0:0:0:
448,192,48757,1,0,0:0:0:0:
192,192,48842,1,0,0:0:0:0:
320,192,49012,1,0,0:0:0:0:
64,192,49181,1,0,0:0:0:0:
448,192,49266,1,0,0:0:0:0:
320,192,49435,1,0,0:0:0:0:
64,192,49520,1,0,0:0:0:0:
192,192,49520,1,0,0:0:0:0:
320,192,49774,1,0,0:0:0:0:
448,192,49859,1,0,0:0:0:0:
64,192,49859,1,0,0:0:0:0:
64,192,50029,1,0,0:0:0:0:
448,192,50029,1,0,0:0:0:0:
192,192,50198,1,0,0:0:0:0:
320,192,50198,1,0,0:0:0:0:
448,192,50452,1,0,0:0:0:0:
64,192,50537,1,0,0:0:0:0:
320,192,50706,1,0,0:0:0:0:
192,192,50876,1,0,0:0:0:0:
320,192,50961,1,0,0:0:0:0:
448,192,50961,1,0,0:0:0:0:
64,192,51130,1,0,0:0:0:0:
448,192,51215,1,0,0:0:0:0:
192,192,51215,1,0,0:0:0:0:
320,192,51469,1,0,0:0:0:0:
448,192,51469,1,0,0:0:0:0:
192,192,51554,1,0,0:0:0:0:
448,192,51723,1,0,0:0:0:0:
192,192,51893,1,0,0:0:0:0:
320,192,51978,1,0,0:0:0:0:
64,192,52147,1,0,0:0:0:0:
320,192,52232,1,0,0:0:0:0:
192,192,52232,1,0,0:0:0:0:
64,192,52401,1,0,0:0:0:0:
448,192,52401,1,0,0:0:0:0:
64,192,52571,1,0,0:0:0:0:
192,192,52571,1,0,0:0:0:0:
448,192,52740,1,0,0:0:0:0:
320,192,52740,1,0,0:0:0:0:
64,192,52910,1,0,0:0:0:0:
320,192,52910,1,0,0:0:0:0:
448,192,53164,1,0,0:0:0:0:
64,192,53249,1,0,0:0:0:0:
320,192,53418,1,0,0:0:0:0:
192,192,53588,1,0,0:0:0:0:
448,192,53673,1,0,0:0:0:0:
320,192,53673,1,0,0:0:0:0:
64,192,53842,1,0,0:0:0:0:
320,192,53927,1,0,0:0:0:0:
192,192,53927,1,0,0:0:0:0:
320,192,54181,1,0,0:0:0:0:
448,192,54181,1,0,0:0:0:0:
192,192,54266,1,0,0:0:0:0:
448,192,54435,1,0,0:0:0:0:
64,192,54605,1,0,0:0:0:0:
192,192,54605,1,0,0:0:0:0:
448,192,54690,1,0,0:0:0:0:
320,192,54859,1,0,0:0:0:0:
192,192,54944,1,0,0:0:0:0:
64,192,54944,128,0,55113:0:0:0:0:
320,192,55113,1,0,0:0:0:0:
448,192,55113,1,0,0:0:0:0:
448,192,55283,1,0,0:0:0:0:
64,192,55283,1,0,0:0:0:0:
192,192,55452,1,0,0:0:0:0:
448,192,55622,128,0,55791:0:0:0:0:
64,192,55876,1,0,0:0:0:0:
320,192,55961,1,0,0:0:0:0:
192,192,56130,1,0,0:0:0:0:
320,192,56300,1,0,0:0:0:0:
64,192,56384,1,0,0:0:0:0:
192,192,56384,1,0,0:0:0:0:
448,192,56554,1,0,0:0:0:0:
192,192,56639,1,0,0:0:0:0:
320,192,56639,1,0,0:0:0:0:
192,192,56893,1,0,0:0:0:0:
64,192,56893,1,0,0:0:0:0:
320,192,56978,1,0,0:0:0:0:
192,192,57147,1,0,0:0:0:0:
448,192,57317,1,0,0:0:0:0:
64,192,57401,1,0,0:0:0:0:
320,192,57401,1,0,0:0:0:0:
192,192,57571,1,0,0:0:0:0:
448,192,57656,1,0,0:0:0:0:
320,192,57656,1,0,0:0:0:0:
320,192,57910,1,0,0:0:0:0:
192,192,57995,1,0,0:0:0:0:
64,192,57995,1,0,0:0:0:0:
448,192,58164,1,0,0:0:0:0:
64,192,58164,1,0,0:0:0:0:
448,192,58334,1,0,0:0:0:0:
192,192,58334,1,0,0:0:0:0:
64,192,58588,1,0,0:0:0:0:
448,192,58673,1,0,0:0:0:0:
192,192,58842,1,0,0:0:0:0:
320,192,59012,1,0,0:0:0:0:
64,192,59096,1,0,0:0:0:0:
192,192,59096,1,0,0:0:0:0:
448,192,59266,1,0,0:0:0:0:
192,192,59351,1,0,0:0:0:0:
320,192,59351,1,0,0:0:0:0:
192,192,59605,1,0,0:0:0:0:
64,192,59605,1,0,0:0:0:0:
320,192,59690,1,0,0:0:0:0:
192,192,59859,1,0,0:0:0:0:
448,192,60029,1,0,0:0:0:0:
64,192,60113,1,0,0:0:0:0:
192,192,60283,1,0,0:0:0:0:
448,192,60367,1,0,0:0:0:0:
320,192,60367,1,0,0:0:0:0:
192,192,60622,1,0,0:0:0:0:
64,192,60706,1,0,0:0:0:0:
448,192,60706,1,0,0:0:0:0:
448,192,60876,1,0,0:0:0:0:
64,192,60876,1,0,0:0:0:0:
320,192,61045,1,0,0:0:0:0:
192,192,61045,1,0,0:0:0:0:
448,192,61215,1,0,0:0:0:0:
64,192,61300,1,0,0:0:0:0:
192,192,61554,1,0,0:0:0:0:
448,192,61554,1,0,0:0:0:0:
320,192,61723,1,0,0:0:0:0:
64,192,61808,1,0,0:0:0:0:
192,192,61808,1,0,0:0:0:0:
448,192,61978,1,0,0:0:0:0:
192,192,62062,1,0,0:0:0:0:
320,192,62062,1,0,0:0:0:0:
192,192,62317,1,0,0:0:0:0:
64,192,62317,1,0,0:0:0:0:
320,192,62401,1,0,0:0:0:0:
64,192,62571,1,0,0:0:0:0:
320,192,62740,1,0,0:0:0:0:
192,192,62825,1,0,0:0:0:0:
448,192,62995,1,0,0:0:0:0:
192,192,63079,1,0,0:0:0:0:
320,192,63079,1,0,0:0:0:0:
320,192,63249,1,0,0:0:0:0:
192,192,63249,1,0,0:0:0:0:
448,192,63418,1,0,0:0:0:0:
320,192,63418,1,0,0:0:0:0:
64,192,63588,1,0,0:0:0:0:
192,192,63588,1,0,0:0:0:0:
448,192,63757,1,0,0:0:0:0:
192,192,63757,128,0,64096:0:0:0:0:
448,192,64096,128,0,64690:0:0:0:0:
64,192,64690,128,0,65113:0:0:0:0:
320,192,65113,128,0,65452:0:0:0:0:
64,192,65452,128,0,65622:0:0:0:0:
448,192,65622,128,0,65791:0:0:0:0:
192,192,65791,128,0,67147:0:0:0:0:
320,192,67317,1,0,0:0:0:0:
64,192,67486,1,0,0:0:0:0:
320,192,67656,1,0,0:0:0:0:
64,192,67825,1,0,0:0:0:0:
448,192,67825,1,0,0:0:0:0:
320,192,68079,1,0,0:0:0:0:
192,192,68164,1,0,0:0:0:0:
64,192,68164,1,0,0:0:0:0:
448,192,68334,1,0,0:0:0:0:
320,192,68334,1,0,0:0:0:0:
64,192,68503,1,0,0:0:0:0:
192,192,68588,1,0,0:0:0:0:
448,192,68757,1,0,0:0:0:0:
192,192,68842,1,0,0:0:0:0:
320,192,68842,1,0,0:0:0:0:
64,192,69012,1,0,0:0:0:0:
448,192,69012,1,0,0:0:0:0:
192,192,69181,1,0,0:0:0:0:
320,192,69266,1,0,0:0:0:0:
64,192,69435,1,0,0:0:0:0:
192,192,69520,1,0,0:0:0:0:
448,192,69520,1,0,0:0:0:0:
448,192,69690,1,0,0:0:0:0:
64,192,69859,1,0,0:0:0:0:
320,192,69859,1,0,0:0:0:0:
64,192,70029,1,0,0:0:0:0:
448,192,70198,1,0,0:0:0:0:
192,192,70283,1,0,0:0:0:0:
320,192,70283,1,0,0:0:0:0:
64,192,70537,1,0,0:0:0:0:
192,192,70537,1,0,0:0:0:0:
320,192,70706,1,0,0:0:0:0:
192,192,70791,1,0,0:0:0:0:
320,192,70876,1,0,0:0:0:0:
448,192,70876,1,0,0:0:0:0:
64,192,71045,1,0,0:0:0:0:
192,192,71215,1,0,0:0:0:0:
320,192,71215,1,0,0:0:0:0:
64,192,71469,1,0,0:0:0:0:
320,192,71554,1,0,0:0:0:0:
448,192,71554,1,0,0:0:0:0:
64,192,71723,1,0,0:0:0:0:
192,192,71723,1,0,0:0:0:0:
320,192,71893,1,0,0:0:0:0:
448,192,71893,1,0,0:0:0:0:
192,192,71978,1,0,0:0:0:0:
320,192,72147,1,0,0:0:0:0:
192,192,72232,1,0,0:0:0:0:
64,192,72232,128,0,72486:0:0:0:0:
320,192,72486,1,0,0:0:0:0:
448,192,72486,1,0,0:0:0:0:
64,192,72740,1,0,0:0:0:0:
192,192,72740,1,0,0:0:0:0:
320,192,72910,1,0,0:0:0:0:
448,192,72910,1,0,0:0:0:0:
192,192,73079,1,0,0:0:0:0:
320,192,73079,1,0,0:0:0:0:
64,192,73249,1,0,0:0:0:0:
448,192,73249,1,0,0:0:0:0:
192,192,73334,1,0,0:0:0:0:
320,192,73418,1,0,0:0:0:0:
192,192,73588,1,0,0:0:0:0:
64,192,73588,1,0,0:0:0:0:
448,192,73757,128,0,73927:0:0:0:0:
64,192,73927,1,0,0:0:0:0:
320,192,73927,1,0,0:0:0:0:
192,192,74096,128,0,74266:0:0:0:0:
320,192,74266,1,0,0:0:0:0:
448,192,74266,1,0,0:0:0:0:
64,192,74520,1,0,0:0:0:0:
320,192,74605,1,0,0:0:0:0:
448,192,74605,1,0,0:0:0:0:
64,192,74774,128,0,74944:0:0:0:0:
192,192,74944,1,0,0:0:0:0:
320,192,74944,1,0,0:0:0:0:
448,192,75198,1,0,0:0:0:0:
64,192,75283,1,0,0:0:0:0:
192,192,75283,1,0,0:0:0:0:
448,192,75452,1,0,0:0:0:0:
320,192,75452,128,0,75622:0:0:0:0:
64,192,75622,1,0,0:0:0:0:
192,192,75622,128,0,75791:0:0:0:0:
448,192,75791,128,0,75961:0:0:0:0:
64,192,75961,1,0,0:0:0:0:
320,192,75961,1,0,0:0:0:0:
64,192,76130,128,0,76300:0:0:0:0:
192,192,76300,1,0,0:0:0:0:
448,192,76300,1,0,0:0:0:0:
448,192,76469,128,0,76639:0:0:0:0:
64,192,76639,1,0,0:0:0:0:
192,192,76639,1,0,0:0:0:0:
320,192,76893,1,0,0:0:0:0:
448,192,76893,1,0,0:0:0:0:
192,192,77147,1,0,0:0:0:0:
320,192,77147,1,0,0:0:0:0:
64,192,77317,1,0,0:0:0:0:
192,192,77317,1,0,0:0:0:0:
448,192,77401,1,0,0:0:0:0:
64,192,77486,1,0,0:0:0:0:
320,192,77656,1,0,0:0:0:0:
448,192,77656,1,0,0:0:0:0:
64,192,77825,1,0,0:0:0:0:
192,192,77825,1,0,0:0:0:0:
320,192,77995,1,0,0:0:0:0:
448,192,77995,1,0,0:0:0:0:
192,192,78164,1,0,0:0:0:0:
320,192,78164,1,0,0:0:0:0:
64,192,78334,1,0,0:0:0:0:
448,192,78334,1,0,0:0:0:0:
64,192,78503,1,0,0:0:0:0:
192,192,78503,1,0,0:0:0:0:
320,192,78673,1,0,0:0:0:0:
448,192,78673,1,0,0:0:0:0:
64,192,78757,1,0,0:0:0:0:
448,192,78842,1,0,0:0:0:0:
64,192,79012,1,0,0:0:0:0:
192,192,79012,1,0,0:0:0:0:
320,192,79181,1,0,0:0:0:0:
448,192,79181,1,0,0:0:0:0:
64,192,79351,1,0,0:0:0:0:
448,192,79351,1,0,0:0:0:0:
192,192,79520,1,0,0:0:0:0:
320,192,79520,1,0,0:0:0:0:
448,192,79690,1,0,0:0:0:0:
64,192,79774,1,0,0:0:0:0:
192,192,79774,1,0,0:0:0:0:
320,192,79944,1,0,0:0:0:0:
192,192,80029,1,0,0:0:0:0:
448,192,80029,1,0,0:0:0:0:
64,192,80198,1,0,0:0:0:0:
320,192,80283,1,0,0:0:0:0:
64,192,80367,1,0,0:0:0:0:
320,192,80537,1,0,0:0:0:0:
64,192,80706,1,0,0:0:0:0:
448,192,80706,1,0,0:0:0:0:
64,192,80876,1,0,0:0:0:0:
320,192,80876,1,0,0:0:0:0:
320,192,81045,1,0,0:0:0:0:
448,192,81045,1,0,0:0:0:0:
64,192,81215,1,0,0:0:0:0:
192,192,81215,1,0,0:0:0:0:
320,192,81384,1,0,0:0:0:0:
448,192,81384,1,0,0:0:0:0:
64,192,81554,1,0,0:0:0:0:
448,192,81554,1,0,0:0:0:0:
320,192,81723,1,0,0:0:0:0:
192,192,81723,128,0,82062:0:0:0:0:
320,192,82062,1,0,0:0:0:0:
448,192,82062,128,0,82401:0:0:0:0:
64,192,82232,1,0,0:0:0:0:
192,192,82401,1,0,0:0:0:0:
320,192,82401,1,0,0:0:0:0:
64,192,82571,1,0,0:0:0:0:
192,192,82571,1,0,0:0:0:0:
448,192,82740,1,0,0:0:0:0:
64,192,82740,1,0,0:0:0:0:
192,192,82910,1,0,0:0:0:0:
448,192,82910,1,0,0:0:0:0:
320,192,83079,128,0,83249:0:0:0:0:
64,192,83249,1,0,0:0:0:0:
192,192,83249,1,0,0:0:0:0:
192,192,83418,1,0,0:0:0:0:
448,192,83418,1,0,0:0:0:0:
448,192,83588,1,0,0:0:0:0:
64,192,83757,1,0,0:0:0:0:
320,192,83757,1,0,0:0:0:0:
64,192,83927,1,0,0:0:0:0:
320,192,83927,1,0,0:0:0:0:
448,192,84096,1,0,0:0:0:0:
192,192,84181,128,0,84435:0:0:0:0:
320,192,84435,1,0,0:0:0:0:
448,192,84435,1,0,0:0:0:0:
64,192,84690,1,0,0:0:0:0:
192,192,84690,1,0,0:0:0:0:
320,192,84774,1,0,0:0:0:0:
64,192,84944,1,0,0:0:0:0:
448,192,84944,1,0,0:0:0:0:
320,192,85113,128,0,85452:0:0:0:0:
64,192,85452,1,0,0:0:0:0:
192,192,85452,1,0,0:0:0:0:
448,192,85537,1,0,0:0:0:0:
192,192,85791,5,0,0:0:0:0:
320,192,85791,1,0,0:0:0:0:
448,192,85876,1,0,0:0:0:0:
64,192,86130,1,0,0:0:0:0:
192,192,86130,1,0,0:0:0:0:
320,192,86356,1,0,0:0:0:0:
448,192,86356,1,0,0:0:0:0:
192,192,86582,1,0,0:0:0:0:
320,192,86582,1,0,0:0:0:0:
64,192,86808,5,0,0:0:0:0:
320,192,86808,1,0,0:0:0:0:
192,192,87147,1,0,0:0:0:0:
448,192,87147,1,0,0:0:0:0:
