osu file format v14

[General]
AudioFilename: audio.mp3
AudioLeadIn: 0
PreviewTime: 54506
Countdown: 0
SampleSet: Normal
StackLeniency: 0.7
Mode: 1
LetterboxInBreaks: 0
WidescreenStoryboard: 0

[Editor]
DistanceSpacing: 0.8
BeatDivisor: 4
GridSize: 32
TimelineZoom: 4.199998

[Metadata]
Title:Mdrqnxtagon
TitleUnicode:Mdrqnxtagon
Artist:Frums
ArtistUnicode:Frums
Creator:Nifty
Version:Oni
Source:
Tags:fast loud electronic instrumental ksm k-shoot mania experimental noise sf2016 pucific speedcore breakcore glitch chaos genjuro
BeatmapID:2137170
BeatmapSetID:967870

[Difficulty]
HPDrainRate:5
CircleSize:2
OverallDifficulty:5.5
ApproachRate:10
SliderMultiplier:1.4
SliderTickRate:1

[Events]
//Background and Video events
0,0,"mdrqnxtagon.jpg",0,0
//Break Periods
2,47863,54139
2,74423,80002
//Storyboard Layer 0 (Background)
//Storyboard Layer 1 (Fail)
//Storyboard Layer 2 (Pass)
//Storyboard Layer 3 (Foreground)
//Storyboard Layer 4 (Overlay)
//Storyboard Sound Samples

[TimingPoints]
583,247.933884297521,4,1,0,40,1,0
583,-142.857142857143,4,1,0,40,0,0
8144,-142.857142857143,4,1,0,40,0,0
8206,-139.579419293784,4,1,0,40,0,0
8268,-136.448544571599,4,1,0,40,0,0
8330,-133.455222436492,4,1,0,40,0,0
8392,-130.590412313109,4,1,0,40,0,0
8454,-127.845848589605,4,1,0,40,0,0
8516,-125.21442971088,4,1,0,80,0,0
10748,-111.28050476837,4,1,0,80,0,0
12731,-100.137187947488,4,1,0,80,0,0
14715,-91.0224552397076,4,1,0,80,0,0
15459,-25,4,1,0,80,0,0
16450,-90.9090909090909,4,1,0,80,0,0
36034,237.037037037037,4,1,0,80,1,0
36034,-95.2380952380954,4,1,0,80,0,0
43619,237.037037037037,4,1,0,80,1,8
43619,-95.2380952380954,4,1,0,80,0,0
43694,226.843100189036,4,1,0,80,1,0
43694,-99.0099009900991,4,1,0,80,0,0
47323,453.686200378072,4,1,0,80,1,0
47323,-50,4,1,0,80,0,0
48174,-66.6666666666667,4,1,0,80,0,0
54581,217.292892711634,4,1,0,80,1,8
54589,217.292892711634,4,1,0,50,1,0
54589,-147.058823529413,4,1,0,50,0,0
56273,-102.040816326531,4,1,0,80,0,0
66322,590.952516965262,5,1,0,80,1,8
66322,-35.7142857142857,5,1,0,80,0,0
68981,208.333333333333,4,1,0,80,1,0
68981,-106.382978723404,4,1,0,80,0,0
72626,-119.047619047619,4,1,0,80,0,0
72939,-135.135135135135,4,1,0,80,0,0
73147,-144.927536231884,4,1,0,80,0,0
73251,-156.25,4,1,0,80,0,0
73564,-185.185185185185,4,1,0,80,0,0
73951,272.108843537415,4,1,0,80,1,8
73951,-142.857142857143,4,1,0,80,0,0
74223,399.861381387786,4,1,0,80,1,0
74223,-99.009900990099,4,1,0,80,0,0
80452,399.861381387786,4,1,0,80,1,0
80452,-99.009900990099,4,1,0,80,0,0
93247,-76.3358778625954,4,1,0,80,0,0
99645,798.934753661784,4,1,0,50,1,0
99645,-50,4,1,0,50,0,0
102839,192,4,1,0,80,1,1
127415,-100,5,1,0,80,0,0

[HitObjects]
308,115,583,5,8,0:0:0:0:
308,115,830,1,8,0:0:0:0:
308,115,1078,1,8,0:0:0:0:
308,115,1326,1,8,0:0:0:0:
308,115,1574,1,8,0:0:0:0:
308,115,1822,1,8,0:0:0:0:
308,115,2070,1,8,0:0:0:0:
308,115,2318,1,8,0:0:0:0:
308,115,2566,1,8,0:0:0:0:
308,115,2814,1,8,0:0:0:0:
308,115,3061,1,8,0:0:0:0:
308,115,3309,1,8,0:0:0:0:
308,115,3557,1,8,0:0:0:0:
308,115,3805,1,8,0:0:0:0:
308,115,4053,1,8,0:0:0:0:
308,115,4301,1,8,0:0:0:0:
313,103,4425,1,8,0:0:0:0:
308,115,4549,1,8,0:0:0:0:
308,115,4797,1,8,0:0:0:0:
308,115,5044,1,8,0:0:0:0:
308,115,5292,1,8,0:0:0:0:
308,115,5540,1,8,0:0:0:0:
308,115,5788,1,8,0:0:0:0:
308,115,6036,1,8,0:0:0:0:
308,115,6284,1,8,0:0:0:0:
308,115,6532,1,8,0:0:0:0:
308,115,6781,1,8,0:0:0:0:
308,115,7028,1,8,0:0:0:0:
308,115,7276,1,8,0:0:0:0:
308,115,7524,1,8,0:0:0:0:
302,97,7649,1,8,0:0:0:0:
308,115,7772,1,8,0:0:0:0:
308,115,8020,1,8,0:0:0:0:
323,97,8144,1,8,0:0:0:0:
308,115,8268,1,8,0:0:0:0:
323,98,8392,1,8,0:0:0:0:
311,99,8516,1,0,0:0:0:0:
342,131,8764,1,8,0:0:0:0:
342,131,8888,1,0,0:0:0:0:
338,124,9136,1,8,0:0:0:0:
336,136,9260,1,0,0:0:0:0:
312,121,9508,1,8,0:0:0:0:
312,122,9632,1,0,0:0:0:0:
333,140,9880,1,8,0:0:0:0:
333,140,10004,1,0,0:0:0:0:
334,124,10252,1,0,0:0:0:0:
334,124,10376,1,8,0:0:0:0:
348,125,10500,1,0,0:0:0:0:
346,123,10748,1,8,0:0:0:0:
343,121,10872,1,0,0:0:0:0:
346,122,11120,1,8,0:0:0:0:
341,121,11244,1,0,0:0:0:0:
346,123,11492,1,8,0:0:0:0:
346,123,11616,1,0,0:0:0:0:
346,122,11863,1,8,0:0:0:0:
346,122,11987,1,0,0:0:0:0:
342,103,12235,1,0,0:0:0:0:
342,102,12297,1,8,0:0:0:0:
343,101,12483,1,0,0:0:0:0:
340,100,12731,1,8,0:0:0:0:
345,109,12855,1,0,0:0:0:0:
342,103,13103,1,8,0:0:0:0:
344,109,13227,1,0,0:0:0:0:
340,100,13475,1,8,0:0:0:0:
343,109,13599,1,0,0:0:0:0:
342,103,13847,1,8,0:0:0:0:
314,111,13971,1,0,0:0:0:0:
349,111,14219,1,0,0:0:0:0:
326,106,14343,1,8,0:0:0:0:
343,109,14467,1,0,0:0:0:0:
347,107,14715,1,8,0:0:0:0:
323,91,14839,1,0,0:0:0:0:
327,92,14963,1,0,0:0:0:0:
349,111,15087,1,8,0:0:0:0:
343,106,15211,1,0,0:0:0:0:
204,182,15459,2,4,L|343:131,10,140
334,102,16450,1,12,0:0:0:0:
338,109,16698,1,8,0:0:0:0:
328,114,16822,1,8,0:0:0:0:
343,104,16946,1,0,0:0:0:0:
346,117,17070,1,0,0:0:0:0:
355,106,17194,1,8,0:0:0:0:
365,95,17318,1,8,0:0:0:0:
359,105,17442,1,0,0:0:0:0:
333,106,17504,1,0,0:0:0:0:
354,95,17566,1,8,0:0:0:0:
343,104,17814,1,8,0:0:0:0:
342,103,17938,1,0,0:0:0:0:
363,120,18062,1,0,0:0:0:0:
363,119,18186,1,8,0:0:0:0:
358,117,18310,1,8,0:0:0:0:
358,117,18434,1,0,0:0:0:0:
355,107,18558,1,8,0:0:0:0:
355,107,18682,1,8,0:0:0:0:
355,107,18806,1,8,0:0:0:0:
355,106,18930,1,0,0:0:0:0:
356,106,19054,1,0,0:0:0:0:
356,106,19178,1,8,0:0:0:0:
356,106,19302,1,8,0:0:0:0:
355,107,19425,1,0,0:0:0:0:
337,121,19487,1,0,0:0:0:0:
338,120,19549,1,0,0:0:0:0:
355,107,19673,1,8,0:0:0:0:
356,95,19921,1,0,0:0:0:0:
367,109,20107,1,8,0:0:0:0:
348,118,20169,1,8,0:0:0:0:
348,118,20293,1,8,0:0:0:0:
350,119,20417,1,0,0:0:0:0:
354,116,20665,1,8,0:0:0:0:
356,95,20789,1,0,0:0:0:0:
363,95,20913,1,8,0:0:0:0:
363,116,21037,1,0,0:0:0:0:
365,112,21161,1,8,0:0:0:0:
365,112,21285,1,8,0:0:0:0:
370,117,21409,1,0,0:0:0:0:
403,127,21471,1,0,0:0:0:0:
369,117,21533,1,8,0:0:0:0:
370,114,21781,1,0,0:0:0:0:
373,112,21905,1,8,0:0:0:0:
383,100,22153,1,0,0:0:0:0:
381,103,22277,1,8,0:0:0:0:
381,104,22401,1,0,0:0:0:0:
367,97,22525,1,8,0:0:0:0:
367,97,22649,1,8,0:0:0:0:
367,97,22773,1,8,0:0:0:0:
366,97,22897,1,0,0:0:0:0:
373,103,23083,1,0,0:0:0:0:
345,92,23144,1,0,0:0:0:0:
354,102,23268,1,8,0:0:0:0:
352,101,23392,1,0,0:0:0:0:
367,97,23640,1,0,0:0:0:0:
366,97,23764,1,0,0:0:0:0:
366,96,23888,1,8,0:0:0:0:
366,96,23950,1,8,0:0:0:0:
366,96,24012,1,8,0:0:0:0:
360,86,24136,1,8,0:0:0:0:
360,86,24260,1,8,0:0:0:0:
367,97,24384,1,4,0:0:0:0:
373,86,24632,1,8,0:0:0:0:
373,85,24756,1,0,0:0:0:0:
372,85,24880,1,8,0:0:0:0:
373,85,25004,1,8,0:0:0:0:
366,77,25128,1,0,0:0:0:0:
367,77,25252,1,8,0:0:0:0:
367,77,25500,1,0,0:0:0:0:
367,77,25562,1,0,0:0:0:0:
362,82,25624,1,8,0:0:0:0:
363,81,25748,1,0,0:0:0:0:
365,81,25872,1,0,0:0:0:0:
366,77,25996,1,8,0:0:0:0:
369,85,26120,1,8,0:0:0:0:
369,85,26244,1,0,0:0:0:0:
366,89,26368,1,8,0:0:0:0:
366,90,26492,1,8,0:0:0:0:
367,90,26740,1,0,0:0:0:0:
366,77,26863,1,8,0:0:0:0:
366,77,26925,1,8,0:0:0:0:
366,72,26987,1,8,0:0:0:0:
367,72,27111,1,0,0:0:0:0:
369,73,27235,1,8,0:0:0:0:
371,71,27483,1,0,0:0:0:0:
371,71,27607,1,0,0:0:0:0:
372,71,27731,1,8,0:0:0:0:
372,72,27855,1,8,0:0:0:0:
367,72,27979,1,0,0:0:0:0:
367,72,28041,1,0,0:0:0:0:
369,73,28103,1,0,0:0:0:0:
371,71,28227,1,8,0:0:0:0:
371,71,28475,1,0,0:0:0:0:
372,71,28599,1,8,0:0:0:0:
372,72,28723,1,0,0:0:0:0:
372,72,28785,1,0,0:0:0:0:
373,66,28847,1,0,0:0:0:0:
374,67,28971,1,8,0:0:0:0:
365,63,29095,1,0,0:0:0:0:
382,68,29219,1,8,0:0:0:0:
386,68,29467,1,0,0:0:0:0:
386,67,29591,1,8,0:0:0:0:
385,67,29715,1,8,0:0:0:0:
385,67,29777,1,8,0:0:0:0:
385,67,29839,1,0,0:0:0:0:
384,67,29963,1,8,0:0:0:0:
382,68,30087,1,0,0:0:0:0:
386,68,30211,1,8,0:0:0:0:
386,68,30335,1,0,0:0:0:0:
386,58,30459,1,8,0:0:0:0:
386,58,30521,1,8,0:0:0:0:
386,58,30583,1,8,0:0:0:0:
384,67,30830,1,0,0:0:0:0:
389,63,30954,1,8,0:0:0:0:
386,68,31078,1,0,0:0:0:0:
388,55,31140,1,0,0:0:0:0:
386,68,31202,1,8,0:0:0:0:
388,55,31264,1,8,0:0:0:0:
386,58,31326,1,0,0:0:0:0:
393,64,31512,1,8,0:0:0:0:
394,57,31698,1,0,0:0:0:0:
379,62,31884,1,0,0:0:0:0:
380,68,32070,1,8,0:0:0:0:
379,64,32132,1,8,0:0:0:0:
377,73,32194,1,8,0:0:0:0:
378,72,32318,1,0,0:0:0:0:
386,63,32566,1,8,0:0:0:0:
379,62,32690,1,0,0:0:0:0:
390,73,32938,1,8,0:0:0:0:
382,50,33062,1,8,0:0:0:0:
382,50,33186,1,8,0:0:0:0:
382,50,33310,1,0,0:0:0:0:
387,55,33558,1,8,0:0:0:0:
387,54,33682,1,0,0:0:0:0:
387,54,33930,1,0,0:0:0:0:
387,54,34054,1,8,0:0:0:0:
387,54,34178,1,8,0:0:0:0:
387,55,34302,1,0,0:0:0:0:
387,55,34425,1,8,0:0:0:0:
387,54,34673,1,0,0:0:0:0:
387,54,34735,1,0,0:0:0:0:
387,54,34921,1,8,0:0:0:0:
387,54,35045,1,8,0:0:0:0:
387,55,35169,1,8,0:0:0:0:
387,55,35293,1,0,0:0:0:0:
380,49,35479,1,0,0:0:0:0:
380,49,35541,1,8,0:0:0:0:
377,48,35665,1,0,0:0:0:0:
361,77,35789,1,8,0:0:0:0:
318,49,35851,1,8,0:0:0:0:
379,43,36152,1,0,0:0:0:0:
387,55,36271,1,8,0:0:0:0:
392,62,36389,1,0,0:0:0:0:
392,62,36508,1,0,0:0:0:0:
388,66,36626,1,8,0:0:0:0:
388,66,36685,1,8,0:0:0:0:
388,66,36745,1,0,0:0:0:0:
392,59,36863,1,0,0:0:0:0:
383,71,36982,1,8,0:0:0:0:
387,55,37219,1,8,0:0:0:0:
380,54,37337,1,0,0:0:0:0:
380,54,37456,1,0,0:0:0:0:
380,54,37574,1,8,0:0:0:0:
380,54,37693,1,0,0:0:0:0:
379,54,37811,1,8,0:0:0:0:
380,47,38048,1,0,0:0:0:0:
380,47,38167,1,8,0:0:0:0:
380,54,38285,1,0,0:0:0:0:
372,40,38404,1,8,0:0:0:0:
377,40,38463,1,8,0:0:0:0:
377,39,38522,1,8,0:0:0:0:
372,35,38641,1,0,0:0:0:0:
380,47,38878,1,0,0:0:0:0:
380,47,38996,1,8,0:0:0:0:
380,40,39115,1,8,0:0:0:0:
380,40,39234,1,0,0:0:0:0:
380,40,39293,1,8,0:0:0:0:
377,40,39352,1,0,0:0:0:0:
384,39,39530,1,8,0:0:0:0:
380,47,39708,1,0,0:0:0:0:
380,47,39885,1,0,0:0:0:0:
380,40,40063,1,8,0:0:0:0:
380,40,40122,1,8,0:0:0:0:
373,44,40182,1,0,0:0:0:0:
372,45,40241,1,0,0:0:0:0:
372,45,40300,1,8,0:0:0:0:
372,45,40419,1,0,0:0:0:0:
372,45,40656,1,8,0:0:0:0:
372,45,40774,1,0,0:0:0:0:
372,44,40893,1,0,0:0:0:0:
371,47,41011,1,0,0:0:0:0:
372,44,41130,1,8,0:0:0:0:
380,38,41189,1,8,0:0:0:0:
379,39,41248,1,0,0:0:0:0:
372,45,41367,1,8,0:0:0:0:
372,45,41604,1,0,0:0:0:0:
372,45,41722,1,8,0:0:0:0:
372,44,41782,1,8,0:0:0:0:
360,54,41841,1,8,0:0:0:0:
396,70,41959,1,0,0:0:0:0:
380,38,42078,1,8,0:0:0:0:
379,39,42196,1,0,0:0:0:0:
378,38,42315,1,0,0:0:0:0:
379,38,42552,1,8,0:0:0:0:
379,39,42671,1,0,0:0:0:0:
379,39,42730,1,0,0:0:0:0:
381,49,42789,1,0,0:0:0:0:
380,49,42908,1,8,0:0:0:0:
380,49,43026,1,8,0:0:0:0:
381,48,43145,1,0,0:0:0:0:
378,38,43204,1,0,0:0:0:0:
379,38,43263,1,8,0:0:0:0:
379,38,43382,1,0,0:0:0:0:
379,39,43540,1,8,0:0:0:0:
389,68,43694,1,0,0:0:0:0:
372,69,43920,1,8,0:0:0:0:
372,69,44034,1,8,0:0:0:0:
372,69,44147,1,0,0:0:0:0:
372,69,44204,1,8,0:0:0:0:
372,68,44261,1,0,0:0:0:0:
372,68,44374,1,8,0:0:0:0:
361,80,44487,1,0,0:0:0:0:
366,79,44714,1,8,0:0:0:0:
367,79,44828,1,8,0:0:0:0:
367,79,44941,1,0,0:0:0:0:
367,79,44998,1,0,0:0:0:0:
367,78,45055,1,8,0:0:0:0:
373,79,45168,1,0,0:0:0:0:
383,89,45508,1,0,0:0:0:0:
383,89,45622,1,0,0:0:0:0:
383,89,45678,1,0,0:0:0:0:
383,89,45735,1,8,0:0:0:0:
384,86,45849,1,0,0:0:0:0:
385,87,45962,1,8,0:0:0:0:
388,85,46075,1,0,0:0:0:0:
383,89,46189,1,0,0:0:0:0:
383,89,46302,1,8,0:0:0:0:
394,84,46416,1,8,0:0:0:0:
390,78,46586,1,0,0:0:0:0:
391,78,46756,1,8,0:0:0:0:
392,77,46869,1,0,0:0:0:0:
391,77,46983,1,0,0:0:0:0:
383,89,47096,1,8,0:0:0:0:
391,78,47210,1,8,0:0:0:0:
394,84,47323,1,0,0:0:0:0:
391,78,47549,1,8,0:0:0:0:
391,78,47663,1,0,0:0:0:0:
335,116,54589,5,8,0:0:0:0:
322,101,54697,1,8,0:0:0:0:
322,102,54806,1,8,0:0:0:0:
322,102,55023,1,0,0:0:0:0:
323,103,55186,1,0,0:0:0:0:
326,84,55349,1,0,0:0:0:0:
320,90,55512,1,8,0:0:0:0:
326,85,55675,1,0,0:0:0:0:
326,85,55838,1,0,0:0:0:0:
326,86,56001,1,8,0:0:0:0:
326,86,56110,1,8,0:0:0:0:
326,84,56327,1,0,0:0:0:0:
339,79,56544,1,8,0:0:0:0:
339,80,56653,1,0,0:0:0:0:
339,79,56761,1,0,0:0:0:0:
339,80,56870,1,8,0:0:0:0:
339,77,56979,1,8,0:0:0:0:
339,77,57196,1,0,0:0:0:0:
339,79,57305,1,8,0:0:0:0:
339,79,57413,1,8,0:0:0:0:
339,80,57522,1,0,0:0:0:0:
339,79,57631,1,8,0:0:0:0:
339,80,57794,1,0,0:0:0:0:
339,77,57848,1,8,0:0:0:0:
347,74,57957,1,8,0:0:0:0:
337,71,58065,1,0,0:0:0:0:
339,101,58282,1,8,0:0:0:0:
344,94,58391,1,0,0:0:0:0:
344,93,58500,1,0,0:0:0:0:
345,94,58608,1,0,0:0:0:0:
335,90,58717,1,8,0:0:0:0:
350,84,58771,1,8,0:0:0:0:
350,84,58826,1,8,0:0:0:0:
350,85,58934,1,0,0:0:0:0:
349,85,59097,1,8,0:0:0:0:
348,85,59152,1,8,0:0:0:0:
349,85,59260,1,8,0:0:0:0:
350,85,59369,1,0,0:0:0:0:
352,86,59478,1,8,0:0:0:0:
350,84,59586,1,0,0:0:0:0:
350,85,59695,1,8,0:0:0:0:
337,88,59912,1,8,0:0:0:0:
334,86,60129,1,0,0:0:0:0:
346,90,60347,1,8,0:0:0:0:
346,91,60455,1,0,0:0:0:0:
348,91,60510,1,0,0:0:0:0:
348,91,60564,1,0,0:0:0:0:
362,85,60673,1,8,0:0:0:0:
351,84,60781,1,8,0:0:0:0:
351,83,60999,1,0,0:0:0:0:
351,82,61107,1,8,0:0:0:0:
350,80,61162,1,8,0:0:0:0:
351,80,61216,1,0,0:0:0:0:
339,81,61325,1,8,0:0:0:0:
333,77,61433,1,0,0:0:0:0:
333,77,61542,1,0,0:0:0:0:
332,77,61759,1,8,0:0:0:0:
332,77,61976,1,0,0:0:0:0:
343,67,62085,1,8,0:0:0:0:
343,68,62139,1,8,0:0:0:0:
343,68,62194,1,8,0:0:0:0:
346,68,62302,1,0,0:0:0:0:
349,67,62411,1,8,0:0:0:0:
348,68,62628,1,8,0:0:0:0:
343,67,62846,1,0,0:0:0:0:
346,68,63009,1,0,0:0:0:0:
346,68,63063,1,8,0:0:0:0:
356,67,63280,1,0,0:0:0:0:
325,68,63389,1,0,0:0:0:0:
333,69,63498,1,8,0:0:0:0:
334,71,63606,1,8,0:0:0:0:
331,73,63715,1,0,0:0:0:0:
326,69,63823,1,8,0:0:0:0:
326,69,63932,1,8,0:0:0:0:
356,67,64095,1,8,0:0:0:0:
325,68,64149,1,0,0:0:0:0:
350,67,64258,1,8,0:0:0:0:
351,66,64367,1,0,0:0:0:0:
350,66,64475,1,8,0:0:0:0:
334,69,64693,1,8,0:0:0:0:
332,66,64801,1,0,0:0:0:0:
332,66,64910,1,0,0:0:0:0:
350,67,65127,1,8,0:0:0:0:
350,66,65236,1,0,0:0:0:0:
350,66,65399,1,0,0:0:0:0:
330,94,65453,1,0,0:0:0:0:
329,74,65616,1,8,0:0:0:0:
336,71,65888,1,8,0:0:0:0:
335,72,65996,1,0,0:0:0:0:
344,72,66105,1,8,0:0:0:0:
344,71,66214,1,8,0:0:0:0:
344,71,66322,1,0,0:0:0:0:
354,115,68981,1,8,0:0:0:0:
345,114,69085,1,0,0:0:0:0:
345,114,69189,1,8,0:0:0:0:
355,101,69293,1,0,0:0:0:0:
345,103,69501,1,8,0:0:0:0:
337,108,69606,1,8,0:0:0:0:
337,107,69710,1,0,0:0:0:0:
336,107,69762,1,0,0:0:0:0:
336,107,69814,1,8,0:0:0:0:
345,114,69918,1,0,0:0:0:0:
342,111,70126,1,8,0:0:0:0:
345,103,70335,1,0,0:0:0:0:
344,107,70439,1,8,0:0:0:0:
337,107,70543,1,8,0:0:0:0:
343,106,70647,1,0,0:0:0:0:
343,104,70699,1,0,0:0:0:0:
342,104,70751,1,0,0:0:0:0:
342,111,70856,1,8,0:0:0:0:
345,103,71064,1,0,0:0:0:0:
345,103,71168,1,0,0:0:0:0:
344,107,71272,1,8,0:0:0:0:
337,107,71376,1,8,0:0:0:0:
343,106,71481,1,0,0:0:0:0:
343,104,71533,1,0,0:0:0:0:
342,104,71585,1,0,0:0:0:0:
345,103,71741,1,8,0:0:0:0:
345,103,71845,1,0,0:0:0:0:
345,103,71897,1,0,0:0:0:0:
345,103,72001,1,0,0:0:0:0:
346,96,72106,1,8,0:0:0:0:
337,107,72158,1,8,0:0:0:0:
343,106,72314,1,8,0:0:0:0:
354,97,72626,1,8,0:0:0:0:
354,97,72939,1,0,0:0:0:0:
354,97,73251,1,0,0:0:0:0:
335,90,73564,1,8,0:0:0:0:
334,89,73720,1,0,0:0:0:0:
319,86,73946,1,8,0:0:0:0:
312,86,74019,1,8,0:0:0:0:
318,86,74087,1,0,0:0:0:0:
324,93,74223,1,0,0:0:0:0:
385,147,80452,5,0,0:0:0:0:
385,147,80751,1,0,0:0:0:0:
376,149,81251,1,0,0:0:0:0:
376,147,81551,1,0,0:0:0:0:
376,149,82051,1,0,0:0:0:0:
376,147,82351,1,0,0:0:0:0:
359,149,82851,1,0,0:0:0:0:
359,149,83151,1,0,0:0:0:0:
360,128,83650,1,0,0:0:0:0:
360,128,83950,1,0,0:0:0:0:
360,128,84450,1,0,0:0:0:0:
360,128,84750,1,0,0:0:0:0:
360,128,85250,1,0,0:0:0:0:
360,128,85550,1,0,0:0:0:0:
360,128,85850,1,0,0:0:0:0:
360,128,86050,1,0,0:0:0:0:
360,128,86349,1,0,0:0:0:0:
360,128,86849,1,0,0:0:0:0:
360,128,87149,1,0,0:0:0:0:
351,129,87649,1,0,0:0:0:0:
351,129,87949,1,0,0:0:0:0:
351,129,88449,1,0,0:0:0:0:
351,129,88749,1,0,0:0:0:0:
351,129,89248,1,0,0:0:0:0:
351,129,89548,1,0,0:0:0:0:
351,129,90048,1,0,0:0:0:0:
351,129,90348,1,0,0:0:0:0:
351,129,90848,1,0,0:0:0:0:
351,129,91148,1,0,0:0:0:0:
351,129,91648,1,0,0:0:0:0:
351,129,91948,1,0,0:0:0:0:
351,129,92247,1,0,0:0:0:0:
345,124,92447,1,0,0:0:0:0:
345,123,92747,1,0,0:0:0:0:
345,124,93247,1,0,0:0:0:0:
351,117,93547,1,8,0:0:0:0:
345,124,93847,1,0,0:0:0:0:
343,112,94047,1,8,0:0:0:0:
340,110,94347,1,0,0:0:0:0:
344,99,94547,1,8,0:0:0:0:
340,110,94647,1,8,0:0:0:0:
343,112,94847,1,0,0:0:0:0:
340,110,95146,1,8,0:0:0:0:
340,110,95446,1,0,0:0:0:0:
343,112,95646,1,8,0:0:0:0:
332,110,95846,1,8,0:0:0:0:
340,110,95946,1,0,0:0:0:0:
340,110,96246,1,8,0:0:0:0:
326,109,96446,1,0,0:0:0:0:
335,97,96546,1,0,0:0:0:0:
325,108,96746,1,8,0:0:0:0:
321,108,97046,1,0,0:0:0:0:
326,109,97246,1,8,0:0:0:0:
335,97,97346,1,0,0:0:0:0:
325,108,97546,1,0,0:0:0:0:
332,95,97746,1,8,0:0:0:0:
321,108,97845,1,8,0:0:0:0:
318,103,98045,1,0,0:0:0:0:
332,94,98245,1,0,0:0:0:0:
325,108,98345,1,8,0:0:0:0:
332,95,98545,1,8,0:0:0:0:
321,108,98645,1,0,0:0:0:0:
318,103,98845,1,8,0:0:0:0:
332,104,98945,1,0,0:0:0:0:
340,92,99045,1,0,0:0:0:0:
314,102,99245,1,8,0:0:0:0:
311,109,99345,1,8,0:0:0:0:
311,108,99445,1,8,0:0:0:0:
310,100,99545,1,8,0:0:0:0:
296,123,102839,1,8,0:0:0:0:
312,122,102935,1,0,0:0:0:0:
312,122,103031,1,8,0:0:0:0:
312,122,103127,1,8,0:0:0:0:
318,130,103223,1,0,0:0:0:0:
304,132,103319,1,0,0:0:0:0:
305,132,103415,1,8,0:0:0:0:
312,124,103511,1,0,0:0:0:0:
312,124,103607,1,8,0:0:0:0:
312,122,103799,1,0,0:0:0:0:
312,122,103895,1,8,0:0:0:0:
317,118,104087,1,0,0:0:0:0:
317,119,104183,1,8,0:0:0:0:
317,119,104279,1,8,0:0:0:0:
317,119,104375,1,0,0:0:0:0:
312,122,104567,1,0,0:0:0:0:
319,109,104663,1,8,0:0:0:0:
322,105,104855,1,8,0:0:0:0:
317,119,104951,1,8,0:0:0:0:
317,119,105047,1,0,0:0:0:0:
317,119,105143,1,0,0:0:0:0:
319,113,105335,1,8,0:0:0:0:
326,99,105431,1,0,0:0:0:0:
322,105,105623,1,0,0:0:0:0:
318,104,105719,1,8,0:0:0:0:
317,104,105815,1,8,0:0:0:0:
317,105,105911,1,0,0:0:0:0:
317,105,106103,1,8,0:0:0:0:
317,105,106199,1,0,0:0:0:0:
338,90,106391,1,0,0:0:0:0:
338,90,106487,1,0,0:0:0:0:
338,91,106679,1,8,0:0:0:0:
331,94,106871,1,0,0:0:0:0:
325,100,106967,1,8,0:0:0:0:
325,100,107159,1,0,0:0:0:0:
322,99,107255,1,8,0:0:0:0:
322,99,107351,1,8,0:0:0:0:
322,99,107447,1,0,0:0:0:0:
331,94,107639,1,8,0:0:0:0:
333,99,107735,1,8,0:0:0:0:
334,100,107831,1,0,0:0:0:0:
333,99,107927,1,0,0:0:0:0:
331,98,108023,1,8,0:0:0:0:
322,99,108215,1,0,0:0:0:0:
354,92,108311,1,8,0:0:0:0:
342,88,108407,1,0,0:0:0:0:
345,96,108503,1,8,0:0:0:0:
345,96,108599,1,8,0:0:0:0:
343,95,108695,1,0,0:0:0:0:
217,232,108791,2,0,L|266:206,40,35
318,128,110903,1,8,0:0:0:0:
329,121,110999,1,8,0:0:0:0:
329,121,111095,1,0,0:0:0:0:
329,120,111287,1,8,0:0:0:0:
316,113,111479,1,0,0:0:0:0:
316,113,111575,1,8,0:0:0:0:
317,113,111671,1,0,0:0:0:0:
317,113,111767,1,0,0:0:0:0:
318,111,111863,1,8,0:0:0:0:
318,110,112055,1,0,0:0:0:0:
327,104,112247,1,8,0:0:0:0:
327,108,112343,1,0,0:0:0:0:
324,104,112439,1,8,0:0:0:0:
325,104,112631,1,0,0:0:0:0:
330,90,112823,1,8,0:0:0:0:
333,91,112919,1,8,0:0:0:0:
333,92,113015,1,0,0:0:0:0:
333,92,113111,1,0,0:0:0:0:
333,91,113207,1,8,0:0:0:0:
342,90,113303,1,0,0:0:0:0:
347,90,113399,1,8,0:0:0:0:
326,108,113591,1,0,0:0:0:0:
325,108,113639,1,0,0:0:0:0:
324,108,113687,1,0,0:0:0:0:
322,108,113783,1,8,0:0:0:0:
324,102,113975,1,0,0:0:0:0:
325,102,114071,1,8,0:0:0:0:
324,102,114167,1,0,0:0:0:0:
326,108,114359,1,8,0:0:0:0:
325,108,114407,1,8,0:0:0:0:
324,108,114455,1,8,0:0:0:0:
322,108,114551,1,0,0:0:0:0:
324,102,114743,1,8,0:0:0:0:
325,102,114839,1,0,0:0:0:0:
324,102,114935,1,8,0:0:0:0:
326,108,115031,1,8,0:0:0:0:
326,108,115127,1,0,0:0:0:0:
346,104,115319,1,8,0:0:0:0:
343,104,115415,1,8,0:0:0:0:
324,102,115511,1,0,0:0:0:0:
351,94,115607,1,0,0:0:0:0:
337,107,115703,1,0,0:0:0:0:
344,102,115895,1,8,0:0:0:0:
340,108,115991,1,8,0:0:0:0:
346,104,116087,1,0,0:0:0:0:
343,104,116183,1,8,0:0:0:0:
340,104,116279,1,0,0:0:0:0:
339,106,116375,1,0,0:0:0:0:
337,107,116471,1,8,0:0:0:0:
344,102,116567,1,0,0:0:0:0:
344,102,116663,1,8,0:0:0:0:
349,94,116855,1,0,0:0:0:0:
357,94,116903,1,0,0:0:0:0:
349,94,116951,1,8,0:0:0:0:
339,93,117143,1,0,0:0:0:0:
339,93,117239,1,8,0:0:0:0:
344,84,117431,1,8,0:0:0:0:
352,78,117623,1,8,0:0:0:0:
360,75,117719,1,0,0:0:0:0:
351,73,117911,1,0,0:0:0:0:
351,72,118007,1,8,0:0:0:0:
351,72,118199,1,8,0:0:0:0:
352,78,118295,1,0,0:0:0:0:
362,77,118391,1,0,0:0:0:0:
351,76,118487,1,8,0:0:0:0:
374,84,118679,1,8,0:0:0:0:
368,75,118775,1,0,0:0:0:0:
351,72,118967,1,8,0:0:0:0:
364,68,119063,1,8,0:0:0:0:
370,70,119159,1,0,0:0:0:0:
370,70,119255,1,8,0:0:0:0:
365,79,119447,1,0,0:0:0:0:
368,75,119543,1,8,0:0:0:0:
365,79,119639,1,8,0:0:0:0:
365,79,119735,1,0,0:0:0:0:
367,78,119831,1,0,0:0:0:0:
367,78,119927,1,8,0:0:0:0:
365,79,120119,1,0,0:0:0:0:
365,79,120215,1,0,0:0:0:0:
379,68,120311,1,8,0:0:0:0:
365,79,120503,1,8,0:0:0:0:
367,78,120599,1,0,0:0:0:0:
367,78,120695,1,8,0:0:0:0:
365,79,120791,1,8,0:0:0:0:
390,71,120887,1,0,0:0:0:0:
365,66,120983,1,0,0:0:0:0:
264,188,121079,2,0,L|306:159,24,35
372,90,122423,1,8,0:0:0:0:
372,90,122519,1,8,0:0:0:0:
372,90,122615,1,0,0:0:0:0:
378,84,122711,1,0,0:0:0:0:
379,81,122807,1,0,0:0:0:0:
379,84,122999,1,0,0:0:0:0:
379,84,123191,1,8,0:0:0:0:
379,84,123287,1,8,0:0:0:0:
376,81,123383,1,0,0:0:0:0:
367,87,123575,1,0,0:0:0:0:
368,88,123671,1,8,0:0:0:0:
379,84,123767,1,8,0:0:0:0:
379,84,123863,1,0,0:0:0:0:
371,88,123959,1,0,0:0:0:0:
379,84,124055,1,8,0:0:0:0:
376,81,124247,1,8,0:0:0:0:
374,81,124343,1,0,0:0:0:0:
385,81,124439,1,0,0:0:0:0:
387,81,124535,1,8,0:0:0:0:
387,81,124631,1,0,0:0:0:0:
387,81,124727,1,8,0:0:0:0:
387,81,124823,1,8,0:0:0:0:
388,72,124919,1,0,0:0:0:0:
387,75,125111,1,0,0:0:0:0:
385,81,125239,1,8,0:0:0:0:
393,69,125367,1,0,0:0:0:0:
387,70,125495,1,8,0:0:0:0:
388,72,125623,1,0,0:0:0:0:
393,79,125751,1,0,0:0:0:0:
379,68,125879,1,8,0:0:0:0:
371,75,125975,1,8,0:0:0:0:
374,72,126071,1,0,0:0:0:0:
375,72,126167,1,8,0:0:0:0:
375,71,126263,1,0,0:0:0:0:
375,71,126359,1,0,0:0:0:0:
321,126,126455,1,8,0:0:0:0:
339,95,126519,1,8,0:0:0:0:
340,96,126583,1,0,0:0:0:0:
256,192,126647,12,0,127319,0:0:0:0:
393,118,127415,5,4,0:0:0:0:
