osu file format v14

[General]
AudioFilename: audio.mp3
AudioLeadIn: 0
PreviewTime: 54506
Countdown: 0
SampleSet: Normal
StackLeniency: 0.7
Mode: 1
LetterboxInBreaks: 0
WidescreenStoryboard: 0

[Editor]
DistanceSpacing: 0.8
BeatDivisor: 12
GridSize: 32
TimelineZoom: 2.799999

[Metadata]
Title:Mdrqnxtagon
TitleUnicode:Mdrqnxtagon
Artist:Frums
ArtistUnicode:Frums
Creator:Nifty
Version:Inner Oni
Source:
Tags:fast loud electronic instrumental ksm k-shoot mania experimental noise sf2016 pucific speedcore breakcore glitch chaos genjuro
BeatmapID:2134205
BeatmapSetID:967870

[Difficulty]
HPDrainRate:4.5
CircleSize:2
OverallDifficulty:7
ApproachRate:10
SliderMultiplier:1.4
SliderTickRate:1

[Events]
//Background and Video events
0,0,"mdrqnxtagon.jpg",0,0
//Break Periods
2,47863,54139
2,74423,80002
//Storyboard Layer 0 (Background)
//Storyboard Layer 1 (Fail)
//Storyboard Layer 2 (Pass)
//Storyboard Layer 3 (Foreground)
//Storyboard Layer 4 (Overlay)
//Storyboard Sound Samples

[TimingPoints]
583,247.933884297521,4,1,0,40,1,0
583,-142.857142857143,4,1,0,40,0,0
8144,-142.857142857143,4,1,0,40,0,0
8206,-139.579419293784,4,1,0,40,0,0
8268,-136.448544571599,4,1,0,40,0,0
8330,-133.455222436492,4,1,0,40,0,0
8392,-130.590412313109,4,1,0,40,0,0
8454,-127.845848589605,4,1,0,40,0,0
8516,-125.21442971088,4,1,0,80,0,0
10748,-111.28050476837,4,1,0,80,0,0
12731,-100.137187947488,4,1,0,80,0,0
14715,-91.0224552397076,4,1,0,80,0,0
15459,-25,4,1,0,80,0,0
16450,-90.9090909090909,4,1,0,80,0,0
36034,237.037037037037,4,1,0,80,1,0
36034,-95.2380952380954,4,1,0,80,0,0
43619,237.037037037037,4,1,0,80,1,8
43619,-95.2380952380954,4,1,0,80,0,0
43694,226.843100189036,4,1,0,80,1,0
43694,-99.0099009900991,4,1,0,80,0,0
47323,453.686200378072,4,1,0,80,1,0
47323,-50,4,1,0,80,0,0
48174,-66.6666666666667,4,1,0,80,0,0
54581,217.292892711634,4,1,0,80,1,8
54589,217.292892711634,4,1,0,50,1,0
54589,-147.058823529413,4,1,0,50,0,0
56273,-102.040816326531,4,1,0,80,0,0
66322,590.952516965262,5,1,0,80,1,8
66322,-35.7142857142857,5,1,0,80,0,0
68981,208.333333333333,4,1,0,80,1,0
68981,-106.382978723404,4,1,0,80,0,0
72626,-119.047619047619,4,1,0,80,0,0
72939,-135.135135135135,4,1,0,80,0,0
73147,-144.927536231884,4,1,0,80,0,0
73251,-156.25,4,1,0,80,0,0
73564,-185.185185185185,4,1,0,80,0,0
73951,272.108843537415,4,1,0,80,1,8
73951,-142.857142857143,4,1,0,80,0,0
74223,399.861381387786,4,1,0,80,1,0
74223,-99.009900990099,4,1,0,80,0,0
80452,399.861381387786,4,1,0,80,1,0
80452,-99.009900990099,4,1,0,80,0,0
93247,-76.3358778625954,4,1,0,80,0,0
99645,798.934753661784,4,1,0,50,1,0
99645,-50,4,1,0,50,0,0
102839,192,4,1,0,80,1,1
127415,-100,5,1,0,80,0,0

[HitObjects]
269,151,583,5,8,0:0:0:0:
269,151,706,1,8,0:0:0:0:
269,151,830,1,8,0:0:0:0:
269,151,954,1,8,0:0:0:0:
269,151,1078,1,8,0:0:0:0:
269,151,1202,1,8,0:0:0:0:
269,151,1326,1,8,0:0:0:0:
269,151,1450,1,8,0:0:0:0:
269,151,1574,1,8,0:0:0:0:
269,151,1698,1,8,0:0:0:0:
269,151,1822,1,8,0:0:0:0:
269,151,1946,1,8,0:0:0:0:
269,151,2070,1,8,0:0:0:0:
269,151,2194,1,8,0:0:0:0:
266,143,2318,1,8,0:0:0:0:
266,143,2442,1,8,0:0:0:0:
266,143,2566,1,8,0:0:0:0:
266,143,2690,1,8,0:0:0:0:
266,143,2814,1,8,0:0:0:0:
266,143,2938,1,8,0:0:0:0:
270,133,3062,1,8,0:0:0:0:
270,133,3186,1,8,0:0:0:0:
270,133,3310,1,8,0:0:0:0:
270,133,3434,1,8,0:0:0:0:
270,133,3558,1,8,0:0:0:0:
270,133,3682,1,8,0:0:0:0:
270,133,3806,1,8,0:0:0:0:
270,133,3930,1,8,0:0:0:0:
270,133,4054,1,8,0:0:0:0:
270,133,4178,1,8,0:0:0:0:
270,133,4302,1,8,0:0:0:0:
270,133,4425,1,8,0:0:0:0:
268,122,4487,1,8,0:0:0:0:
270,133,4549,1,8,0:0:0:0:
270,133,4797,1,8,0:0:0:0:
270,133,4921,1,8,0:0:0:0:
270,133,5045,1,8,0:0:0:0:
270,133,5169,1,8,0:0:0:0:
270,133,5293,1,8,0:0:0:0:
270,133,5417,1,8,0:0:0:0:
270,133,5541,1,8,0:0:0:0:
270,133,5665,1,8,0:0:0:0:
270,133,5789,1,8,0:0:0:0:
270,133,5913,1,8,0:0:0:0:
268,122,6037,1,8,0:0:0:0:
268,122,6161,1,8,0:0:0:0:
268,122,6285,1,8,0:0:0:0:
268,122,6409,1,8,0:0:0:0:
268,122,6533,1,8,0:0:0:0:
268,122,6657,1,8,0:0:0:0:
268,122,6781,1,8,0:0:0:0:
268,122,6905,1,8,0:0:0:0:
268,122,7029,1,8,0:0:0:0:
268,122,7153,1,8,0:0:0:0:
268,122,7277,1,8,0:0:0:0:
268,122,7401,1,8,0:0:0:0:
276,117,7525,1,8,0:0:0:0:
268,122,7587,1,8,0:0:0:0:
268,118,7649,1,8,0:0:0:0:
268,118,7897,1,8,0:0:0:0:
272,117,7959,1,8,0:0:0:0:
268,118,8021,1,8,0:0:0:0:
268,118,8144,1,0,0:0:0:0:
253,103,8206,1,0,0:0:0:0:
271,108,8268,1,0,0:0:0:0:
254,102,8330,1,0,0:0:0:0:
253,103,8392,1,0,0:0:0:0:
253,102,8454,1,0,0:0:0:0:
264,107,8516,1,0,0:0:0:0:
269,114,8764,1,8,0:0:0:0:
274,91,8826,1,8,0:0:0:0:
273,106,8888,1,0,0:0:0:0:
281,101,9136,1,8,0:0:0:0:
269,92,9198,1,8,0:0:0:0:
281,101,9260,1,0,0:0:0:0:
281,101,9508,1,8,0:0:0:0:
269,91,9570,1,8,0:0:0:0:
281,101,9632,1,0,0:0:0:0:
281,101,9880,1,8,0:0:0:0:
266,87,9942,1,8,0:0:0:0:
281,101,10004,1,0,0:0:0:0:
281,101,10252,1,0,0:0:0:0:
281,101,10376,1,8,0:0:0:0:
266,87,10438,1,8,0:0:0:0:
281,101,10500,1,0,0:0:0:0:
281,101,10748,1,8,0:0:0:0:
266,87,10810,1,8,0:0:0:0:
281,101,10872,1,0,0:0:0:0:
281,94,11120,1,8,0:0:0:0:
281,94,11182,1,8,0:0:0:0:
281,94,11244,1,0,0:0:0:0:
281,94,11492,1,8,0:0:0:0:
281,94,11554,1,8,0:0:0:0:
281,94,11616,1,0,0:0:0:0:
270,101,11863,1,8,0:0:0:0:
279,88,11925,1,8,0:0:0:0:
270,101,11987,1,0,0:0:0:0:
270,101,12235,1,0,0:0:0:0:
270,101,12297,1,8,0:0:0:0:
273,83,12421,1,8,0:0:0:0:
270,101,12483,1,0,0:0:0:0:
277,85,12731,1,8,0:0:0:0:
277,85,12793,1,8,0:0:0:0:
277,85,12855,1,0,0:0:0:0:
277,85,13103,1,8,0:0:0:0:
271,76,13165,1,8,0:0:0:0:
277,85,13227,1,0,0:0:0:0:
278,85,13475,1,8,0:0:0:0:
270,76,13537,1,8,0:0:0:0:
278,85,13599,1,0,0:0:0:0:
278,85,13847,1,8,0:0:0:0:
270,76,13909,1,8,0:0:0:0:
278,85,13971,1,0,0:0:0:0:
261,79,14157,1,0,0:0:0:0:
282,68,14343,1,8,0:0:0:0:
279,64,14405,1,8,0:0:0:0:
282,68,14467,1,0,0:0:0:0:
275,64,14715,1,8,0:0:0:0:
275,64,14777,1,8,0:0:0:0:
275,64,14839,1,0,0:0:0:0:
275,64,15087,1,8,0:0:0:0:
275,64,15149,1,8,0:0:0:0:
275,64,15211,1,0,0:0:0:0:
202,208,15459,2,4,L|375:184,12,140
313,101,16450,1,12,0:0:0:0:
271,84,16574,1,0,0:0:0:0:
284,88,16636,1,0,0:0:0:0:
292,81,16698,1,8,0:0:0:0:
279,88,16822,1,0,0:0:0:0:
292,81,16946,1,8,0:0:0:0:
291,77,17008,1,0,0:0:0:0:
300,81,17070,1,0,0:0:0:0:
292,77,17194,1,8,0:0:0:0:
286,85,17318,1,0,0:0:0:0:
290,91,17442,1,0,0:0:0:0:
291,84,17566,1,8,0:0:0:0:
291,73,17628,1,0,0:0:0:0:
290,74,17690,1,8,0:0:0:0:
291,73,17814,1,0,0:0:0:0:
279,70,17938,1,8,0:0:0:0:
279,69,18000,1,8,0:0:0:0:
279,70,18062,1,0,0:0:0:0:
279,70,18124,1,0,0:0:0:0:
279,69,18186,1,8,0:0:0:0:
279,70,18310,1,8,0:0:0:0:
279,70,18434,1,0,0:0:0:0:
257,88,18516,1,0,0:0:0:0:
269,85,18599,1,0,0:0:0:0:
272,72,18682,1,8,0:0:0:0:
272,72,18806,1,8,0:0:0:0:
269,75,18930,1,0,0:0:0:0:
263,78,19054,1,0,0:0:0:0:
274,126,19116,1,0,0:0:0:0:
270,68,19178,1,8,0:0:0:0:
268,70,19302,1,8,0:0:0:0:
268,83,19425,1,0,0:0:0:0:
268,83,19549,1,0,0:0:0:0:
263,73,19611,1,0,0:0:0:0:
255,105,19673,1,8,0:0:0:0:
263,73,19797,1,8,0:0:0:0:
262,65,19921,1,0,0:0:0:0:
260,64,19983,1,0,0:0:0:0:
262,65,20045,1,8,0:0:0:0:
243,73,20128,1,8,0:0:0:0:
252,63,20211,1,0,0:0:0:0:
273,64,20293,1,8,0:0:0:0:
264,60,20417,1,0,0:0:0:0:
259,58,20541,1,0,0:0:0:0:
264,60,20665,1,8,0:0:0:0:
259,58,20727,1,0,0:0:0:0:
264,60,20789,1,0,0:0:0:0:
264,60,20851,1,0,0:0:0:0:
265,57,20913,1,8,0:0:0:0:
264,60,21037,1,0,0:0:0:0:
257,54,21161,1,8,0:0:0:0:
257,54,21223,1,0,0:0:0:0:
257,54,21285,1,8,0:0:0:0:
257,54,21409,1,0,0:0:0:0:
257,54,21533,1,8,0:0:0:0:
257,54,21595,1,8,0:0:0:0:
257,54,21657,1,0,0:0:0:0:
267,55,21781,1,8,0:0:0:0:
267,55,21905,1,8,0:0:0:0:
267,55,21967,1,8,0:0:0:0:
267,55,22029,1,0,0:0:0:0:
267,55,22153,1,0,0:0:0:0:
267,55,22277,1,8,0:0:0:0:
267,55,22339,1,8,0:0:0:0:
267,55,22401,1,0,0:0:0:0:
267,55,22525,1,0,0:0:0:0:
267,55,22649,1,8,0:0:0:0:
267,55,22711,1,0,0:0:0:0:
267,55,22773,1,8,0:0:0:0:
267,55,22897,1,0,0:0:0:0:
267,55,23021,1,0,0:0:0:0:
267,55,23083,1,8,0:0:0:0:
267,55,23206,1,0,0:0:0:0:
267,55,23268,1,8,0:0:0:0:
267,55,23392,1,8,0:0:0:0:
267,55,23516,1,0,0:0:0:0:
267,55,23640,1,8,0:0:0:0:
278,61,23764,1,0,0:0:0:0:
274,72,23826,1,0,0:0:0:0:
259,48,23888,1,8,0:0:0:0:
278,61,23950,1,8,0:0:0:0:
271,54,24012,1,8,0:0:0:0:
278,61,24074,1,8,0:0:0:0:
271,54,24136,1,8,0:0:0:0:
278,61,24198,1,8,0:0:0:0:
270,54,24260,1,8,0:0:0:0:
286,70,24384,1,4,0:0:0:0:
291,66,24508,1,0,0:0:0:0:
275,57,24632,1,8,0:0:0:0:
275,57,24756,1,0,0:0:0:0:
275,57,24818,1,0,0:0:0:0:
275,57,24880,1,8,0:0:0:0:
263,49,25004,1,8,0:0:0:0:
263,48,25128,1,0,0:0:0:0:
263,49,25190,1,8,0:0:0:0:
263,49,25252,1,0,0:0:0:0:
263,49,25376,1,8,0:0:0:0:
263,48,25500,1,0,0:0:0:0:
263,48,25624,1,8,0:0:0:0:
263,48,25686,1,0,0:0:0:0:
263,48,25748,1,8,0:0:0:0:
263,48,25872,1,0,0:0:0:0:
263,48,25996,1,8,0:0:0:0:
263,48,26058,1,8,0:0:0:0:
249,36,26120,1,0,0:0:0:0:
263,48,26182,1,0,0:0:0:0:
263,48,26244,1,8,0:0:0:0:
263,48,26368,1,0,0:0:0:0:
250,57,26492,1,8,0:0:0:0:
252,44,26616,1,8,0:0:0:0:
252,44,26740,1,0,0:0:0:0:
252,44,26863,1,0,0:0:0:0:
252,44,26925,1,0,0:0:0:0:
252,44,26987,1,8,0:0:0:0:
252,44,27111,1,0,0:0:0:0:
252,44,27235,1,8,0:0:0:0:
252,44,27297,1,8,0:0:0:0:
252,44,27359,1,0,0:0:0:0:
252,44,27483,1,0,0:0:0:0:
252,44,27607,1,8,0:0:0:0:
252,44,27669,1,0,0:0:0:0:
252,44,27731,1,8,0:0:0:0:
252,44,27855,1,0,0:0:0:0:
252,44,27979,1,8,0:0:0:0:
252,44,28041,1,0,0:0:0:0:
252,44,28103,1,0,0:0:0:0:
252,44,28165,1,0,0:0:0:0:
252,44,28227,1,8,0:0:0:0:
252,44,28351,1,0,0:0:0:0:
252,52,28475,1,0,0:0:0:0:
266,55,28599,1,8,0:0:0:0:
266,55,28723,1,0,0:0:0:0:
266,55,28785,1,8,0:0:0:0:
266,55,28847,1,0,0:0:0:0:
266,55,28971,1,8,0:0:0:0:
266,55,29095,1,0,0:0:0:0:
266,55,29157,1,0,0:0:0:0:
266,55,29219,1,8,0:0:0:0:
266,55,29343,1,8,0:0:0:0:
257,52,29467,1,0,0:0:0:0:
257,52,29591,1,8,0:0:0:0:
275,54,29653,1,8,0:0:0:0:
291,62,29715,1,0,0:0:0:0:
271,61,29839,1,8,0:0:0:0:
269,93,29963,1,0,0:0:0:0:
271,88,30025,1,0,0:0:0:0:
269,93,30087,1,8,0:0:0:0:
271,88,30211,1,0,0:0:0:0:
271,88,30335,1,8,0:0:0:0:
275,101,30397,1,0,0:0:0:0:
275,101,30459,1,8,0:0:0:0:
276,104,30583,1,0,0:0:0:0:
275,101,30706,1,0,0:0:0:0:
275,101,30830,1,8,0:0:0:0:
275,101,30892,1,0,0:0:0:0:
275,101,30954,1,8,0:0:0:0:
277,109,31016,1,8,0:0:0:0:
275,101,31078,1,0,0:0:0:0:
275,101,31202,1,8,0:0:0:0:
279,94,31326,1,0,0:0:0:0:
275,101,31388,1,0,0:0:0:0:
275,101,31450,1,0,0:0:0:0:
275,101,31512,1,8,0:0:0:0:
280,92,31636,1,0,0:0:0:0:
280,92,31698,1,8,0:0:0:0:
280,92,31822,1,0,0:0:0:0:
290,90,31905,1,8,0:0:0:0:
288,79,31987,1,0,0:0:0:0:
290,90,32070,1,8,0:0:0:0:
283,98,32194,1,0,0:0:0:0:
283,98,32256,1,0,0:0:0:0:
283,98,32318,1,8,0:0:0:0:
268,104,32566,1,0,0:0:0:0:
268,104,32690,1,8,0:0:0:0:
268,104,32752,1,8,0:0:0:0:
268,104,32814,1,0,0:0:0:0:
279,106,32876,1,8,0:0:0:0:
290,103,32938,1,0,0:0:0:0:
289,102,33062,1,8,0:0:0:0:
284,86,33186,1,8,0:0:0:0:
269,86,33310,1,0,0:0:0:0:
265,97,33372,1,0,0:0:0:0:
268,96,33434,1,8,0:0:0:0:
291,83,33558,1,0,0:0:0:0:
286,84,33620,1,0,0:0:0:0:
291,83,33682,1,8,0:0:0:0:
291,83,33744,1,0,0:0:0:0:
286,84,33806,1,8,0:0:0:0:
291,83,33930,1,0,0:0:0:0:
286,84,33992,1,8,0:0:0:0:
286,84,34054,1,0,0:0:0:0:
291,83,34116,1,0,0:0:0:0:
283,80,34240,1,0,0:0:0:0:
291,83,34302,1,0,0:0:0:0:
283,80,34425,1,8,0:0:0:0:
293,78,34487,1,8,0:0:0:0:
291,83,34549,1,0,0:0:0:0:
285,71,34611,1,0,0:0:0:0:
286,67,34673,1,8,0:0:0:0:
291,59,34797,1,0,0:0:0:0:
278,77,34859,1,8,0:0:0:0:
278,77,34921,1,0,0:0:0:0:
302,88,34983,1,8,0:0:0:0:
283,102,35045,1,8,0:0:0:0:
281,92,35169,1,0,0:0:0:0:
278,77,35293,1,8,0:0:0:0:
278,78,35355,1,0,0:0:0:0:
278,77,35417,1,8,0:0:0:0:
290,64,35479,1,8,0:0:0:0:
278,78,35541,1,0,0:0:0:0:
295,69,35603,1,8,0:0:0:0:
295,69,35665,1,0,0:0:0:0:
266,71,35789,1,8,0:0:0:0:
276,58,35851,1,8,0:0:0:0:
276,58,35913,1,8,0:0:0:0:
276,58,35975,1,8,0:0:0:0:
279,65,36152,1,0,0:0:0:0:
279,65,36271,1,8,0:0:0:0:
279,65,36330,1,0,0:0:0:0:
279,65,36389,1,0,0:0:0:0:
279,65,36448,1,0,0:0:0:0:
268,44,36508,1,8,0:0:0:0:
277,55,36626,1,0,0:0:0:0:
279,65,36685,1,0,0:0:0:0:
277,55,36745,1,8,0:0:0:0:
293,54,36863,1,0,0:0:0:0:
290,53,36922,1,0,0:0:0:0:
277,55,36982,1,8,0:0:0:0:
283,57,37041,1,8,0:0:0:0:
283,57,37100,1,0,0:0:0:0:
277,55,37219,1,8,0:0:0:0:
285,64,37278,1,0,0:0:0:0:
285,64,37337,1,8,0:0:0:0:
285,64,37456,1,0,0:0:0:0:
285,64,37574,1,8,0:0:0:0:
285,64,37693,1,0,0:0:0:0:
280,56,37752,1,8,0:0:0:0:
280,56,37811,1,8,0:0:0:0:
285,64,37871,1,8,0:0:0:0:
285,64,37930,1,0,0:0:0:0:
276,69,38048,1,8,0:0:0:0:
280,74,38108,1,0,0:0:0:0:
273,68,38167,1,8,0:0:0:0:
276,69,38285,1,0,0:0:0:0:
269,77,38404,1,8,0:0:0:0:
276,69,38463,1,0,0:0:0:0:
276,69,38522,1,8,0:0:0:0:
309,92,38582,1,0,0:0:0:0:
292,81,38641,1,8,0:0:0:0:
292,81,38759,1,0,0:0:0:0:
292,81,38878,1,0,0:0:0:0:
285,77,38937,1,8,0:0:0:0:
283,78,38996,1,8,0:0:0:0:
286,74,39056,1,0,0:0:0:0:
285,76,39115,1,8,0:0:0:0:
283,78,39234,1,0,0:0:0:0:
291,82,39273,1,8,0:0:0:0:
290,81,39313,1,8,0:0:0:0:
291,79,39352,1,0,0:0:0:0:
300,77,39471,1,8,0:0:0:0:
291,82,39589,1,8,0:0:0:0:
300,81,39708,1,0,0:0:0:0:
291,82,39767,1,0,0:0:0:0:
300,81,39826,1,8,0:0:0:0:
287,76,39885,1,0,0:0:0:0:
291,82,40004,1,0,0:0:0:0:
292,77,40063,1,8,0:0:0:0:
287,76,40122,1,8,0:0:0:0:
291,82,40182,1,0,0:0:0:0:
292,77,40300,1,8,0:0:0:0:
306,77,40359,1,0,0:0:0:0:
305,75,40419,1,8,0:0:0:0:
301,87,40478,1,0,0:0:0:0:
298,86,40537,1,8,0:0:0:0:
320,80,40616,1,8,0:0:0:0:
317,84,40695,1,8,0:0:0:0:
321,84,40774,1,8,0:0:0:0:
309,76,40893,1,0,0:0:0:0:
306,74,41011,1,0,0:0:0:0:
309,76,41130,1,8,0:0:0:0:
298,76,41189,1,8,0:0:0:0:
306,74,41248,1,0,0:0:0:0:
309,76,41308,1,0,0:0:0:0:
309,76,41367,1,8,0:0:0:0:
306,74,41485,1,0,0:0:0:0:
309,76,41604,1,8,0:0:0:0:
306,74,41663,1,0,0:0:0:0:
306,74,41722,1,0,0:0:0:0:
309,76,41782,1,0,0:0:0:0:
309,76,41841,1,8,0:0:0:0:
314,74,41959,1,0,0:0:0:0:
306,54,42078,1,8,0:0:0:0:
306,54,42137,1,0,0:0:0:0:
307,54,42196,1,8,0:0:0:0:
313,50,42256,1,8,0:0:0:0:
287,64,42315,1,0,0:0:0:0:
319,52,42434,1,0,0:0:0:0:
319,52,42552,1,8,0:0:0:0:
319,52,42611,1,8,0:0:0:0:
319,52,42671,1,0,0:0:0:0:
319,52,42730,1,8,0:0:0:0:
329,69,42789,1,0,0:0:0:0:
328,58,42908,1,8,0:0:0:0:
329,58,43026,1,0,0:0:0:0:
327,58,43085,1,0,0:0:0:0:
328,58,43145,1,8,0:0:0:0:
329,58,43204,1,8,0:0:0:0:
329,58,43263,1,0,0:0:0:0:
328,58,43382,1,8,0:0:0:0:
300,58,43461,1,0,0:0:0:0:
329,49,43540,1,8,0:0:0:0:
339,43,43619,1,8,0:0:0:0:
334,43,43694,1,0,0:0:0:0:
335,42,43769,1,0,0:0:0:0:
330,44,43845,1,8,0:0:0:0:
334,43,43920,1,8,0:0:0:0:
335,42,43996,1,0,0:0:0:0:
341,43,44072,1,0,0:0:0:0:
348,47,44147,1,8,0:0:0:0:
353,60,44261,1,0,0:0:0:0:
341,74,44317,1,0,0:0:0:0:
340,72,44374,1,8,0:0:0:0:
334,71,44487,1,0,0:0:0:0:
317,79,44601,1,0,0:0:0:0:
317,79,44658,1,0,0:0:0:0:
317,79,44715,1,8,0:0:0:0:
329,85,44771,1,0,0:0:0:0:
327,86,44828,1,8,0:0:0:0:
317,79,44941,1,8,0:0:0:0:
317,79,45055,1,0,0:0:0:0:
308,70,45168,1,0,0:0:0:0:
291,91,45508,1,0,0:0:0:0:
291,91,45622,1,0,0:0:0:0:
291,91,45678,1,0,0:0:0:0:
291,91,45735,1,8,0:0:0:0:
291,73,45792,1,8,0:0:0:0:
303,70,45849,1,0,0:0:0:0:
303,70,45962,1,0,0:0:0:0:
291,80,46075,1,8,0:0:0:0:
291,80,46132,1,8,0:0:0:0:
291,80,46189,1,0,0:0:0:0:
291,80,46302,1,0,0:0:0:0:
291,80,46416,1,8,0:0:0:0:
298,77,46586,1,0,0:0:0:0:
302,64,46756,1,8,0:0:0:0:
302,64,46869,1,0,0:0:0:0:
302,64,46926,1,8,0:0:0:0:
302,64,46983,1,0,0:0:0:0:
302,64,47096,1,8,0:0:0:0:
302,64,47153,1,0,0:0:0:0:
296,71,47210,1,8,0:0:0:0:
296,71,47323,1,0,0:0:0:0:
287,69,47550,1,8,0:0:0:0:
287,69,47663,1,0,0:0:0:0:
283,78,54589,5,8,0:0:0:0:
283,78,54697,1,8,0:0:0:0:
283,78,54806,1,8,0:0:0:0:
279,89,54914,1,8,0:0:0:0:
275,85,55023,1,0,0:0:0:0:
275,85,55186,1,0,0:0:0:0:
275,85,55349,1,0,0:0:0:0:
275,85,55512,1,8,0:0:0:0:
275,85,55675,1,0,0:0:0:0:
275,85,55838,1,0,0:0:0:0:
275,85,56001,1,8,0:0:0:0:
275,74,56055,1,0,0:0:0:0:
261,75,56110,1,8,0:0:0:0:
269,94,56327,1,8,0:0:0:0:
269,94,56435,1,0,0:0:0:0:
269,94,56490,1,0,0:0:0:0:
239,108,56544,1,8,0:0:0:0:
255,89,56653,1,0,0:0:0:0:
261,90,56761,1,8,0:0:0:0:
261,90,56816,1,0,0:0:0:0:
261,90,56870,1,8,0:0:0:0:
273,93,56979,1,0,0:0:0:0:
265,76,57087,1,8,0:0:0:0:
265,76,57196,1,0,0:0:0:0:
267,66,57250,1,0,0:0:0:0:
265,76,57305,1,0,0:0:0:0:
265,76,57413,1,8,0:0:0:0:
265,76,57522,1,0,0:0:0:0:
265,76,57576,1,0,0:0:0:0:
265,76,57631,1,8,0:0:0:0:
265,76,57739,1,8,0:0:0:0:
265,76,57848,1,8,0:0:0:0:
259,77,57957,1,8,0:0:0:0:
258,81,58065,1,0,0:0:0:0:
258,81,58174,1,0,0:0:0:0:
258,81,58228,1,0,0:0:0:0:
258,81,58282,1,8,0:0:0:0:
259,72,58391,1,0,0:0:0:0:
258,81,58500,1,8,0:0:0:0:
259,72,58554,1,8,0:0:0:0:
259,72,58608,1,0,0:0:0:0:
258,81,58717,1,8,0:0:0:0:
253,79,58826,1,0,0:0:0:0:
245,80,58934,1,8,0:0:0:0:
253,79,58989,1,8,0:0:0:0:
253,79,59043,1,0,0:0:0:0:
267,75,59152,1,8,0:0:0:0:
268,75,59260,1,0,0:0:0:0:
267,75,59315,1,8,0:0:0:0:
258,71,59369,1,0,0:0:0:0:
255,73,59478,1,8,0:0:0:0:
250,68,59532,1,8,0:0:0:0:
263,76,59586,1,0,0:0:0:0:
263,76,59641,1,8,0:0:0:0:
263,76,59695,1,0,0:0:0:0:
263,76,59804,1,8,0:0:0:0:
263,76,59912,1,0,0:0:0:0:
263,76,60021,1,8,0:0:0:0:
263,76,60075,1,0,0:0:0:0:
256,70,60129,1,8,0:0:0:0:
251,63,60238,1,0,0:0:0:0:
251,63,60347,1,0,0:0:0:0:
251,63,60401,1,0,0:0:0:0:
251,63,60455,1,8,0:0:0:0:
251,63,60564,1,0,0:0:0:0:
251,63,60618,1,0,0:0:0:0:
251,63,60673,1,8,0:0:0:0:
251,63,60781,1,0,0:0:0:0:
251,63,60836,1,8,0:0:0:0:
251,63,60890,1,0,0:0:0:0:
250,58,60944,1,0,0:0:0:0:
251,63,60999,1,8,0:0:0:0:
251,63,61053,1,8,0:0:0:0:
251,63,61107,1,0,0:0:0:0:
248,53,61216,1,8,0:0:0:0:
247,53,61325,1,0,0:0:0:0:
248,53,61379,1,8,0:0:0:0:
248,53,61433,1,0,0:0:0:0:
247,53,61542,1,8,0:0:0:0:
248,53,61651,1,0,0:0:0:0:
234,55,61705,1,0,0:0:0:0:
236,47,61759,1,8,0:0:0:0:
251,66,61868,1,0,0:0:0:0:
251,62,61976,1,8,0:0:0:0:
256,58,62085,1,0,0:0:0:0:
251,62,62139,1,8,0:0:0:0:
251,62,62194,1,0,0:0:0:0:
256,58,62302,1,8,0:0:0:0:
251,62,62411,1,0,0:0:0:0:
265,63,62465,1,0,0:0:0:0:
265,63,62520,1,0,0:0:0:0:
261,59,62628,1,8,0:0:0:0:
265,63,62737,1,0,0:0:0:0:
261,59,62846,1,8,0:0:0:0:
265,63,62900,1,0,0:0:0:0:
265,63,62954,1,0,0:0:0:0:
261,59,63009,1,0,0:0:0:0:
261,59,63063,1,8,0:0:0:0:
265,63,63172,1,0,0:0:0:0:
264,49,63280,1,8,0:0:0:0:
265,63,63353,1,8,0:0:0:0:
270,62,63425,1,0,0:0:0:0:
266,79,63498,1,8,0:0:0:0:
270,62,63606,1,8,0:0:0:0:
267,56,63715,1,0,0:0:0:0:
270,62,63769,1,0,0:0:0:0:
270,62,63823,1,0,0:0:0:0:
281,52,63932,1,8,0:0:0:0:
282,50,64041,1,0,0:0:0:0:
282,51,64095,1,8,0:0:0:0:
290,53,64149,1,0,0:0:0:0:
289,55,64258,1,0,0:0:0:0:
290,53,64367,1,8,0:0:0:0:
289,55,64421,1,0,0:0:0:0:
289,55,64475,1,8,0:0:0:0:
282,49,64584,1,0,0:0:0:0:
282,49,64693,1,0,0:0:0:0:
290,52,64801,1,8,0:0:0:0:
282,49,64856,1,8,0:0:0:0:
289,52,64910,1,0,0:0:0:0:
297,51,65019,1,8,0:0:0:0:
281,57,65091,1,8,0:0:0:0:
286,49,65163,1,8,0:0:0:0:
286,49,65236,1,0,0:0:0:0:
286,49,65344,1,8,0:0:0:0:
280,53,65399,1,8,0:0:0:0:
286,49,65453,1,0,0:0:0:0:
264,37,65562,1,8,0:0:0:0:
269,42,65670,1,0,0:0:0:0:
264,44,65779,1,8,0:0:0:0:
284,126,65888,1,0,0:0:0:0:
269,76,65996,1,8,0:0:0:0:
269,76,66105,1,0,0:0:0:0:
264,58,66159,1,0,0:0:0:0:
269,76,66214,1,8,0:0:0:0:
261,93,66322,1,0,0:0:0:0:
275,79,68981,1,8,0:0:0:0:
275,79,69033,1,0,0:0:0:0:
269,66,69085,1,8,0:0:0:0:
255,76,69137,1,0,0:0:0:0:
251,62,69189,1,8,0:0:0:0:
256,66,69293,1,0,0:0:0:0:
263,70,69397,1,8,0:0:0:0:
250,69,69449,1,8,0:0:0:0:
256,66,69501,1,0,0:0:0:0:
251,70,69606,1,8,0:0:0:0:
256,66,69710,1,0,0:0:0:0:
251,60,69814,1,0,0:0:0:0:
256,66,69866,1,0,0:0:0:0:
256,66,69918,1,8,0:0:0:0:
251,60,70022,1,0,0:0:0:0:
256,66,70126,1,8,0:0:0:0:
251,60,70231,1,0,0:0:0:0:
256,66,70283,1,0,0:0:0:0:
256,66,70335,1,8,0:0:0:0:
251,60,70439,1,8,0:0:0:0:
256,66,70543,1,8,0:0:0:0:
257,61,70647,1,0,0:0:0:0:
256,66,70699,1,0,0:0:0:0:
256,66,70751,1,0,0:0:0:0:
257,61,70856,1,8,0:0:0:0:
256,66,70960,1,8,0:0:0:0:
257,61,71064,1,8,0:0:0:0:
256,66,71168,1,8,0:0:0:0:
257,61,71272,1,8,0:0:0:0:
256,66,71376,1,8,0:0:0:0:
257,61,71481,1,0,0:0:0:0:
271,58,71585,1,8,0:0:0:0:
271,58,71637,1,0,0:0:0:0:
271,58,71689,1,8,0:0:0:0:
271,58,71793,1,0,0:0:0:0:
271,58,71897,1,8,0:0:0:0:
271,58,72001,1,0,0:0:0:0:
271,58,72053,1,0,0:0:0:0:
271,58,72106,1,8,0:0:0:0:
271,58,72158,1,8,0:0:0:0:
271,58,72314,1,8,0:0:0:0:
271,58,72366,1,0,0:0:0:0:
269,56,72626,1,8,0:0:0:0:
269,56,72678,1,0,0:0:0:0:
273,56,72939,1,8,0:0:0:0:
273,56,72991,1,0,0:0:0:0:
273,56,73251,1,0,0:0:0:0:
273,56,73303,1,0,0:0:0:0:
275,55,73564,1,8,0:0:0:0:
275,55,73720,1,0,0:0:0:0:
235,164,73951,1,8,0:0:0:0:
251,165,74019,1,0,0:0:0:0:
252,165,74087,1,8,0:0:0:0:
251,165,74155,1,0,0:0:0:0:
249,165,74223,1,0,0:0:0:0:
275,147,80452,5,0,0:0:0:0:
275,147,80751,1,0,0:0:0:0:
265,115,81251,1,0,0:0:0:0:
265,115,81551,1,0,0:0:0:0:
265,115,82051,1,0,0:0:0:0:
265,115,82351,1,0,0:0:0:0:
265,115,82651,1,0,0:0:0:0:
265,115,82751,1,0,0:0:0:0:
265,115,82851,1,0,0:0:0:0:
265,115,83151,1,0,0:0:0:0:
265,115,83650,1,0,0:0:0:0:
265,115,83950,1,0,0:0:0:0:
265,115,84450,1,0,0:0:0:0:
265,115,84750,1,0,0:0:0:0:
296,120,85250,1,0,0:0:0:0:
287,117,85550,1,0,0:0:0:0:
287,117,85850,1,0,0:0:0:0:
294,121,85883,1,0,0:0:0:0:
301,114,86050,1,0,0:0:0:0:
306,112,86349,1,0,0:0:0:0:
295,103,86849,1,8,0:0:0:0:
295,103,87149,1,0,0:0:0:0:
294,105,87649,1,0,0:0:0:0:
294,105,87949,1,0,0:0:0:0:
290,107,88449,1,0,0:0:0:0:
291,107,88749,1,0,0:0:0:0:
291,107,89049,1,0,0:0:0:0:
291,107,89148,1,0,0:0:0:0:
291,107,89248,1,0,0:0:0:0:
286,104,89548,1,0,0:0:0:0:
286,104,90048,1,0,0:0:0:0:
286,104,90348,1,0,0:0:0:0:
281,101,90848,1,0,0:0:0:0:
281,101,91148,1,0,0:0:0:0:
279,98,91648,1,0,0:0:0:0:
279,98,91948,1,0,0:0:0:0:
262,99,92247,1,0,0:0:0:0:
298,81,92281,1,0,0:0:0:0:
288,86,92447,1,0,0:0:0:0:
263,108,92747,1,0,0:0:0:0:
271,108,93247,1,0,0:0:0:0:
288,86,93447,1,8,0:0:0:0:
289,83,93547,1,0,0:0:0:0:
281,93,93747,1,8,0:0:0:0:
282,80,93847,1,8,0:0:0:0:
267,79,94047,1,0,0:0:0:0:
267,79,94347,1,0,0:0:0:0:
267,79,94447,1,8,0:0:0:0:
267,79,94547,1,0,0:0:0:0:
267,79,94647,1,8,0:0:0:0:
271,84,94847,1,0,0:0:0:0:
264,86,95046,1,8,0:0:0:0:
264,86,95146,1,0,0:0:0:0:
257,81,95246,1,8,0:0:0:0:
264,86,95446,1,8,0:0:0:0:
264,86,95646,1,0,0:0:0:0:
264,86,95846,1,8,0:0:0:0:
263,84,95946,1,0,0:0:0:0:
264,86,96046,1,0,0:0:0:0:
256,81,96246,1,8,0:0:0:0:
256,81,96346,1,8,0:0:0:0:
256,81,96446,1,0,0:0:0:0:
256,81,96546,1,8,0:0:0:0:
256,81,96746,1,0,0:0:0:0:
256,81,96846,1,8,0:0:0:0:
256,81,97046,1,8,0:0:0:0:
256,81,97146,1,8,0:0:0:0:
256,81,97246,1,0,0:0:0:0:
256,81,97446,1,8,0:0:0:0:
255,80,97546,1,0,0:0:0:0:
256,81,97646,1,0,0:0:0:0:
255,80,97845,1,0,0:0:0:0:
255,80,97945,1,0,0:0:0:0:
255,80,98045,1,0,0:0:0:0:
322,46,98245,1,8,0:0:0:0:
255,80,98345,1,0,0:0:0:0:
255,80,98445,1,0,0:0:0:0:
277,89,98579,1,8,0:0:0:0:
286,84,98778,1,8,0:0:0:0:
301,100,98945,1,0,0:0:0:0:
269,71,99045,1,0,0:0:0:0:
260,72,99245,1,8,0:0:0:0:
283,66,99312,1,8,0:0:0:0:
283,66,99378,1,8,0:0:0:0:
283,66,99445,1,8,0:0:0:0:
283,66,99512,1,8,0:0:0:0:
283,66,99578,1,8,0:0:0:0:
305,75,102441,1,0,0:0:0:0:
305,75,102507,1,0,0:0:0:0:
305,75,102574,1,0,0:0:0:0:
305,75,102641,1,0,0:0:0:0:
305,75,102707,1,0,0:0:0:0:
332,118,102839,1,8,0:0:0:0:
295,89,102935,1,0,0:0:0:0:
295,89,102983,1,0,0:0:0:0:
305,75,103031,1,8,0:0:0:0:
310,89,103127,1,0,0:0:0:0:
302,88,103223,1,8,0:0:0:0:
310,88,103271,1,8,0:0:0:0:
301,88,103319,1,0,0:0:0:0:
302,88,103415,1,8,0:0:0:0:
295,87,103511,1,0,0:0:0:0:
302,88,103607,1,8,0:0:0:0:
302,88,103655,1,8,0:0:0:0:
295,87,103703,1,8,0:0:0:0:
302,88,103799,1,0,0:0:0:0:
295,87,103895,1,8,0:0:0:0:
288,93,103943,1,8,0:0:0:0:
295,87,103991,1,0,0:0:0:0:
295,87,104087,1,0,0:0:0:0:
295,89,104183,1,8,0:0:0:0:
295,87,104231,1,0,0:0:0:0:
303,81,104279,1,0,0:0:0:0:
303,81,104375,1,8,0:0:0:0:
302,84,104471,1,0,0:0:0:0:
303,81,104567,1,0,0:0:0:0:
297,77,104663,1,8,0:0:0:0:
296,77,104711,1,8,0:0:0:0:
296,77,104759,1,0,0:0:0:0:
297,77,104855,1,8,0:0:0:0:
296,77,104951,1,0,0:0:0:0:
297,77,105047,1,0,0:0:0:0:
296,77,105143,1,8,0:0:0:0:
301,81,105191,1,8,0:0:0:0:
313,81,105239,1,8,0:0:0:0:
297,77,105335,1,0,0:0:0:0:
283,75,105431,1,8,0:0:0:0:
303,70,105479,1,8,0:0:0:0:
304,70,105527,1,0,0:0:0:0:
290,72,105623,1,0,0:0:0:0:
291,72,105719,1,8,0:0:0:0:
290,72,105815,1,0,0:0:0:0:
313,69,105911,1,8,0:0:0:0:
314,68,105959,1,8,0:0:0:0:
313,80,106007,1,8,0:0:0:0:
295,67,106103,1,0,0:0:0:0:
314,68,106199,1,8,0:0:0:0:
313,80,106247,1,8,0:0:0:0:
303,67,106295,1,0,0:0:0:0:
302,65,106391,1,0,0:0:0:0:
306,68,106487,1,8,0:0:0:0:
302,65,106583,1,0,0:0:0:0:
306,68,106679,1,8,0:0:0:0:
298,69,106727,1,8,0:0:0:0:
302,65,106775,1,0,0:0:0:0:
298,69,106871,1,0,0:0:0:0:
298,69,106967,1,8,0:0:0:0:
302,65,107015,1,8,0:0:0:0:
298,69,107063,1,8,0:0:0:0:
298,69,107159,1,0,0:0:0:0:
305,65,107255,1,8,0:0:0:0:
305,65,107303,1,8,0:0:0:0:
305,63,107351,1,8,0:0:0:0:
292,70,107447,1,0,0:0:0:0:
305,65,107543,1,0,0:0:0:0:
308,56,107639,1,8,0:0:0:0:
310,53,107687,1,8,0:0:0:0:
310,53,107735,1,0,0:0:0:0:
309,53,107831,1,8,0:0:0:0:
304,58,107927,1,8,0:0:0:0:
304,59,108023,1,0,0:0:0:0:
305,59,108071,1,8,0:0:0:0:
304,58,108119,1,0,0:0:0:0:
304,59,108215,1,8,0:0:0:0:
305,59,108311,1,0,0:0:0:0:
304,59,108407,1,8,0:0:0:0:
304,59,108455,1,8,0:0:0:0:
305,59,108503,1,0,0:0:0:0:
304,59,108599,1,8,0:0:0:0:
290,56,108695,1,0,0:0:0:0:
315,59,108791,1,8,0:0:0:0:
315,59,108839,1,8,0:0:0:0:
315,59,108887,1,8,0:0:0:0:
307,59,108983,1,0,0:0:0:0:
307,58,109079,1,0,0:0:0:0:
306,59,109175,1,8,0:0:0:0:
307,58,109271,1,8,0:0:0:0:
299,63,109367,1,0,0:0:0:0:
300,63,109463,1,8,0:0:0:0:
299,63,109559,1,0,0:0:0:0:
299,63,109607,1,0,0:0:0:0:
300,63,109655,1,8,0:0:0:0:
299,63,109751,1,0,0:0:0:0:
300,63,109847,1,0,0:0:0:0:
293,58,109943,1,8,0:0:0:0:
287,62,110039,1,0,0:0:0:0:
293,58,110135,1,8,0:0:0:0:
299,63,110231,1,8,0:0:0:0:
293,58,110327,1,0,0:0:0:0:
299,63,110375,1,0,0:0:0:0:
299,63,110423,1,8,0:0:0:0:
293,58,110519,1,0,0:0:0:0:
299,63,110615,1,0,0:0:0:0:
293,58,110711,1,8,0:0:0:0:
291,59,110807,1,0,0:0:0:0:
293,58,110903,1,8,0:0:0:0:
291,59,110999,1,8,0:0:0:0:
293,58,111095,1,0,0:0:0:0:
293,58,111143,1,0,0:0:0:0:
291,59,111191,1,8,0:0:0:0:
288,63,111287,1,0,0:0:0:0:
293,58,111383,1,8,0:0:0:0:
287,52,111479,1,0,0:0:0:0:
293,58,111575,1,0,0:0:0:0:
287,52,111671,1,8,0:0:0:0:
285,56,111767,1,8,0:0:0:0:
285,56,111863,1,0,0:0:0:0:
287,52,111911,1,0,0:0:0:0:
286,53,111959,1,0,0:0:0:0:
285,56,112055,1,8,0:0:0:0:
292,41,112151,1,0,0:0:0:0:
281,42,112247,1,0,0:0:0:0:
260,50,112343,1,0,0:0:0:0:
281,64,112439,1,8,0:0:0:0:
283,65,112535,1,0,0:0:0:0:
281,64,112631,1,8,0:0:0:0:
282,65,112679,1,0,0:0:0:0:
282,65,112727,1,0,0:0:0:0:
281,49,112823,1,0,0:0:0:0:
281,49,112919,1,8,0:0:0:0:
281,49,113015,1,0,0:0:0:0:
292,59,113111,1,0,0:0:0:0:
302,64,113207,1,8,0:0:0:0:
296,56,113303,1,0,0:0:0:0:
296,56,113399,1,8,0:0:0:0:
296,56,113495,1,0,0:0:0:0:
296,56,113591,1,8,0:0:0:0:
296,56,113639,1,0,0:0:0:0:
296,56,113687,1,0,0:0:0:0:
282,62,113735,1,0,0:0:0:0:
296,56,113783,1,8,0:0:0:0:
296,56,113879,1,0,0:0:0:0:
296,56,113975,1,8,0:0:0:0:
303,65,114023,1,0,0:0:0:0:
296,56,114071,1,0,0:0:0:0:
304,60,114119,1,0,0:0:0:0:
303,66,114167,1,8,0:0:0:0:
303,65,114263,1,0,0:0:0:0:
312,71,114359,1,8,0:0:0:0:
312,71,114407,1,0,0:0:0:0:
312,71,114455,1,0,0:0:0:0:
303,65,114503,1,0,0:0:0:0:
304,60,114551,1,8,0:0:0:0:
305,58,114647,1,0,0:0:0:0:
306,58,114743,1,8,0:0:0:0:
314,50,114791,1,8,0:0:0:0:
314,56,114839,1,0,0:0:0:0:
314,55,114887,1,0,0:0:0:0:
314,55,114935,1,8,0:0:0:0:
314,56,115031,1,8,0:0:0:0:
326,51,115127,1,0,0:0:0:0:
292,78,115223,1,0,0:0:0:0:
304,63,115319,1,8,0:0:0:0:
309,53,115415,1,0,0:0:0:0:
302,55,115511,1,8,0:0:0:0:
325,46,115559,1,8,0:0:0:0:
309,53,115607,1,0,0:0:0:0:
321,52,115703,1,8,0:0:0:0:
321,52,115799,1,0,0:0:0:0:
321,52,115895,1,8,0:0:0:0:
321,52,115943,1,8,0:0:0:0:
321,52,115991,1,8,0:0:0:0:
321,52,116087,1,0,0:0:0:0:
305,50,116183,1,8,0:0:0:0:
303,49,116231,1,8,0:0:0:0:
305,50,116279,1,0,0:0:0:0:
305,50,116375,1,0,0:0:0:0:
292,45,116471,1,8,0:0:0:0:
294,46,116519,1,8,0:0:0:0:
294,46,116567,1,0,0:0:0:0:
292,45,116663,1,8,0:0:0:0:
294,46,116759,1,0,0:0:0:0:
294,46,116855,1,8,0:0:0:0:
292,45,116903,1,0,0:0:0:0:
294,46,116951,1,8,0:0:0:0:
305,50,117047,1,0,0:0:0:0:
294,46,117143,1,0,0:0:0:0:
300,43,117239,1,8,0:0:0:0:
285,36,117287,1,8,0:0:0:0:
308,44,117335,1,0,0:0:0:0:
309,44,117431,1,8,0:0:0:0:
305,55,117479,1,8,0:0:0:0:
309,44,117527,1,0,0:0:0:0:
308,44,117623,1,0,0:0:0:0:
309,44,117719,1,8,0:0:0:0:
309,44,117767,1,0,0:0:0:0:
308,44,117815,1,0,0:0:0:0:
309,44,117911,1,0,0:0:0:0:
309,44,118007,1,8,0:0:0:0:
308,44,118055,1,8,0:0:0:0:
309,44,118103,1,0,0:0:0:0:
309,55,118199,1,8,0:0:0:0:
308,55,118247,1,8,0:0:0:0:
308,54,118295,1,0,0:0:0:0:
307,50,118391,1,0,0:0:0:0:
308,55,118487,1,8,0:0:0:0:
308,54,118535,1,8,0:0:0:0:
307,50,118583,1,0,0:0:0:0:
308,55,118679,1,0,0:0:0:0:
308,54,118775,1,8,0:0:0:0:
307,50,118823,1,0,0:0:0:0:
308,55,118871,1,0,0:0:0:0:
308,54,118967,1,8,0:0:0:0:
308,54,119015,1,8,0:0:0:0:
313,56,119063,1,0,0:0:0:0:
308,54,119159,1,0,0:0:0:0:
313,60,119255,1,8,0:0:0:0:
313,61,119303,1,8,0:0:0:0:
313,61,119351,1,0,0:0:0:0:
313,60,119447,1,0,0:0:0:0:
313,61,119543,1,8,0:0:0:0:
287,67,119591,1,8,0:0:0:0:
293,64,119639,1,0,0:0:0:0:
293,64,119735,1,8,0:0:0:0:
272,57,119831,1,0,0:0:0:0:
300,59,119927,1,8,0:0:0:0:
300,59,119975,1,8,0:0:0:0:
300,59,120023,1,0,0:0:0:0:
300,59,120119,1,8,0:0:0:0:
300,59,120215,1,0,0:0:0:0:
300,59,120311,1,8,0:0:0:0:
300,59,120359,1,8,0:0:0:0:
288,56,120407,1,0,0:0:0:0:
288,56,120503,1,8,0:0:0:0:
288,56,120599,1,0,0:0:0:0:
288,56,120695,1,8,0:0:0:0:
288,56,120743,1,8,0:0:0:0:
288,56,120791,1,8,0:0:0:0:
288,56,120887,1,0,0:0:0:0:
288,56,120983,1,0,0:0:0:0:
288,56,121079,1,8,0:0:0:0:
288,56,121127,1,0,0:0:0:0:
288,56,121175,1,8,0:0:0:0:
288,56,121271,1,0,0:0:0:0:
297,62,121367,1,0,0:0:0:0:
296,61,121463,1,8,0:0:0:0:
297,62,121559,1,8,0:0:0:0:
296,61,121655,1,0,0:0:0:0:
297,62,121751,1,0,0:0:0:0:
297,62,121847,1,8,0:0:0:0:
297,62,121943,1,0,0:0:0:0:
297,62,122039,1,8,0:0:0:0:
296,61,122135,1,0,0:0:0:0:
297,62,122231,1,8,0:0:0:0:
296,61,122327,1,0,0:0:0:0:
296,61,122375,1,0,0:0:0:0:
297,62,122423,1,8,0:0:0:0:
296,61,122519,1,0,0:0:0:0:
296,61,122615,1,8,0:0:0:0:
308,52,122663,1,0,0:0:0:0:
297,62,122711,1,0,0:0:0:0:
296,61,122807,1,8,0:0:0:0:
297,62,122903,1,0,0:0:0:0:
292,48,122999,1,8,0:0:0:0:
297,62,123095,1,0,0:0:0:0:
294,59,123191,1,8,0:0:0:0:
293,51,123239,1,8,0:0:0:0:
293,51,123287,1,0,0:0:0:0:
294,59,123383,1,8,0:0:0:0:
290,57,123431,1,0,0:0:0:0:
290,58,123479,1,0,0:0:0:0:
294,59,123575,1,0,0:0:0:0:
290,57,123671,1,8,0:0:0:0:
294,59,123719,1,8,0:0:0:0:
294,59,123767,1,0,0:0:0:0:
290,57,123863,1,0,0:0:0:0:
294,59,123959,1,8,0:0:0:0:
289,53,124007,1,0,0:0:0:0:
290,57,124055,1,8,0:0:0:0:
286,42,124151,1,0,0:0:0:0:
286,42,124247,1,0,0:0:0:0:
286,42,124343,1,8,0:0:0:0:
286,42,124439,1,0,0:0:0:0:
286,42,124535,1,8,0:0:0:0:
286,42,124583,1,8,0:0:0:0:
286,42,124631,1,0,0:0:0:0:
286,42,124727,1,8,0:0:0:0:
286,42,124823,1,0,0:0:0:0:
286,42,124919,1,8,0:0:0:0:
286,42,124967,1,8,0:0:0:0:
286,42,125015,1,0,0:0:0:0:
286,42,125111,1,0,0:0:0:0:
286,42,125239,1,8,0:0:0:0:
286,42,125367,1,0,0:0:0:0:
295,42,125495,1,8,0:0:0:0:
295,42,125623,1,8,0:0:0:0:
295,42,125751,1,0,0:0:0:0:
297,56,125879,1,8,0:0:0:0:
280,70,125975,1,8,0:0:0:0:
291,102,126071,1,0,0:0:0:0:
291,76,126167,1,8,0:0:0:0:
280,70,126263,1,8,0:0:0:0:
280,70,126359,1,0,0:0:0:0:
296,71,126455,1,8,0:0:0:0:
300,68,126519,1,8,0:0:0:0:
301,68,126583,1,0,0:0:0:0:
301,68,126647,1,8,0:0:0:0:
302,68,126711,1,8,0:0:0:0:
300,68,126775,1,0,0:0:0:0:
300,68,126839,1,8,0:0:0:0:
312,68,126935,1,0,0:0:0:0:
300,68,126983,1,0,0:0:0:0:
300,68,127031,1,8,0:0:0:0:
303,62,127079,1,8,0:0:0:0:
303,62,127127,1,0,0:0:0:0:
303,62,127175,1,0,0:0:0:0:
294,58,127223,1,8,0:0:0:0:
281,67,127415,1,4,0:0:0:0:
