osu file format v14

[General]
AudioFilename: audio.mp3
AudioLeadIn: 0
PreviewTime: 54506
Countdown: 0
SampleSet: Normal
StackLeniency: 0.2
Mode: 1
LetterboxInBreaks: 0
WidescreenStoryboard: 1

[Editor]
DistanceSpacing: 0.9
BeatDivisor: 4
GridSize: 32
TimelineZoom: 4.499999

[Metadata]
Title:Mdrqnxtagon
TitleUnicode:Mdrqnxtagon
Artist:Frums
ArtistUnicode:Frums
Creator:Nifty
Version:Genjuro's Inner Oni
Source:
Tags:fast loud electronic instrumental ksm k-shoot mania experimental noise sf2016 pucific speedcore breakcore glitch chaos genjuro
BeatmapID:2135941
BeatmapSetID:967870

[Difficulty]
HPDrainRate:5
CircleSize:2
OverallDifficulty:6.5
ApproachRate:9
SliderMultiplier:1.4
SliderTickRate:1

[Events]
//Background and Video events
0,0,"mdrqnxtagon.jpg",0,0
//Break Periods
2,47523,52167
2,74423,79852
2,99745,102239
//Storyboard Layer 0 (Background)
//Storyboard Layer 1 (Fail)
//Storyboard Layer 2 (Pass)
//Storyboard Layer 3 (Foreground)
//Storyboard Layer 4 (Overlay)
//Storyboard Sound Samples

[TimingPoints]
583,247.933884297521,4,1,0,40,1,0
583,-133.333333333333,4,1,0,40,0,0
8516,-133.333333333333,4,1,0,60,0,0
8764,-132.762631036717,4,1,0,60,0,0
8888,-132.479283552035,4,1,0,60,0,0
9136,-131.91585351536,4,1,0,60,0,0
9260,-131.635931870507,4,1,0,60,0,0
9508,-131.079637433723,4,1,0,60,0,0
9632,-130.80342077106,4,1,0,60,0,0
9880,-130.254125799435,4,1,0,60,0,0
10004,-129.981204717798,4,1,0,60,0,0
10252,-129.438946884728,4,1,0,60,0,0
10376,-129.169427663183,4,1,0,60,0,0
10500,-128.901028501306,4,1,0,60,0,0
10748,-128.367562543886,4,1,0,60,0,0
10872,-128.102481985588,4,1,0,60,0,0
11120,-127.575754483012,4,1,0,60,0,0
11244,-127.313930690296,4,1,0,60,0,0
11492,-126.793493972237,4,1,0,60,0,0
11616,-126.534867948212,4,1,0,60,0,0
11864,-126.020927035143,4,1,0,60,0,0
11988,-125.765439908644,4,1,0,60,0,0
12235,-125.257560859517,4,1,0,60,0,0
12297,-125.131231378909,4,1,0,60,0,0
12359,-125.005312725791,4,1,0,60,0,0
12483,-124.753922887105,4,1,0,60,0,0
12731,-124.254164378319,4,1,0,60,0,0
12855,-124.005783629748,4,1,0,60,0,0
13103,-123.512141861106,4,1,0,60,0,0
13227,-123.266715891175,4,1,0,60,0,0
13475,-122.778778424822,4,1,0,60,0,0
13599,-122.536255414571,4,1,0,60,0,0
13847,-122.0542213673,4,1,0,60,0,0
13971,-121.814549529796,4,1,0,60,0,0
14157,-121.456801459425,4,1,0,60,0,0
14343,-121.101148523293,4,1,0,60,0,0
14467,-120.865347542264,4,1,0,60,0,0
14715,-120.396199814349,4,1,0,60,0,0
14839,-120.162989078386,4,1,0,60,0,0
14963,-119.930680066921,4,1,0,60,0,0
15087,-119.6994108395,4,1,0,60,0,0
15211,-119.468889106588,4,1,0,60,0,0
15459,-119.010499106231,4,1,0,60,0,0
15624,-118.706901975402,4,1,0,60,0,0
15789,-118.40484986265,4,1,0,60,0,0
15954,-118.104331003922,4,1,0,60,0,0
16202,-117.656332910947,4,1,0,60,0,0
16450,-111.111111111111,4,1,0,80,0,0
23950,-110.10560228315,4,1,0,80,0,0
24012,-109.118129104206,4,1,0,80,0,0
24074,-108.148093673553,4,1,0,80,0,0
24136,-107.195267972091,4,1,0,80,0,0
24198,-106.25908515178,4,1,0,80,0,0
24260,-105.33911293933,4,1,0,80,0,0
24384,-100,4,1,0,100,0,1
32318,-100,4,1,0,100,0,0
32566,-105.263157894737,4,1,0,80,0,0
36034,237.037037037037,4,1,0,80,1,0
36034,-105.263157894737,4,1,0,80,0,0
39826,-100,4,1,0,100,0,1
43619,237.037037037037,4,1,0,100,1,9
43694,226.843100189036,4,1,0,100,1,1
45168,-100,4,1,0,80,0,0
45508,-100,4,1,0,100,0,1
46416,-100,4,1,0,80,0,0
47323,453.686200378072,4,1,0,80,1,0
47323,-50,4,1,0,80,0,0
47776,-125,4,1,0,40,0,0
52767,-125,4,1,0,60,0,0
54581,217.292892711634,4,1,0,80,1,8
54589,217.292892711634,4,1,0,80,1,0
54589,-100,4,1,0,80,0,0
54697,-101.167267937462,4,1,0,80,0,0
54751,-101.761284308817,4,1,0,80,0,0
54806,-102.362212784426,4,1,0,80,0,0
54914,-103.585616101348,4,1,0,80,0,0
55023,-104.838726586891,4,1,0,80,0,0
55186,-106.776233318883,4,1,0,80,0,0
55349,-108.786583568222,4,1,0,80,0,0
55512,-110.874209882662,4,1,0,80,0,0
55675,-113.043527410229,4,1,0,80,0,0
55838,-115.299293907124,4,1,0,80,0,0
56001,-117.647058823529,4,1,0,80,0,0
56110,-111.111111111111,4,1,0,80,0,0
56327,-100,4,1,0,100,0,1
66322,590.952516965262,5,1,0,80,1,8
66322,-36.7699411498416,5,1,0,80,0,8
67503,-66.6666666666667,5,1,0,80,0,8
68981,208.333333333333,4,1,0,100,1,1
72314,-100,4,1,0,80,0,0
72626,-104.026880545933,4,1,0,80,0,0
72939,-108.391566702544,4,1,0,80,0,0
73251,-113.138682002238,4,1,0,80,0,0
73564,-118.320651331521,4,1,0,80,0,0
73616,-122.047220069445,4,1,0,80,0,0
73951,272.108843537415,4,1,0,80,1,8
73951,-95.703125,4,1,0,80,0,8
74019,-97.5609756097561,4,1,0,80,0,8
74087,-99.009900990099,4,1,0,80,0,8
74223,399.861381387786,4,1,0,80,1,0
74223,-68.2630385487528,4,1,0,80,0,0
74622,-125,4,1,0,40,0,0
80452,399.861381387786,4,1,0,60,1,0
80452,-125,4,1,0,60,0,0
86849,-125,4,1,0,20,0,0
86949,-125,4,1,0,60,0,0
93247,-125,4,1,0,70,0,0
93447,-123.555787291299,4,1,0,70,0,0
93547,-122.846199015756,4,1,0,70,0,0
93847,-120.765362561771,4,1,0,70,0,0
94047,-119.416816037201,4,1,0,70,0,0
94247,-118.09819392432,4,1,0,70,0,0
94447,-116.808238251427,4,1,0,70,0,0
94547,-116.173837884056,4,1,0,70,0,0
94847,-114.31118935077,4,1,0,70,0,0
95046,-113.10221273169,4,1,0,70,0,0
95146,-112.507327039673,4,1,0,70,0,0
95346,-111.33600985101,4,1,0,70,0,0
95446,-110.759511196125,4,1,0,70,0,0
95646,-109.624120814551,4,1,0,70,0,0
95846,-108.511889647749,4,1,0,70,0,0
95946,-107.964078191904,4,1,0,70,0,0
96046,-107.421885490419,4,1,0,70,0,0
96246,-106.353561780784,4,1,0,70,0,0
96446,-105.306388938617,4,1,0,80,0,0
96646,-103.703672976689,4,1,0,80,0,0
96746,-102.941131055383,4,1,0,80,0,0
96946,-101.449304767914,4,1,0,80,0,0
97046,-100.719438952437,4,1,0,80,0,0
97146,-100,4,1,0,80,0,0
97246,-99.2907660580474,4,1,0,80,0,0
97446,-97.9020568243118,4,1,0,80,0,0
97546,-97.2222627314984,4,1,0,80,0,0
97646,-96.5517507728968,4,1,0,80,0,0
97845,-95.2380952380952,4,1,0,80,0,0
98045,-93.9597063195419,4,1,0,80,0,0
98245,-92.7152686285836,4,1,0,80,0,0
98345,-92.1052873961283,4,1,0,80,0,0
98645,-90.3225689906363,4,1,0,80,0,0
98945,-88.6076285851754,4,1,0,80,0,0
99245,-83.3333333333333,4,1,0,80,0,0
99645,798.934753661784,4,1,0,20,1,0
99645,-41.6694435188271,4,1,0,20,0,0
102839,192,4,1,0,100,1,1
127415,-100,4,1,0,100,0,0

[HitObjects]
256,192,8516,5,0,0:0:0:0:
256,192,8764,1,8,0:0:0:0:
256,192,8888,1,0,0:0:0:0:
256,192,9136,1,8,0:0:0:0:
256,192,9260,1,0,0:0:0:0:
256,192,9508,1,8,0:0:0:0:
256,192,9632,1,0,0:0:0:0:
256,192,9880,1,8,0:0:0:0:
256,192,10004,1,0,0:0:0:0:
256,192,10252,1,0,0:0:0:0:
256,192,10376,1,8,0:0:0:0:
256,192,10500,1,0,0:0:0:0:
256,192,10748,1,8,0:0:0:0:
256,192,10872,1,0,0:0:0:0:
256,192,11120,1,8,0:0:0:0:
256,192,11244,1,0,0:0:0:0:
256,192,11492,1,8,0:0:0:0:
256,192,11616,1,0,0:0:0:0:
256,192,11864,1,8,0:0:0:0:
256,192,11988,1,0,0:0:0:0:
256,192,12235,1,0,0:0:0:0:
256,192,12297,1,8,0:0:0:0:
256,192,12359,1,8,0:0:0:0:
256,192,12483,1,0,0:0:0:0:
256,192,12731,1,8,0:0:0:0:
256,192,12855,1,0,0:0:0:0:
256,192,13103,1,8,0:0:0:0:
256,192,13227,1,0,0:0:0:0:
256,192,13475,1,8,0:0:0:0:
256,192,13599,1,0,0:0:0:0:
256,192,13847,1,8,0:0:0:0:
256,192,13971,1,0,0:0:0:0:
256,192,14157,1,0,0:0:0:0:
256,192,14343,1,8,0:0:0:0:
256,192,14467,1,0,0:0:0:0:
256,192,14715,1,8,0:0:0:0:
256,192,14839,1,0,0:0:0:0:
256,192,14963,1,0,0:0:0:0:
256,192,15087,1,8,0:0:0:0:
256,192,15211,1,8,0:0:0:0:
256,192,15459,1,0,0:0:0:0:
256,192,15624,1,8,0:0:0:0:
256,192,15789,1,8,0:0:0:0:
256,192,15954,1,0,0:0:0:0:
256,192,16202,1,8,0:0:0:0:
256,192,16450,1,4,0:0:0:0:
256,192,16698,1,8,0:0:0:0:
256,192,16822,1,0,0:0:0:0:
256,192,16884,1,0,0:0:0:0:
256,192,16946,1,0,0:0:0:0:
256,192,17070,1,8,0:0:0:0:
256,192,17194,1,8,0:0:0:0:
256,192,17318,1,0,0:0:0:0:
256,192,17442,1,8,0:0:0:0:
256,192,17504,1,8,0:0:0:0:
256,192,17566,1,0,0:0:0:0:
256,192,17690,1,8,0:0:0:0:
256,192,17814,1,0,0:0:0:0:
256,192,17938,1,8,0:0:0:0:
256,192,18000,1,8,0:0:0:0:
256,192,18062,1,0,0:0:0:0:
256,192,18124,1,0,0:0:0:0:
256,192,18186,1,8,0:0:0:0:
256,192,18310,1,8,0:0:0:0:
256,192,18434,1,0,0:0:0:0:
256,192,18682,1,8,0:0:0:0:
256,192,18806,1,0,0:0:0:0:
256,192,18868,1,8,0:0:0:0:
256,192,18930,1,0,0:0:0:0:
256,192,19054,1,8,0:0:0:0:
256,192,19178,1,0,0:0:0:0:
256,192,19240,1,0,0:0:0:0:
256,192,19302,1,8,0:0:0:0:
256,192,19425,1,0,0:0:0:0:
256,192,19549,1,8,0:0:0:0:
256,192,19673,1,8,0:0:0:0:
256,192,19797,1,0,0:0:0:0:
256,192,19921,1,8,0:0:0:0:
256,192,19983,1,0,0:0:0:0:
256,192,20045,1,8,0:0:0:0:
256,192,20169,1,0,0:0:0:0:
256,192,20231,1,0,0:0:0:0:
256,192,20293,1,8,0:0:0:0:
256,192,20417,1,0,0:0:0:0:
256,192,20665,1,8,0:0:0:0:
256,192,20789,1,0,0:0:0:0:
256,192,20851,1,0,0:0:0:0:
256,192,20913,1,0,0:0:0:0:
256,192,21037,1,8,0:0:0:0:
256,192,21161,1,8,0:0:0:0:
256,192,21285,1,0,0:0:0:0:
256,192,21409,1,8,0:0:0:0:
256,192,21471,1,8,0:0:0:0:
256,192,21533,1,0,0:0:0:0:
256,192,21657,1,8,0:0:0:0:
256,192,21781,1,0,0:0:0:0:
256,192,21905,1,8,0:0:0:0:
256,192,21967,1,8,0:0:0:0:
256,192,22029,1,0,0:0:0:0:
256,192,22091,1,0,0:0:0:0:
256,192,22153,1,8,0:0:0:0:
256,192,22277,1,8,0:0:0:0:
256,192,22401,1,0,0:0:0:0:
256,192,22649,1,8,0:0:0:0:
256,192,22773,1,0,0:0:0:0:
256,192,22835,1,8,0:0:0:0:
256,192,22897,1,0,0:0:0:0:
256,192,23021,1,8,0:0:0:0:
256,192,23145,1,0,0:0:0:0:
256,192,23207,1,0,0:0:0:0:
256,192,23269,1,8,0:0:0:0:
256,192,23392,1,0,0:0:0:0:
256,192,23516,1,0,0:0:0:0:
256,192,23640,1,8,0:0:0:0:
256,192,23764,1,8,0:0:0:0:
256,192,23888,1,0,0:0:0:0:
256,192,23950,1,0,0:0:0:0:
256,192,24012,1,0,0:0:0:0:
256,192,24074,1,0,0:0:0:0:
256,192,24136,1,8,0:0:0:0:
256,192,24198,1,0,0:0:0:0:
256,192,24260,1,8,0:0:0:0:
256,192,24384,1,4,0:0:0:0:
256,192,24632,1,8,0:0:0:0:
256,192,24756,1,0,0:0:0:0:
256,192,24818,1,0,0:0:0:0:
256,192,24880,1,8,0:0:0:0:
256,192,25004,1,8,0:0:0:0:
256,192,25128,1,0,0:0:0:0:
256,192,25252,1,8,0:0:0:0:
256,192,25376,1,0,0:0:0:0:
256,192,25438,1,0,0:0:0:0:
256,192,25500,1,8,0:0:0:0:
256,192,25562,1,0,0:0:0:0:
256,192,25624,1,8,0:0:0:0:
256,192,25748,1,0,0:0:0:0:
256,192,25872,1,8,0:0:0:0:
256,192,25934,1,8,0:0:0:0:
256,192,25996,1,0,0:0:0:0:
256,192,26120,1,8,0:0:0:0:
256,192,26244,1,8,0:0:0:0:
256,192,26368,1,0,0:0:0:0:
256,192,26492,1,8,0:0:0:0:
256,192,26554,1,8,0:0:0:0:
256,192,26616,1,8,0:0:0:0:
256,192,26740,1,0,0:0:0:0:
256,192,26863,1,8,0:0:0:0:
256,192,26925,1,0,0:0:0:0:
256,192,26987,1,8,0:0:0:0:
256,192,27049,1,8,0:0:0:0:
256,192,27111,1,0,0:0:0:0:
256,192,27235,1,8,0:0:0:0:
256,192,27359,1,0,0:0:0:0:
256,192,27483,1,8,0:0:0:0:
256,192,27545,1,0,0:0:0:0:
256,192,27607,1,8,0:0:0:0:
256,192,27731,1,0,0:0:0:0:
256,192,27855,1,8,0:0:0:0:
256,192,27979,1,0,0:0:0:0:
256,192,28041,1,0,0:0:0:0:
256,192,28103,1,0,0:0:0:0:
256,192,28165,1,0,0:0:0:0:
256,192,28227,1,8,0:0:0:0:
256,192,28351,1,0,0:0:0:0:
256,192,28599,1,8,0:0:0:0:
256,192,28723,1,0,0:0:0:0:
256,192,28785,1,0,0:0:0:0:
256,192,28847,1,8,0:0:0:0:
256,192,28909,1,8,0:0:0:0:
256,192,28971,1,0,0:0:0:0:
256,192,29095,1,8,0:0:0:0:
256,192,29219,1,0,0:0:0:0:
256,192,29281,1,0,0:0:0:0:
256,192,29343,1,0,0:0:0:0:
256,192,29467,1,8,0:0:0:0:
256,192,29591,1,0,0:0:0:0:
256,192,29715,1,8,0:0:0:0:
256,192,29777,1,8,0:0:0:0:
256,192,29839,1,8,0:0:0:0:
256,192,29963,1,0,0:0:0:0:
256,192,30087,1,8,0:0:0:0:
256,192,30211,1,8,0:0:0:0:
256,192,30335,1,0,0:0:0:0:
256,192,30397,1,0,0:0:0:0:
256,192,30459,1,8,0:0:0:0:
256,192,30583,1,8,0:0:0:0:
256,192,30644,1,8,0:0:0:0:
256,192,30706,1,0,0:0:0:0:
256,192,30830,1,8,0:0:0:0:
256,192,30954,1,0,0:0:0:0:
256,192,31016,1,8,0:0:0:0:
256,192,31078,1,0,0:0:0:0:
256,192,31202,1,8,0:0:0:0:
256,192,31264,1,8,0:0:0:0:
256,192,31326,1,0,0:0:0:0:
256,192,31388,1,0,0:0:0:0:
256,192,31450,1,8,0:0:0:0:
256,192,31574,1,0,0:0:0:0:
256,192,31698,1,8,0:0:0:0:
256,192,31760,1,8,0:0:0:0:
256,192,31822,1,8,0:0:0:0:
256,192,31946,1,0,0:0:0:0:
256,192,32070,1,8,0:0:0:0:
256,192,32132,1,0,0:0:0:0:
256,192,32194,1,8,0:0:0:0:
256,192,32318,1,4,0:0:0:0:
256,192,32566,1,8,0:0:0:0:
256,192,32690,1,0,0:0:0:0:
256,192,32938,1,0,0:0:0:0:
256,192,33062,1,8,0:0:0:0:
256,192,33310,1,0,0:0:0:0:
256,192,33434,1,8,0:0:0:0:
256,192,33558,1,8,0:0:0:0:
256,192,33682,1,0,0:0:0:0:
256,192,33930,1,8,0:0:0:0:
256,192,34054,1,0,0:0:0:0:
256,192,34302,1,0,0:0:0:0:
256,192,34425,1,8,0:0:0:0:
256,192,34673,1,0,0:0:0:0:
256,192,34921,1,8,0:0:0:0:
256,192,35045,1,0,0:0:0:0:
256,192,35293,1,0,0:0:0:0:
256,192,35417,1,8,0:0:0:0:
256,192,35541,1,8,0:0:0:0:
256,192,35665,1,0,0:0:0:0:
256,192,35789,1,8,0:0:0:0:
256,192,36034,1,0,0:0:0:0:
256,192,36152,1,0,0:0:0:0:
256,192,36271,1,8,0:0:0:0:
256,192,36508,1,0,0:0:0:0:
256,192,36626,1,8,0:0:0:0:
256,192,36745,1,8,0:0:0:0:
256,192,36863,1,0,0:0:0:0:
256,192,37100,1,8,0:0:0:0:
256,192,37219,1,0,0:0:0:0:
256,192,37337,1,8,0:0:0:0:
256,192,37456,1,0,0:0:0:0:
256,192,37574,1,0,0:0:0:0:
256,192,37693,1,8,0:0:0:0:
256,192,37930,1,0,0:0:0:0:
256,192,38167,1,8,0:0:0:0:
256,192,38285,1,8,0:0:0:0:
256,192,38404,1,0,0:0:0:0:
256,192,38522,1,8,0:0:0:0:
256,192,38759,1,8,0:0:0:0:
256,192,38878,1,0,0:0:0:0:
256,192,39115,1,8,0:0:0:0:
256,192,39352,1,0,0:0:0:0:
256,192,39510,1,8,0:0:0:0:
256,192,39668,1,8,0:0:0:0:
256,192,39826,1,4,0:0:0:0:
256,192,40063,1,8,0:0:0:0:
256,192,40182,1,0,0:0:0:0:
256,192,40241,1,0,0:0:0:0:
256,192,40300,1,8,0:0:0:0:
256,192,40419,1,0,0:0:0:0:
256,192,40537,1,8,0:0:0:0:
256,192,40596,1,8,0:0:0:0:
256,192,40656,1,8,0:0:0:0:
256,192,40774,1,0,0:0:0:0:
256,192,40893,1,8,0:0:0:0:
256,192,41011,1,8,0:0:0:0:
256,192,41130,1,0,0:0:0:0:
256,192,41248,1,8,0:0:0:0:
256,192,41308,1,8,0:0:0:0:
256,192,41367,1,8,0:0:0:0:
256,192,41426,1,8,0:0:0:0:
256,192,41485,1,0,0:0:0:0:
256,192,41604,1,8,0:0:0:0:
256,192,41722,1,0,0:0:0:0:
256,192,41782,1,0,0:0:0:0:
256,192,41841,1,8,0:0:0:0:
256,192,41959,1,8,0:0:0:0:
256,192,42019,1,8,0:0:0:0:
256,192,42078,1,0,0:0:0:0:
256,192,42196,1,8,0:0:0:0:
256,192,42315,1,0,0:0:0:0:
256,192,42434,1,8,0:0:0:0:
256,192,42493,1,0,0:0:0:0:
256,192,42552,1,8,0:0:0:0:
256,192,42671,1,0,0:0:0:0:
256,192,42789,1,0,0:0:0:0:
256,192,42908,1,8,0:0:0:0:
256,192,43026,1,0,0:0:0:0:
256,192,43085,1,0,0:0:0:0:
256,192,43145,1,8,0:0:0:0:
256,192,43263,1,0,0:0:0:0:
256,192,43382,1,8,0:0:0:0:
256,192,43441,1,0,0:0:0:0:
256,192,43500,1,0,0:0:0:0:
256,192,43559,1,8,0:0:0:0:
256,192,43694,1,4,0:0:0:0:
256,192,43920,1,8,0:0:0:0:
256,192,43977,1,0,0:0:0:0:
256,192,44034,1,8,0:0:0:0:
256,192,44090,1,8,0:0:0:0:
256,192,44147,1,0,0:0:0:0:
256,192,44261,1,8,0:0:0:0:
256,192,44374,1,0,0:0:0:0:
256,192,44431,1,0,0:0:0:0:
256,192,44487,1,8,0:0:0:0:
256,192,44601,1,0,0:0:0:0:
256,192,44714,1,8,0:0:0:0:
256,192,44771,1,8,0:0:0:0:
256,192,44828,1,0,0:0:0:0:
256,192,44884,1,0,0:0:0:0:
256,192,44941,1,8,0:0:0:0:
256,192,45055,1,0,0:0:0:0:
256,192,45168,1,8,0:0:0:0:
256,192,45395,1,8,0:0:0:0:
256,192,45508,1,0,0:0:0:0:
256,192,45622,1,8,0:0:0:0:
256,192,45678,1,0,0:0:0:0:
256,192,45735,1,8,0:0:0:0:
256,192,45849,1,0,0:0:0:0:
256,192,45962,1,8,0:0:0:0:
256,192,46019,1,8,0:0:0:0:
256,192,46075,1,0,0:0:0:0:
256,192,46189,1,8,0:0:0:0:
256,192,46302,1,8,0:0:0:0:
256,192,46416,1,0,0:0:0:0:
256,192,46586,1,0,0:0:0:0:
256,192,46756,1,8,0:0:0:0:
256,192,46869,1,0,0:0:0:0:
256,192,46983,1,0,0:0:0:0:
256,192,47096,1,8,0:0:0:0:
256,192,47210,1,8,0:0:0:0:
256,192,47323,1,4,0:0:0:0:
256,192,52767,12,0,54469,0:0:0:0:
256,192,54589,5,8,0:0:0:0:
256,192,54697,1,0,0:0:0:0:
256,192,54751,1,0,0:0:0:0:
256,192,54806,1,8,0:0:0:0:
256,192,54914,1,0,0:0:0:0:
256,192,55023,1,8,0:0:0:0:
256,192,55186,1,8,0:0:0:0:
256,192,55349,1,0,0:0:0:0:
256,192,55512,1,0,0:0:0:0:
256,192,55675,1,8,0:0:0:0:
256,192,55838,1,0,0:0:0:0:
256,192,56001,1,0,0:0:0:0:
256,192,56110,1,8,0:0:0:0:
256,192,56327,1,4,0:0:0:0:
256,192,56544,1,8,0:0:0:0:
256,192,56653,1,0,0:0:0:0:
256,192,56761,1,0,0:0:0:0:
256,192,56870,1,8,0:0:0:0:
256,192,56924,1,8,0:0:0:0:
256,192,56979,1,0,0:0:0:0:
256,192,57087,1,8,0:0:0:0:
256,192,57196,1,0,0:0:0:0:
256,192,57305,1,0,0:0:0:0:
256,192,57413,1,8,0:0:0:0:
256,192,57522,1,0,0:0:0:0:
256,192,57576,1,0,0:0:0:0:
256,192,57631,1,8,0:0:0:0:
256,192,57685,1,8,0:0:0:0:
256,192,57739,1,0,0:0:0:0:
256,192,57848,1,8,0:0:0:0:
256,192,57957,1,8,0:0:0:0:
256,192,58065,1,0,0:0:0:0:
256,192,58174,1,0,0:0:0:0:
256,192,58228,1,0,0:0:0:0:
256,192,58282,1,8,0:0:0:0:
256,192,58391,1,0,0:0:0:0:
256,192,58500,1,8,0:0:0:0:
256,192,58554,1,0,0:0:0:0:
256,192,58608,1,8,0:0:0:0:
256,192,58717,1,0,0:0:0:0:
256,192,58826,1,8,0:0:0:0:
256,192,58934,1,0,0:0:0:0:
256,192,59043,1,8,0:0:0:0:
256,192,59097,1,8,0:0:0:0:
256,192,59152,1,0,0:0:0:0:
256,192,59206,1,0,0:0:0:0:
256,192,59260,1,8,0:0:0:0:
256,192,59369,1,0,0:0:0:0:
256,192,59478,1,8,0:0:0:0:
256,192,59532,1,8,0:0:0:0:
256,192,59586,1,0,0:0:0:0:
256,192,59695,1,8,0:0:0:0:
256,192,59804,1,0,0:0:0:0:
256,192,59858,1,0,0:0:0:0:
256,192,59912,1,8,0:0:0:0:
256,192,59966,1,8,0:0:0:0:
256,192,60021,1,0,0:0:0:0:
256,192,60129,1,8,0:0:0:0:
256,192,60238,1,0,0:0:0:0:
256,192,60347,1,0,0:0:0:0:
256,192,60455,1,8,0:0:0:0:
256,192,60510,1,8,0:0:0:0:
256,192,60564,1,8,0:0:0:0:
256,192,60618,1,8,0:0:0:0:
256,192,60673,1,0,0:0:0:0:
256,192,60781,1,8,0:0:0:0:
256,192,60890,1,8,0:0:0:0:
256,192,60999,1,0,0:0:0:0:
256,192,61107,1,8,0:0:0:0:
256,192,61162,1,8,0:0:0:0:
256,192,61216,1,0,0:0:0:0:
256,192,61325,1,8,0:0:0:0:
256,192,61433,1,0,0:0:0:0:
256,192,61542,1,0,0:0:0:0:
256,192,61651,1,8,0:0:0:0:
256,192,61759,1,0,0:0:0:0:
256,192,61813,1,0,0:0:0:0:
256,192,61868,1,8,0:0:0:0:
256,192,61976,1,0,0:0:0:0:
256,192,62085,1,8,0:0:0:0:
256,192,62194,1,8,0:0:0:0:
256,192,62302,1,0,0:0:0:0:
256,192,62411,1,8,0:0:0:0:
256,192,62465,1,8,0:0:0:0:
256,192,62520,1,0,0:0:0:0:
256,192,62628,1,8,0:0:0:0:
256,192,62683,1,8,0:0:0:0:
256,192,62737,1,0,0:0:0:0:
256,192,62846,1,8,0:0:0:0:
256,192,62954,1,8,0:0:0:0:
256,192,63063,1,0,0:0:0:0:
256,192,63117,1,0,0:0:0:0:
256,192,63172,1,8,0:0:0:0:
256,192,63226,1,8,0:0:0:0:
256,192,63280,1,0,0:0:0:0:
256,192,63498,1,8,0:0:0:0:
256,192,63606,1,0,0:0:0:0:
256,192,63660,1,0,0:0:0:0:
256,192,63715,1,8,0:0:0:0:
256,192,63823,1,0,0:0:0:0:
256,192,63932,1,8,0:0:0:0:
256,192,63986,1,8,0:0:0:0:
256,192,64041,1,8,0:0:0:0:
256,192,64149,1,0,0:0:0:0:
256,192,64258,1,0,0:0:0:0:
256,192,64367,1,8,0:0:0:0:
256,192,64421,1,0,0:0:0:0:
256,192,64475,1,8,0:0:0:0:
256,192,64584,1,0,0:0:0:0:
256,192,64693,1,8,0:0:0:0:
256,192,64747,1,8,0:0:0:0:
256,192,64801,1,0,0:0:0:0:
256,192,64856,1,0,0:0:0:0:
256,192,64910,1,8,0:0:0:0:
256,192,65019,1,0,0:0:0:0:
256,192,65127,1,8,0:0:0:0:
256,192,65182,1,8,0:0:0:0:
256,192,65236,1,0,0:0:0:0:
256,192,65344,1,8,0:0:0:0:
256,192,65453,1,0,0:0:0:0:
256,192,65507,1,8,0:0:0:0:
256,192,65562,1,8,0:0:0:0:
256,192,65616,1,0,0:0:0:0:
256,192,65670,1,8,0:0:0:0:
256,192,65779,1,0,0:0:0:0:
256,192,65888,1,8,0:0:0:0:
256,192,65942,1,8,0:0:0:0:
256,192,65996,1,0,0:0:0:0:
256,192,66105,1,8,0:0:0:0:
256,192,66159,1,0,0:0:0:0:
256,192,66214,1,8,0:0:0:0:
256,192,66322,1,4,0:0:0:0:
256,192,67503,8,0,68685,0:0:0:0:
256,192,68981,5,8,0:0:0:0:
256,192,69085,1,0,0:0:0:0:
256,192,69189,1,8,0:0:0:0:
256,192,69241,1,0,0:0:0:0:
256,192,69293,1,8,0:0:0:0:
256,192,69397,1,0,0:0:0:0:
256,192,69501,1,8,0:0:0:0:
256,192,69553,1,8,0:0:0:0:
256,192,69606,1,0,0:0:0:0:
256,192,69658,1,0,0:0:0:0:
256,192,69710,1,8,0:0:0:0:
256,192,69814,1,0,0:0:0:0:
256,192,69918,1,8,0:0:0:0:
256,192,69970,1,8,0:0:0:0:
256,192,70022,1,0,0:0:0:0:
256,192,70126,1,8,0:0:0:0:
256,192,70231,1,0,0:0:0:0:
256,192,70335,1,8,0:0:0:0:
256,192,70387,1,0,0:0:0:0:
256,192,70439,1,8,0:0:0:0:
256,192,70491,1,8,0:0:0:0:
256,192,70543,1,0,0:0:0:0:
256,192,70647,1,8,0:0:0:0:
256,192,70751,1,0,0:0:0:0:
256,192,70803,1,0,0:0:0:0:
256,192,70856,1,8,0:0:0:0:
256,192,70960,1,0,0:0:0:0:
256,192,71064,1,8,0:0:0:0:
256,192,71116,1,8,0:0:0:0:
256,192,71168,1,0,0:0:0:0:
256,192,71272,1,8,0:0:0:0:
256,192,71376,1,8,0:0:0:0:
256,192,71481,1,0,0:0:0:0:
256,192,71533,1,8,0:0:0:0:
256,192,71585,1,0,0:0:0:0:
256,192,71689,1,8,0:0:0:0:
256,192,71741,1,8,0:0:0:0:
256,192,71793,1,0,0:0:0:0:
256,192,71897,1,8,0:0:0:0:
256,192,71949,1,0,0:0:0:0:
256,192,72001,1,8,0:0:0:0:
256,192,72053,1,8,0:0:0:0:
256,192,72106,1,0,0:0:0:0:
256,192,72158,1,0,0:0:0:0:
256,192,72210,1,8,0:0:0:0:
256,192,72314,1,4,0:0:0:0:
256,192,72626,1,12,0:0:0:0:
256,192,72939,1,12,0:0:0:0:
256,192,73251,1,4,0:0:0:0:
256,192,73564,1,12,0:0:0:0:
256,192,73720,1,4,0:0:0:0:
256,192,73951,1,8,0:0:0:0:
256,192,74019,1,8,0:0:0:0:
256,192,74087,1,8,0:0:0:0:
256,192,74223,1,0,0:0:0:0:
256,192,80452,5,0,0:0:0:0:
256,192,80751,1,0,0:0:0:0:
256,192,81251,1,0,0:0:0:0:
256,192,81551,1,0,0:0:0:0:
256,192,82051,1,0,0:0:0:0:
256,192,82351,1,0,0:0:0:0:
256,192,82851,1,0,0:0:0:0:
256,192,83151,1,0,0:0:0:0:
256,192,83650,1,0,0:0:0:0:
256,192,83950,1,0,0:0:0:0:
256,192,84450,1,0,0:0:0:0:
256,192,84750,1,0,0:0:0:0:
256,192,85250,1,0,0:0:0:0:
256,192,85550,1,0,0:0:0:0:
256,192,85850,1,0,0:0:0:0:
256,192,86050,1,0,0:0:0:0:
256,192,86349,1,0,0:0:0:0:
256,192,86849,1,12,0:0:0:0:
256,192,87148,1,0,0:0:0:0:
256,192,87648,1,0,0:0:0:0:
256,192,87948,1,0,0:0:0:0:
256,192,88448,1,0,0:0:0:0:
256,192,88748,1,0,0:0:0:0:
256,192,89248,1,0,0:0:0:0:
256,192,89548,1,0,0:0:0:0:
256,192,90047,1,0,0:0:0:0:
256,192,90347,1,0,0:0:0:0:
256,192,90847,1,0,0:0:0:0:
256,192,91147,1,0,0:0:0:0:
256,192,91647,1,0,0:0:0:0:
256,192,91947,1,0,0:0:0:0:
256,192,92247,1,0,0:0:0:0:
256,192,92447,1,0,0:0:0:0:
256,192,92746,1,0,0:0:0:0:
256,192,93247,1,0,0:0:0:0:
256,192,93447,1,0,0:0:0:0:
256,192,93547,1,8,0:0:0:0:
256,192,93847,1,8,0:0:0:0:
256,192,94047,1,0,0:0:0:0:
256,192,94247,1,8,0:0:0:0:
256,192,94447,1,0,0:0:0:0:
256,192,94547,1,8,0:0:0:0:
256,192,94847,1,0,0:0:0:0:
256,192,95046,1,8,0:0:0:0:
256,192,95146,1,0,0:0:0:0:
256,192,95346,1,0,0:0:0:0:
256,192,95446,1,8,0:0:0:0:
256,192,95646,1,0,0:0:0:0:
256,192,95846,1,8,0:0:0:0:
256,192,95946,1,8,0:0:0:0:
256,192,96046,1,0,0:0:0:0:
256,192,96246,1,8,0:0:0:0:
256,192,96446,1,0,0:0:0:0:
256,192,96646,1,8,0:0:0:0:
256,192,96746,1,0,0:0:0:0:
256,192,96946,1,0,0:0:0:0:
256,192,97046,1,8,0:0:0:0:
256,192,97146,1,8,0:0:0:0:
256,192,97246,1,0,0:0:0:0:
256,192,97446,1,0,0:0:0:0:
256,192,97546,1,8,0:0:0:0:
256,192,97646,1,0,0:0:0:0:
256,192,97845,1,8,0:0:0:0:
256,192,98045,1,0,0:0:0:0:
256,192,98245,1,8,0:0:0:0:
256,192,98345,1,0,0:0:0:0:
256,192,98645,1,0,0:0:0:0:
256,192,98945,1,0,0:0:0:0:
256,192,99245,1,8,0:0:0:0:
256,192,99295,1,8,0:0:0:0:
256,192,99345,1,8,0:0:0:0:
256,192,99395,1,8,0:0:0:0:
256,192,99445,1,8,0:0:0:0:
256,192,99495,1,8,0:0:0:0:
256,192,99545,1,8,0:0:0:0:
256,192,102839,5,4,0:0:0:0:
256,192,103031,1,8,0:0:0:0:
256,192,103127,1,8,0:0:0:0:
256,192,103223,1,0,0:0:0:0:
256,192,103319,1,8,0:0:0:0:
256,192,103415,1,0,0:0:0:0:
256,192,103511,1,0,0:0:0:0:
256,192,103607,1,8,0:0:0:0:
256,192,103655,1,8,0:0:0:0:
256,192,103703,1,8,0:0:0:0:
256,192,103799,1,0,0:0:0:0:
256,192,103895,1,8,0:0:0:0:
256,192,103991,1,0,0:0:0:0:
256,192,104087,1,0,0:0:0:0:
256,192,104183,1,8,0:0:0:0:
256,192,104279,1,8,0:0:0:0:
256,192,104375,1,0,0:0:0:0:
256,192,104423,1,0,0:0:0:0:
256,192,104471,1,8,0:0:0:0:
256,192,104567,1,0,0:0:0:0:
256,192,104663,1,8,0:0:0:0:
256,192,104711,1,8,0:0:0:0:
256,192,104759,1,0,0:0:0:0:
256,192,104855,1,0,0:0:0:0:
256,192,104951,1,8,0:0:0:0:
256,192,105047,1,0,0:0:0:0:
256,192,105143,1,8,0:0:0:0:
256,192,105191,1,0,0:0:0:0:
256,192,105239,1,8,0:0:0:0:
256,192,105335,1,0,0:0:0:0:
256,192,105431,1,8,0:0:0:0:
256,192,105527,1,0,0:0:0:0:
256,192,105623,1,0,0:0:0:0:
256,192,105719,1,8,0:0:0:0:
256,192,105815,1,0,0:0:0:0:
256,192,105911,1,8,0:0:0:0:
256,192,105959,1,8,0:0:0:0:
256,192,106007,1,8,0:0:0:0:
256,192,106103,1,0,0:0:0:0:
256,192,106199,1,8,0:0:0:0:
256,192,106295,1,0,0:0:0:0:
256,192,106391,1,0,0:0:0:0:
256,192,106487,1,8,0:0:0:0:
256,192,106583,1,8,0:0:0:0:
256,192,106679,1,0,0:0:0:0:
256,192,106871,1,0,0:0:0:0:
256,192,106967,1,8,0:0:0:0:
256,192,107063,1,0,0:0:0:0:
256,192,107159,1,0,0:0:0:0:
256,192,107255,1,8,0:0:0:0:
256,192,107303,1,8,0:0:0:0:
256,192,107351,1,0,0:0:0:0:
256,192,107447,1,8,0:0:0:0:
256,192,107543,1,0,0:0:0:0:
256,192,107639,1,8,0:0:0:0:
256,192,107735,1,8,0:0:0:0:
256,192,107831,1,0,0:0:0:0:
256,192,107927,1,8,0:0:0:0:
256,192,108023,1,0,0:0:0:0:
256,192,108071,1,0,0:0:0:0:
256,192,108119,1,8,0:0:0:0:
256,192,108215,1,0,0:0:0:0:
256,192,108311,1,8,0:0:0:0:
256,192,108407,1,8,0:0:0:0:
256,192,108503,1,0,0:0:0:0:
256,192,108599,1,8,0:0:0:0:
256,192,108695,1,0,0:0:0:0:
256,192,108791,1,8,0:0:0:0:
256,192,108839,1,8,0:0:0:0:
256,192,108887,1,8,0:0:0:0:
256,192,108983,1,0,0:0:0:0:
256,192,109175,1,0,0:0:0:0:
256,192,109271,1,8,0:0:0:0:
256,192,109367,1,0,0:0:0:0:
256,192,109463,1,0,0:0:0:0:
256,192,109559,1,8,0:0:0:0:
256,192,109751,1,0,0:0:0:0:
256,192,109943,1,8,0:0:0:0:
256,192,110039,1,0,0:0:0:0:
256,192,110135,1,8,0:0:0:0:
256,192,110231,1,8,0:0:0:0:
256,192,110327,1,0,0:0:0:0:
256,192,110519,1,8,0:0:0:0:
256,192,110711,1,0,0:0:0:0:
256,192,110807,1,0,0:0:0:0:
256,192,110903,1,8,0:0:0:0:
256,192,110951,1,8,0:0:0:0:
256,192,110999,1,0,0:0:0:0:
256,192,111095,1,8,0:0:0:0:
256,192,111191,1,8,0:0:0:0:
256,192,111287,1,0,0:0:0:0:
256,192,111479,1,8,0:0:0:0:
256,192,111575,1,0,0:0:0:0:
256,192,111671,1,8,0:0:0:0:
256,192,111719,1,0,0:0:0:0:
256,192,111767,1,8,0:0:0:0:
256,192,111863,1,0,0:0:0:0:
256,192,111959,1,0,0:0:0:0:
256,192,112055,1,8,0:0:0:0:
256,192,112247,1,0,0:0:0:0:
256,192,112343,1,0,0:0:0:0:
256,192,112439,1,8,0:0:0:0:
256,192,112535,1,8,0:0:0:0:
256,192,112631,1,0,0:0:0:0:
256,192,112823,1,8,0:0:0:0:
256,192,113015,1,0,0:0:0:0:
256,192,113111,1,0,0:0:0:0:
256,192,113207,1,8,0:0:0:0:
256,192,113303,1,0,0:0:0:0:
256,192,113399,1,8,0:0:0:0:
256,192,113591,1,0,0:0:0:0:
256,192,113639,1,0,0:0:0:0:
256,192,113687,1,8,0:0:0:0:
256,192,113783,1,0,0:0:0:0:
256,192,113879,1,0,0:0:0:0:
256,192,113975,1,8,0:0:0:0:
256,192,114023,1,8,0:0:0:0:
256,192,114071,1,0,0:0:0:0:
256,192,114167,1,8,0:0:0:0:
256,192,114263,1,8,0:0:0:0:
256,192,114359,1,0,0:0:0:0:
256,192,114407,1,0,0:0:0:0:
256,192,114455,1,0,0:0:0:0:
256,192,114503,1,0,0:0:0:0:
256,192,114551,1,8,0:0:0:0:
256,192,114647,1,0,0:0:0:0:
256,192,114743,1,8,0:0:0:0:
256,192,114791,1,8,0:0:0:0:
256,192,114839,1,8,0:0:0:0:
256,192,114887,1,8,0:0:0:0:
256,192,114935,1,0,0:0:0:0:
256,192,115031,1,8,0:0:0:0:
256,192,115127,1,4,0:0:0:0:
256,192,115319,1,8,0:0:0:0:
256,192,115415,1,8,0:0:0:0:
256,192,115511,1,0,0:0:0:0:
256,192,115607,1,8,0:0:0:0:
256,192,115703,1,0,0:0:0:0:
256,192,115799,1,0,0:0:0:0:
256,192,115895,1,8,0:0:0:0:
256,192,115943,1,8,0:0:0:0:
256,192,115991,1,8,0:0:0:0:
256,192,116087,1,0,0:0:0:0:
256,192,116183,1,8,0:0:0:0:
256,192,116279,1,0,0:0:0:0:
256,192,116375,1,0,0:0:0:0:
256,192,116471,1,8,0:0:0:0:
256,192,116567,1,8,0:0:0:0:
256,192,116663,1,0,0:0:0:0:
256,192,116711,1,0,0:0:0:0:
256,192,116759,1,8,0:0:0:0:
256,192,116855,1,0,0:0:0:0:
256,192,116951,1,8,0:0:0:0:
256,192,116999,1,8,0:0:0:0:
256,192,117047,1,0,0:0:0:0:
256,192,117143,1,0,0:0:0:0:
256,192,117239,1,8,0:0:0:0:
256,192,117335,1,0,0:0:0:0:
256,192,117431,1,8,0:0:0:0:
256,192,117479,1,0,0:0:0:0:
256,192,117527,1,8,0:0:0:0:
256,192,117623,1,0,0:0:0:0:
256,192,117719,1,8,0:0:0:0:
256,192,117815,1,0,0:0:0:0:
256,192,117911,1,0,0:0:0:0:
256,192,118007,1,8,0:0:0:0:
256,192,118103,1,0,0:0:0:0:
256,192,118199,1,8,0:0:0:0:
256,192,118247,1,8,0:0:0:0:
256,192,118295,1,8,0:0:0:0:
256,192,118391,1,0,0:0:0:0:
256,192,118487,1,8,0:0:0:0:
256,192,118583,1,0,0:0:0:0:
256,192,118679,1,0,0:0:0:0:
256,192,118775,1,8,0:0:0:0:
256,192,118871,1,8,0:0:0:0:
256,192,118967,1,0,0:0:0:0:
256,192,119159,1,0,0:0:0:0:
256,192,119255,1,8,0:0:0:0:
256,192,119351,1,0,0:0:0:0:
256,192,119447,1,0,0:0:0:0:
256,192,119543,1,8,0:0:0:0:
256,192,119591,1,0,0:0:0:0:
256,192,119639,1,0,0:0:0:0:
256,192,119735,1,8,0:0:0:0:
256,192,119831,1,0,0:0:0:0:
256,192,119927,1,8,0:0:0:0:
256,192,119975,1,0,0:0:0:0:
256,192,120023,1,8,0:0:0:0:
256,192,120119,1,0,0:0:0:0:
256,192,120215,1,0,0:0:0:0:
256,192,120311,1,8,0:0:0:0:
256,192,120359,1,8,0:0:0:0:
256,192,120407,1,0,0:0:0:0:
256,192,120503,1,8,0:0:0:0:
256,192,120599,1,0,0:0:0:0:
256,192,120695,1,8,0:0:0:0:
256,192,120743,1,8,0:0:0:0:
256,192,120791,1,8,0:0:0:0:
256,192,120887,1,0,0:0:0:0:
256,192,120983,1,8,0:0:0:0:
256,192,121079,1,0,0:0:0:0:
256,192,121127,1,0,0:0:0:0:
256,192,121175,1,0,0:0:0:0:
256,192,121271,1,8,0:0:0:0:
256,192,121463,1,0,0:0:0:0:
256,192,121559,1,8,0:0:0:0:
256,192,121655,1,0,0:0:0:0:
256,192,121751,1,0,0:0:0:0:
256,192,121847,1,8,0:0:0:0:
256,192,122039,1,0,0:0:0:0:
256,192,122231,1,8,0:0:0:0:
256,192,122327,1,0,0:0:0:0:
256,192,122423,1,8,0:0:0:0:
256,192,122471,1,8,0:0:0:0:
256,192,122519,1,8,0:0:0:0:
256,192,122615,1,0,0:0:0:0:
256,192,122807,1,0,0:0:0:0:
256,192,122903,1,8,0:0:0:0:
256,192,122999,1,8,0:0:0:0:
256,192,123095,1,0,0:0:0:0:
256,192,123191,1,8,0:0:0:0:
256,192,123239,1,0,0:0:0:0:
256,192,123287,1,8,0:0:0:0:
256,192,123383,1,0,0:0:0:0:
256,192,123575,1,8,0:0:0:0:
256,192,123671,1,0,0:0:0:0:
256,192,123767,1,8,0:0:0:0:
256,192,123863,1,8,0:0:0:0:
256,192,123959,1,0,0:0:0:0:
256,192,124055,1,8,0:0:0:0:
256,192,124151,1,0,0:0:0:0:
256,192,124343,1,8,0:0:0:0:
256,192,124439,1,8,0:0:0:0:
256,192,124535,1,0,0:0:0:0:
256,192,124631,1,8,0:0:0:0:
256,192,124727,1,0,0:0:0:0:
256,192,124823,1,0,0:0:0:0:
256,192,124919,1,8,0:0:0:0:
277,176,125111,1,0,0:0:0:0:
256,192,125239,1,8,0:0:0:0:
256,192,125367,1,0,0:0:0:0:
256,192,125495,1,8,0:0:0:0:
256,192,125623,1,8,0:0:0:0:
256,192,125751,1,0,0:0:0:0:
256,192,125879,1,8,0:0:0:0:
256,192,125975,1,0,0:0:0:0:
256,192,126071,1,0,0:0:0:0:
256,192,126167,1,8,0:0:0:0:
256,192,126263,1,0,0:0:0:0:
256,192,126359,1,0,0:0:0:0:
256,192,126455,1,8,0:0:0:0:
256,192,126519,1,8,0:0:0:0:
256,192,126583,1,0,0:0:0:0:
256,192,126647,1,8,0:0:0:0:
256,192,126711,1,0,0:0:0:0:
256,192,126775,1,0,0:0:0:0:
256,192,126839,1,8,0:0:0:0:
256,192,126935,1,0,0:0:0:0:
256,192,126983,1,0,0:0:0:0:
256,192,127031,1,8,0:0:0:0:
256,192,127079,1,0,0:0:0:0:
256,192,127127,1,8,0:0:0:0:
256,192,127175,1,8,0:0:0:0:
256,192,127223,1,0,0:0:0:0:
256,192,127415,1,4,0:0:0:0:
