osu file format v14

[General]
AudioFilename: audio.mp3
AudioLeadIn: 0
PreviewTime: 54506
Countdown: 0
SampleSet: Normal
StackLeniency: 0.7
Mode: 1
LetterboxInBreaks: 0
WidescreenStoryboard: 0

[Editor]
Bookmarks: 31735
DistanceSpacing: 0.8
BeatDivisor: 4
GridSize: 32
TimelineZoom: 2.699999

[Metadata]
Title:Mdrqnxtagon
TitleUnicode:Mdrqnxtagon
Artist:Frums
ArtistUnicode:Frums
Creator:Nifty
Version:Futsuu
Source:
Tags:fast loud electronic instrumental ksm k-shoot mania experimental noise sf2016 pucific speedcore breakcore glitch chaos genjuro
BeatmapID:2139341
BeatmapSetID:967870

[Difficulty]
HPDrainRate:6.5
CircleSize:2
OverallDifficulty:3.5
ApproachRate:10
SliderMultiplier:1.4
SliderTickRate:1

[Events]
//Background and Video events
0,0,"mdrqnxtagon.jpg",0,0
//Break Periods
2,47863,54139
2,74423,80002
//Storyboard Layer 0 (Background)
//Storyboard Layer 1 (Fail)
//Storyboard Layer 2 (Pass)
//Storyboard Layer 3 (Foreground)
//Storyboard Layer 4 (Overlay)
//Storyboard Sound Samples

[TimingPoints]
583,247.933884297521,4,1,0,40,1,0
583,-121,4,1,0,40,0,0
8516,-121,4,1,0,80,0,0
36034,237.037037037037,4,1,0,80,1,0
36034,-126.5625,4,1,0,80,0,0
43619,237.037037037037,4,1,0,80,1,8
43619,-126.5625,4,1,0,80,0,8
43694,226.843100189036,4,1,0,80,1,0
43694,-132.25,4,1,0,80,0,0
47323,453.686200378072,4,1,0,80,1,0
47323,-66.125,4,1,0,80,0,0
54581,217.292892711634,4,1,0,50,1,8
54581,-138.0625,4,1,0,50,0,8
54589,217.292892711634,4,1,0,50,1,0
54589,-138.0625,4,1,0,50,0,0
56218,-138.0625,4,1,0,80,0,0
66322,590.952516965262,5,1,0,80,1,8
66322,-50.7655,5,1,0,80,0,8
68981,208.333333333333,4,1,0,80,1,0
68981,-144,4,1,0,80,0,0
73951,272.108843537415,4,1,0,80,1,8
73951,-110.25,4,1,0,80,0,8
74223,399.861381387786,4,1,0,80,1,0
74223,-75.0259999999999,4,1,0,80,0,0
74310,-96.8174861469927,4,1,0,80,0,0
80452,399.861381387786,4,1,0,80,1,0
80452,-96.8174861469927,4,1,0,80,0,0
99645,798.934753661784,4,1,0,50,1,0
99645,-48.4129063229523,4,1,0,50,0,0
102839,192,4,1,0,80,1,1
102839,-156.25,4,1,0,80,0,1
127415,-156.25,4,1,0,80,0,0

[HitObjects]
239,260,583,5,8,0:0:0:0:
253,138,1574,1,8,0:0:0:0:
259,135,2566,1,8,0:0:0:0:
259,135,3558,1,8,0:0:0:0:
259,135,4054,1,8,0:0:0:0:
259,135,4549,1,8,0:0:0:0:
259,135,5541,1,8,0:0:0:0:
256,146,6533,1,8,0:0:0:0:
240,131,7525,1,8,0:0:0:0:
251,122,7773,1,8,0:0:0:0:
247,151,8021,1,8,0:0:0:0:
251,120,8516,1,0,0:0:0:0:
251,122,8764,1,8,0:0:0:0:
255,126,9136,1,8,0:0:0:0:
251,120,9508,1,8,0:0:0:0:
255,126,9880,1,8,0:0:0:0:
251,120,10252,1,0,0:0:0:0:
279,123,10748,1,8,0:0:0:0:
268,116,11120,1,8,0:0:0:0:
266,115,11492,1,8,0:0:0:0:
268,116,11863,1,8,0:0:0:0:
283,106,12235,1,8,0:0:0:0:
283,108,12731,1,8,0:0:0:0:
283,106,13103,1,8,0:0:0:0:
284,108,13475,1,8,0:0:0:0:
283,106,13847,1,8,0:0:0:0:
300,104,14219,1,0,0:0:0:0:
284,108,14467,1,0,0:0:0:0:
283,106,14715,1,8,0:0:0:0:
286,108,15087,1,8,0:0:0:0:
239,217,15459,2,4,L|311:189,6,57.8512396694215
304,140,16450,1,12,0:0:0:0:
319,131,16698,1,0,0:0:0:0:
325,110,16946,1,0,0:0:0:0:
325,110,17194,1,8,0:0:0:0:
319,131,17690,1,0,0:0:0:0:
326,123,17938,1,8,0:0:0:0:
321,123,18186,1,8,0:0:0:0:
325,107,18434,1,0,0:0:0:0:
320,113,18930,1,0,0:0:0:0:
319,113,19178,1,0,0:0:0:0:
319,113,19425,1,8,0:0:0:0:
320,113,19797,1,8,0:0:0:0:
302,126,20045,1,0,0:0:0:0:
314,126,20169,1,8,0:0:0:0:
329,104,20417,1,0,0:0:0:0:
307,112,20913,1,8,0:0:0:0:
326,120,21285,1,0,0:0:0:0:
320,113,21657,1,8,0:0:0:0:
326,115,21905,1,0,0:0:0:0:
326,120,22277,1,8,0:0:0:0:
331,116,22649,1,0,0:0:0:0:
321,123,22897,1,8,0:0:0:0:
326,120,23268,1,8,0:0:0:0:
331,116,23640,1,8,0:0:0:0:
325,114,23764,1,8,0:0:0:0:
260,198,23888,2,0,L|299:181,4,28.9256198347107
330,95,24384,5,4,0:0:0:0:
359,128,24756,1,8,0:0:0:0:
343,101,25004,1,8,0:0:0:0:
346,104,25252,1,8,0:0:0:0:
357,117,25500,1,0,0:0:0:0:
357,118,25996,1,0,0:0:0:0:
357,112,26244,1,8,0:0:0:0:
372,106,26492,1,8,0:0:0:0:
362,111,26863,1,0,0:0:0:0:
373,102,27235,1,8,0:0:0:0:
373,92,27483,1,8,0:0:0:0:
372,92,27731,1,0,0:0:0:0:
374,102,27979,1,8,0:0:0:0:
373,102,28227,1,0,0:0:0:0:
383,102,28847,1,0,0:0:0:0:
381,100,29219,1,8,0:0:0:0:
377,100,29467,1,0,0:0:0:0:
383,102,29839,1,0,0:0:0:0:
378,89,30211,1,0,0:0:0:0:
379,89,30459,1,8,0:0:0:0:
386,94,30706,1,0,0:0:0:0:
389,104,30954,1,8,0:0:0:0:
390,104,31202,1,0,0:0:0:0:
389,104,31326,1,0,0:0:0:0:
378,104,31946,1,8,0:0:0:0:
390,104,32070,1,8,0:0:0:0:
389,104,32318,1,8,0:0:0:0:
390,103,32690,1,0,0:0:0:0:
390,104,33062,1,8,0:0:0:0:
389,104,33310,1,0,0:0:0:0:
390,103,33682,1,8,0:0:0:0:
399,95,33930,1,0,0:0:0:0:
390,104,34054,1,8,0:0:0:0:
391,96,34302,1,0,0:0:0:0:
392,96,34673,1,8,0:0:0:0:
392,77,35045,1,8,0:0:0:0:
394,78,35293,1,0,0:0:0:0:
395,78,35541,1,8,0:0:0:0:
397,86,35789,1,0,0:0:0:0:
398,86,36152,1,8,0:0:0:0:
409,77,36389,1,0,0:0:0:0:
419,85,36626,1,8,0:0:0:0:
419,84,36982,1,0,0:0:0:0:
417,83,37337,1,0,0:0:0:0:
419,84,37693,1,0,0:0:0:0:
419,84,37930,1,8,0:0:0:0:
417,83,38404,1,8,0:0:0:0:
398,92,38641,1,0,0:0:0:0:
402,80,38878,1,0,0:0:0:0:
397,83,39234,1,8,0:0:0:0:
401,74,39352,1,0,0:0:0:0:
402,80,39708,1,8,0:0:0:0:
402,80,39885,1,0,0:0:0:0:
399,75,40063,1,8,0:0:0:0:
394,56,40537,1,0,0:0:0:0:
409,69,40774,1,0,0:0:0:0:
404,61,41011,1,8,0:0:0:0:
398,62,41367,1,0,0:0:0:0:
403,65,41485,1,8,0:0:0:0:
403,65,41722,1,0,0:0:0:0:
397,71,42078,1,8,0:0:0:0:
401,71,42315,1,8,0:0:0:0:
403,65,42434,1,0,0:0:0:0:
399,71,42671,1,8,0:0:0:0:
397,71,43026,1,8,0:0:0:0:
401,71,43263,1,0,0:0:0:0:
396,73,43382,1,0,0:0:0:0:
397,71,43694,1,0,0:0:0:0:
403,62,43920,1,8,0:0:0:0:
395,67,44261,5,0,0:0:0:0:
396,73,44374,1,8,0:0:0:0:
397,71,44601,1,0,0:0:0:0:
371,67,44828,1,8,0:0:0:0:
403,62,45055,1,8,0:0:0:0:
414,58,45508,1,0,0:0:0:0:
414,58,45735,1,8,0:0:0:0:
414,58,45849,1,8,0:0:0:0:
399,55,46075,1,0,0:0:0:0:
420,49,46416,1,0,0:0:0:0:
416,47,46586,1,0,0:0:0:0:
413,47,46756,1,8,0:0:0:0:
411,47,47096,1,8,0:0:0:0:
407,50,47323,1,0,0:0:0:0:
413,47,47663,1,0,0:0:0:0:
384,73,54589,5,8,0:0:0:0:
384,73,54806,1,8,0:0:0:0:
383,86,55023,1,0,0:0:0:0:
365,80,55349,1,0,0:0:0:0:
384,73,55675,1,0,0:0:0:0:
383,86,56001,1,8,0:0:0:0:
387,83,56327,1,0,0:0:0:0:
383,84,56544,1,0,0:0:0:0:
383,84,56870,1,8,0:0:0:0:
387,83,57087,1,0,0:0:0:0:
387,83,57195,1,8,0:0:0:0:
379,73,57413,1,8,0:0:0:0:
383,84,57631,1,0,0:0:0:0:
390,80,57848,1,8,0:0:0:0:
379,81,58065,1,0,0:0:0:0:
379,73,58282,1,8,0:0:0:0:
380,71,58608,1,0,0:0:0:0:
380,71,58826,1,8,0:0:0:0:
381,72,58934,1,0,0:0:0:0:
379,73,59152,1,8,0:0:0:0:
390,67,59369,1,0,0:0:0:0:
380,71,59804,1,0,0:0:0:0:
379,73,60129,1,8,0:0:0:0:
378,66,60347,1,0,0:0:0:0:
378,66,60455,1,8,0:0:0:0:
380,71,60673,1,0,0:0:0:0:
381,72,60890,1,8,0:0:0:0:
368,64,61107,1,0,0:0:0:0:
373,60,61433,1,8,0:0:0:0:
375,61,61542,1,0,0:0:0:0:
381,72,61759,1,8,0:0:0:0:
381,68,61976,1,0,0:0:0:0:
381,68,62302,1,8,0:0:0:0:
381,68,62411,1,0,0:0:0:0:
380,68,62628,1,0,0:0:0:0:
381,68,62846,1,0,0:0:0:0:
381,68,63063,1,8,0:0:0:0:
381,68,63280,1,0,0:0:0:0:
372,67,63715,1,8,0:0:0:0:
368,58,63932,1,8,0:0:0:0:
370,58,64149,1,0,0:0:0:0:
369,69,64367,1,0,0:0:0:0:
369,69,64584,1,8,0:0:0:0:
371,66,64801,1,0,0:0:0:0:
371,66,64910,1,8,0:0:0:0:
368,69,65019,1,0,0:0:0:0:
369,69,65453,1,8,0:0:0:0:
374,86,65888,1,8,0:0:0:0:
380,86,65996,1,0,0:0:0:0:
380,86,66105,1,8,0:0:0:0:
380,86,66322,1,0,0:0:0:0:
364,77,68981,1,8,0:0:0:0:
364,77,69189,1,8,0:0:0:0:
384,78,69501,1,0,0:0:0:0:
382,78,69606,1,8,0:0:0:0:
364,77,69918,1,0,0:0:0:0:
364,77,70126,1,8,0:0:0:0:
365,78,70335,1,0,0:0:0:0:
371,79,70439,1,0,0:0:0:0:
373,78,70647,1,8,0:0:0:0:
382,75,71064,1,0,0:0:0:0:
382,75,71272,1,8,0:0:0:0:
373,78,71481,1,0,0:0:0:0:
373,65,71585,1,8,0:0:0:0:
375,67,71897,1,0,0:0:0:0:
374,63,72106,1,8,0:0:0:0:
390,65,72314,1,8,0:0:0:0:
390,69,72626,1,8,0:0:0:0:
406,102,72939,1,0,0:0:0:0:
398,102,73251,1,0,0:0:0:0:
392,100,73564,1,8,0:0:0:0:
406,102,73951,1,8,0:0:0:0:
398,102,74223,1,0,0:0:0:0:
300,108,80452,5,0,0:0:0:0:
300,108,81251,1,0,0:0:0:0:
300,108,82051,1,0,0:0:0:0:
300,108,82851,1,0,0:0:0:0:
302,101,83650,1,0,0:0:0:0:
302,101,84450,1,0,0:0:0:0:
302,101,85250,1,0,0:0:0:0:
302,101,85850,1,0,0:0:0:0:
302,101,86050,1,0,0:0:0:0:
302,101,86849,1,0,0:0:0:0:
302,101,87649,1,0,0:0:0:0:
302,101,88449,1,0,0:0:0:0:
302,101,89248,1,0,0:0:0:0:
315,115,90048,1,0,0:0:0:0:
315,115,90848,1,0,0:0:0:0:
315,115,91648,1,0,0:0:0:0:
315,115,92247,1,0,0:0:0:0:
315,115,92447,1,0,0:0:0:0:
315,115,93247,1,0,0:0:0:0:
321,119,93847,1,8,0:0:0:0:
321,119,94047,1,0,0:0:0:0:
321,119,94847,1,0,0:0:0:0:
321,119,95146,1,0,0:0:0:0:
321,119,95446,1,8,0:0:0:0:
321,119,95646,1,0,0:0:0:0:
321,119,96446,1,0,0:0:0:0:
321,119,97046,1,8,0:0:0:0:
321,119,97246,1,0,0:0:0:0:
314,121,97546,1,0,0:0:0:0:
321,119,98045,1,0,0:0:0:0:
314,121,98345,1,0,0:0:0:0:
321,119,98645,1,8,0:0:0:0:
321,119,98945,1,0,0:0:0:0:
325,117,99245,1,8,0:0:0:0:
321,119,99445,1,8,0:0:0:0:
321,119,99545,1,8,0:0:0:0:
270,156,102839,1,8,0:0:0:0:
307,86,103031,1,0,0:0:0:0:
299,120,103223,1,8,0:0:0:0:
294,111,103607,1,8,0:0:0:0:
287,111,103895,1,8,0:0:0:0:
291,109,104183,1,0,0:0:0:0:
304,113,104375,1,0,0:0:0:0:
297,119,104663,1,8,0:0:0:0:
299,109,104951,1,8,0:0:0:0:
288,101,105143,1,0,0:0:0:0:
288,101,105431,1,0,0:0:0:0:
299,109,105719,1,8,0:0:0:0:
299,109,105911,1,0,0:0:0:0:
297,108,106199,1,0,0:0:0:0:
297,108,106487,1,0,0:0:0:0:
299,109,106679,1,8,0:0:0:0:
299,109,106967,1,8,0:0:0:0:
282,111,107255,1,8,0:0:0:0:
281,111,107639,1,0,0:0:0:0:
305,101,107831,1,0,0:0:0:0:
282,111,108023,1,8,0:0:0:0:
281,111,108407,1,0,0:0:0:0:
213,204,108791,2,0,L|266:188,18,44.8
292,123,110903,1,8,0:0:0:0:
292,123,111095,1,0,0:0:0:0:
323,119,111671,1,8,0:0:0:0:
326,113,111863,1,0,0:0:0:0:
335,108,112247,1,0,0:0:0:0:
346,100,112439,1,8,0:0:0:0:
339,104,112631,1,0,0:0:0:0:
336,104,113015,1,0,0:0:0:0:
335,108,113207,1,8,0:0:0:0:
339,104,113591,1,0,0:0:0:0:
372,114,113783,1,8,0:0:0:0:
368,115,113975,1,8,0:0:0:0:
368,115,114167,1,0,0:0:0:0:
369,101,114359,1,8,0:0:0:0:
367,101,114551,1,0,0:0:0:0:
362,98,114743,1,8,0:0:0:0:
367,79,115127,1,0,0:0:0:0:
366,89,115511,1,8,0:0:0:0:
366,88,115703,1,0,0:0:0:0:
367,88,115895,1,8,0:0:0:0:
287,111,116183,1,8,0:0:0:0:
291,109,116471,1,0,0:0:0:0:
304,113,116663,1,0,0:0:0:0:
297,119,116951,1,8,0:0:0:0:
299,109,117239,1,8,0:0:0:0:
288,101,117431,1,0,0:0:0:0:
288,101,117719,1,0,0:0:0:0:
299,109,118007,1,8,0:0:0:0:
299,109,118199,1,0,0:0:0:0:
297,108,118487,1,0,0:0:0:0:
297,108,118775,1,0,0:0:0:0:
299,109,118967,1,8,0:0:0:0:
299,109,119255,1,8,0:0:0:0:
282,111,119543,1,8,0:0:0:0:
281,111,119927,1,0,0:0:0:0:
305,101,120119,1,0,0:0:0:0:
282,111,120311,1,8,0:0:0:0:
316,101,120503,1,0,0:0:0:0:
281,111,120695,1,8,0:0:0:0:
334,217,121079,2,0,L|372:191,10,44.8
336,130,122423,1,8,0:0:0:0:
350,106,122615,1,0,0:0:0:0:
361,111,123191,1,8,0:0:0:0:
365,108,123383,1,0,0:0:0:0:
369,105,123671,1,8,0:0:0:0:
374,113,123959,1,0,0:0:0:0:
374,113,124055,1,8,0:0:0:0:
371,111,124343,1,0,0:0:0:0:
371,112,124535,1,8,0:0:0:0:
372,112,124727,1,8,0:0:0:0:
378,113,124919,1,0,0:0:0:0:
256,192,125207,12,0,127223,0:0:0:0:
350,89,127415,5,4,0:0:0:0:
