osu file format v14

[General]
AudioFilename: audio.mp3
AudioLeadIn: 0
PreviewTime: 198961
Countdown: 0
SampleSet: Normal
StackLeniency: 0.7
Mode: 3
LetterboxInBreaks: 0
SpecialStyle: 0
WidescreenStoryboard: 1

[Editor]
Bookmarks: 19774,79607,132285,256034
DistanceSpacing: 1.3
BeatDivisor: 4
GridSize: 16
TimelineZoom: 3

[Metadata]
Title:HALL
TitleUnicode:HALL
Artist:Frums
ArtistUnicode:Frums
Creator:guden
Version:NULL
Source:osu!mania 4K World Cup 2023
Tags:-mint- qqqant mwc mwc23 mwc2023 semifinals sf tiebreaker tb osu! original featured artist fa ambient breakcore speedcore densecore glitch chaos experimental electronic instrumental
BeatmapID:4294726
BeatmapSetID:2055332

[Difficulty]
HPDrainRate:8
CircleSize:4
OverallDifficulty:7.5
ApproachRate:5
SliderMultiplier:1.4
SliderTickRate:1

[Events]
//Background and Video events
0,0,"HALL.jpg",0,0
//Break Periods
//Storyboard Layer 0 (Background)
//Storyboard Layer 1 (Fail)
//Storyboard Layer 2 (Pass)
//Storyboard Layer 3 (Foreground)
//Storyboard Layer 4 (Overlay)
//Storyboard Sound Samples

[TimingPoints]
1015,285.714285714286,4,1,1,25,1,0
1015,-85.4700854700855,4,1,1,25,0,0
10158,279.06976744186,4,1,1,50,1,0
10158,-87.719298245614,4,1,1,50,0,0
14623,272.727272727273,4,1,1,50,1,0
14623,-89.2857142857143,4,1,1,50,0,0
16805,266.666666666667,4,1,1,50,1,0
16805,-91.743119266055,4,1,1,50,0,0
17871,260.869565217391,4,1,1,50,1,0
17871,-93.4579439252336,4,1,1,50,0,0
18393,255.31914893617,4,1,1,50,1,8
18393,-95.2380952380952,4,1,1,50,0,8
18649,250,4,1,1,50,1,8
18649,-98.0392156862745,4,1,1,50,0,8
18899,250,4,1,1,40,1,0
18899,-98.0392156862745,4,1,1,40,0,0
19774,250,4,1,1,50,1,0
19774,-98.0392156862745,4,1,1,50,0,0
21524,250,4,1,1,50,1,0
21524,-98.0392156862745,4,1,1,50,0,0
22774,-98.0392156862745,4,1,1,40,0,0
23399,250,4,1,1,50,1,0
23399,-98.0392156862745,4,1,1,50,0,0
25024,250,4,1,1,50,1,0
25024,-98.0392156862745,4,1,1,50,0,0
26524,-98.0392156862745,4,1,1,40,0,0
27024,-98.0392156862745,4,1,1,50,0,0
28774,250,4,1,1,50,1,0
28774,-98.0392156862745,4,1,1,50,0,0
30024,-98.0392156862745,4,1,1,40,0,0
30649,250,4,1,1,50,1,0
30649,-98.0392156862745,4,1,1,50,0,0
32274,250,4,1,1,50,1,0
32274,-98.0392156862745,4,1,1,50,0,0
33774,-98.0392156862745,4,1,1,40,0,0
34274,-98.0392156862745,4,1,1,50,0,0
36024,250,4,1,1,50,1,0
36024,-98.0392156862745,4,1,1,50,0,0
37274,-98.0392156862745,4,1,1,40,0,0
37899,250,4,1,1,50,1,0
37899,-98.0392156862745,4,1,1,50,0,0
39524,250,4,1,1,50,1,0
39524,-98.0392156862745,4,1,1,50,0,0
41024,-98.0392156862745,4,1,1,40,0,0
41524,-98.0392156862745,4,1,1,50,0,0
43274,250,4,1,1,50,1,0
43274,-98.0392156862745,4,1,1,50,0,0
44524,-98.0392156862745,4,1,1,40,0,0
45149,250,4,1,1,50,1,0
45149,-98.0392156862745,4,1,1,50,0,0
46774,250,4,1,1,50,1,0
46774,-98.0392156862745,4,1,1,50,0,0
48274,-98.0392156862745,4,1,1,40,0,0
48774,250,5,1,1,40,1,1
48774,-98.0392156862745,5,1,1,40,0,1
56274,333.333333333333,5,1,1,35,1,0
56274,-72.992700729927,5,1,1,35,0,0
57940,-72.992700729927,5,1,1,30,0,0
79607,-72.992700729927,5,1,1,40,0,0
92273,-72.992700729927,5,1,1,25,0,0
92940,-72.992700729927,5,1,1,50,0,1
119607,-72.992700729927,5,1,1,50,0,0
121107,333.333333333333,5,1,1,50,1,0
121107,-72.992700729927,5,1,1,50,0,0
122607,333.333333333333,5,1,1,50,1,0
122607,-72.992700729927,5,1,1,50,0,0
124107,333.333333333333,5,1,1,50,1,0
124107,-72.992700729927,5,1,1,50,0,0
125607,331.491712707182,4,1,1,50,1,0
125607,-73.5294117647059,4,1,1,50,0,0
125773,329.67032967033,4,1,1,50,1,8
125773,-74.0740740740741,4,1,1,50,0,8
125937,327.868852459016,4,1,1,50,1,8
125937,-74.6268656716418,4,1,1,50,0,8
126101,326.086956521739,4,1,1,50,1,8
126101,-74.6268656716418,4,1,1,50,0,8
126264,324.324324324324,4,1,1,50,1,8
126264,-75.187969924812,4,1,1,50,0,8
126427,322.58064516129,4,1,1,50,1,8
126427,-75.7575757575758,4,1,1,50,0,8
126588,320.855614973262,4,1,1,50,1,8
126588,-75.7575757575758,4,1,1,50,0,8
126748,319.148936170213,4,1,1,50,1,0
126748,-76.3358778625954,4,1,1,50,0,0
126908,317.460317460317,4,1,1,50,1,8
126908,-76.9230769230769,4,1,1,50,0,8
127067,315.789473684211,4,1,1,50,1,8
127067,-77.5193798449612,4,1,1,50,0,8
127224,314.13612565445,4,1,1,50,1,8
127224,-77.5193798449612,4,1,1,50,0,8
127382,312.5,4,1,1,50,1,8
127382,-78.125,4,1,1,50,0,8
127538,310.880829015544,4,1,1,50,1,8
127538,-78.740157480315,4,1,1,50,0,8
127693,309.278350515464,4,1,1,50,1,8
127693,-78.740157480315,4,1,1,50,0,8
127848,307.692307692308,4,1,1,50,1,0
127848,-79.3650793650794,4,1,1,50,0,0
128002,306.122448979592,4,1,1,50,1,8
128002,-79.3650793650794,4,1,1,50,0,8
128155,304.568527918782,4,1,1,50,1,8
128155,-80,4,1,1,50,0,8
128307,303.030303030303,4,1,1,50,1,8
128307,-80.6451612903226,4,1,1,50,0,8
128459,301.507537688442,4,1,1,50,1,8
128459,-80.6451612903226,4,1,1,50,0,8
128609,300,4,1,1,50,1,8
128609,-81.3008130081301,4,1,1,50,0,8
128759,298.507462686567,4,1,1,50,1,8
128759,-81.9672131147541,4,1,1,50,0,8
128909,297.029702970297,4,1,1,50,1,0
128909,-81.9672131147541,4,1,1,50,0,0
129057,295.566502463054,4,1,1,50,1,8
129057,-82.6446280991736,4,1,1,50,0,8
129205,294.117647058824,4,1,1,50,1,8
129205,-82.6446280991736,4,1,1,50,0,8
129352,292.682926829268,4,1,1,50,1,8
129352,-83.3333333333333,4,1,1,50,0,8
129498,291.26213592233,4,1,1,50,1,8
129498,-84.0336134453782,4,1,1,50,0,8
129644,289.855072463768,4,1,1,50,1,8
129644,-84.0336134453782,4,1,1,50,0,8
129789,288.461538461538,4,1,1,50,1,8
129789,-84.7457627118644,4,1,1,50,0,8
129933,287.081339712919,4,1,1,50,1,8
129933,-84.7457627118644,4,1,1,50,0,8
130077,285.714285714286,4,1,1,50,1,8
130077,-85.4700854700855,4,1,1,50,0,8
130219,284.36018957346,4,1,1,50,1,8
130219,-85.4700854700855,4,1,1,50,0,8
130362,283.018867924528,4,1,1,50,1,8
130362,-86.2068965517241,4,1,1,50,0,8
130503,281.69014084507,4,1,1,50,1,0
130503,-86.9565217391304,4,1,1,50,0,0
130644,280.373831775701,4,1,1,50,1,8
130644,-86.9565217391304,4,1,1,50,0,8
130784,279.06976744186,4,1,1,50,1,8
130784,-87.719298245614,4,1,1,50,0,8
130924,277.777777777778,4,1,1,50,1,8
130924,-87.719298245614,4,1,1,50,0,8
131063,276.497695852535,4,1,1,50,1,8
131063,-88.495575221239,4,1,1,50,0,8
131201,275.229357798165,4,1,1,50,1,8
131201,-88.495575221239,4,1,1,50,0,8
131338,273.972602739726,4,1,1,50,1,8
131338,-89.2857142857143,4,1,1,50,0,8
131475,272.727272727273,4,1,1,50,1,8
131475,-89.2857142857143,4,1,1,50,0,8
131612,271.493212669683,4,1,1,50,1,8
131612,-90.0900900900901,4,1,1,50,0,8
131748,270.27027027027,4,1,1,50,1,8
131748,-90.0900900900901,4,1,1,50,0,8
131883,269.058295964126,4,1,1,50,1,8
131883,-90.9090909090909,4,1,1,50,0,8
132017,267.857142857143,4,1,1,50,1,8
132017,-90.9090909090909,4,1,1,50,0,8
132285,267.857142857143,7,1,1,50,1,0
132285,-90.9090909090909,7,1,1,50,0,0
162285,-90.9090909090909,7,1,1,60,0,1
191749,-90.9090909090909,7,1,1,50,0,0
195097,-90.9090909090909,7,1,1,25,0,0
196035,243.90243902439,6,1,1,35,1,0
222376,-100,6,1,1,25,0,0
226766,-100,6,1,1,35,0,0
256034,-100,6,1,1,40,0,0
279449,-100,6,1,1,35,0,0
289734,244.897959183673,6,1,1,35,1,8
289775,245.901639344262,6,1,1,35,1,8
289775,-99.009900990099,6,1,1,35,0,0
289816,246.913580246914,6,1,1,35,1,8
289816,-99.009900990099,6,1,1,35,0,0
289857,247.933884297521,6,1,1,35,1,8
289857,-98.0392156862745,6,1,1,35,0,0
289899,248.96265560166,6,1,1,35,1,8
289899,-98.0392156862745,6,1,1,35,0,0
289940,250,6,1,1,35,1,8
289940,-98.0392156862745,6,1,1,35,0,0
289982,251.046025104603,6,1,1,35,1,8
289982,-97.0873786407767,6,1,1,35,0,0
290024,252.100840336134,6,1,1,35,1,8
290024,-97.0873786407767,6,1,1,35,0,0
290066,253.164556962025,6,1,1,35,1,8
290066,-96.1538461538461,6,1,1,35,0,0
290108,254.237288135593,6,1,1,35,1,8
290108,-96.1538461538461,6,1,1,35,0,0
290150,255.31914893617,6,1,1,35,1,8
290150,-95.2380952380952,6,1,1,35,0,0
290193,256.410256410256,6,1,1,35,1,8
290193,-95.2380952380952,6,1,1,35,0,0
290235,257.510729613734,6,1,1,35,1,8
290235,-94.3396226415094,6,1,1,35,0,0
290278,258.620689655172,6,1,1,35,1,8
290278,-94.3396226415094,6,1,1,35,0,0
290321,259.74025974026,6,1,1,35,1,8
290321,-94.3396226415094,6,1,1,35,0,0
290365,260.869565217391,6,1,1,35,1,8
290365,-93.4579439252336,6,1,1,35,0,0
290408,262.008733624454,6,1,1,35,1,8
290408,-93.4579439252336,6,1,1,35,0,0
290452,263.157894736842,6,1,1,35,1,8
290452,-92.5925925925926,6,1,1,35,0,0
290496,264.31718061674,6,1,1,35,1,8
290496,-92.5925925925926,6,1,1,35,0,0
290540,265.486725663717,6,1,1,35,1,8
290540,-91.743119266055,6,1,1,35,0,0
290584,266.666666666667,6,1,1,35,1,8
290584,-91.743119266055,6,1,1,35,0,0
290629,267.857142857143,6,1,1,35,1,8
290629,-90.9090909090909,6,1,1,35,0,0
290673,269.058295964126,6,1,1,35,1,8
290673,-90.9090909090909,6,1,1,35,0,0
290718,270.27027027027,6,1,1,35,1,8
290718,-90.0900900900901,6,1,1,35,0,0
290763,271.493212669683,6,1,1,35,1,8
290763,-90.0900900900901,6,1,1,35,0,0
290808,272.727272727273,6,1,1,35,1,8
290808,-89.2857142857143,6,1,1,35,0,0
290854,273.972602739726,6,1,1,35,1,8
290854,-89.2857142857143,6,1,1,35,0,0
290899,275.229357798165,6,1,1,35,1,8
290899,-88.495575221239,6,1,1,35,0,0
290945,276.497695852535,6,1,1,35,1,8
290945,-88.495575221239,6,1,1,35,0,0
290991,277.777777777778,6,1,1,35,1,8
290991,-87.719298245614,6,1,1,35,0,0
291038,279.06976744186,6,1,1,35,1,8
291038,-87.719298245614,6,1,1,35,0,0
291084,280.373831775701,6,1,1,35,1,8
291084,-86.9565217391304,6,1,1,35,0,0
291131,281.69014084507,6,1,1,35,1,8
291131,-86.9565217391304,6,1,1,35,0,0
291178,283.018867924528,6,1,1,35,1,8
291178,-86.2068965517241,6,1,1,35,0,0
291225,284.36018957346,6,1,1,35,1,8
291225,-85.4700854700855,6,1,1,35,0,0
291272,285.714285714286,6,1,1,35,1,0
291272,-85.4700854700855,6,1,1,35,0,0
291320,287.081339712919,6,1,1,35,1,8
291320,-84.7457627118644,6,1,1,35,0,0
291368,288.461538461538,6,1,1,35,1,8
291368,-84.7457627118644,6,1,1,35,0,0
291416,289.855072463768,6,1,1,35,1,8
291416,-84.0336134453782,6,1,1,35,0,0
291464,291.26213592233,6,1,1,35,1,8
291464,-84.0336134453782,6,1,1,35,0,0
291513,292.682926829268,6,1,1,35,1,8
291513,-83.3333333333333,6,1,1,35,0,0
291562,294.117647058824,6,1,1,35,1,8
291562,-82.6446280991736,6,1,1,35,0,0
291611,295.566502463054,6,1,1,35,1,8
291611,-82.6446280991736,6,1,1,35,0,0
291660,297.029702970297,6,1,1,35,1,8
291660,-81.9672131147541,6,1,1,35,0,0
291709,298.507462686567,6,1,1,35,1,8
291709,-81.9672131147541,6,1,1,35,0,0
291759,300,6,1,1,35,1,8
291759,-81.3008130081301,6,1,1,35,0,0
291809,301.507537688442,6,1,1,35,1,8
291809,-80.6451612903226,6,1,1,35,0,0
291859,303.030303030303,6,1,1,35,1,8
291859,-80.6451612903226,6,1,1,35,0,0
291910,304.568527918782,6,1,1,35,1,8
291910,-80,6,1,1,35,0,0
291961,306.122448979592,6,1,1,35,1,8
291961,-79.3650793650794,6,1,1,35,0,0
292012,307.692307692308,6,1,1,35,1,8
292012,-79.3650793650794,6,1,1,35,0,0
292063,309.278350515464,6,1,1,35,1,8
292063,-78.740157480315,6,1,1,35,0,0
292114,310.880829015544,6,1,1,35,1,8
292114,-78.740157480315,6,1,1,35,0,0
292166,312.5,6,1,1,35,1,8
292166,-78.125,6,1,1,35,0,0
292218,314.13612565445,6,1,1,35,1,8
292218,-77.5193798449612,6,1,1,35,0,0
292271,315.789473684211,6,1,1,35,1,8
292271,-77.5193798449612,6,1,1,35,0,0
292323,317.460317460317,6,1,1,35,1,8
292323,-76.9230769230769,6,1,1,35,0,0
292376,319.148936170213,6,1,1,35,1,8
292376,-76.3358778625954,6,1,1,35,0,0
292429,320.855614973262,6,1,1,35,1,8
292429,-75.7575757575758,6,1,1,35,0,0
292483,322.58064516129,6,1,1,35,1,8
292483,-75.7575757575758,6,1,1,35,0,0
292537,324.324324324324,6,1,1,35,1,8
292537,-75.187969924812,6,1,1,35,0,0
292591,326.086956521739,6,1,1,35,1,8
292591,-74.6268656716418,6,1,1,35,0,0
292645,327.868852459016,6,1,1,35,1,8
292645,-74.6268656716418,6,1,1,35,0,0
292700,329.67032967033,6,1,1,35,1,8
292700,-74.0740740740741,6,1,1,35,0,0
292755,331.491712707182,6,1,1,35,1,8
292755,-73.5294117647059,6,1,1,35,0,0
292810,333.333333333333,6,1,1,35,1,8
292810,-72.992700729927,6,1,1,35,0,0
292866,335.195530726257,6,1,1,35,1,8
292866,-72.992700729927,6,1,1,35,0,0
292921,337.078651685393,6,1,1,35,1,8
292921,-72.463768115942,6,1,1,35,0,0
292978,338.983050847458,6,1,1,35,1,8
292978,-71.9424460431655,6,1,1,35,0,0
293034,340.909090909091,6,1,1,35,1,8
293034,-71.4285714285714,6,1,1,35,0,0
293091,342.857142857143,6,1,1,35,1,8
293091,-70.9219858156028,6,1,1,35,0,0
293148,344.827586206897,6,1,1,35,1,0
293148,-70.9219858156028,6,1,1,35,0,0
293205,346.820809248555,6,1,1,35,1,8
293205,-70.4225352112676,6,1,1,35,0,0
293263,348.837209302326,6,1,1,35,1,8
293263,-69.9300699300699,6,1,1,35,0,0
293321,350.877192982456,6,1,1,35,1,8
293321,-69.4444444444444,6,1,1,35,0,0
293380,352.941176470588,6,1,1,35,1,8
293380,-68.9655172413793,6,1,1,35,0,0
293439,355.029585798817,6,1,1,35,1,8
293439,-68.4931506849315,6,1,1,35,0,0
293498,357.142857142857,6,1,1,35,1,8
293498,-68.4931506849315,6,1,1,35,0,0
293557,359.281437125748,6,1,1,35,1,8
293557,-68.0272108843538,6,1,1,35,0,0
293617,361.44578313253,6,1,1,35,1,8
293617,-67.5675675675676,6,1,1,35,0,0
293678,363.636363636364,6,1,1,35,1,8
293678,-67.1140939597315,6,1,1,35,0,0
293738,365.853658536585,6,1,1,35,1,8
293738,-66.6666666666667,6,1,1,35,0,0
293799,368.098159509202,6,1,1,35,1,8
293799,-66.2251655629139,6,1,1,35,0,0
293860,370.37037037037,6,1,1,35,1,8
293860,-65.7894736842105,6,1,1,35,0,0
293922,372.670807453416,6,1,1,35,1,8
293922,-65.359477124183,6,1,1,35,0,0
293984,375,6,1,1,35,1,8
293984,-64.9350649350649,6,1,1,35,0,0
294047,377.358490566038,6,1,1,35,1,8
294047,-64.5161290322581,6,1,1,35,0,0
294110,379.746835443038,6,1,1,35,1,8
294110,-64.1025641025641,6,1,1,35,0,0
294173,382.165605095541,6,1,1,35,1,8
294173,-63.6942675159236,6,1,1,35,0,0
294237,384.615384615385,6,1,1,35,1,8
294237,-63.2911392405063,6,1,1,35,0,0
294301,387.096774193548,6,1,1,35,1,8
294301,-62.8930817610063,6,1,1,35,0,0
294365,389.61038961039,6,1,1,35,1,8
294365,-62.5,6,1,1,35,0,0
294430,392.156862745098,6,1,1,35,1,8
294430,-62.111801242236,6,1,1,35,0,0
294496,394.736842105263,6,1,1,35,1,8
294496,-61.7283950617284,6,1,1,35,0,0
294561,397.350993377483,6,1,1,35,1,8
294561,-61.3496932515337,6,1,1,35,0,0
294628,400,6,1,1,35,1,8
294628,-60.9756097560976,6,1,1,35,0,0
294694,402.684563758389,6,1,1,35,1,8
294694,-60.6060606060606,6,1,1,35,0,0
294761,405.405405405405,6,1,1,35,1,8
294761,-60.2409638554217,6,1,1,35,0,0
294829,408.163265306122,6,1,1,35,1,8
294829,-59.8802395209581,6,1,1,35,0,0
294897,410.958904109589,6,1,1,35,1,8
294897,-59.5238095238095,6,1,1,35,0,0
294965,413.793103448276,6,1,1,35,1,8
294965,-58.8235294117647,6,1,1,35,0,0
295034,416.666666666667,6,1,1,35,1,8
295034,-58.4795321637427,6,1,1,35,0,0
295104,419.58041958042,6,1,1,35,1,8
295104,-58.1395348837209,6,1,1,35,0,0
295174,422.535211267606,6,1,1,35,1,8
295174,-57.8034682080925,6,1,1,35,0,0
295244,425.531914893617,6,1,1,35,1,8
295244,-57.4712643678161,6,1,1,35,0,0
295315,428.571428571429,6,1,1,35,1,8
295315,-56.8181818181818,6,1,1,35,0,0
295387,431.654676258993,6,1,1,35,1,8
295387,-56.4971751412429,6,1,1,35,0,0
295459,434.782608695652,6,1,1,35,1,0
295459,-56.1797752808989,6,1,1,35,0,0
295531,437.956204379562,6,1,1,35,1,8
295531,-55.5555555555556,6,1,1,35,0,0
295604,441.176470588235,6,1,1,35,1,8
295604,-55.2486187845304,6,1,1,35,0,0
295678,444.444444444444,6,1,1,35,1,8
295678,-54.9450549450549,6,1,1,35,0,0
295752,447.761194029851,6,1,1,35,1,8
295752,-54.3478260869565,6,1,1,35,0,0
295826,451.127819548872,6,1,1,35,1,8
295826,-54.054054054054,6,1,1,35,0,0
295901,454.545454545455,6,1,1,35,1,8
295901,-53.763440860215,6,1,1,35,0,0
295977,458.015267175573,6,1,1,35,1,8
295977,-53.1914893617021,6,1,1,35,0,0
296054,461.538461538462,6,1,1,35,1,8
296054,-52.9100529100529,6,1,1,35,0,0
296130,465.116279069767,6,1,1,35,1,8
296130,-52.3560209424084,6,1,1,35,0,0
296208,468.75,6,1,1,35,1,8
296208,-52.0833333333333,6,1,1,35,0,0
296286,472.44094488189,6,1,1,35,1,8
296286,-51.5463917525773,6,1,1,35,0,0
296365,476.190476190476,6,1,1,35,1,8
296365,-51.2820512820513,6,1,1,35,0,0
296444,480,6,1,1,35,1,8
296444,-50.761421319797,6,1,1,35,0,0
296524,483.870967741935,6,1,1,35,1,8
296524,-50.5050505050505,6,1,1,35,0,0
296605,487.80487804878,6,1,1,35,1,8
296605,-50,6,1,1,35,0,0
296686,491.803278688525,6,1,1,35,1,8
296686,-49.5049504950495,6,1,1,35,0,0
296768,495.867768595041,6,1,1,35,1,8
296768,-49.2610837438424,6,1,1,35,0,0
296851,500,6,1,1,35,1,8
296851,-48.780487804878,6,1,1,35,0,0
296934,504.201680672269,6,1,1,35,1,8
296934,-48.3091787439614,6,1,1,35,0,0
297018,508.474576271186,6,1,1,35,1,8
297018,-48.0769230769231,6,1,1,35,0,0
297103,512.820512820513,6,1,1,35,1,8
297103,-47.6190476190476,6,1,1,35,0,0
297188,517.241379310345,6,1,1,35,1,8
297188,-47.1698113207547,6,1,1,35,0,0
297275,521.739130434783,6,1,1,35,1,8
297275,-46.7289719626168,6,1,1,35,0,0
297361,526.315789473684,6,1,1,35,1,8
297361,-46.2962962962963,6,1,1,35,0,0
297449,530.973451327434,6,1,1,35,1,8
297449,-45.8715596330275,6,1,1,35,0,0
297538,535.714285714286,6,1,1,35,1,8
297538,-45.4545454545455,6,1,1,35,0,0
297627,540.540540540541,6,1,1,35,1,8
297627,-45.045045045045,6,1,1,35,0,0
297717,545.454545454546,6,1,1,35,1,8
297717,-44.6428571428571,6,1,1,35,0,0
297808,550.45871559633,6,1,1,35,1,8
297808,-44.2477876106195,6,1,1,35,0,0
297900,555.555555555556,6,1,1,35,1,8
297900,-43.859649122807,6,1,1,35,0,0
297992,560.747663551402,6,1,1,35,1,8
297992,-43.4782608695652,6,1,1,35,0,0
298086,566.037735849057,6,1,1,35,1,8
298086,-43.1034482758621,6,1,1,35,0,0
298180,571.428571428571,6,1,1,35,1,8
298180,-42.7350427350427,6,1,1,35,0,0
298275,576.923076923077,6,1,1,35,1,8
298275,-42.1940928270042,6,1,1,35,0,0
298372,582.52427184466,6,1,1,35,1,8
298372,-41.8410041841004,6,1,1,35,0,0
298469,588.235294117647,6,1,1,35,1,0
298469,-41.49377593361,6,1,1,35,0,0
298567,594.059405940594,6,1,1,35,1,8
298567,-40.9836065573771,6,1,1,35,0,0
298666,600,6,1,1,35,1,8
298666,-40.650406504065,6,1,1,35,0,0
298766,606.060606060606,6,1,1,35,1,8
298766,-40.3225806451613,6,1,1,35,0,0
298867,612.244897959184,6,1,1,35,1,8
298867,-39.8406374501992,6,1,1,35,0,0
298969,618.556701030928,6,1,1,35,1,8
298969,-39.3700787401575,6,1,1,35,0,0
299072,625,6,1,1,35,1,8
299072,-39.0625,6,1,1,35,0,0
299176,631.578947368421,6,1,1,35,1,8
299176,-38.6100386100386,6,1,1,35,0,0
299281,638.297872340426,6,1,1,35,1,8
299281,-38.1679389312977,6,1,1,35,0,0
299388,645.161290322581,6,1,1,35,1,8
299388,-37.7358490566038,6,1,1,35,0,0
299495,652.173913043478,6,1,1,35,1,8
299495,-37.4531835205993,6,1,1,35,0,0
299604,659.340659340659,6,1,1,35,1,8
299604,-37.037037037037,6,1,1,35,0,0
299714,666.666666666667,6,1,1,35,1,8
299714,-36.6300366300366,6,1,1,35,0,0
299825,674.157303370787,6,1,1,35,1,8
299825,-36.231884057971,6,1,1,35,0,0
299937,681.818181818182,6,1,1,35,1,8
299937,-35.7142857142857,6,1,1,35,0,0
300051,689.655172413793,6,1,1,35,1,8
300051,-35.3356890459364,6,1,1,35,0,0
300166,697.674418604651,6,1,1,35,1,8
300166,-34.965034965035,6,1,1,35,0,0
300282,705.882352941176,6,1,1,35,1,8
300282,-34.6020761245675,6,1,1,35,0,0
300400,714.285714285714,6,1,1,35,1,8
300400,-34.1296928327645,6,1,1,35,0,0
300519,722.89156626506,6,1,1,35,1,8
300519,-33.7837837837838,6,1,1,35,0,0
300639,731.707317073171,6,1,1,35,1,8
300639,-33.3333333333333,6,1,1,35,0,0
300761,740.740740740741,6,1,1,35,1,8
300761,-32.8947368421053,6,1,1,35,0,0
300885,750,6,1,1,35,1,8
300885,-32.4675324675325,6,1,1,35,0,0
301010,759.493670886076,6,1,1,35,1,8
301010,-32.1543408360129,6,1,1,35,0,0
301136,769.230769230769,6,1,1,35,1,8
301136,-31.7460317460317,6,1,1,35,0,0
301264,779.220779220779,6,1,1,35,1,8
301264,-31.3479623824451,6,1,1,35,0,0
301394,789.473684210526,6,1,1,35,1,8
301394,-30.8641975308642,6,1,1,35,0,0
301526,800,6,1,1,35,1,8
301526,-30.4878048780488,6,1,1,35,0,0
301659,810.810810810811,6,1,1,35,1,8
301659,-30.1204819277108,6,1,1,35,0,0
301794,821.917808219178,6,1,1,35,1,8
301794,-29.673590504451,6,1,1,35,0,0
301931,833.333333333333,6,1,1,35,1,8
301931,-29.2397660818713,6,1,1,35,0,0
302070,845.070422535211,6,1,1,35,1,8
302070,-28.9017341040462,6,1,1,35,0,0
302211,857.142857142857,6,1,1,35,1,8
302211,-28.4900284900285,6,1,1,35,0,0
302354,869.565217391304,6,1,1,35,1,8
302354,-28.0112044817927,6,1,1,35,0,0
302499,882.352941176471,6,1,1,35,1,8
302499,-27.6243093922652,6,1,1,35,0,0
302646,895.522388059701,6,1,1,35,1,8
302646,-27.2479564032698,6,1,1,35,0,0
302795,909.090909090909,6,1,1,35,1,0
302795,-26.8096514745308,6,1,1,35,0,0
308250,187.5,4,1,1,40,1,0
308250,-129.87012987013,4,1,1,40,0,0
309000,-129.87012987013,4,1,1,35,0,0
309750,-129.87012987013,4,1,1,30,0,0
318375,-129.87012987013,4,1,1,35,0,0
319125,-129.87012987013,4,1,1,40,0,0
319875,-129.87012987013,4,1,1,25,0,0
320062,-129.87012987013,4,1,1,40,0,0
320437,187.5,4,1,1,50,1,0
320437,-129.87012987013,4,1,1,50,0,0
332437,-129.87012987013,4,1,1,35,0,0
338437,-129.87012987013,4,1,1,40,0,0
344437,-129.87012987013,4,1,1,50,0,1
355312,-129.87012987013,4,1,1,50,0,0
356437,-129.87012987013,4,1,1,50,0,1
362249,-129.87012987013,4,1,1,50,0,0
362437,-129.87012987013,4,1,1,50,0,1
368249,-129.87012987013,4,1,1,60,0,0

[HitObjects]
448,192,1015,128,0,9729:0:0:0:0:
64,192,3372,128,0,9872:0:0:0:0:
320,192,5086,128,0,9800:0:0:0:0:
192,192,6229,128,0,9872:0:0:0:0:
448,192,9800,1,0,0:0:0:0:
320,192,9872,1,0,0:0:0:0:
64,192,9919,1,0,0:0:0:0:
192,192,9967,1,0,0:0:0:0:
448,192,10015,1,0,0:0:0:0:
64,192,10062,1,0,0:0:0:0:
320,192,10110,1,0,0:0:0:0:
64,192,10158,1,0,0:0:0:0:
448,192,10158,1,0,0:0:0:0:
192,192,10158,1,0,0:0:0:0:
320,192,10197,1,0,0:0:0:0:
192,192,10237,1,0,0:0:0:0:
448,192,10277,1,0,0:0:0:0:
64,192,10317,1,0,0:0:0:0:
192,192,10357,1,0,0:0:0:0:
320,192,10397,1,0,0:0:0:0:
64,192,10437,1,0,0:0:0:0:
448,192,10476,1,0,0:0:0:0:
192,192,10516,1,0,0:0:0:0:
64,192,10556,1,0,0:0:0:0:
320,192,10596,1,0,0:0:0:0:
448,192,10636,1,0,0:0:0:0:
320,192,10676,1,0,0:0:0:0:
192,192,10716,1,0,0:0:0:0:
448,192,10756,1,0,0:0:0:0:
64,192,10795,1,0,0:0:0:0:
192,192,10835,1,0,0:0:0:0:
64,192,10875,1,0,0:0:0:0:
320,192,10915,1,0,0:0:0:0:
192,192,10955,1,0,0:0:0:0:
448,192,10995,1,0,0:0:0:0:
320,192,11041,1,0,0:0:0:0:
448,192,11088,1,0,0:0:0:0:
64,192,11134,1,0,0:0:0:0:
320,192,11181,1,0,0:0:0:0:
192,192,11227,1,0,0:0:0:0:
64,192,11274,1,0,0:0:0:0:
192,192,11320,1,0,0:0:0:0:
448,192,11367,1,0,0:0:0:0:
64,192,11413,1,0,0:0:0:0:
320,192,11460,1,0,0:0:0:0:
448,192,11506,1,0,0:0:0:0:
320,192,11553,1,0,0:0:0:0:
192,192,11609,1,0,0:0:0:0:
320,192,11664,1,0,0:0:0:0:
64,192,11720,1,0,0:0:0:0:
192,192,11776,1,0,0:0:0:0:
64,192,11832,1,0,0:0:0:0:
320,192,11888,1,0,0:0:0:0:
64,192,11944,1,0,0:0:0:0:
448,192,11999,1,0,0:0:0:0:
192,192,12055,1,0,0:0:0:0:
448,192,12111,1,0,0:0:0:0:
320,192,12111,1,0,0:0:0:0:
320,192,12181,1,0,0:0:0:0:
448,192,12251,1,0,0:0:0:0:
192,192,12251,1,0,0:0:0:0:
192,192,12320,1,0,0:0:0:0:
320,192,12390,1,0,0:0:0:0:
64,192,12390,128,0,14064:0:0:0:0:
448,192,12390,1,0,0:0:0:0:
192,192,12460,1,0,0:0:0:0:
320,192,12530,1,0,0:0:0:0:
192,192,12599,1,0,0:0:0:0:
448,192,12669,1,0,0:0:0:0:
320,192,12756,1,0,0:0:0:0:
192,192,12844,1,0,0:0:0:0:
320,192,12931,1,0,0:0:0:0:
448,192,13018,1,0,0:0:0:0:
192,192,13105,1,0,0:0:0:0:
192,192,13192,1,0,0:0:0:0:
448,192,13280,1,0,0:0:0:0:
448,192,13367,1,0,0:0:0:0:
320,192,13460,1,0,0:0:0:0:
320,192,13553,1,0,0:0:0:0:
192,192,13646,1,0,0:0:0:0:
192,192,13739,1,0,0:0:0:0:
320,192,13832,1,0,0:0:0:0:
320,192,13948,1,0,0:0:0:0:
448,192,14064,1,0,0:0:0:0:
448,192,14204,1,0,0:0:0:0:
192,192,14204,1,0,0:0:0:0:
192,192,14274,1,0,0:0:0:0:
64,192,14344,1,0,0:0:0:0:
320,192,14344,1,0,0:0:0:0:
320,192,14413,1,0,0:0:0:0:
448,192,14483,1,0,0:0:0:0:
64,192,14483,1,0,0:0:0:0:
64,192,14553,1,0,0:0:0:0:
448,192,14623,128,0,15168:0:0:0:0:
320,192,14623,1,0,0:0:0:0:
192,192,14623,1,0,0:0:0:0:
64,192,14691,1,0,0:0:0:0:
320,192,14713,1,0,0:0:0:0:
64,192,14827,1,0,0:0:0:0:
320,192,14850,1,0,0:0:0:0:
192,192,14963,1,0,0:0:0:0:
64,192,14986,1,0,0:0:0:0:
192,192,15123,1,0,0:0:0:0:
64,192,15145,1,0,0:0:0:0:
320,192,15282,1,0,0:0:0:0:
192,192,15304,1,0,0:0:0:0:
320,192,15441,1,0,0:0:0:0:
192,192,15463,1,0,0:0:0:0:
64,192,15577,1,0,0:0:0:0:
320,192,15600,1,0,0:0:0:0:
448,192,15623,1,0,0:0:0:0:
64,192,15713,128,0,16259:0:0:0:0:
192,192,15713,1,0,0:0:0:0:
320,192,15713,1,0,0:0:0:0:
448,192,15804,1,0,0:0:0:0:
192,192,15827,1,0,0:0:0:0:
448,192,15986,1,0,0:0:0:0:
192,192,16009,1,0,0:0:0:0:
320,192,16191,1,0,0:0:0:0:
448,192,16213,1,0,0:0:0:0:
320,192,16418,1,0,0:0:0:0:
448,192,16441,1,0,0:0:0:0:
192,192,16532,1,0,0:0:0:0:
64,192,16532,1,0,0:0:0:0:
192,192,16600,1,0,0:0:0:0:
320,192,16668,1,0,0:0:0:0:
64,192,16668,1,0,0:0:0:0:
320,192,16736,1,0,0:0:0:0:
64,192,16805,1,0,0:0:0:0:
448,192,16805,128,0,17071:0:0:0:0:
192,192,16805,1,0,0:0:0:0:
192,192,16938,1,0,0:0:0:0:
64,192,16971,1,0,0:0:0:0:
320,192,17005,1,0,0:0:0:0:
64,192,17205,1,0,0:0:0:0:
320,192,17227,1,0,0:0:0:0:
448,192,17249,1,0,0:0:0:0:
64,192,17338,128,0,17605:0:0:0:0:
320,192,17338,1,0,0:0:0:0:
192,192,17338,1,0,0:0:0:0:
320,192,17538,1,0,0:0:0:0:
448,192,17571,1,0,0:0:0:0:
192,192,17605,1,0,0:0:0:0:
448,192,17738,1,0,0:0:0:0:
192,192,17760,1,0,0:0:0:0:
64,192,17782,1,0,0:0:0:0:
320,192,17871,5,0,0:0:0:0:
192,192,17871,1,0,0:0:0:0:
448,192,17871,1,0,0:0:0:0:
64,192,18001,1,0,0:0:0:0:
320,192,18066,1,0,0:0:0:0:
448,192,18131,1,0,0:0:0:0:
192,192,18131,1,0,0:0:0:0:
64,192,18131,1,0,0:0:0:0:
448,192,18262,1,0,0:0:0:0:
192,192,18294,1,0,0:0:0:0:
64,192,18327,1,0,0:0:0:0:
192,192,18393,1,0,0:0:0:0:
320,192,18393,1,0,0:0:0:0:
320,192,18456,1,0,0:0:0:0:
64,192,18520,1,0,0:0:0:0:
448,192,18520,1,0,0:0:0:0:
64,192,18584,1,0,0:0:0:0:
320,192,18649,1,0,0:0:0:0:
448,192,18649,1,0,0:0:0:0:
192,192,18711,1,0,0:0:0:0:
64,192,18774,1,0,0:0:0:0:
448,192,18805,1,0,0:0:0:0:
192,192,18836,1,0,0:0:0:0:
320,192,18867,1,0,0:0:0:0:
448,192,18899,5,0,0:0:0:0:
64,192,18899,1,0,0:0:0:0:
192,192,19024,1,0,0:0:0:0:
192,192,19086,1,0,0:0:0:0:
448,192,19149,5,0,0:0:0:0:
64,192,19149,1,0,0:0:0:0:
64,192,19274,5,0,0:0:0:0:
448,192,19274,1,0,0:0:0:0:
320,192,19399,128,0,19524:0:0:0:0:
448,192,19399,128,0,19461:0:0:0:0:
64,192,19524,1,0,0:0:0:0:
448,192,19555,1,0,0:0:0:0:
320,192,19586,1,0,0:0:0:0:
192,192,19617,1,0,0:0:0:0:
448,192,19649,1,0,0:0:0:0:
64,192,19680,1,0,0:0:0:0:
320,192,19711,1,0,0:0:0:0:
448,192,19774,128,0,20024:0:0:0:0:
192,192,19774,128,0,19836:0:0:0:0:
64,192,19774,128,0,19961:0:0:0:0:
192,192,19899,128,0,20024:0:0:0:0:
64,192,20024,128,0,20086:0:0:0:0:
320,192,20024,128,0,20149:0:0:0:0:
448,192,20149,128,0,20274:0:0:0:0:
192,192,20149,128,0,20211:0:0:0:0:
64,192,20149,128,0,20336:0:0:0:0:
192,192,20274,128,0,20399:0:0:0:0:
320,192,20399,128,0,20461:0:0:0:0:
448,192,20399,128,0,20649:0:0:0:0:
64,192,20399,128,0,20586:0:0:0:0:
320,192,20524,128,0,20649:0:0:0:0:
192,192,20524,128,0,20586:0:0:0:0:
64,192,20649,128,0,20711:0:0:0:0:
192,192,20649,128,0,20774:0:0:0:0:
448,192,20774,128,0,21024:0:0:0:0:
64,192,20774,128,0,20961:0:0:0:0:
320,192,20774,128,0,20899:0:0:0:0:
192,192,20899,128,0,21024:0:0:0:0:
320,192,21024,1,0,0:0:0:0:
64,192,21024,128,0,21086:0:0:0:0:
320,192,21086,1,0,0:0:0:0:
448,192,21149,128,0,21399:0:0:0:0:
192,192,21149,128,0,21211:0:0:0:0:
64,192,21149,128,0,21336:0:0:0:0:
192,192,21274,128,0,21399:0:0:0:0:
320,192,21399,1,0,0:0:0:0:
64,192,21399,128,0,21461:0:0:0:0:
320,192,21461,1,0,0:0:0:0:
448,192,21524,128,0,21774:0:0:0:0:
192,192,21524,128,0,21586:0:0:0:0:
64,192,21524,128,0,21711:0:0:0:0:
192,192,21649,128,0,21774:0:0:0:0:
64,192,21774,128,0,21836:0:0:0:0:
320,192,21774,128,0,21899:0:0:0:0:
448,192,21899,128,0,22024:0:0:0:0:
192,192,21899,128,0,21961:0:0:0:0:
64,192,21899,128,0,22086:0:0:0:0:
192,192,22024,128,0,22149:0:0:0:0:
448,192,22149,128,0,22399:0:0:0:0:
64,192,22149,128,0,22336:0:0:0:0:
320,192,22149,128,0,22211:0:0:0:0:
320,192,22274,128,0,22399:0:0:0:0:
192,192,22336,1,0,0:0:0:0:
192,192,22399,128,0,22524:0:0:0:0:
448,192,22524,128,0,22774:0:0:0:0:
64,192,22524,128,0,22586:0:0:0:0:
320,192,22524,128,0,22711:0:0:0:0:
64,192,22649,128,0,22774:0:0:0:0:
192,192,22649,128,0,22711:0:0:0:0:
320,192,22774,1,0,0:0:0:0:
64,192,22836,1,0,0:0:0:0:
320,192,22867,1,0,0:0:0:0:
192,192,22899,1,0,0:0:0:0:
64,192,22940,1,0,0:0:0:0:
448,192,22961,1,0,0:0:0:0:
192,192,23024,1,0,0:0:0:0:
320,192,23086,1,0,0:0:0:0:
64,192,23117,1,0,0:0:0:0:
448,192,23149,1,0,0:0:0:0:
192,192,23190,1,0,0:0:0:0:
320,192,23253,1,0,0:0:0:0:
448,192,23274,1,0,0:0:0:0:
64,192,23315,1,0,0:0:0:0:
192,192,23336,1,0,0:0:0:0:
64,192,23399,128,0,23649:0:0:0:0:
320,192,23399,128,0,23461:0:0:0:0:
448,192,23399,128,0,23586:0:0:0:0:
320,192,23524,128,0,23649:0:0:0:0:
448,192,23649,128,0,23711:0:0:0:0:
192,192,23649,128,0,23774:0:0:0:0:
64,192,23774,128,0,23899:0:0:0:0:
320,192,23774,128,0,23836:0:0:0:0:
448,192,23774,128,0,23961:0:0:0:0:
320,192,23899,128,0,24024:0:0:0:0:
192,192,24024,128,0,24086:0:0:0:0:
64,192,24024,128,0,24274:0:0:0:0:
448,192,24024,128,0,24211:0:0:0:0:
192,192,24149,128,0,24274:0:0:0:0:
320,192,24149,128,0,24211:0:0:0:0:
448,192,24274,128,0,24336:0:0:0:0:
320,192,24274,128,0,24399:0:0:0:0:
64,192,24399,128,0,24649:0:0:0:0:
448,192,24399,128,0,24524:0:0:0:0:
192,192,24399,128,0,24524:0:0:0:0:
320,192,24524,1,0,0:0:0:0:
320,192,24586,1,0,0:0:0:0:
448,192,24649,128,0,24711:0:0:0:0:
192,192,24649,1,0,0:0:0:0:
192,192,24711,1,0,0:0:0:0:
64,192,24774,128,0,24878:0:0:0:0:
448,192,24774,128,0,24961:0:0:0:0:
320,192,24774,128,0,24836:0:0:0:0:
320,192,24899,1,0,0:0:0:0:
64,192,24940,1,0,0:0:0:0:
192,192,24982,1,0,0:0:0:0:
448,192,25024,128,0,25211:0:0:0:0:
64,192,25024,128,0,25274:0:0:0:0:
320,192,25024,128,0,25086:0:0:0:0:
320,192,25149,128,0,25274:0:0:0:0:
192,192,25274,128,0,25399:0:0:0:0:
448,192,25274,128,0,25336:0:0:0:0:
64,192,25399,128,0,25524:0:0:0:0:
320,192,25399,128,0,25461:0:0:0:0:
448,192,25399,128,0,25586:0:0:0:0:
320,192,25524,128,0,25649:0:0:0:0:
64,192,25649,128,0,25899:0:0:0:0:
448,192,25649,128,0,25774:0:0:0:0:
192,192,25649,128,0,25711:0:0:0:0:
192,192,25774,128,0,25899:0:0:0:0:
448,192,25836,1,0,0:0:0:0:
320,192,25899,1,0,0:0:0:0:
320,192,25961,1,0,0:0:0:0:
64,192,26024,128,0,26149:0:0:0:0:
448,192,26024,128,0,26149:0:0:0:0:
192,192,26024,128,0,26149:0:0:0:0:
320,192,26149,128,0,26274:0:0:0:0:
64,192,26211,128,0,26274:0:0:0:0:
448,192,26211,128,0,26274:0:0:0:0:
192,192,26274,1,0,0:0:0:0:
64,192,26336,128,0,26524:0:0:0:0:
448,192,26336,128,0,26461:0:0:0:0:
320,192,26336,128,0,26524:0:0:0:0:
448,192,26524,1,0,0:0:0:0:
192,192,26524,1,0,0:0:0:0:
448,192,26586,1,0,0:0:0:0:
64,192,26649,1,0,0:0:0:0:
64,192,26711,1,0,0:0:0:0:
320,192,26711,1,0,0:0:0:0:
192,192,26774,1,0,0:0:0:0:
448,192,26774,1,0,0:0:0:0:
320,192,26836,1,0,0:0:0:0:
64,192,26899,1,0,0:0:0:0:
192,192,26899,1,0,0:0:0:0:
448,192,26961,1,0,0:0:0:0:
320,192,27024,128,0,27274:0:0:0:0:
64,192,27024,128,0,27086:0:0:0:0:
192,192,27024,128,0,27211:0:0:0:0:
64,192,27149,128,0,27274:0:0:0:0:
192,192,27274,128,0,27336:0:0:0:0:
448,192,27274,128,0,27399:0:0:0:0:
320,192,27399,128,0,27524:0:0:0:0:
64,192,27399,128,0,27461:0:0:0:0:
192,192,27399,128,0,27586:0:0:0:0:
64,192,27524,128,0,27649:0:0:0:0:
448,192,27649,128,0,27711:0:0:0:0:
320,192,27649,128,0,27899:0:0:0:0:
192,192,27649,128,0,27836:0:0:0:0:
448,192,27774,128,0,27899:0:0:0:0:
64,192,27774,128,0,27836:0:0:0:0:
192,192,27899,128,0,27961:0:0:0:0:
64,192,27899,128,0,28024:0:0:0:0:
320,192,28024,128,0,28274:0:0:0:0:
192,192,28024,128,0,28211:0:0:0:0:
448,192,28024,128,0,28149:0:0:0:0:
64,192,28149,128,0,28274:0:0:0:0:
448,192,28274,1,0,0:0:0:0:
192,192,28274,128,0,28336:0:0:0:0:
448,192,28336,1,0,0:0:0:0:
320,192,28399,128,0,28649:0:0:0:0:
64,192,28399,128,0,28461:0:0:0:0:
192,192,28399,128,0,28586:0:0:0:0:
64,192,28524,128,0,28649:0:0:0:0:
448,192,28649,1,0,0:0:0:0:
192,192,28649,128,0,28711:0:0:0:0:
448,192,28711,1,0,0:0:0:0:
320,192,28774,128,0,29024:0:0:0:0:
64,192,28774,128,0,29024:0:0:0:0:
192,192,28774,128,0,28961:0:0:0:0:
448,192,28899,128,0,28961:0:0:0:0:
192,192,29024,128,0,29086:0:0:0:0:
448,192,29024,128,0,29149:0:0:0:0:
320,192,29149,128,0,29274:0:0:0:0:
64,192,29149,128,0,29211:0:0:0:0:
192,192,29149,128,0,29336:0:0:0:0:
64,192,29274,128,0,29399:0:0:0:0:
320,192,29399,128,0,29649:0:0:0:0:
192,192,29399,128,0,29586:0:0:0:0:
448,192,29399,128,0,29461:0:0:0:0:
448,192,29524,128,0,29649:0:0:0:0:
64,192,29586,1,0,0:0:0:0:
64,192,29649,128,0,29774:0:0:0:0:
320,192,29774,128,0,29961:0:0:0:0:
192,192,29774,128,0,29836:0:0:0:0:
448,192,29774,128,0,30024:0:0:0:0:
192,192,29899,128,0,30024:0:0:0:0:
64,192,29899,128,0,29961:0:0:0:0:
320,192,30024,1,0,0:0:0:0:
64,192,30024,1,0,0:0:0:0:
192,192,30070,1,0,0:0:0:0:
192,192,30180,1,0,0:0:0:0:
448,192,30180,1,0,0:0:0:0:
320,192,30227,1,0,0:0:0:0:
64,192,30336,1,0,0:0:0:0:
320,192,30336,1,0,0:0:0:0:
192,192,30383,1,0,0:0:0:0:
448,192,30492,1,0,0:0:0:0:
192,192,30492,1,0,0:0:0:0:
320,192,30539,1,0,0:0:0:0:
64,192,30586,1,0,0:0:0:0:
192,192,30649,128,0,30774:0:0:0:0:
320,192,30649,128,0,30836:0:0:0:0:
448,192,30649,128,0,30774:0:0:0:0:
64,192,30774,128,0,30899:0:0:0:0:
192,192,30836,128,0,30961:0:0:0:0:
320,192,30899,128,0,31086:0:0:0:0:
448,192,30899,128,0,30961:0:0:0:0:
448,192,31024,128,0,31149:0:0:0:0:
192,192,31024,128,0,31086:0:0:0:0:
64,192,31024,128,0,31211:0:0:0:0:
320,192,31149,128,0,31274:0:0:0:0:
192,192,31211,128,0,31461:0:0:0:0:
64,192,31274,128,0,31336:0:0:0:0:
448,192,31274,128,0,31524:0:0:0:0:
64,192,31399,128,0,31524:0:0:0:0:
320,192,31399,128,0,31461:0:0:0:0:
320,192,31524,128,0,31649:0:0:0:0:
192,192,31524,128,0,31586:0:0:0:0:
192,192,31649,128,0,31899:0:0:0:0:
448,192,31649,128,0,31774:0:0:0:0:
64,192,31649,128,0,31774:0:0:0:0:
320,192,31774,1,0,0:0:0:0:
320,192,31836,1,0,0:0:0:0:
448,192,31899,128,0,31961:0:0:0:0:
64,192,31899,1,0,0:0:0:0:
64,192,31961,1,0,0:0:0:0:
192,192,32024,128,0,32107:0:0:0:0:
448,192,32024,128,0,32211:0:0:0:0:
320,192,32024,128,0,32149:0:0:0:0:
64,192,32149,1,0,0:0:0:0:
192,192,32190,1,0,0:0:0:0:
320,192,32232,1,0,0:0:0:0:
448,192,32274,128,0,32461:0:0:0:0:
192,192,32274,128,0,32524:0:0:0:0:
64,192,32274,128,0,32336:0:0:0:0:
64,192,32399,128,0,32524:0:0:0:0:
320,192,32524,128,0,32649:0:0:0:0:
448,192,32524,128,0,32586:0:0:0:0:
192,192,32649,128,0,32774:0:0:0:0:
64,192,32649,128,0,32711:0:0:0:0:
448,192,32649,128,0,32836:0:0:0:0:
64,192,32774,128,0,32899:0:0:0:0:
192,192,32899,128,0,33149:0:0:0:0:
448,192,32899,128,0,33024:0:0:0:0:
320,192,32899,128,0,32961:0:0:0:0:
320,192,33024,128,0,33149:0:0:0:0:
448,192,33086,1,0,0:0:0:0:
64,192,33149,1,0,0:0:0:0:
64,192,33211,1,0,0:0:0:0:
192,192,33274,128,0,33399:0:0:0:0:
448,192,33274,128,0,33399:0:0:0:0:
320,192,33274,128,0,33399:0:0:0:0:
64,192,33399,128,0,33524:0:0:0:0:
192,192,33461,128,0,33524:0:0:0:0:
448,192,33461,128,0,33524:0:0:0:0:
320,192,33524,1,0,0:0:0:0:
192,192,33586,128,0,33774:0:0:0:0:
448,192,33586,128,0,33711:0:0:0:0:
64,192,33586,128,0,33774:0:0:0:0:
448,192,33774,1,0,0:0:0:0:
320,192,33815,1,0,0:0:0:0:
448,192,33857,1,0,0:0:0:0:
64,192,33899,1,0,0:0:0:0:
192,192,33961,1,0,0:0:0:0:
320,192,33992,1,0,0:0:0:0:
448,192,34024,1,0,0:0:0:0:
64,192,34044,1,0,0:0:0:0:
320,192,34086,1,0,0:0:0:0:
192,192,34128,1,0,0:0:0:0:
448,192,34169,1,0,0:0:0:0:
64,192,34190,1,0,0:0:0:0:
320,192,34232,1,0,0:0:0:0:
192,192,34274,128,0,34336:0:0:0:0:
64,192,34274,128,0,34461:0:0:0:0:
448,192,34274,128,0,34586:0:0:0:0:
192,192,34399,128,0,34586:0:0:0:0:
64,192,34524,128,0,34586:0:0:0:0:
320,192,34524,128,0,34649:0:0:0:0:
448,192,34649,128,0,34836:0:0:0:0:
192,192,34649,128,0,34711:0:0:0:0:
64,192,34649,128,0,34836:0:0:0:0:
192,192,34774,128,0,34899:0:0:0:0:
320,192,34899,128,0,34961:0:0:0:0:
448,192,34899,128,0,35211:0:0:0:0:
64,192,34899,128,0,35086:0:0:0:0:
320,192,35024,128,0,35211:0:0:0:0:
192,192,35024,128,0,35086:0:0:0:0:
64,192,35149,128,0,35211:0:0:0:0:
192,192,35149,128,0,35274:0:0:0:0:
448,192,35274,128,0,35524:0:0:0:0:
64,192,35274,128,0,35461:0:0:0:0:
320,192,35274,128,0,35399:0:0:0:0:
192,192,35399,128,0,35586:0:0:0:0:
320,192,35524,1,0,0:0:0:0:
64,192,35524,128,0,35586:0:0:0:0:
320,192,35586,1,0,0:0:0:0:
448,192,35649,128,0,35899:0:0:0:0:
192,192,35649,128,0,35711:0:0:0:0:
64,192,35649,128,0,35836:0:0:0:0:
192,192,35774,128,0,35961:0:0:0:0:
320,192,35899,1,0,0:0:0:0:
64,192,35899,128,0,35961:0:0:0:0:
320,192,35961,1,0,0:0:0:0:
448,192,36024,128,0,36336:0:0:0:0:
192,192,36024,128,0,36336:0:0:0:0:
64,192,36024,128,0,36211:0:0:0:0:
320,192,36149,128,0,36211:0:0:0:0:
64,192,36274,128,0,36336:0:0:0:0:
320,192,36274,128,0,36399:0:0:0:0:
448,192,36399,128,0,36586:0:0:0:0:
192,192,36399,128,0,36461:0:0:0:0:
64,192,36399,128,0,36586:0:0:0:0:
192,192,36524,128,0,36649:0:0:0:0:
448,192,36649,128,0,36961:0:0:0:0:
64,192,36649,128,0,36836:0:0:0:0:
320,192,36649,128,0,36711:0:0:0:0:
320,192,36774,128,0,36961:0:0:0:0:
192,192,36836,1,0,0:0:0:0:
192,192,36899,128,0,37024:0:0:0:0:
448,192,37024,128,0,37274:0:0:0:0:
64,192,37024,128,0,37086:0:0:0:0:
320,192,37024,128,0,37211:0:0:0:0:
64,192,37149,128,0,37274:0:0:0:0:
192,192,37149,128,0,37211:0:0:0:0:
192,192,37274,1,0,0:0:0:0:
320,192,37315,1,0,0:0:0:0:
64,192,37357,1,0,0:0:0:0:
192,192,37399,1,0,0:0:0:0:
448,192,37399,1,0,0:0:0:0:
320,192,37461,1,0,0:0:0:0:
192,192,37524,1,0,0:0:0:0:
64,192,37524,1,0,0:0:0:0:
64,192,37649,1,0,0:0:0:0:
448,192,37649,1,0,0:0:0:0:
320,192,37711,1,0,0:0:0:0:
192,192,37711,1,0,0:0:0:0:
192,192,37836,1,0,0:0:0:0:
64,192,37899,128,0,38211:0:0:0:0:
320,192,37899,128,0,37961:0:0:0:0:
448,192,37899,128,0,38086:0:0:0:0:
320,192,38024,128,0,38211:0:0:0:0:
448,192,38149,128,0,38211:0:0:0:0:
192,192,38149,128,0,38274:0:0:0:0:
64,192,38274,128,0,38461:0:0:0:0:
320,192,38274,128,0,38336:0:0:0:0:
448,192,38274,128,0,38461:0:0:0:0:
320,192,38399,128,0,38524:0:0:0:0:
192,192,38524,128,0,38586:0:0:0:0:
64,192,38524,128,0,38836:0:0:0:0:
448,192,38524,128,0,38711:0:0:0:0:
192,192,38649,128,0,38836:0:0:0:0:
320,192,38649,128,0,38711:0:0:0:0:
448,192,38774,128,0,38836:0:0:0:0:
320,192,38774,128,0,38899:0:0:0:0:
64,192,38899,128,0,39149:0:0:0:0:
448,192,38899,128,0,39024:0:0:0:0:
192,192,38899,128,0,39086:0:0:0:0:
320,192,39024,1,0,0:0:0:0:
320,192,39086,1,0,0:0:0:0:
448,192,39149,128,0,39211:0:0:0:0:
192,192,39149,1,0,0:0:0:0:
192,192,39211,1,0,0:0:0:0:
64,192,39274,128,0,39378:0:0:0:0:
448,192,39274,128,0,39461:0:0:0:0:
320,192,39274,128,0,39336:0:0:0:0:
320,192,39399,1,0,0:0:0:0:
64,192,39440,1,0,0:0:0:0:
192,192,39482,1,0,0:0:0:0:
448,192,39524,128,0,39711:0:0:0:0:
64,192,39524,128,0,39836:0:0:0:0:
320,192,39524,128,0,39586:0:0:0:0:
320,192,39649,128,0,39836:0:0:0:0:
192,192,39774,128,0,39899:0:0:0:0:
448,192,39774,128,0,39836:0:0:0:0:
64,192,39899,128,0,40086:0:0:0:0:
320,192,39899,128,0,39961:0:0:0:0:
448,192,39899,128,0,40086:0:0:0:0:
320,192,40024,128,0,40149:0:0:0:0:
64,192,40149,128,0,40461:0:0:0:0:
448,192,40149,128,0,40274:0:0:0:0:
192,192,40149,128,0,40211:0:0:0:0:
192,192,40274,128,0,40461:0:0:0:0:
448,192,40336,1,0,0:0:0:0:
320,192,40399,1,0,0:0:0:0:
320,192,40461,1,0,0:0:0:0:
64,192,40524,128,0,40649:0:0:0:0:
448,192,40524,128,0,40586:0:0:0:0:
192,192,40524,128,0,40711:0:0:0:0:
448,192,40649,128,0,40774:0:0:0:0:
64,192,40711,128,0,40774:0:0:0:0:
320,192,40711,128,0,40774:0:0:0:0:
192,192,40774,1,0,0:0:0:0:
64,192,40836,128,0,41024:0:0:0:0:
448,192,40836,128,0,40961:0:0:0:0:
320,192,40836,128,0,41024:0:0:0:0:
448,192,41024,1,0,0:0:0:0:
192,192,41044,1,0,0:0:0:0:
64,192,41107,1,0,0:0:0:0:
320,192,41128,1,0,0:0:0:0:
192,192,41190,1,0,0:0:0:0:
448,192,41211,1,0,0:0:0:0:
64,192,41274,1,0,0:0:0:0:
320,192,41274,1,0,0:0:0:0:
448,192,41357,1,0,0:0:0:0:
64,192,41357,1,0,0:0:0:0:
448,192,41440,1,0,0:0:0:0:
320,192,41524,128,0,41836:0:0:0:0:
64,192,41524,128,0,41586:0:0:0:0:
192,192,41524,128,0,41711:0:0:0:0:
64,192,41649,128,0,41836:0:0:0:0:
192,192,41774,128,0,41836:0:0:0:0:
448,192,41774,128,0,42086:0:0:0:0:
320,192,41899,128,0,42086:0:0:0:0:
64,192,41899,128,0,41961:0:0:0:0:
192,192,41899,128,0,42086:0:0:0:0:
64,192,42024,128,0,42149:0:0:0:0:
448,192,42149,128,0,42211:0:0:0:0:
320,192,42149,128,0,42461:0:0:0:0:
192,192,42149,128,0,42336:0:0:0:0:
448,192,42274,128,0,42461:0:0:0:0:
64,192,42274,128,0,42336:0:0:0:0:
192,192,42399,128,0,42461:0:0:0:0:
64,192,42399,128,0,42586:0:0:0:0:
320,192,42524,128,0,42774:0:0:0:0:
192,192,42524,128,0,42711:0:0:0:0:
448,192,42524,128,0,42649:0:0:0:0:
64,192,42649,128,0,42836:0:0:0:0:
448,192,42774,1,0,0:0:0:0:
192,192,42774,128,0,42836:0:0:0:0:
448,192,42836,1,0,0:0:0:0:
320,192,42899,128,0,43149:0:0:0:0:
64,192,42899,128,0,42961:0:0:0:0:
192,192,42899,128,0,43086:0:0:0:0:
64,192,43024,128,0,43211:0:0:0:0:
448,192,43149,1,0,0:0:0:0:
192,192,43149,128,0,43211:0:0:0:0:
448,192,43211,1,0,0:0:0:0:
320,192,43274,128,0,43586:0:0:0:0:
64,192,43274,128,0,43586:0:0:0:0:
192,192,43274,128,0,43461:0:0:0:0:
448,192,43399,128,0,43461:0:0:0:0:
192,192,43524,128,0,43586:0:0:0:0:
448,192,43524,128,0,43649:0:0:0:0:
320,192,43649,128,0,43836:0:0:0:0:
64,192,43649,128,0,43711:0:0:0:0:
192,192,43649,128,0,43836:0:0:0:0:
64,192,43774,128,0,43899:0:0:0:0:
320,192,43899,128,0,44211:0:0:0:0:
192,192,43899,128,0,44086:0:0:0:0:
448,192,43899,128,0,43961:0:0:0:0:
448,192,44024,128,0,44211:0:0:0:0:
64,192,44086,1,0,0:0:0:0:
64,192,44149,128,0,44274:0:0:0:0:
320,192,44274,128,0,44524:0:0:0:0:
192,192,44274,128,0,44336:0:0:0:0:
448,192,44274,128,0,44461:0:0:0:0:
192,192,44399,128,0,44524:0:0:0:0:
64,192,44399,128,0,44461:0:0:0:0:
64,192,44524,1,0,0:0:0:0:
448,192,44524,1,0,0:0:0:0:
192,192,44628,1,0,0:0:0:0:
448,192,44628,1,0,0:0:0:0:
192,192,44732,1,0,0:0:0:0:
320,192,44732,1,0,0:0:0:0:
64,192,44836,1,0,0:0:0:0:
320,192,44836,1,0,0:0:0:0:
448,192,44940,128,0,45044:0:0:0:0:
192,192,44940,128,0,45086:0:0:0:0:
64,192,45044,128,0,45149:0:0:0:0:
192,192,45149,128,0,45211:0:0:0:0:
320,192,45149,128,0,45336:0:0:0:0:
448,192,45149,128,0,45336:0:0:0:0:
192,192,45274,128,0,45461:0:0:0:0:
64,192,45336,128,0,45461:0:0:0:0:
320,192,45399,128,0,45461:0:0:0:0:
448,192,45399,128,0,45586:0:0:0:0:
192,192,45524,128,0,45649:0:0:0:0:
64,192,45524,128,0,45711:0:0:0:0:
320,192,45586,128,0,45774:0:0:0:0:
448,192,45649,128,0,45711:0:0:0:0:
192,192,45711,128,0,45836:0:0:0:0:
64,192,45774,128,0,45836:0:0:0:0:
448,192,45774,128,0,46086:0:0:0:0:
320,192,45836,128,0,45961:0:0:0:0:
64,192,45899,128,0,46086:0:0:0:0:
192,192,45899,128,0,45961:0:0:0:0:
320,192,46024,128,0,46149:0:0:0:0:
192,192,46024,128,0,46086:0:0:0:0:
192,192,46149,128,0,46399:0:0:0:0:
64,192,46149,128,0,46336:0:0:0:0:
448,192,46149,128,0,46274:0:0:0:0:
320,192,46274,1,0,0:0:0:0:
320,192,46336,1,0,0:0:0:0:
64,192,46399,1,0,0:0:0:0:
448,192,46399,128,0,46461:0:0:0:0:
64,192,46461,1,0,0:0:0:0:
192,192,46524,128,0,46607:0:0:0:0:
448,192,46524,128,0,46649:0:0:0:0:
320,192,46524,128,0,46649:0:0:0:0:
64,192,46649,1,0,0:0:0:0:
192,192,46690,1,0,0:0:0:0:
320,192,46732,1,0,0:0:0:0:
64,192,46774,128,0,46961:0:0:0:0:
192,192,46774,128,0,47086:0:0:0:0:
448,192,46774,128,0,46836:0:0:0:0:
448,192,46899,128,0,47086:0:0:0:0:
64,192,47024,128,0,47086:0:0:0:0:
320,192,47024,128,0,47149:0:0:0:0:
448,192,47149,128,0,47336:0:0:0:0:
64,192,47149,128,0,47336:0:0:0:0:
192,192,47149,128,0,47336:0:0:0:0:
320,192,47274,128,0,47399:0:0:0:0:
448,192,47399,128,0,47524:0:0:0:0:
192,192,47399,128,0,47711:0:0:0:0:
64,192,47399,128,0,47461:0:0:0:0:
64,192,47524,128,0,47711:0:0:0:0:
448,192,47586,5,0,0:0:0:0:
320,192,47649,1,0,0:0:0:0:
320,192,47711,1,0,0:0:0:0:
448,192,47774,128,0,47836:0:0:0:0:
192,192,47774,128,0,47961:0:0:0:0:
64,192,47774,128,0,47899:0:0:0:0:
448,192,47899,128,0,48024:0:0:0:0:
320,192,47961,128,0,48024:0:0:0:0:
64,192,47961,128,0,48024:0:0:0:0:
192,192,48024,1,0,0:0:0:0:
320,192,48086,128,0,48274:0:0:0:0:
448,192,48086,128,0,48274:0:0:0:0:
64,192,48086,128,0,48274:0:0:0:0:
192,192,48274,1,0,0:0:0:0:
448,192,48336,1,0,0:0:0:0:
64,192,48399,128,0,48492:0:0:0:0:
192,192,48461,128,0,48617:0:0:0:0:
320,192,48524,128,0,48742:0:0:0:0:
64,192,48586,128,0,48711:0:0:0:0:
448,192,48649,128,0,48711:0:0:0:0:
192,192,48711,128,0,48774:0:0:0:0:
64,192,48774,128,0,48961:0:0:0:0:
448,192,48774,128,0,48899:0:0:0:0:
320,192,48836,128,0,48899:0:0:0:0:
192,192,48899,128,0,49024:0:0:0:0:
320,192,48961,128,0,49086:0:0:0:0:
448,192,48961,128,0,49149:0:0:0:0:
64,192,49024,128,0,49086:0:0:0:0:
192,192,49086,128,0,49149:0:0:0:0:
64,192,49149,128,0,49274:0:0:0:0:
320,192,49149,128,0,49211:0:0:0:0:
448,192,49211,128,0,49274:0:0:0:0:
320,192,49274,128,0,49461:0:0:0:0:
192,192,49274,128,0,49399:0:0:0:0:
64,192,49336,128,0,49524:0:0:0:0:
448,192,49399,128,0,49461:0:0:0:0:
192,192,49461,128,0,49524:0:0:0:0:
320,192,49524,128,0,49586:0:0:0:0:
448,192,49524,128,0,49711:0:0:0:0:
64,192,49586,128,0,49711:0:0:0:0:
320,192,49649,128,0,49774:0:0:0:0:
192,192,49711,128,0,49774:0:0:0:0:
64,192,49774,128,0,49961:0:0:0:0:
448,192,49774,128,0,49961:0:0:0:0:
320,192,49836,128,0,49899:0:0:0:0:
192,192,49899,128,0,50024:0:0:0:0:
320,192,49961,128,0,50024:0:0:0:0:
64,192,50024,128,0,50149:0:0:0:0:
448,192,50024,128,0,50211:0:0:0:0:
192,192,50086,128,0,50149:0:0:0:0:
320,192,50149,128,0,50211:0:0:0:0:
192,192,50211,128,0,50336:0:0:0:0:
64,192,50211,128,0,50399:0:0:0:0:
448,192,50274,128,0,50336:0:0:0:0:
320,192,50336,128,0,50461:0:0:0:0:
192,192,50399,128,0,50461:0:0:0:0:
448,192,50399,128,0,50524:0:0:0:0:
64,192,50461,128,0,50586:0:0:0:0:
320,192,50524,128,0,50586:0:0:0:0:
192,192,50524,128,0,50649:0:0:0:0:
448,192,50586,128,0,50649:0:0:0:0:
320,192,50649,128,0,50774:0:0:0:0:
64,192,50649,128,0,50711:0:0:0:0:
192,192,50711,128,0,50836:0:0:0:0:
64,192,50774,128,0,50899:0:0:0:0:
320,192,50836,128,0,50899:0:0:0:0:
448,192,50836,128,0,50961:0:0:0:0:
192,192,50899,128,0,51024:0:0:0:0:
320,192,50961,128,0,51086:0:0:0:0:
448,192,51024,128,0,51199:0:0:0:0:
64,192,51024,128,0,51149:0:0:0:0:
192,192,51086,128,0,51299:0:0:0:0:
320,192,51149,128,0,51249:0:0:0:0:
64,192,51211,128,0,51349:0:0:0:0:
448,192,51274,128,0,51399:0:0:0:0:
320,192,51324,128,0,51499:0:0:0:0:
192,192,51374,128,0,51449:0:0:0:0:
64,192,51424,128,0,51599:0:0:0:0:
448,192,51474,128,0,51549:0:0:0:0:
192,192,51524,128,0,51699:0:0:0:0:
320,192,51574,128,0,51649:0:0:0:0:
448,192,51624,128,0,51749:0:0:0:0:
64,192,51674,128,0,51849:0:0:0:0:
320,192,51724,128,0,51799:0:0:0:0:
192,192,51774,128,0,51899:0:0:0:0:
448,192,51824,128,0,51949:0:0:0:0:
320,192,51874,128,0,52049:0:0:0:0:
64,192,51924,128,0,51999:0:0:0:0:
192,192,51974,128,0,52149:0:0:0:0:
448,192,52024,128,0,52099:0:0:0:0:
64,192,52074,128,0,52249:0:0:0:0:
320,192,52124,128,0,52199:0:0:0:0:
448,192,52174,128,0,52349:0:0:0:0:
192,192,52224,128,0,52299:0:0:0:0:
320,192,52274,128,0,52449:0:0:0:0:
64,192,52324,128,0,52399:0:0:0:0:
192,192,52374,128,0,52499:0:0:0:0:
448,192,52424,128,0,52599:0:0:0:0:
64,192,52474,128,0,52549:0:0:0:0:
320,192,52524,128,0,52649:0:0:0:0:
192,192,52574,128,0,52699:0:0:0:0:
64,192,52624,128,0,52799:0:0:0:0:
448,192,52674,128,0,52749:0:0:0:0:
320,192,52724,128,0,52899:0:0:0:0:
192,192,52774,128,0,52849:0:0:0:0:
448,192,52824,128,0,53003:0:0:0:0:
64,192,52874,128,0,52949:0:0:0:0:
192,192,52924,128,0,53044:0:0:0:0:
320,192,52974,128,0,53086:0:0:0:0:
64,192,53024,128,0,53128:0:0:0:0:
448,192,53065,128,0,53169:0:0:0:0:
192,192,53107,128,0,53211:0:0:0:0:
320,192,53149,128,0,53253:0:0:0:0:
64,192,53190,128,0,53294:0:0:0:0:
448,192,53232,128,0,53336:0:0:0:0:
192,192,53274,128,0,53378:0:0:0:0:
320,192,53315,128,0,53419:0:0:0:0:
64,192,53357,128,0,53461:0:0:0:0:
448,192,53399,128,0,53503:0:0:0:0:
192,192,53440,128,0,53544:0:0:0:0:
320,192,53482,128,0,53586:0:0:0:0:
64,192,53524,128,0,53628:0:0:0:0:
448,192,53565,128,0,53669:0:0:0:0:
192,192,53607,128,0,53711:0:0:0:0:
320,192,53649,128,0,53753:0:0:0:0:
64,192,53690,128,0,53794:0:0:0:0:
448,192,53732,128,0,53836:0:0:0:0:
192,192,53774,128,0,53878:0:0:0:0:
320,192,53815,128,0,53919:0:0:0:0:
64,192,53857,128,0,53961:0:0:0:0:
448,192,53899,128,0,54036:0:0:0:0:
192,192,53940,128,0,53999:0:0:0:0:
320,192,53982,128,0,54074:0:0:0:0:
64,192,54024,128,0,54111:0:0:0:0:
192,192,54061,128,0,54149:0:0:0:0:
448,192,54099,128,0,54186:0:0:0:0:
320,192,54136,128,0,54224:0:0:0:0:
64,192,54174,128,0,54261:0:0:0:0:
192,192,54211,128,0,54299:0:0:0:0:
448,192,54249,128,0,54336:0:0:0:0:
320,192,54286,128,0,54374:0:0:0:0:
64,192,54324,128,0,54411:0:0:0:0:
192,192,54361,128,0,54449:0:0:0:0:
448,192,54399,128,0,54486:0:0:0:0:
320,192,54436,128,0,54524:0:0:0:0:
64,192,54474,128,0,54561:0:0:0:0:
192,192,54511,128,0,54599:0:0:0:0:
448,192,54549,128,0,54636:0:0:0:0:
320,192,54586,128,0,54674:0:0:0:0:
64,192,54624,128,0,54711:0:0:0:0:
192,192,54661,128,0,54749:0:0:0:0:
448,192,54699,128,0,54786:0:0:0:0:
320,192,54736,128,0,54824:0:0:0:0:
64,192,54774,128,0,54861:0:0:0:0:
192,192,54811,128,0,54899:0:0:0:0:
448,192,54849,128,0,54936:0:0:0:0:
320,192,54886,128,0,54974:0:0:0:0:
64,192,54924,128,0,55011:0:0:0:0:
192,192,54961,128,0,55049:0:0:0:0:
448,192,54999,128,0,55086:0:0:0:0:
320,192,55036,128,0,55124:0:0:0:0:
64,192,55074,128,0,55161:0:0:0:0:
192,192,55111,128,0,55199:0:0:0:0:
448,192,55149,128,0,55236:0:0:0:0:
320,192,55186,128,0,55274:0:0:0:0:
64,192,55224,128,0,55311:0:0:0:0:
192,192,55261,128,0,55349:0:0:0:0:
448,192,55299,128,0,55386:0:0:0:0:
320,192,55336,128,0,55424:0:0:0:0:
64,192,55374,128,0,55461:0:0:0:0:
192,192,55411,128,0,55503:0:0:0:0:
448,192,55449,128,0,55544:0:0:0:0:
320,192,55486,128,0,55586:0:0:0:0:
64,192,55524,128,0,55628:0:0:0:0:
192,192,55565,128,0,55711:0:0:0:0:
448,192,55607,128,0,55669:0:0:0:0:
320,192,55649,128,0,55749:0:0:0:0:
64,192,55690,128,0,55799:0:0:0:0:
448,192,55732,128,0,55899:0:0:0:0:
192,192,55774,128,0,55849:0:0:0:0:
320,192,55824,128,0,55949:0:0:0:0:
64,192,55874,128,0,56055:0:0:0:0:
192,192,55924,128,0,55992:0:0:0:0:
448,192,55974,128,0,56211:0:0:0:0:
320,192,56024,128,0,56117:0:0:0:0:
192,192,56086,128,0,56180:0:0:0:0:
64,192,56149,128,0,56211:0:0:0:0:
320,192,56211,128,0,56274:0:0:0:0:
192,192,56274,128,0,56357:0:0:0:0:
64,192,56274,128,0,56662:0:0:0:0:
448,192,56315,1,0,0:0:0:0:
320,192,56357,1,0,0:0:0:0:
192,192,56412,1,0,0:0:0:0:
320,192,56482,1,0,0:0:0:0:
192,192,56565,1,0,0:0:0:0:
320,192,56662,1,0,0:0:0:0:
192,192,56774,1,0,0:0:0:0:
320,192,56899,1,0,0:0:0:0:
192,192,57037,1,0,0:0:0:0:
448,192,57107,1,0,0:0:0:0:
320,192,57190,1,0,0:0:0:0:
64,192,57190,128,0,57315:0:0:0:0:
448,192,57274,128,0,57440:0:0:0:0:
192,192,57357,1,0,0:0:0:0:
320,192,57537,1,0,0:0:0:0:
192,192,57732,1,0,0:0:0:0:
320,192,57774,1,0,0:0:0:0:
448,192,57807,1,0,0:0:0:0:
64,192,57840,1,0,0:0:0:0:
320,192,57874,1,0,0:0:0:0:
192,192,57907,1,0,0:0:0:0:
448,192,57940,1,0,0:0:0:0:
64,192,57940,1,0,0:0:0:0:
320,192,57996,1,0,0:0:0:0:
448,192,58107,1,0,0:0:0:0:
64,192,58190,1,0,0:0:0:0:
192,192,58246,1,0,0:0:0:0:
448,192,58274,1,0,0:0:0:0:
448,192,58440,1,0,0:0:0:0:
64,192,58440,1,0,0:0:0:0:
320,192,58496,1,0,0:0:0:0:
448,192,58607,1,0,0:0:0:0:
64,192,58690,1,0,0:0:0:0:
192,192,58746,1,0,0:0:0:0:
448,192,58774,1,0,0:0:0:0:
448,192,58940,1,0,0:0:0:0:
64,192,58940,1,0,0:0:0:0:
320,192,58996,1,0,0:0:0:0:
448,192,59107,1,0,0:0:0:0:
64,192,59190,1,0,0:0:0:0:
192,192,59246,1,0,0:0:0:0:
448,192,59274,1,0,0:0:0:0:
448,192,59440,1,0,0:0:0:0:
64,192,59440,1,0,0:0:0:0:
320,192,59496,1,0,0:0:0:0:
448,192,59607,1,0,0:0:0:0:
64,192,59690,1,0,0:0:0:0:
192,192,59746,1,0,0:0:0:0:
448,192,59774,1,0,0:0:0:0:
448,192,59940,1,0,0:0:0:0:
64,192,59940,1,0,0:0:0:0:
320,192,59996,1,0,0:0:0:0:
448,192,60107,1,0,0:0:0:0:
64,192,60190,1,0,0:0:0:0:
192,192,60246,1,0,0:0:0:0:
448,192,60273,1,0,0:0:0:0:
448,192,60440,1,0,0:0:0:0:
64,192,60440,1,0,0:0:0:0:
320,192,60496,1,0,0:0:0:0:
448,192,60607,1,0,0:0:0:0:
64,192,60690,1,0,0:0:0:0:
192,192,60746,1,0,0:0:0:0:
448,192,60773,1,0,0:0:0:0:
448,192,60940,1,0,0:0:0:0:
64,192,60940,1,0,0:0:0:0:
320,192,60996,1,0,0:0:0:0:
448,192,61107,1,0,0:0:0:0:
64,192,61190,1,0,0:0:0:0:
192,192,61246,1,0,0:0:0:0:
448,192,61273,1,0,0:0:0:0:
448,192,61440,1,0,0:0:0:0:
64,192,61440,1,0,0:0:0:0:
320,192,61496,1,0,0:0:0:0:
448,192,61607,1,0,0:0:0:0:
64,192,61690,1,0,0:0:0:0:
192,192,61746,1,0,0:0:0:0:
448,192,61773,1,0,0:0:0:0:
448,192,61940,1,0,0:0:0:0:
64,192,61940,1,0,0:0:0:0:
320,192,61996,1,0,0:0:0:0:
448,192,62107,1,0,0:0:0:0:
64,192,62190,1,0,0:0:0:0:
192,192,62246,1,0,0:0:0:0:
448,192,62273,1,0,0:0:0:0:
448,192,62440,1,0,0:0:0:0:
64,192,62440,1,0,0:0:0:0:
320,192,62496,1,0,0:0:0:0:
448,192,62607,1,0,0:0:0:0:
64,192,62690,1,0,0:0:0:0:
192,192,62746,1,0,0:0:0:0:
448,192,62773,1,0,0:0:0:0:
448,192,62940,1,0,0:0:0:0:
64,192,62940,1,0,0:0:0:0:
320,192,62996,1,0,0:0:0:0:
448,192,63107,1,0,0:0:0:0:
64,192,63190,1,0,0:0:0:0:
192,192,63246,1,0,0:0:0:0:
448,192,63273,1,0,0:0:0:0:
448,192,63440,1,0,0:0:0:0:
64,192,63440,1,0,0:0:0:0:
320,192,63496,1,0,0:0:0:0:
448,192,63607,1,0,0:0:0:0:
64,192,63690,1,0,0:0:0:0:
192,192,63746,1,0,0:0:0:0:
448,192,63773,1,0,0:0:0:0:
448,192,63940,1,0,0:0:0:0:
64,192,63940,1,0,0:0:0:0:
320,192,63996,1,0,0:0:0:0:
448,192,64107,1,0,0:0:0:0:
64,192,64190,1,0,0:0:0:0:
192,192,64246,1,0,0:0:0:0:
448,192,64273,1,0,0:0:0:0:
448,192,64440,1,0,0:0:0:0:
64,192,64440,1,0,0:0:0:0:
320,192,64496,1,0,0:0:0:0:
192,192,64607,128,0,64801:0:0:0:0:
64,192,64607,128,0,64801:0:0:0:0:
448,192,64607,1,0,0:0:0:0:
448,192,64773,1,0,0:0:0:0:
64,192,64857,128,0,65051:0:0:0:0:
192,192,64857,128,0,65051:0:0:0:0:
448,192,64940,1,0,0:0:0:0:
192,192,65107,128,0,65301:0:0:0:0:
64,192,65107,128,0,65301:0:0:0:0:
448,192,65107,1,0,0:0:0:0:
448,192,65273,1,0,0:0:0:0:
64,192,65357,128,0,65468:0:0:0:0:
192,192,65357,128,0,65468:0:0:0:0:
448,192,65440,1,0,0:0:0:0:
64,192,65523,128,0,65718:0:0:0:0:
192,192,65523,128,0,65718:0:0:0:0:
448,192,65607,1,0,0:0:0:0:
64,192,65773,128,0,65968:0:0:0:0:
192,192,65773,128,0,65968:0:0:0:0:
448,192,65773,1,0,0:0:0:0:
448,192,65940,1,0,0:0:0:0:
192,192,66023,128,0,66218:0:0:0:0:
64,192,66023,128,0,66218:0:0:0:0:
448,192,66107,1,0,0:0:0:0:
448,192,66273,1,0,0:0:0:0:
64,192,66440,1,0,0:0:0:0:
448,192,66440,1,0,0:0:0:0:
320,192,66496,1,0,0:0:0:0:
448,192,66607,1,0,0:0:0:0:
64,192,66690,1,0,0:0:0:0:
192,192,66746,1,0,0:0:0:0:
448,192,66773,1,0,0:0:0:0:
448,192,66940,1,0,0:0:0:0:
64,192,66940,1,0,0:0:0:0:
320,192,66996,1,0,0:0:0:0:
448,192,67107,1,0,0:0:0:0:
64,192,67190,1,0,0:0:0:0:
192,192,67246,1,0,0:0:0:0:
448,192,67273,1,0,0:0:0:0:
64,192,67440,1,0,0:0:0:0:
448,192,67440,1,0,0:0:0:0:
320,192,67496,1,0,0:0:0:0:
448,192,67607,1,0,0:0:0:0:
64,192,67690,1,0,0:0:0:0:
192,192,67746,1,0,0:0:0:0:
448,192,67773,1,0,0:0:0:0:
192,192,67940,128,0,68135:0:0:0:0:
64,192,67940,128,0,68135:0:0:0:0:
448,192,67940,1,0,0:0:0:0:
448,192,68107,1,0,0:0:0:0:
64,192,68190,128,0,68385:0:0:0:0:
192,192,68190,128,0,68385:0:0:0:0:
448,192,68273,1,0,0:0:0:0:
192,192,68440,128,0,68635:0:0:0:0:
64,192,68440,128,0,68635:0:0:0:0:
448,192,68440,1,0,0:0:0:0:
448,192,68607,1,0,0:0:0:0:
64,192,68690,128,0,68801:0:0:0:0:
192,192,68690,128,0,68801:0:0:0:0:
448,192,68773,1,0,0:0:0:0:
64,192,68857,128,0,69051:0:0:0:0:
192,192,68857,128,0,69051:0:0:0:0:
448,192,68940,1,0,0:0:0:0:
64,192,69107,128,0,69301:0:0:0:0:
192,192,69107,128,0,69301:0:0:0:0:
448,192,69107,1,0,0:0:0:0:
448,192,69273,1,0,0:0:0:0:
192,192,69357,128,0,69551:0:0:0:0:
64,192,69357,128,0,69551:0:0:0:0:
448,192,69440,1,0,0:0:0:0:
448,192,69607,1,0,0:0:0:0:
64,192,69690,1,0,0:0:0:0:
192,192,69746,1,0,0:0:0:0:
448,192,69773,1,0,0:0:0:0:
448,192,69940,1,0,0:0:0:0:
64,192,69940,1,0,0:0:0:0:
320,192,69996,1,0,0:0:0:0:
448,192,70107,1,0,0:0:0:0:
64,192,70190,1,0,0:0:0:0:
192,192,70246,1,0,0:0:0:0:
448,192,70273,1,0,0:0:0:0:
448,192,70440,1,0,0:0:0:0:
64,192,70440,1,0,0:0:0:0:
320,192,70496,1,0,0:0:0:0:
448,192,70607,1,0,0:0:0:0:
64,192,70690,1,0,0:0:0:0:
192,192,70746,1,0,0:0:0:0:
448,192,70773,1,0,0:0:0:0:
448,192,70940,1,0,0:0:0:0:
64,192,70940,1,0,0:0:0:0:
320,192,70996,1,0,0:0:0:0:
448,192,71107,1,0,0:0:0:0:
192,192,71273,128,0,71468:0:0:0:0:
64,192,71273,128,0,71468:0:0:0:0:
448,192,71273,1,0,0:0:0:0:
448,192,71440,1,0,0:0:0:0:
64,192,71523,128,0,71718:0:0:0:0:
192,192,71523,128,0,71718:0:0:0:0:
448,192,71607,1,0,0:0:0:0:
192,192,71773,128,0,71968:0:0:0:0:
64,192,71773,128,0,71968:0:0:0:0:
448,192,71773,1,0,0:0:0:0:
448,192,71940,1,0,0:0:0:0:
64,192,72023,128,0,72135:0:0:0:0:
192,192,72023,128,0,72135:0:0:0:0:
448,192,72107,1,0,0:0:0:0:
64,192,72190,128,0,72385:0:0:0:0:
192,192,72190,128,0,72385:0:0:0:0:
448,192,72273,1,0,0:0:0:0:
64,192,72440,128,0,72635:0:0:0:0:
192,192,72440,128,0,72635:0:0:0:0:
448,192,72440,1,0,0:0:0:0:
448,192,72607,1,0,0:0:0:0:
192,192,72690,128,0,72885:0:0:0:0:
64,192,72690,128,0,72885:0:0:0:0:
448,192,72773,1,0,0:0:0:0:
320,192,72940,128,0,73135:0:0:0:0:
448,192,72940,128,0,73135:0:0:0:0:
64,192,72940,1,0,0:0:0:0:
64,192,73107,1,0,0:0:0:0:
448,192,73190,128,0,73385:0:0:0:0:
320,192,73190,128,0,73385:0:0:0:0:
64,192,73273,1,0,0:0:0:0:
320,192,73440,128,0,73635:0:0:0:0:
448,192,73440,128,0,73635:0:0:0:0:
64,192,73440,1,0,0:0:0:0:
64,192,73607,1,0,0:0:0:0:
448,192,73690,128,0,73801:0:0:0:0:
320,192,73690,128,0,73801:0:0:0:0:
64,192,73773,1,0,0:0:0:0:
448,192,73857,128,0,74051:0:0:0:0:
320,192,73857,128,0,74051:0:0:0:0:
64,192,73940,1,0,0:0:0:0:
448,192,74107,128,0,74301:0:0:0:0:
320,192,74107,128,0,74301:0:0:0:0:
64,192,74107,1,0,0:0:0:0:
64,192,74273,1,0,0:0:0:0:
320,192,74357,128,0,74551:0:0:0:0:
448,192,74357,128,0,74551:0:0:0:0:
64,192,74440,1,0,0:0:0:0:
64,192,74607,128,0,74801:0:0:0:0:
192,192,74607,128,0,74801:0:0:0:0:
448,192,74607,1,0,0:0:0:0:
448,192,74773,1,0,0:0:0:0:
192,192,74857,128,0,75051:0:0:0:0:
64,192,74857,128,0,75051:0:0:0:0:
448,192,74940,1,0,0:0:0:0:
64,192,75107,128,0,75301:0:0:0:0:
192,192,75107,128,0,75301:0:0:0:0:
448,192,75107,1,0,0:0:0:0:
448,192,75273,1,0,0:0:0:0:
192,192,75357,128,0,75468:0:0:0:0:
64,192,75357,128,0,75468:0:0:0:0:
448,192,75440,1,0,0:0:0:0:
192,192,75523,128,0,75718:0:0:0:0:
64,192,75523,128,0,75718:0:0:0:0:
448,192,75607,1,0,0:0:0:0:
192,192,75773,128,0,75968:0:0:0:0:
64,192,75773,128,0,75968:0:0:0:0:
448,192,75773,1,0,0:0:0:0:
448,192,75940,1,0,0:0:0:0:
64,192,76023,128,0,76218:0:0:0:0:
192,192,76023,128,0,76218:0:0:0:0:
448,192,76107,1,0,0:0:0:0:
448,192,76273,128,0,76468:0:0:0:0:
320,192,76273,128,0,76468:0:0:0:0:
192,192,76273,1,0,0:0:0:0:
192,192,76440,1,0,0:0:0:0:
320,192,76523,128,0,76718:0:0:0:0:
448,192,76523,128,0,76718:0:0:0:0:
192,192,76607,1,0,0:0:0:0:
448,192,76773,128,0,76968:0:0:0:0:
320,192,76773,128,0,76968:0:0:0:0:
192,192,76773,1,0,0:0:0:0:
192,192,76940,1,0,0:0:0:0:
320,192,77023,128,0,77135:0:0:0:0:
448,192,77023,128,0,77135:0:0:0:0:
192,192,77107,1,0,0:0:0:0:
320,192,77190,128,0,77385:0:0:0:0:
448,192,77190,128,0,77385:0:0:0:0:
192,192,77273,1,0,0:0:0:0:
320,192,77440,128,0,77635:0:0:0:0:
448,192,77440,128,0,77635:0:0:0:0:
192,192,77440,1,0,0:0:0:0:
192,192,77607,1,0,0:0:0:0:
448,192,77690,128,0,77885:0:0:0:0:
320,192,77690,128,0,77885:0:0:0:0:
192,192,77773,1,0,0:0:0:0:
64,192,77940,128,0,78107:0:0:0:0:
448,192,78003,128,0,78107:0:0:0:0:
192,192,78065,1,0,0:0:0:0:
64,192,78190,128,0,78357:0:0:0:0:
448,192,78253,128,0,78357:0:0:0:0:
192,192,78315,1,0,0:0:0:0:
64,192,78440,128,0,78607:0:0:0:0:
448,192,78503,128,0,78607:0:0:0:0:
192,192,78565,1,0,0:0:0:0:
448,192,78690,128,0,78773:0:0:0:0:
64,192,78732,128,0,78815:0:0:0:0:
448,192,78857,128,0,79023:0:0:0:0:
64,192,78919,128,0,79023:0:0:0:0:
320,192,78982,1,0,0:0:0:0:
448,192,79107,128,0,79273:0:0:0:0:
64,192,79169,128,0,79273:0:0:0:0:
320,192,79232,1,0,0:0:0:0:
448,192,79357,128,0,79523:0:0:0:0:
192,192,79412,1,0,0:0:0:0:
320,192,79468,1,0,0:0:0:0:
64,192,79523,1,0,0:0:0:0:
192,192,79565,1,0,0:0:0:0:
448,192,79607,128,0,79857:0:0:0:0:
320,192,79607,128,0,79690:0:0:0:0:
64,192,79662,128,0,79857:0:0:0:0:
192,192,79718,1,0,0:0:0:0:
320,192,79773,128,0,79940:0:0:0:0:
192,192,79857,128,0,79940:0:0:0:0:
448,192,79940,128,0,80023:0:0:0:0:
64,192,79940,1,0,0:0:0:0:
64,192,80023,128,0,80107:0:0:0:0:
320,192,80107,128,0,80190:0:0:0:0:
448,192,80107,128,0,80357:0:0:0:0:
192,192,80162,128,0,80357:0:0:0:0:
64,192,80218,1,0,0:0:0:0:
320,192,80273,128,0,80440:0:0:0:0:
64,192,80357,1,0,0:0:0:0:
448,192,80440,128,0,80523:0:0:0:0:
192,192,80440,1,0,0:0:0:0:
192,192,80523,128,0,80607:0:0:0:0:
64,192,80607,128,0,80857:0:0:0:0:
320,192,80607,128,0,80690:0:0:0:0:
448,192,80690,128,0,80773:0:0:0:0:
320,192,80773,128,0,80940:0:0:0:0:
192,192,80857,128,0,80940:0:0:0:0:
448,192,80940,128,0,81023:0:0:0:0:
64,192,80940,128,0,81190:0:0:0:0:
192,192,81023,128,0,81107:0:0:0:0:
448,192,81107,128,0,81273:0:0:0:0:
320,192,81190,128,0,81273:0:0:0:0:
64,192,81273,128,0,81357:0:0:0:0:
192,192,81273,128,0,81523:0:0:0:0:
448,192,81329,128,0,81523:0:0:0:0:
320,192,81385,1,0,0:0:0:0:
64,192,81440,128,0,81607:0:0:0:0:
320,192,81523,1,0,0:0:0:0:
192,192,81607,1,0,0:0:0:0:
448,192,81607,1,0,0:0:0:0:
448,192,81690,1,0,0:0:0:0:
64,192,81773,128,0,81857:0:0:0:0:
192,192,81773,128,0,82023:0:0:0:0:
320,192,81829,128,0,82023:0:0:0:0:
448,192,81885,1,0,0:0:0:0:
64,192,81940,128,0,82107:0:0:0:0:
448,192,82023,1,0,0:0:0:0:
192,192,82107,1,0,0:0:0:0:
320,192,82107,1,0,0:0:0:0:
320,192,82190,1,0,0:0:0:0:
448,192,82273,128,0,82523:0:0:0:0:
64,192,82273,128,0,82357:0:0:0:0:
192,192,82440,128,0,82523:0:0:0:0:
64,192,82440,128,0,82607:0:0:0:0:
192,192,82607,1,0,0:0:0:0:
448,192,82607,128,0,82857:0:0:0:0:
192,192,82690,1,0,0:0:0:0:
320,192,82773,128,0,82857:0:0:0:0:
64,192,82773,128,0,82940:0:0:0:0:
448,192,82940,128,0,83023:0:0:0:0:
320,192,82940,128,0,83190:0:0:0:0:
192,192,82996,128,0,83190:0:0:0:0:
64,192,83051,1,0,0:0:0:0:
448,192,83107,128,0,83273:0:0:0:0:
64,192,83190,1,0,0:0:0:0:
320,192,83273,1,0,0:0:0:0:
192,192,83273,1,0,0:0:0:0:
192,192,83357,1,0,0:0:0:0:
448,192,83440,128,0,83523:0:0:0:0:
320,192,83440,128,0,83690:0:0:0:0:
64,192,83496,128,0,83690:0:0:0:0:
192,192,83551,1,0,0:0:0:0:
448,192,83607,128,0,83773:0:0:0:0:
192,192,83690,1,0,0:0:0:0:
320,192,83773,1,0,0:0:0:0:
64,192,83773,1,0,0:0:0:0:
64,192,83857,1,0,0:0:0:0:
192,192,83940,128,0,84190:0:0:0:0:
448,192,83940,128,0,84023:0:0:0:0:
448,192,84107,128,0,84273:0:0:0:0:
64,192,84190,128,0,84273:0:0:0:0:
320,192,84273,128,0,84357:0:0:0:0:
192,192,84273,128,0,84523:0:0:0:0:
320,192,84440,128,0,84607:0:0:0:0:
448,192,84523,128,0,84607:0:0:0:0:
192,192,84607,128,0,84690:0:0:0:0:
64,192,84607,128,0,84857:0:0:0:0:
320,192,84662,128,0,84857:0:0:0:0:
448,192,84718,1,0,0:0:0:0:
192,192,84773,128,0,84940:0:0:0:0:
448,192,84857,1,0,0:0:0:0:
64,192,84940,1,0,0:0:0:0:
320,192,84940,1,0,0:0:0:0:
320,192,85023,1,0,0:0:0:0:
192,192,85107,128,0,85190:0:0:0:0:
64,192,85107,128,0,85357:0:0:0:0:
448,192,85162,128,0,85357:0:0:0:0:
320,192,85218,1,0,0:0:0:0:
192,192,85273,128,0,85357:0:0:0:0:
320,192,85357,1,0,0:0:0:0:
448,192,85440,1,0,0:0:0:0:
64,192,85482,1,0,0:0:0:0:
192,192,85538,1,0,0:0:0:0:
448,192,85607,1,0,0:0:0:0:
320,192,85607,1,0,0:0:0:0:
448,192,85690,1,0,0:0:0:0:
320,192,85690,1,0,0:0:0:0:
320,192,85788,1,0,0:0:0:0:
448,192,85788,1,0,0:0:0:0:
448,192,85898,1,0,0:0:0:0:
320,192,85898,1,0,0:0:0:0:
320,192,86023,1,0,0:0:0:0:
448,192,86023,1,0,0:0:0:0:
64,192,86107,128,0,86190:0:0:0:0:
320,192,86162,1,0,0:0:0:0:
448,192,86190,128,0,86273:0:0:0:0:
192,192,86273,128,0,86357:0:0:0:0:
64,192,86273,128,0,86523:0:0:0:0:
320,192,86329,128,0,86523:0:0:0:0:
448,192,86385,1,0,0:0:0:0:
192,192,86440,128,0,86607:0:0:0:0:
448,192,86523,128,0,86607:0:0:0:0:
64,192,86607,128,0,86690:0:0:0:0:
320,192,86607,1,0,0:0:0:0:
320,192,86690,128,0,86773:0:0:0:0:
192,192,86773,128,0,86857:0:0:0:0:
64,192,86773,128,0,87023:0:0:0:0:
448,192,86829,128,0,87023:0:0:0:0:
320,192,86885,1,0,0:0:0:0:
192,192,86940,128,0,87107:0:0:0:0:
320,192,87023,1,0,0:0:0:0:
64,192,87107,128,0,87190:0:0:0:0:
448,192,87107,1,0,0:0:0:0:
448,192,87190,128,0,87273:0:0:0:0:
320,192,87273,128,0,87523:0:0:0:0:
192,192,87273,128,0,87357:0:0:0:0:
64,192,87357,128,0,87440:0:0:0:0:
192,192,87440,128,0,87607:0:0:0:0:
448,192,87523,128,0,87607:0:0:0:0:
64,192,87607,128,0,87690:0:0:0:0:
320,192,87607,128,0,87857:0:0:0:0:
448,192,87690,128,0,87773:0:0:0:0:
64,192,87773,128,0,87940:0:0:0:0:
192,192,87857,128,0,87940:0:0:0:0:
320,192,87940,128,0,88023:0:0:0:0:
448,192,87940,128,0,88190:0:0:0:0:
64,192,87996,128,0,88190:0:0:0:0:
192,192,88051,1,0,0:0:0:0:
320,192,88107,128,0,88273:0:0:0:0:
192,192,88190,1,0,0:0:0:0:
448,192,88273,1,0,0:0:0:0:
64,192,88273,1,0,0:0:0:0:
64,192,88357,1,0,0:0:0:0:
320,192,88440,128,0,88523:0:0:0:0:
448,192,88440,128,0,88690:0:0:0:0:
192,192,88496,128,0,88690:0:0:0:0:
64,192,88551,1,0,0:0:0:0:
320,192,88607,128,0,88773:0:0:0:0:
64,192,88690,1,0,0:0:0:0:
448,192,88773,1,0,0:0:0:0:
192,192,88773,1,0,0:0:0:0:
192,192,88857,1,0,0:0:0:0:
64,192,88940,128,0,89190:0:0:0:0:
320,192,88940,128,0,89023:0:0:0:0:
448,192,89107,128,0,89190:0:0:0:0:
320,192,89107,128,0,89273:0:0:0:0:
64,192,89273,1,0,0:0:0:0:
448,192,89273,1,0,0:0:0:0:
192,192,89315,1,0,0:0:0:0:
320,192,89357,1,0,0:0:0:0:
64,192,89440,1,0,0:0:0:0:
320,192,89523,1,0,0:0:0:0:
64,192,89607,128,0,89690:0:0:0:0:
192,192,89607,128,0,89857:0:0:0:0:
448,192,89662,128,0,89857:0:0:0:0:
320,192,89718,1,0,0:0:0:0:
64,192,89773,128,0,89940:0:0:0:0:
320,192,89857,1,0,0:0:0:0:
192,192,89940,1,0,0:0:0:0:
448,192,89940,1,0,0:0:0:0:
448,192,90023,1,0,0:0:0:0:
64,192,90107,128,0,90190:0:0:0:0:
192,192,90107,128,0,90357:0:0:0:0:
320,192,90162,128,0,90357:0:0:0:0:
448,192,90218,1,0,0:0:0:0:
64,192,90273,128,0,90440:0:0:0:0:
448,192,90357,1,0,0:0:0:0:
192,192,90440,1,0,0:0:0:0:
320,192,90440,1,0,0:0:0:0:
320,192,90523,1,0,0:0:0:0:
448,192,90607,128,0,90857:0:0:0:0:
64,192,90607,128,0,90690:0:0:0:0:
64,192,90773,128,0,90940:0:0:0:0:
320,192,90857,128,0,90940:0:0:0:0:
192,192,90940,128,0,91023:0:0:0:0:
448,192,90940,128,0,91190:0:0:0:0:
192,192,91107,128,0,91273:0:0:0:0:
64,192,91190,128,0,91273:0:0:0:0:
448,192,91273,128,0,91357:0:0:0:0:
320,192,91273,128,0,91440:0:0:0:0:
64,192,91357,128,0,91440:0:0:0:0:
192,192,91440,1,0,0:0:0:0:
448,192,91440,128,0,91607:0:0:0:0:
192,192,91523,1,0,0:0:0:0:
320,192,91607,128,0,91690:0:0:0:0:
64,192,91607,128,0,91773:0:0:0:0:
320,192,91773,128,0,92023:0:0:0:0:
448,192,91773,128,0,91857:0:0:0:0:
192,192,91857,128,0,91940:0:0:0:0:
448,192,91940,128,0,92107:0:0:0:0:
64,192,92023,128,0,92190:0:0:0:0:
192,192,92107,128,0,92218:0:0:0:0:
320,192,92107,128,0,92246:0:0:0:0:
448,192,92190,128,0,92273:0:0:0:0:
192,192,92607,1,0,0:0:0:0:
64,192,92635,1,0,0:0:0:0:
320,192,92690,1,0,0:0:0:0:
448,192,92773,1,0,0:0:0:0:
320,192,92857,1,0,0:0:0:0:
192,192,92940,128,0,93023:0:0:0:0:
64,192,92940,128,0,93135:0:0:0:0:
448,192,92996,128,0,93190:0:0:0:0:
320,192,93051,1,0,0:0:0:0:
192,192,93107,128,0,93190:0:0:0:0:
320,192,93190,1,0,0:0:0:0:
64,192,93190,128,0,93385:0:0:0:0:
192,192,93273,1,0,0:0:0:0:
448,192,93273,1,0,0:0:0:0:
448,192,93357,1,0,0:0:0:0:
192,192,93440,128,0,93523:0:0:0:0:
64,192,93440,128,0,93635:0:0:0:0:
320,192,93496,128,0,93690:0:0:0:0:
448,192,93551,1,0,0:0:0:0:
192,192,93607,128,0,93690:0:0:0:0:
448,192,93690,1,0,0:0:0:0:
64,192,93690,128,0,93801:0:0:0:0:
192,192,93773,1,0,0:0:0:0:
320,192,93773,1,0,0:0:0:0:
320,192,93857,1,0,0:0:0:0:
64,192,93857,128,0,94051:0:0:0:0:
448,192,93940,128,0,94107:0:0:0:0:
192,192,93940,128,0,94023:0:0:0:0:
320,192,94023,1,0,0:0:0:0:
192,192,94107,1,0,0:0:0:0:
64,192,94107,128,0,94301:0:0:0:0:
192,192,94190,1,0,0:0:0:0:
320,192,94273,128,0,94440:0:0:0:0:
448,192,94273,128,0,94357:0:0:0:0:
64,192,94357,128,0,94551:0:0:0:0:
448,192,94440,128,0,94523:0:0:0:0:
192,192,94440,1,0,0:0:0:0:
192,192,94523,1,0,0:0:0:0:
320,192,94607,128,0,94801:0:0:0:0:
448,192,94607,128,0,94690:0:0:0:0:
64,192,94662,128,0,94857:0:0:0:0:
192,192,94718,1,0,0:0:0:0:
448,192,94773,128,0,94857:0:0:0:0:
192,192,94857,1,0,0:0:0:0:
320,192,94857,128,0,95051:0:0:0:0:
64,192,94940,1,0,0:0:0:0:
448,192,94940,1,0,0:0:0:0:
64,192,95023,1,0,0:0:0:0:
448,192,95107,128,0,95190:0:0:0:0:
320,192,95107,128,0,95301:0:0:0:0:
192,192,95162,128,0,95357:0:0:0:0:
64,192,95218,1,0,0:0:0:0:
448,192,95273,128,0,95357:0:0:0:0:
64,192,95357,1,0,0:0:0:0:
320,192,95357,128,0,95468:0:0:0:0:
448,192,95440,1,0,0:0:0:0:
192,192,95440,1,0,0:0:0:0:
192,192,95523,1,0,0:0:0:0:
320,192,95523,128,0,95718:0:0:0:0:
64,192,95607,128,0,95773:0:0:0:0:
448,192,95607,128,0,95690:0:0:0:0:
192,192,95690,1,0,0:0:0:0:
320,192,95773,128,0,95968:0:0:0:0:
448,192,95773,128,0,95857:0:0:0:0:
192,192,95857,1,0,0:0:0:0:
448,192,95940,1,0,0:0:0:0:
64,192,95940,1,0,0:0:0:0:
64,192,96023,1,0,0:0:0:0:
320,192,96023,128,0,96218:0:0:0:0:
448,192,96107,128,0,96273:0:0:0:0:
192,192,96107,128,0,96190:0:0:0:0:
192,192,96273,128,0,96468:0:0:0:0:
64,192,96273,128,0,96357:0:0:0:0:
320,192,96329,128,0,96523:0:0:0:0:
448,192,96385,1,0,0:0:0:0:
64,192,96440,128,0,96523:0:0:0:0:
448,192,96523,1,0,0:0:0:0:
192,192,96523,128,0,96718:0:0:0:0:
64,192,96607,1,0,0:0:0:0:
320,192,96607,1,0,0:0:0:0:
320,192,96690,1,0,0:0:0:0:
64,192,96773,128,0,96857:0:0:0:0:
192,192,96773,128,0,96968:0:0:0:0:
448,192,96829,128,0,97023:0:0:0:0:
320,192,96885,1,0,0:0:0:0:
64,192,96940,128,0,97023:0:0:0:0:
320,192,97023,1,0,0:0:0:0:
192,192,97023,128,0,97135:0:0:0:0:
64,192,97107,1,0,0:0:0:0:
448,192,97107,1,0,0:0:0:0:
448,192,97190,1,0,0:0:0:0:
192,192,97190,128,0,97385:0:0:0:0:
320,192,97273,128,0,97440:0:0:0:0:
64,192,97273,128,0,97357:0:0:0:0:
448,192,97357,1,0,0:0:0:0:
64,192,97440,1,0,0:0:0:0:
192,192,97440,128,0,97635:0:0:0:0:
64,192,97523,1,0,0:0:0:0:
448,192,97607,128,0,97773:0:0:0:0:
320,192,97607,128,0,97690:0:0:0:0:
192,192,97690,128,0,97885:0:0:0:0:
320,192,97773,128,0,97857:0:0:0:0:
64,192,97773,1,0,0:0:0:0:
64,192,97857,1,0,0:0:0:0:
448,192,97940,128,0,98135:0:0:0:0:
320,192,97940,128,0,98023:0:0:0:0:
192,192,97996,128,0,98190:0:0:0:0:
64,192,98051,1,0,0:0:0:0:
320,192,98107,128,0,98190:0:0:0:0:
64,192,98190,1,0,0:0:0:0:
448,192,98190,128,0,98385:0:0:0:0:
320,192,98273,1,0,0:0:0:0:
192,192,98273,1,0,0:0:0:0:
192,192,98357,128,0,98440:0:0:0:0:
448,192,98440,128,0,98635:0:0:0:0:
320,192,98440,128,0,98523:0:0:0:0:
64,192,98496,128,0,98690:0:0:0:0:
192,192,98551,1,0,0:0:0:0:
320,192,98607,128,0,98690:0:0:0:0:
448,192,98690,1,0,0:0:0:0:
192,192,98690,1,0,0:0:0:0:
64,192,98773,1,0,0:0:0:0:
320,192,98815,1,0,0:0:0:0:
448,192,98871,1,0,0:0:0:0:
64,192,98940,1,0,0:0:0:0:
192,192,98940,1,0,0:0:0:0:
64,192,99023,1,0,0:0:0:0:
192,192,99023,1,0,0:0:0:0:
192,192,99121,1,0,0:0:0:0:
64,192,99121,1,0,0:0:0:0:
64,192,99232,1,0,0:0:0:0:
192,192,99232,1,0,0:0:0:0:
192,192,99357,1,0,0:0:0:0:
64,192,99357,1,0,0:0:0:0:
192,192,99496,1,0,0:0:0:0:
64,192,99496,1,0,0:0:0:0:
448,192,99607,128,0,99801:0:0:0:0:
320,192,99607,128,0,99690:0:0:0:0:
192,192,99662,128,0,99857:0:0:0:0:
64,192,99718,1,0,0:0:0:0:
320,192,99773,128,0,99857:0:0:0:0:
64,192,99857,1,0,0:0:0:0:
448,192,99857,128,0,100051:0:0:0:0:
320,192,99940,1,0,0:0:0:0:
192,192,99940,1,0,0:0:0:0:
192,192,100023,1,0,0:0:0:0:
320,192,100107,128,0,100190:0:0:0:0:
448,192,100107,128,0,100301:0:0:0:0:
64,192,100162,128,0,100357:0:0:0:0:
192,192,100218,1,0,0:0:0:0:
320,192,100273,128,0,100357:0:0:0:0:
192,192,100357,1,0,0:0:0:0:
448,192,100357,128,0,100468:0:0:0:0:
320,192,100440,1,0,0:0:0:0:
64,192,100440,1,0,0:0:0:0:
64,192,100523,1,0,0:0:0:0:
448,192,100523,128,0,100718:0:0:0:0:
192,192,100607,128,0,100773:0:0:0:0:
320,192,100607,128,0,100690:0:0:0:0:
64,192,100690,1,0,0:0:0:0:
320,192,100773,1,0,0:0:0:0:
448,192,100773,128,0,100968:0:0:0:0:
320,192,100857,1,0,0:0:0:0:
64,192,100940,128,0,101107:0:0:0:0:
192,192,100940,128,0,101023:0:0:0:0:
448,192,101023,128,0,101218:0:0:0:0:
192,192,101107,128,0,101190:0:0:0:0:
320,192,101107,1,0,0:0:0:0:
320,192,101190,1,0,0:0:0:0:
64,192,101273,128,0,101468:0:0:0:0:
192,192,101273,128,0,101357:0:0:0:0:
448,192,101329,128,0,101523:0:0:0:0:
320,192,101385,1,0,0:0:0:0:
192,192,101440,128,0,101523:0:0:0:0:
320,192,101523,1,0,0:0:0:0:
64,192,101523,128,0,101718:0:0:0:0:
448,192,101607,1,0,0:0:0:0:
192,192,101607,1,0,0:0:0:0:
448,192,101690,1,0,0:0:0:0:
192,192,101773,128,0,101857:0:0:0:0:
64,192,101773,128,0,101968:0:0:0:0:
320,192,101829,128,0,102023:0:0:0:0:
448,192,101885,1,0,0:0:0:0:
192,192,101940,128,0,102023:0:0:0:0:
448,192,102023,1,0,0:0:0:0:
64,192,102023,128,0,102135:0:0:0:0:
192,192,102107,1,0,0:0:0:0:
320,192,102107,1,0,0:0:0:0:
320,192,102190,1,0,0:0:0:0:
64,192,102190,128,0,102385:0:0:0:0:
448,192,102273,128,0,102440:0:0:0:0:
192,192,102273,128,0,102357:0:0:0:0:
320,192,102357,1,0,0:0:0:0:
64,192,102440,128,0,102635:0:0:0:0:
192,192,102440,128,0,102523:0:0:0:0:
320,192,102523,1,0,0:0:0:0:
192,192,102607,1,0,0:0:0:0:
448,192,102607,1,0,0:0:0:0:
320,192,102648,1,0,0:0:0:0:
64,192,102690,128,0,102885:0:0:0:0:
448,192,102732,1,0,0:0:0:0:
192,192,102773,1,0,0:0:0:0:
192,192,102857,1,0,0:0:0:0:
320,192,102940,128,0,103135:0:0:0:0:
448,192,102940,128,0,103023:0:0:0:0:
64,192,102996,128,0,103190:0:0:0:0:
192,192,103051,1,0,0:0:0:0:
448,192,103107,128,0,103190:0:0:0:0:
192,192,103190,1,0,0:0:0:0:
320,192,103190,128,0,103385:0:0:0:0:
448,192,103273,1,0,0:0:0:0:
64,192,103273,1,0,0:0:0:0:
64,192,103357,1,0,0:0:0:0:
448,192,103440,128,0,103523:0:0:0:0:
320,192,103440,128,0,103635:0:0:0:0:
192,192,103496,128,0,103690:0:0:0:0:
64,192,103551,1,0,0:0:0:0:
448,192,103607,128,0,103690:0:0:0:0:
64,192,103690,1,0,0:0:0:0:
320,192,103690,128,0,103801:0:0:0:0:
448,192,103773,1,0,0:0:0:0:
192,192,103773,1,0,0:0:0:0:
192,192,103857,1,0,0:0:0:0:
320,192,103857,128,0,104051:0:0:0:0:
64,192,103940,128,0,104107:0:0:0:0:
448,192,103940,128,0,104023:0:0:0:0:
192,192,104023,1,0,0:0:0:0:
448,192,104107,1,0,0:0:0:0:
320,192,104107,128,0,104301:0:0:0:0:
448,192,104190,5,0,0:0:0:0:
192,192,104273,128,0,104440:0:0:0:0:
64,192,104273,128,0,104357:0:0:0:0:
320,192,104357,128,0,104551:0:0:0:0:
64,192,104440,128,0,104523:0:0:0:0:
448,192,104440,1,0,0:0:0:0:
448,192,104523,1,0,0:0:0:0:
192,192,104607,128,0,104801:0:0:0:0:
64,192,104607,128,0,104690:0:0:0:0:
448,192,104690,128,0,104773:0:0:0:0:
64,192,104773,1,0,0:0:0:0:
320,192,104773,1,0,0:0:0:0:
320,192,104857,1,0,0:0:0:0:
192,192,104857,128,0,105051:0:0:0:0:
64,192,104940,128,0,105023:0:0:0:0:
448,192,104940,128,0,105107:0:0:0:0:
64,192,105107,128,0,105246:0:0:0:0:
192,192,105107,128,0,105301:0:0:0:0:
320,192,105190,128,0,105273:0:0:0:0:
448,192,105273,1,0,0:0:0:0:
448,192,105357,1,0,0:0:0:0:
192,192,105357,128,0,105468:0:0:0:0:
64,192,105440,128,0,105523:0:0:0:0:
320,192,105440,128,0,105607:0:0:0:0:
192,192,105523,128,0,105607:0:0:0:0:
448,192,105607,128,0,106065:0:0:0:0:
64,192,105690,128,0,105773:0:0:0:0:
192,192,105690,128,0,105898:0:0:0:0:
64,192,105857,128,0,106232:0:0:0:0:
320,192,105857,128,0,105940:0:0:0:0:
320,192,106023,128,0,106190:0:0:0:0:
192,192,106023,128,0,106107:0:0:0:0:
192,192,106190,128,0,106273:0:0:0:0:
448,192,106190,1,0,0:0:0:0:
320,192,106273,128,0,106468:0:0:0:0:
448,192,106273,128,0,106357:0:0:0:0:
64,192,106357,128,0,106440:0:0:0:0:
448,192,106440,1,0,0:0:0:0:
192,192,106440,1,0,0:0:0:0:
192,192,106523,1,0,0:0:0:0:
320,192,106523,128,0,106718:0:0:0:0:
448,192,106607,128,0,106690:0:0:0:0:
64,192,106607,128,0,106773:0:0:0:0:
448,192,106773,128,0,106912:0:0:0:0:
320,192,106773,128,0,106968:0:0:0:0:
192,192,106857,128,0,106940:0:0:0:0:
64,192,106940,1,0,0:0:0:0:
64,192,107023,1,0,0:0:0:0:
320,192,107023,128,0,107135:0:0:0:0:
448,192,107107,128,0,107190:0:0:0:0:
192,192,107107,128,0,107273:0:0:0:0:
320,192,107190,128,0,107385:0:0:0:0:
64,192,107273,128,0,107440:0:0:0:0:
448,192,107273,128,0,107357:0:0:0:0:
192,192,107357,1,0,0:0:0:0:
448,192,107440,1,0,0:0:0:0:
320,192,107440,128,0,107635:0:0:0:0:
448,192,107523,1,0,0:0:0:0:
64,192,107607,128,0,107773:0:0:0:0:
192,192,107607,128,0,107690:0:0:0:0:
320,192,107690,128,0,107885:0:0:0:0:
192,192,107773,128,0,107857:0:0:0:0:
448,192,107773,1,0,0:0:0:0:
448,192,107857,1,0,0:0:0:0:
64,192,107940,128,0,108135:0:0:0:0:
192,192,107940,128,0,108023:0:0:0:0:
448,192,108023,128,0,108107:0:0:0:0:
192,192,108107,1,0,0:0:0:0:
320,192,108107,1,0,0:0:0:0:
320,192,108190,1,0,0:0:0:0:
64,192,108190,128,0,108385:0:0:0:0:
192,192,108273,128,0,108357:0:0:0:0:
448,192,108273,128,0,108440:0:0:0:0:
192,192,108440,128,0,108579:0:0:0:0:
64,192,108440,128,0,108635:0:0:0:0:
320,192,108523,128,0,108607:0:0:0:0:
448,192,108607,1,0,0:0:0:0:
448,192,108690,1,0,0:0:0:0:
64,192,108690,128,0,108801:0:0:0:0:
192,192,108773,128,0,108857:0:0:0:0:
320,192,108773,128,0,108940:0:0:0:0:
64,192,108857,128,0,109051:0:0:0:0:
448,192,108940,128,0,109107:0:0:0:0:
192,192,108940,128,0,109023:0:0:0:0:
320,192,109023,1,0,0:0:0:0:
192,192,109107,128,0,109273:0:0:0:0:
64,192,109107,128,0,109190:0:0:0:0:
320,192,109190,1,0,0:0:0:0:
64,192,109273,1,0,0:0:0:0:
448,192,109273,1,0,0:0:0:0:
64,192,109357,1,0,0:0:0:0:
64,192,109440,1,0,0:0:0:0:
64,192,109523,1,0,0:0:0:0:
448,192,109607,128,0,109801:0:0:0:0:
320,192,109607,128,0,109690:0:0:0:0:
192,192,109690,128,0,109773:0:0:0:0:
320,192,109773,1,0,0:0:0:0:
64,192,109773,1,0,0:0:0:0:
64,192,109857,1,0,0:0:0:0:
448,192,109857,128,0,110051:0:0:0:0:
320,192,109940,128,0,110023:0:0:0:0:
192,192,109940,128,0,110107:0:0:0:0:
320,192,110107,128,0,110246:0:0:0:0:
448,192,110107,128,0,110301:0:0:0:0:
64,192,110190,128,0,110273:0:0:0:0:
192,192,110273,1,0,0:0:0:0:
192,192,110357,1,0,0:0:0:0:
448,192,110357,128,0,110468:0:0:0:0:
320,192,110440,128,0,110523:0:0:0:0:
64,192,110440,128,0,110607:0:0:0:0:
448,192,110523,128,0,110718:0:0:0:0:
192,192,110607,128,0,110773:0:0:0:0:
320,192,110607,128,0,110690:0:0:0:0:
64,192,110690,1,0,0:0:0:0:
320,192,110773,1,0,0:0:0:0:
448,192,110773,128,0,110968:0:0:0:0:
320,192,110857,1,0,0:0:0:0:
192,192,110940,128,0,111107:0:0:0:0:
64,192,110940,128,0,111023:0:0:0:0:
448,192,111023,128,0,111218:0:0:0:0:
64,192,111107,128,0,111190:0:0:0:0:
320,192,111107,1,0,0:0:0:0:
320,192,111190,1,0,0:0:0:0:
192,192,111273,128,0,111468:0:0:0:0:
64,192,111273,128,0,111357:0:0:0:0:
320,192,111357,128,0,111440:0:0:0:0:
64,192,111440,1,0,0:0:0:0:
448,192,111440,1,0,0:0:0:0:
448,192,111523,1,0,0:0:0:0:
192,192,111523,128,0,111718:0:0:0:0:
64,192,111607,128,0,111690:0:0:0:0:
320,192,111607,128,0,111773:0:0:0:0:
64,192,111773,128,0,111912:0:0:0:0:
192,192,111773,128,0,111968:0:0:0:0:
448,192,111857,128,0,111940:0:0:0:0:
320,192,111940,1,0,0:0:0:0:
320,192,112023,1,0,0:0:0:0:
192,192,112023,128,0,112107:0:0:0:0:
64,192,112107,1,0,0:0:0:0:
448,192,112148,1,0,0:0:0:0:
192,192,112204,1,0,0:0:0:0:
64,192,112273,1,0,0:0:0:0:
320,192,112273,1,0,0:0:0:0:
64,192,112357,1,0,0:0:0:0:
448,192,112357,1,0,0:0:0:0:
448,192,112454,1,0,0:0:0:0:
192,192,112454,1,0,0:0:0:0:
192,192,112565,1,0,0:0:0:0:
320,192,112565,1,0,0:0:0:0:
320,192,112662,1,0,0:0:0:0:
64,192,112662,1,0,0:0:0:0:
64,192,112746,1,0,0:0:0:0:
192,192,112815,1,0,0:0:0:0:
320,192,112871,1,0,0:0:0:0:
448,192,112912,1,0,0:0:0:0:
192,192,112940,128,0,113135:0:0:0:0:
64,192,112940,128,0,113023:0:0:0:0:
320,192,113023,128,0,113107:0:0:0:0:
64,192,113107,1,0,0:0:0:0:
448,192,113107,1,0,0:0:0:0:
448,192,113190,1,0,0:0:0:0:
192,192,113190,128,0,113385:0:0:0:0:
64,192,113273,128,0,113357:0:0:0:0:
320,192,113273,128,0,113440:0:0:0:0:
64,192,113440,128,0,113579:0:0:0:0:
192,192,113440,128,0,113635:0:0:0:0:
448,192,113523,128,0,113607:0:0:0:0:
320,192,113607,1,0,0:0:0:0:
320,192,113690,1,0,0:0:0:0:
192,192,113690,128,0,113801:0:0:0:0:
64,192,113773,128,0,113857:0:0:0:0:
448,192,113773,128,0,113940:0:0:0:0:
192,192,113857,128,0,114051:0:0:0:0:
320,192,113940,128,0,114107:0:0:0:0:
64,192,113940,128,0,114023:0:0:0:0:
448,192,114023,1,0,0:0:0:0:
64,192,114107,1,0,0:0:0:0:
192,192,114107,128,0,114301:0:0:0:0:
64,192,114190,1,0,0:0:0:0:
320,192,114273,128,0,114440:0:0:0:0:
448,192,114273,128,0,114357:0:0:0:0:
192,192,114357,128,0,114551:0:0:0:0:
448,192,114440,128,0,114523:0:0:0:0:
64,192,114440,1,0,0:0:0:0:
64,192,114523,1,0,0:0:0:0:
320,192,114607,128,0,114801:0:0:0:0:
448,192,114607,128,0,114690:0:0:0:0:
64,192,114690,128,0,114773:0:0:0:0:
448,192,114773,1,0,0:0:0:0:
192,192,114773,1,0,0:0:0:0:
192,192,114857,1,0,0:0:0:0:
320,192,114857,128,0,115051:0:0:0:0:
448,192,114940,128,0,115023:0:0:0:0:
64,192,114940,128,0,115107:0:0:0:0:
448,192,115107,128,0,115246:0:0:0:0:
320,192,115107,128,0,115301:0:0:0:0:
192,192,115190,128,0,115273:0:0:0:0:
64,192,115273,1,0,0:0:0:0:
64,192,115357,1,0,0:0:0:0:
320,192,115357,128,0,115468:0:0:0:0:
448,192,115440,128,0,115523:0:0:0:0:
192,192,115440,128,0,115607:0:0:0:0:
448,192,115607,128,0,115718:0:0:0:0:
64,192,115607,128,0,115829:0:0:0:0:
320,192,115607,128,0,115773:0:0:0:0:
320,192,115829,128,0,115996:0:0:0:0:
192,192,115829,1,0,0:0:0:0:
192,192,115940,1,0,0:0:0:0:
64,192,116051,128,0,116162:0:0:0:0:
320,192,116051,128,0,116218:0:0:0:0:
448,192,116079,128,0,116273:0:0:0:0:
192,192,116107,128,0,116190:0:0:0:0:
64,192,116273,128,0,116468:0:0:0:0:
192,192,116273,128,0,116357:0:0:0:0:
448,192,116357,128,0,116440:0:0:0:0:
192,192,116440,1,0,0:0:0:0:
320,192,116440,1,0,0:0:0:0:
320,192,116523,1,0,0:0:0:0:
64,192,116523,128,0,116718:0:0:0:0:
192,192,116607,128,0,116690:0:0:0:0:
448,192,116607,128,0,116773:0:0:0:0:
192,192,116773,128,0,116912:0:0:0:0:
64,192,116773,128,0,116968:0:0:0:0:
320,192,116857,128,0,116940:0:0:0:0:
448,192,116940,1,0,0:0:0:0:
448,192,117023,1,0,0:0:0:0:
64,192,117023,128,0,117135:0:0:0:0:
192,192,117107,128,0,117273:0:0:0:0:
320,192,117107,128,0,117190:0:0:0:0:
64,192,117190,128,0,117385:0:0:0:0:
320,192,117273,1,0,0:0:0:0:
448,192,117273,1,0,0:0:0:0:
320,192,117357,1,0,0:0:0:0:
448,192,117440,128,0,117523:0:0:0:0:
64,192,117440,128,0,117635:0:0:0:0:
448,192,117607,128,0,117773:0:0:0:0:
320,192,117607,128,0,117690:0:0:0:0:
64,192,117690,128,0,117885:0:0:0:0:
320,192,117773,128,0,117857:0:0:0:0:
192,192,117773,1,0,0:0:0:0:
192,192,117857,1,0,0:0:0:0:
320,192,117940,1,0,0:0:0:0:
448,192,117940,128,0,118135:0:0:0:0:
320,192,118023,1,0,0:0:0:0:
64,192,118107,128,0,118273:0:0:0:0:
192,192,118107,128,0,118190:0:0:0:0:
448,192,118190,128,0,118385:0:0:0:0:
320,192,118273,128,0,118357:0:0:0:0:
192,192,118273,128,0,118440:0:0:0:0:
320,192,118440,128,0,118523:0:0:0:0:
448,192,118440,128,0,118635:0:0:0:0:
192,192,118523,128,0,118607:0:0:0:0:
320,192,118607,128,0,118732:0:0:0:0:
64,192,118607,128,0,118773:0:0:0:0:
448,192,118732,128,0,118836:0:0:0:0:
192,192,118773,128,0,118919:0:0:0:0:
320,192,118815,128,0,118878:0:0:0:0:
64,192,118857,128,0,119003:0:0:0:0:
448,192,118898,128,0,118961:0:0:0:0:
320,192,118940,128,0,119086:0:0:0:0:
192,192,118982,128,0,119044:0:0:0:0:
448,192,119023,128,0,119128:0:0:0:0:
64,192,119065,128,0,119169:0:0:0:0:
192,192,119107,128,0,119253:0:0:0:0:
320,192,119148,128,0,119211:0:0:0:0:
448,192,119190,128,0,119336:0:0:0:0:
64,192,119232,128,0,119294:0:0:0:0:
320,192,119273,128,0,119419:0:0:0:0:
192,192,119315,128,0,119378:0:0:0:0:
64,192,119357,128,0,119461:0:0:0:0:
448,192,119398,128,0,119523:0:0:0:0:
192,192,119440,128,0,119503:0:0:0:0:
320,192,119482,128,0,119544:0:0:0:0:
64,192,119523,128,0,119607:0:0:0:0:
192,192,119565,1,0,0:0:0:0:
448,192,119607,128,0,119690:0:0:0:0:
320,192,119607,128,0,119773:0:0:0:0:
64,192,119690,128,0,119773:0:0:0:0:
448,192,119773,128,0,119857:0:0:0:0:
192,192,119773,1,0,0:0:0:0:
192,192,119857,128,0,119940:0:0:0:0:
448,192,119940,128,0,120107:0:0:0:0:
64,192,119940,128,0,120023:0:0:0:0:
320,192,120023,128,0,120107:0:0:0:0:
64,192,120107,128,0,120190:0:0:0:0:
192,192,120107,128,0,120273:0:0:0:0:
320,192,120190,1,0,0:0:0:0:
64,192,120273,1,0,0:0:0:0:
448,192,120273,1,0,0:0:0:0:
448,192,120357,1,0,0:0:0:0:
320,192,120440,128,0,120523:0:0:0:0:
64,192,120440,128,0,120607:0:0:0:0:
448,192,120607,128,0,120773:0:0:0:0:
320,192,120607,128,0,120773:0:0:0:0:
192,192,120607,128,0,120857:0:0:0:0:
64,192,120773,128,0,120857:0:0:0:0:
320,192,120857,1,0,0:0:0:0:
64,192,120940,128,0,121107:0:0:0:0:
192,192,120940,128,0,121023:0:0:0:0:
320,192,120940,128,0,121023:0:0:0:0:
192,192,121107,128,0,121273:0:0:0:0:
448,192,121107,128,0,121190:0:0:0:0:
320,192,121107,128,0,121273:0:0:0:0:
448,192,121273,1,0,0:0:0:0:
64,192,121273,1,0,0:0:0:0:
64,192,121357,1,0,0:0:0:0:
192,192,121440,128,0,121523:0:0:0:0:
448,192,121440,128,0,121607:0:0:0:0:
320,192,121607,128,0,121773:0:0:0:0:
192,192,121607,128,0,121690:0:0:0:0:
64,192,121607,128,0,121773:0:0:0:0:
192,192,121773,1,0,0:0:0:0:
448,192,121773,1,0,0:0:0:0:
448,192,121857,1,0,0:0:0:0:
320,192,121940,128,0,122023:0:0:0:0:
192,192,121940,128,0,122107:0:0:0:0:
320,192,122107,128,0,122190:0:0:0:0:
64,192,122107,128,0,122273:0:0:0:0:
448,192,122107,128,0,122190:0:0:0:0:
320,192,122273,128,0,122440:0:0:0:0:
448,192,122273,128,0,122357:0:0:0:0:
192,192,122273,128,0,122440:0:0:0:0:
448,192,122440,128,0,122607:0:0:0:0:
64,192,122440,1,0,0:0:0:0:
64,192,122523,1,0,0:0:0:0:
64,192,122607,128,0,122773:0:0:0:0:
192,192,122607,128,0,122690:0:0:0:0:
320,192,122607,128,0,122773:0:0:0:0:
448,192,122773,1,0,0:0:0:0:
192,192,122773,1,0,0:0:0:0:
448,192,122857,1,0,0:0:0:0:
192,192,122940,128,0,123107:0:0:0:0:
320,192,122940,128,0,123023:0:0:0:0:
448,192,123107,128,0,123273:0:0:0:0:
320,192,123107,128,0,123190:0:0:0:0:
64,192,123107,128,0,123273:0:0:0:0:
192,192,123273,1,0,0:0:0:0:
320,192,123273,1,0,0:0:0:0:
192,192,123357,1,0,0:0:0:0:
64,192,123440,128,0,123523:0:0:0:0:
320,192,123440,128,0,123607:0:0:0:0:
192,192,123607,128,0,123773:0:0:0:0:
448,192,123607,128,0,123857:0:0:0:0:
64,192,123607,128,0,123773:0:0:0:0:
320,192,123773,128,0,123857:0:0:0:0:
64,192,123857,1,0,0:0:0:0:
448,192,123940,128,0,124023:0:0:0:0:
64,192,123940,128,0,124023:0:0:0:0:
320,192,123940,128,0,124107:0:0:0:0:
448,192,124107,128,0,124273:0:0:0:0:
192,192,124107,128,0,124190:0:0:0:0:
64,192,124107,128,0,124273:0:0:0:0:
320,192,124273,1,0,0:0:0:0:
192,192,124273,1,0,0:0:0:0:
320,192,124357,1,0,0:0:0:0:
448,192,124440,128,0,124523:0:0:0:0:
192,192,124440,128,0,124607:0:0:0:0:
64,192,124607,128,0,124773:0:0:0:0:
448,192,124607,128,0,124690:0:0:0:0:
320,192,124607,128,0,124773:0:0:0:0:
448,192,124773,5,0,0:0:0:0:
192,192,124773,1,0,0:0:0:0:
448,192,124857,1,0,0:0:0:0:
192,192,124940,1,0,0:0:0:0:
320,192,124982,1,0,0:0:0:0:
448,192,125037,1,0,0:0:0:0:
192,192,125107,1,0,0:0:0:0:
64,192,125107,1,0,0:0:0:0:
64,192,125190,1,0,0:0:0:0:
192,192,125190,1,0,0:0:0:0:
64,192,125287,1,0,0:0:0:0:
192,192,125287,1,0,0:0:0:0:
320,192,125398,1,0,0:0:0:0:
64,192,125398,1,0,0:0:0:0:
320,192,125495,1,0,0:0:0:0:
192,192,125495,1,0,0:0:0:0:
448,192,125607,128,0,125773:0:0:0:0:
64,192,125607,128,0,125689:0:0:0:0:
192,192,125607,128,0,125773:0:0:0:0:
64,192,125773,1,0,0:0:0:0:
320,192,125773,1,0,0:0:0:0:
320,192,125855,1,0,0:0:0:0:
64,192,125937,128,0,126101:0:0:0:0:
448,192,125937,128,0,126018:0:0:0:0:
192,192,126101,128,0,126264:0:0:0:0:
448,192,126101,128,0,126182:0:0:0:0:
320,192,126101,128,0,126264:0:0:0:0:
64,192,126264,1,0,0:0:0:0:
448,192,126264,1,0,0:0:0:0:
64,192,126345,1,0,0:0:0:0:
192,192,126427,128,0,126507:0:0:0:0:
448,192,126427,128,0,126588:0:0:0:0:
320,192,126588,128,0,126668:0:0:0:0:
64,192,126588,128,0,126668:0:0:0:0:
192,192,126588,128,0,126748:0:0:0:0:
64,192,126748,128,0,126908:0:0:0:0:
320,192,126748,128,0,126827:0:0:0:0:
448,192,126748,128,0,126908:0:0:0:0:
192,192,126908,1,0,0:0:0:0:
320,192,126908,1,0,0:0:0:0:
192,192,126987,1,0,0:0:0:0:
320,192,127067,128,0,127224:0:0:0:0:
64,192,127067,128,0,127145:0:0:0:0:
448,192,127224,128,0,127382:0:0:0:0:
64,192,127224,128,0,127302:0:0:0:0:
192,192,127224,128,0,127382:0:0:0:0:
320,192,127382,1,0,0:0:0:0:
64,192,127382,1,0,0:0:0:0:
320,192,127460,1,0,0:0:0:0:
448,192,127538,128,0,127615:0:0:0:0:
64,192,127538,128,0,127693:0:0:0:0:
448,192,127693,128,0,127848:0:0:0:0:
192,192,127693,128,0,127770:0:0:0:0:
320,192,127693,128,0,127770:0:0:0:0:
320,192,127848,128,0,128002:0:0:0:0:
192,192,127848,128,0,127924:0:0:0:0:
64,192,127848,128,0,128002:0:0:0:0:
192,192,128002,1,0,0:0:0:0:
448,192,128002,1,0,0:0:0:0:
448,192,128078,1,0,0:0:0:0:
320,192,128155,128,0,128231:0:0:0:0:
192,192,128155,128,0,128307:0:0:0:0:
448,192,128307,128,0,128459:0:0:0:0:
320,192,128307,128,0,128382:0:0:0:0:
64,192,128307,128,0,128459:0:0:0:0:
320,192,128459,1,0,0:0:0:0:
192,192,128459,1,0,0:0:0:0:
192,192,128534,1,0,0:0:0:0:
64,192,128609,128,0,128684:0:0:0:0:
320,192,128609,128,0,128759:0:0:0:0:
64,192,128759,128,0,128909:0:0:0:0:
448,192,128759,128,0,128833:0:0:0:0:
192,192,128833,128,0,128909:0:0:0:0:
448,192,128909,1,0,0:0:0:0:
320,192,128909,1,0,0:0:0:0:
320,192,128983,1,0,0:0:0:0:
64,192,129057,128,0,129130:0:0:0:0:
192,192,129057,128,0,129204:0:0:0:0:
448,192,129130,128,0,129278:0:0:0:0:
64,192,129205,128,0,129303:0:0:0:0:
320,192,129254,128,0,129352:0:0:0:0:
192,192,129303,128,0,129425:0:0:0:0:
448,192,129352,128,0,129498:0:0:0:0:
64,192,129352,128,0,129425:0:0:0:0:
64,192,129498,128,0,129644:0:0:0:0:
192,192,129498,128,0,129570:0:0:0:0:
320,192,129644,1,0,0:0:0:0:
448,192,129644,1,0,0:0:0:0:
192,192,129692,1,0,0:0:0:0:
64,192,129740,1,0,0:0:0:0:
448,192,129789,1,0,0:0:0:0:
192,192,129837,1,0,0:0:0:0:
320,192,129885,1,0,0:0:0:0:
448,192,129933,1,0,0:0:0:0:
64,192,129968,1,0,0:0:0:0:
320,192,130004,1,0,0:0:0:0:
192,192,130040,1,0,0:0:0:0:
448,192,130077,1,0,0:0:0:0:
64,192,130112,1,0,0:0:0:0:
192,192,130148,1,0,0:0:0:0:
320,192,130184,1,0,0:0:0:0:
64,192,130219,1,0,0:0:0:0:
448,192,130254,1,0,0:0:0:0:
320,192,130290,1,0,0:0:0:0:
192,192,130325,1,0,0:0:0:0:
448,192,130362,1,0,0:0:0:0:
64,192,130397,1,0,0:0:0:0:
320,192,130432,1,0,0:0:0:0:
448,192,130468,1,0,0:0:0:0:
192,192,130503,1,0,0:0:0:0:
64,192,130503,1,0,0:0:0:0:
192,192,130644,1,0,0:0:0:0:
64,192,130644,1,0,0:0:0:0:
320,192,130714,1,0,0:0:0:0:
192,192,130784,1,0,0:0:0:0:
64,192,130784,1,0,0:0:0:0:
320,192,130924,1,0,0:0:0:0:
64,192,130924,1,0,0:0:0:0:
192,192,130924,1,0,0:0:0:0:
192,192,131063,1,0,0:0:0:0:
64,192,131063,1,0,0:0:0:0:
320,192,131132,5,0,0:0:0:0:
64,192,131201,1,0,0:0:0:0:
192,192,131201,1,0,0:0:0:0:
320,192,131338,1,0,0:0:0:0:
192,192,131338,1,0,0:0:0:0:
64,192,131338,1,0,0:0:0:0:
448,192,131475,128,0,131883:0:0:0:0:
64,192,131475,1,0,0:0:0:0:
320,192,131475,1,0,0:0:0:0:
192,192,131543,1,0,0:0:0:0:
320,192,131612,1,0,0:0:0:0:
64,192,131612,1,0,0:0:0:0:
320,192,131748,1,0,0:0:0:0:
64,192,131748,1,0,0:0:0:0:
192,192,131748,1,0,0:0:0:0:
320,192,131883,1,0,0:0:0:0:
64,192,131883,1,0,0:0:0:0:
192,192,131950,1,0,0:0:0:0:
320,192,132017,1,0,0:0:0:0:
448,192,132017,1,0,0:0:0:0:
448,192,132083,1,0,0:0:0:0:
64,192,132150,1,0,0:0:0:0:
192,192,132150,1,0,0:0:0:0:
64,192,132217,1,0,0:0:0:0:
448,192,132285,5,0,0:0:0:0:
320,192,132285,128,0,132351:0:0:0:0:
192,192,132351,128,0,132418:0:0:0:0:
320,192,132418,128,0,132485:0:0:0:0:
64,192,132485,128,0,132552:0:0:0:0:
192,192,132552,128,0,132753:0:0:0:0:
448,192,132552,128,0,132686:0:0:0:0:
64,192,132619,128,0,132753:0:0:0:0:
320,192,132686,128,0,132753:0:0:0:0:
448,192,132753,128,0,132820:0:0:0:0:
64,192,132820,5,0,0:0:0:0:
192,192,132820,128,0,132887:0:0:0:0:
320,192,132887,128,0,132954:0:0:0:0:
192,192,132954,128,0,133021:0:0:0:0:
448,192,133021,128,0,133088:0:0:0:0:
320,192,133088,128,0,133289:0:0:0:0:
64,192,133088,128,0,133222:0:0:0:0:
448,192,133155,128,0,133289:0:0:0:0:
192,192,133222,1,0,0:0:0:0:
64,192,133289,1,0,0:0:0:0:
448,192,133356,5,0,0:0:0:0:
320,192,133356,1,0,0:0:0:0:
192,192,133423,1,0,0:0:0:0:
320,192,133490,1,0,0:0:0:0:
64,192,133557,1,0,0:0:0:0:
448,192,133624,128,0,133758:0:0:0:0:
192,192,133624,128,0,133825:0:0:0:0:
64,192,133691,128,0,133825:0:0:0:0:
320,192,133758,1,0,0:0:0:0:
448,192,133825,1,0,0:0:0:0:
192,192,133892,128,0,134093:0:0:0:0:
64,192,133892,128,0,134026:0:0:0:0:
448,192,133959,128,0,134093:0:0:0:0:
320,192,134026,1,0,0:0:0:0:
64,192,134093,1,0,0:0:0:0:
448,192,134160,5,0,0:0:0:0:
192,192,134160,1,0,0:0:0:0:
320,192,134226,1,0,0:0:0:0:
192,192,134293,1,0,0:0:0:0:
64,192,134360,1,0,0:0:0:0:
320,192,134427,128,0,134628:0:0:0:0:
448,192,134427,128,0,134561:0:0:0:0:
64,192,134494,128,0,134628:0:0:0:0:
192,192,134561,1,0,0:0:0:0:
448,192,134628,1,0,0:0:0:0:
64,192,134695,5,0,0:0:0:0:
320,192,134695,1,0,0:0:0:0:
192,192,134762,1,0,0:0:0:0:
320,192,134829,1,0,0:0:0:0:
448,192,134896,1,0,0:0:0:0:
192,192,134963,128,0,135164:0:0:0:0:
64,192,134963,128,0,135097:0:0:0:0:
448,192,135030,128,0,135164:0:0:0:0:
320,192,135097,1,0,0:0:0:0:
64,192,135164,1,0,0:0:0:0:
448,192,135231,5,0,0:0:0:0:
192,192,135231,1,0,0:0:0:0:
320,192,135298,1,0,0:0:0:0:
192,192,135365,1,0,0:0:0:0:
64,192,135432,1,0,0:0:0:0:
448,192,135499,128,0,135633:0:0:0:0:
320,192,135499,128,0,135700:0:0:0:0:
64,192,135566,128,0,135700:0:0:0:0:
192,192,135633,1,0,0:0:0:0:
448,192,135700,1,0,0:0:0:0:
320,192,135767,128,0,135901:0:0:0:0:
64,192,135767,128,0,135968:0:0:0:0:
448,192,135834,128,0,135968:0:0:0:0:
192,192,135901,1,0,0:0:0:0:
320,192,135968,1,0,0:0:0:0:
64,192,136035,5,0,0:0:0:0:
192,192,136035,1,0,0:0:0:0:
448,192,136101,1,0,0:0:0:0:
192,192,136168,1,0,0:0:0:0:
320,192,136235,1,0,0:0:0:0:
448,192,136302,128,0,136503:0:0:0:0:
64,192,136302,128,0,136436:0:0:0:0:
320,192,136369,128,0,136503:0:0:0:0:
192,192,136436,1,0,0:0:0:0:
64,192,136503,1,0,0:0:0:0:
320,192,136570,5,0,0:0:0:0:
448,192,136570,1,0,0:0:0:0:
192,192,136637,1,0,0:0:0:0:
448,192,136704,1,0,0:0:0:0:
64,192,136771,1,0,0:0:0:0:
192,192,136838,128,0,137039:0:0:0:0:
320,192,136838,128,0,136972:0:0:0:0:
64,192,136905,128,0,137039:0:0:0:0:
448,192,136972,1,0,0:0:0:0:
320,192,137039,1,0,0:0:0:0:
64,192,137106,5,0,0:0:0:0:
192,192,137106,1,0,0:0:0:0:
448,192,137173,1,0,0:0:0:0:
192,192,137240,1,0,0:0:0:0:
320,192,137307,1,0,0:0:0:0:
64,192,137374,128,0,137508:0:0:0:0:
448,192,137374,128,0,137575:0:0:0:0:
320,192,137441,128,0,137575:0:0:0:0:
192,192,137508,1,0,0:0:0:0:
64,192,137575,1,0,0:0:0:0:
448,192,137642,128,0,137843:0:0:0:0:
320,192,137642,128,0,137776:0:0:0:0:
64,192,137709,128,0,137843:0:0:0:0:
192,192,137776,1,0,0:0:0:0:
320,192,137843,1,0,0:0:0:0:
64,192,137910,5,0,0:0:0:0:
448,192,137910,1,0,0:0:0:0:
192,192,137976,1,0,0:0:0:0:
448,192,138043,1,0,0:0:0:0:
320,192,138110,1,0,0:0:0:0:
192,192,138177,128,0,138378:0:0:0:0:
64,192,138177,128,0,138311:0:0:0:0:
320,192,138244,128,0,138378:0:0:0:0:
448,192,138311,1,0,0:0:0:0:
64,192,138378,1,0,0:0:0:0:
320,192,138445,5,0,0:0:0:0:
192,192,138445,1,0,0:0:0:0:
448,192,138512,1,0,0:0:0:0:
192,192,138579,1,0,0:0:0:0:
64,192,138646,1,0,0:0:0:0:
448,192,138713,128,0,138914:0:0:0:0:
320,192,138713,128,0,138847:0:0:0:0:
64,192,138780,128,0,138914:0:0:0:0:
192,192,138847,1,0,0:0:0:0:
320,192,138914,1,0,0:0:0:0:
64,192,138981,5,0,0:0:0:0:
448,192,138981,1,0,0:0:0:0:
192,192,139048,1,0,0:0:0:0:
448,192,139115,1,0,0:0:0:0:
320,192,139182,1,0,0:0:0:0:
64,192,139249,128,0,139383:0:0:0:0:
192,192,139249,128,0,139450:0:0:0:0:
320,192,139316,128,0,139450:0:0:0:0:
448,192,139383,1,0,0:0:0:0:
64,192,139450,1,0,0:0:0:0:
192,192,139517,128,0,139651:0:0:0:0:
320,192,139517,128,0,139718:0:0:0:0:
64,192,139584,128,0,139718:0:0:0:0:
448,192,139651,1,0,0:0:0:0:
192,192,139718,1,0,0:0:0:0:
448,192,139785,5,0,0:0:0:0:
320,192,139785,1,0,0:0:0:0:
64,192,139851,1,0,0:0:0:0:
320,192,139918,1,0,0:0:0:0:
192,192,139985,1,0,0:0:0:0:
64,192,140052,128,0,140253:0:0:0:0:
448,192,140052,128,0,140186:0:0:0:0:
192,192,140119,128,0,140253:0:0:0:0:
320,192,140186,1,0,0:0:0:0:
448,192,140253,1,0,0:0:0:0:
192,192,140320,5,0,0:0:0:0:
64,192,140320,1,0,0:0:0:0:
320,192,140387,1,0,0:0:0:0:
64,192,140454,1,0,0:0:0:0:
448,192,140521,1,0,0:0:0:0:
320,192,140588,128,0,140789:0:0:0:0:
192,192,140588,128,0,140722:0:0:0:0:
448,192,140655,128,0,140789:0:0:0:0:
64,192,140722,1,0,0:0:0:0:
192,192,140789,1,0,0:0:0:0:
448,192,140856,5,0,0:0:0:0:
320,192,140856,1,0,0:0:0:0:
64,192,140923,1,0,0:0:0:0:
320,192,140990,1,0,0:0:0:0:
192,192,141057,1,0,0:0:0:0:
448,192,141124,128,0,141258:0:0:0:0:
64,192,141124,128,0,141325:0:0:0:0:
192,192,141191,128,0,141325:0:0:0:0:
320,192,141258,1,0,0:0:0:0:
448,192,141325,1,0,0:0:0:0:
64,192,141392,128,0,141593:0:0:0:0:
192,192,141392,128,0,141526:0:0:0:0:
448,192,141459,128,0,141593:0:0:0:0:
320,192,141526,1,0,0:0:0:0:
192,192,141593,1,0,0:0:0:0:
448,192,141660,5,0,0:0:0:0:
64,192,141660,1,0,0:0:0:0:
320,192,141726,1,0,0:0:0:0:
64,192,141793,1,0,0:0:0:0:
192,192,141860,1,0,0:0:0:0:
320,192,141927,128,0,142128:0:0:0:0:
448,192,141927,128,0,142061:0:0:0:0:
192,192,141994,128,0,142128:0:0:0:0:
64,192,142061,1,0,0:0:0:0:
448,192,142128,1,0,0:0:0:0:
192,192,142195,5,0,0:0:0:0:
320,192,142195,1,0,0:0:0:0:
64,192,142262,1,0,0:0:0:0:
320,192,142329,1,0,0:0:0:0:
448,192,142396,1,0,0:0:0:0:
64,192,142463,128,0,142664:0:0:0:0:
192,192,142463,128,0,142597:0:0:0:0:
448,192,142530,128,0,142664:0:0:0:0:
320,192,142597,1,0,0:0:0:0:
192,192,142664,1,0,0:0:0:0:
448,192,142731,5,0,0:0:0:0:
64,192,142731,128,0,142798:0:0:0:0:
320,192,142798,1,0,0:0:0:0:
64,192,142865,128,0,143066:0:0:0:0:
192,192,142932,1,0,0:0:0:0:
448,192,142999,128,0,143133:0:0:0:0:
320,192,142999,128,0,143200:0:0:0:0:
192,192,143066,128,0,143200:0:0:0:0:
64,192,143133,1,0,0:0:0:0:
448,192,143200,1,0,0:0:0:0:
320,192,143267,128,0,143401:0:0:0:0:
192,192,143267,128,0,143468:0:0:0:0:
448,192,143334,128,0,143468:0:0:0:0:
64,192,143401,1,0,0:0:0:0:
320,192,143468,1,0,0:0:0:0:
64,192,143535,5,0,0:0:0:0:
192,192,143535,128,0,143601:0:0:0:0:
448,192,143601,1,0,0:0:0:0:
192,192,143668,128,0,143869:0:0:0:0:
320,192,143735,1,0,0:0:0:0:
448,192,143802,128,0,144003:0:0:0:0:
64,192,143802,128,0,143936:0:0:0:0:
320,192,143869,128,0,144003:0:0:0:0:
192,192,143936,1,0,0:0:0:0:
64,192,144003,1,0,0:0:0:0:
320,192,144070,5,0,0:0:0:0:
448,192,144070,128,0,144137:0:0:0:0:
192,192,144137,1,0,0:0:0:0:
448,192,144204,128,0,144405:0:0:0:0:
64,192,144271,1,0,0:0:0:0:
192,192,144338,128,0,144539:0:0:0:0:
320,192,144338,128,0,144472:0:0:0:0:
64,192,144405,128,0,144539:0:0:0:0:
448,192,144472,1,0,0:0:0:0:
320,192,144539,1,0,0:0:0:0:
64,192,144606,5,0,0:0:0:0:
192,192,144606,128,0,144673:0:0:0:0:
448,192,144673,1,0,0:0:0:0:
192,192,144740,128,0,144941:0:0:0:0:
320,192,144807,1,0,0:0:0:0:
64,192,144874,128,0,145008:0:0:0:0:
448,192,144874,128,0,145075:0:0:0:0:
320,192,144941,128,0,145075:0:0:0:0:
192,192,145008,1,0,0:0:0:0:
64,192,145075,1,0,0:0:0:0:
448,192,145142,128,0,145343:0:0:0:0:
320,192,145142,128,0,145276:0:0:0:0:
64,192,145209,128,0,145343:0:0:0:0:
192,192,145276,1,0,0:0:0:0:
320,192,145343,1,0,0:0:0:0:
192,192,145410,5,0,0:0:0:0:
448,192,145410,1,0,0:0:0:0:
64,192,145476,1,0,0:0:0:0:
448,192,145543,128,0,145677:0:0:0:0:
320,192,145610,1,0,0:0:0:0:
64,192,145677,128,0,145878:0:0:0:0:
192,192,145677,128,0,145811:0:0:0:0:
320,192,145744,128,0,145878:0:0:0:0:
448,192,145811,1,0,0:0:0:0:
192,192,145878,1,0,0:0:0:0:
320,192,145945,5,0,0:0:0:0:
64,192,145945,1,0,0:0:0:0:
448,192,146012,1,0,0:0:0:0:
64,192,146079,128,0,146213:0:0:0:0:
192,192,146146,1,0,0:0:0:0:
448,192,146213,128,0,146414:0:0:0:0:
320,192,146213,128,0,146347:0:0:0:0:
192,192,146280,128,0,146414:0:0:0:0:
64,192,146347,1,0,0:0:0:0:
320,192,146414,1,0,0:0:0:0:
192,192,146481,5,0,0:0:0:0:
448,192,146481,1,0,0:0:0:0:
64,192,146548,1,0,0:0:0:0:
448,192,146615,128,0,146749:0:0:0:0:
320,192,146682,1,0,0:0:0:0:
192,192,146749,128,0,146883:0:0:0:0:
64,192,146749,128,0,146950:0:0:0:0:
320,192,146816,128,0,146950:0:0:0:0:
448,192,146883,1,0,0:0:0:0:
192,192,146950,1,0,0:0:0:0:
64,192,147017,128,0,147151:0:0:0:0:
320,192,147017,128,0,147218:0:0:0:0:
192,192,147084,128,0,147218:0:0:0:0:
448,192,147151,1,0,0:0:0:0:
64,192,147218,1,0,0:0:0:0:
448,192,147285,5,0,0:0:0:0:
320,192,147285,128,0,147351:0:0:0:0:
192,192,147351,1,0,0:0:0:0:
320,192,147418,128,0,147552:0:0:0:0:
64,192,147485,128,0,147552:0:0:0:0:
192,192,147552,128,0,147753:0:0:0:0:
448,192,147552,128,0,147686:0:0:0:0:
64,192,147619,128,0,147753:0:0:0:0:
320,192,147686,1,0,0:0:0:0:
448,192,147753,1,0,0:0:0:0:
64,192,147820,5,0,0:0:0:0:
192,192,147820,128,0,147887:0:0:0:0:
320,192,147887,1,0,0:0:0:0:
192,192,147954,128,0,148088:0:0:0:0:
448,192,148021,128,0,148088:0:0:0:0:
320,192,148088,128,0,148289:0:0:0:0:
64,192,148088,128,0,148222:0:0:0:0:
448,192,148155,128,0,148289:0:0:0:0:
192,192,148222,1,0,0:0:0:0:
64,192,148289,1,0,0:0:0:0:
448,192,148356,5,0,0:0:0:0:
320,192,148356,1,0,0:0:0:0:
192,192,148423,1,0,0:0:0:0:
320,192,148490,1,0,0:0:0:0:
64,192,148557,1,0,0:0:0:0:
448,192,148624,128,0,148758:0:0:0:0:
192,192,148624,128,0,148825:0:0:0:0:
64,192,148691,128,0,148825:0:0:0:0:
320,192,148758,1,0,0:0:0:0:
448,192,148825,1,0,0:0:0:0:
192,192,148892,128,0,149093:0:0:0:0:
64,192,148892,128,0,149026:0:0:0:0:
448,192,148959,128,0,149093:0:0:0:0:
320,192,149026,1,0,0:0:0:0:
64,192,149093,1,0,0:0:0:0:
192,192,149160,1,0,0:0:0:0:
448,192,149160,128,0,149293:0:0:0:0:
320,192,149226,1,0,0:0:0:0:
192,192,149293,1,0,0:0:0:0:
64,192,149360,1,0,0:0:0:0:
320,192,149427,128,0,149628:0:0:0:0:
448,192,149427,128,0,149561:0:0:0:0:
64,192,149494,128,0,149628:0:0:0:0:
192,192,149561,1,0,0:0:0:0:
448,192,149628,1,0,0:0:0:0:
320,192,149695,1,0,0:0:0:0:
64,192,149695,128,0,149829:0:0:0:0:
192,192,149762,1,0,0:0:0:0:
320,192,149829,1,0,0:0:0:0:
448,192,149896,1,0,0:0:0:0:
192,192,149963,128,0,150164:0:0:0:0:
64,192,149963,128,0,150097:0:0:0:0:
448,192,150030,128,0,150164:0:0:0:0:
320,192,150097,1,0,0:0:0:0:
64,192,150164,1,0,0:0:0:0:
192,192,150231,1,0,0:0:0:0:
448,192,150231,128,0,150365:0:0:0:0:
320,192,150298,1,0,0:0:0:0:
192,192,150365,1,0,0:0:0:0:
64,192,150432,1,0,0:0:0:0:
448,192,150499,128,0,150633:0:0:0:0:
320,192,150499,128,0,150700:0:0:0:0:
64,192,150566,128,0,150700:0:0:0:0:
192,192,150633,1,0,0:0:0:0:
448,192,150700,1,0,0:0:0:0:
320,192,150767,128,0,150901:0:0:0:0:
64,192,150767,128,0,150968:0:0:0:0:
448,192,150834,128,0,150968:0:0:0:0:
192,192,150901,1,0,0:0:0:0:
320,192,150968,1,0,0:0:0:0:
192,192,151035,1,0,0:0:0:0:
64,192,151035,128,0,151168:0:0:0:0:
448,192,151101,1,0,0:0:0:0:
192,192,151168,1,0,0:0:0:0:
320,192,151235,1,0,0:0:0:0:
448,192,151302,128,0,151503:0:0:0:0:
64,192,151302,128,0,151436:0:0:0:0:
320,192,151369,128,0,151503:0:0:0:0:
192,192,151436,1,0,0:0:0:0:
64,192,151503,1,0,0:0:0:0:
320,192,151570,5,0,0:0:0:0:
448,192,151570,1,0,0:0:0:0:
192,192,151637,1,0,0:0:0:0:
448,192,151704,1,0,0:0:0:0:
64,192,151771,1,0,0:0:0:0:
192,192,151838,128,0,152039:0:0:0:0:
320,192,151838,128,0,151972:0:0:0:0:
64,192,151905,128,0,152039:0:0:0:0:
448,192,151972,1,0,0:0:0:0:
320,192,152039,1,0,0:0:0:0:
64,192,152106,5,0,0:0:0:0:
192,192,152106,1,0,0:0:0:0:
448,192,152173,1,0,0:0:0:0:
192,192,152240,1,0,0:0:0:0:
320,192,152307,1,0,0:0:0:0:
64,192,152374,128,0,152508:0:0:0:0:
448,192,152374,128,0,152575:0:0:0:0:
320,192,152441,128,0,152575:0:0:0:0:
192,192,152508,1,0,0:0:0:0:
64,192,152575,1,0,0:0:0:0:
448,192,152642,128,0,152843:0:0:0:0:
320,192,152642,128,0,152776:0:0:0:0:
64,192,152709,128,0,152843:0:0:0:0:
192,192,152776,1,0,0:0:0:0:
320,192,152843,1,0,0:0:0:0:
448,192,152910,1,0,0:0:0:0:
64,192,152910,128,0,153110:0:0:0:0:
192,192,152976,1,0,0:0:0:0:
448,192,153043,128,0,153177:0:0:0:0:
320,192,153110,1,0,0:0:0:0:
192,192,153177,128,0,153378:0:0:0:0:
64,192,153177,128,0,153311:0:0:0:0:
320,192,153244,128,0,153378:0:0:0:0:
448,192,153311,1,0,0:0:0:0:
64,192,153378,1,0,0:0:0:0:
192,192,153445,1,0,0:0:0:0:
320,192,153445,128,0,153646:0:0:0:0:
448,192,153512,1,0,0:0:0:0:
192,192,153579,128,0,153713:0:0:0:0:
64,192,153646,1,0,0:0:0:0:
448,192,153713,128,0,153914:0:0:0:0:
320,192,153713,128,0,153847:0:0:0:0:
64,192,153780,128,0,153914:0:0:0:0:
192,192,153847,1,0,0:0:0:0:
320,192,153914,1,0,0:0:0:0:
448,192,153981,1,0,0:0:0:0:
64,192,153981,128,0,154182:0:0:0:0:
192,192,154048,1,0,0:0:0:0:
448,192,154115,128,0,154249:0:0:0:0:
320,192,154182,1,0,0:0:0:0:
64,192,154249,128,0,154383:0:0:0:0:
192,192,154249,128,0,154450:0:0:0:0:
320,192,154316,128,0,154450:0:0:0:0:
448,192,154383,1,0,0:0:0:0:
64,192,154450,1,0,0:0:0:0:
192,192,154517,128,0,154651:0:0:0:0:
320,192,154517,128,0,154718:0:0:0:0:
64,192,154584,128,0,154718:0:0:0:0:
448,192,154651,1,0,0:0:0:0:
192,192,154718,1,0,0:0:0:0:
320,192,154785,1,0,0:0:0:0:
448,192,154785,128,0,154985:0:0:0:0:
64,192,154851,1,0,0:0:0:0:
320,192,154918,1,0,0:0:0:0:
192,192,154985,1,0,0:0:0:0:
64,192,155052,128,0,155253:0:0:0:0:
448,192,155052,128,0,155186:0:0:0:0:
192,192,155119,128,0,155253:0:0:0:0:
320,192,155186,1,0,0:0:0:0:
448,192,155253,1,0,0:0:0:0:
64,192,155320,1,0,0:0:0:0:
192,192,155320,128,0,155521:0:0:0:0:
320,192,155387,1,0,0:0:0:0:
64,192,155454,1,0,0:0:0:0:
448,192,155521,1,0,0:0:0:0:
320,192,155588,128,0,155789:0:0:0:0:
192,192,155588,128,0,155722:0:0:0:0:
448,192,155655,128,0,155789:0:0:0:0:
64,192,155722,1,0,0:0:0:0:
192,192,155789,1,0,0:0:0:0:
320,192,155856,1,0,0:0:0:0:
448,192,155856,128,0,156057:0:0:0:0:
64,192,155923,1,0,0:0:0:0:
320,192,155990,1,0,0:0:0:0:
192,192,156057,128,0,156124:0:0:0:0:
448,192,156124,128,0,156258:0:0:0:0:
64,192,156124,128,0,156325:0:0:0:0:
192,192,156191,128,0,156325:0:0:0:0:
320,192,156258,1,0,0:0:0:0:
448,192,156325,128,0,156392:0:0:0:0:
64,192,156392,128,0,156593:0:0:0:0:
192,192,156392,128,0,156526:0:0:0:0:
448,192,156459,128,0,156593:0:0:0:0:
320,192,156526,1,0,0:0:0:0:
192,192,156593,128,0,156660:0:0:0:0:
64,192,156660,1,0,0:0:0:0:
448,192,156660,128,0,156793:0:0:0:0:
320,192,156726,128,0,156793:0:0:0:0:
64,192,156793,1,0,0:0:0:0:
192,192,156860,1,0,0:0:0:0:
320,192,156927,128,0,157128:0:0:0:0:
448,192,156927,128,0,157061:0:0:0:0:
192,192,156994,128,0,157128:0:0:0:0:
64,192,157061,1,0,0:0:0:0:
448,192,157128,1,0,0:0:0:0:
320,192,157195,1,0,0:0:0:0:
192,192,157195,128,0,157329:0:0:0:0:
64,192,157262,1,0,0:0:0:0:
320,192,157329,1,0,0:0:0:0:
448,192,157396,1,0,0:0:0:0:
64,192,157463,128,0,157664:0:0:0:0:
192,192,157463,128,0,157597:0:0:0:0:
448,192,157530,128,0,157664:0:0:0:0:
320,192,157597,1,0,0:0:0:0:
192,192,157664,1,0,0:0:0:0:
64,192,157731,1,0,0:0:0:0:
448,192,157731,128,0,157865:0:0:0:0:
320,192,157798,128,0,157865:0:0:0:0:
64,192,157865,1,0,0:0:0:0:
192,192,157932,1,0,0:0:0:0:
448,192,157999,128,0,158133:0:0:0:0:
320,192,157999,128,0,158200:0:0:0:0:
192,192,158066,128,0,158200:0:0:0:0:
64,192,158133,1,0,0:0:0:0:
448,192,158200,1,0,0:0:0:0:
320,192,158267,128,0,158401:0:0:0:0:
192,192,158267,128,0,158468:0:0:0:0:
448,192,158334,128,0,158468:0:0:0:0:
64,192,158401,1,0,0:0:0:0:
320,192,158468,1,0,0:0:0:0:
192,192,158535,1,0,0:0:0:0:
64,192,158535,128,0,158668:0:0:0:0:
448,192,158601,128,0,158735:0:0:0:0:
192,192,158668,1,0,0:0:0:0:
320,192,158735,1,0,0:0:0:0:
448,192,158802,128,0,159003:0:0:0:0:
64,192,158802,128,0,158936:0:0:0:0:
320,192,158869,128,0,159003:0:0:0:0:
192,192,158936,1,0,0:0:0:0:
64,192,159003,1,0,0:0:0:0:
448,192,159070,1,0,0:0:0:0:
320,192,159070,128,0,159204:0:0:0:0:
192,192,159137,128,0,159271:0:0:0:0:
448,192,159204,1,0,0:0:0:0:
64,192,159271,1,0,0:0:0:0:
192,192,159338,128,0,159539:0:0:0:0:
320,192,159338,128,0,159472:0:0:0:0:
64,192,159405,128,0,159539:0:0:0:0:
448,192,159472,1,0,0:0:0:0:
320,192,159539,1,0,0:0:0:0:
192,192,159606,1,0,0:0:0:0:
64,192,159606,128,0,159740:0:0:0:0:
448,192,159673,128,0,159807:0:0:0:0:
192,192,159740,1,0,0:0:0:0:
320,192,159807,1,0,0:0:0:0:
64,192,159874,128,0,160008:0:0:0:0:
448,192,159874,128,0,160075:0:0:0:0:
320,192,159941,128,0,160075:0:0:0:0:
192,192,160008,1,0,0:0:0:0:
64,192,160075,1,0,0:0:0:0:
448,192,160142,128,0,160343:0:0:0:0:
320,192,160142,128,0,160276:0:0:0:0:
64,192,160209,128,0,160343:0:0:0:0:
192,192,160276,1,0,0:0:0:0:
320,192,160343,1,0,0:0:0:0:
448,192,160410,1,0,0:0:0:0:
192,192,160410,128,0,160543:0:0:0:0:
64,192,160476,128,0,160610:0:0:0:0:
448,192,160543,128,0,160610:0:0:0:0:
320,192,160610,1,0,0:0:0:0:
64,192,160677,128,0,160878:0:0:0:0:
192,192,160677,128,0,160811:0:0:0:0:
320,192,160744,128,0,160878:0:0:0:0:
448,192,160811,1,0,0:0:0:0:
192,192,160878,1,0,0:0:0:0:
64,192,160945,1,0,0:0:0:0:
320,192,160945,128,0,161079:0:0:0:0:
448,192,161012,128,0,161146:0:0:0:0:
64,192,161079,128,0,161146:0:0:0:0:
192,192,161146,5,0,0:0:0:0:
448,192,161213,128,0,161414:0:0:0:0:
320,192,161213,128,0,161347:0:0:0:0:
192,192,161280,128,0,161414:0:0:0:0:
64,192,161347,1,0,0:0:0:0:
320,192,161414,1,0,0:0:0:0:
448,192,161481,1,0,0:0:0:0:
192,192,161481,128,0,161615:0:0:0:0:
64,192,161548,128,0,161682:0:0:0:0:
448,192,161615,128,0,161682:0:0:0:0:
320,192,161682,1,0,0:0:0:0:
192,192,161749,128,0,161883:0:0:0:0:
64,192,161749,128,0,161950:0:0:0:0:
320,192,161816,128,0,161950:0:0:0:0:
448,192,161883,1,0,0:0:0:0:
192,192,161950,1,0,0:0:0:0:
64,192,162017,128,0,162151:0:0:0:0:
320,192,162017,128,0,162218:0:0:0:0:
192,192,162084,128,0,162218:0:0:0:0:
448,192,162151,1,0,0:0:0:0:
64,192,162218,1,0,0:0:0:0:
320,192,162285,128,0,162418:0:0:0:0:
448,192,162285,128,0,162418:0:0:0:0:
64,192,162351,128,0,162485:0:0:0:0:
192,192,162418,128,0,162485:0:0:0:0:
448,192,162485,128,0,162619:0:0:0:0:
320,192,162485,128,0,162686:0:0:0:0:
64,192,162552,128,0,162619:0:0:0:0:
192,192,162552,128,0,162686:0:0:0:0:
64,192,162686,128,0,162820:0:0:0:0:
448,192,162686,128,0,162753:0:0:0:0:
192,192,162753,128,0,162820:0:0:0:0:
448,192,162820,128,0,162954:0:0:0:0:
320,192,162820,128,0,162954:0:0:0:0:
192,192,162887,128,0,163021:0:0:0:0:
64,192,162954,128,0,163021:0:0:0:0:
448,192,163021,128,0,163088:0:0:0:0:
320,192,163021,128,0,163155:0:0:0:0:
64,192,163088,128,0,163155:0:0:0:0:
192,192,163088,128,0,163222:0:0:0:0:
448,192,163155,128,0,163289:0:0:0:0:
320,192,163222,128,0,163289:0:0:0:0:
64,192,163222,128,0,163356:0:0:0:0:
448,192,163356,128,0,163456:0:0:0:0:
192,192,163356,128,0,163507:0:0:0:0:
64,192,163406,128,0,163507:0:0:0:0:
320,192,163456,128,0,163557:0:0:0:0:
448,192,163507,128,0,163624:0:0:0:0:
192,192,163557,128,0,163691:0:0:0:0:
64,192,163557,128,0,163624:0:0:0:0:
320,192,163624,128,0,163758:0:0:0:0:
64,192,163691,128,0,163825:0:0:0:0:
192,192,163758,128,0,163959:0:0:0:0:
448,192,163758,128,0,163825:0:0:0:0:
320,192,163825,128,0,163892:0:0:0:0:
448,192,163892,128,0,164059:0:0:0:0:
64,192,163959,128,0,164109:0:0:0:0:
320,192,163959,128,0,164059:0:0:0:0:
192,192,164059,128,0,164160:0:0:0:0:
320,192,164160,128,0,164310:0:0:0:0:
64,192,164160,128,0,164260:0:0:0:0:
448,192,164210,128,0,164310:0:0:0:0:
192,192,164260,128,0,164360:0:0:0:0:
64,192,164310,128,0,164427:0:0:0:0:
320,192,164360,128,0,164561:0:0:0:0:
448,192,164360,128,0,164494:0:0:0:0:
192,192,164427,128,0,164494:0:0:0:0:
64,192,164494,128,0,164628:0:0:0:0:
448,192,164561,128,0,164628:0:0:0:0:
192,192,164561,128,0,164695:0:0:0:0:
320,192,164695,128,0,164846:0:0:0:0:
64,192,164695,128,0,164796:0:0:0:0:
448,192,164745,128,0,164846:0:0:0:0:
192,192,164796,128,0,164896:0:0:0:0:
64,192,164846,128,0,164896:0:0:0:0:
320,192,164896,128,0,165097:0:0:0:0:
448,192,164896,128,0,165030:0:0:0:0:
192,192,164963,128,0,165030:0:0:0:0:
64,192,164963,128,0,165164:0:0:0:0:
192,192,165097,128,0,165231:0:0:0:0:
448,192,165097,128,0,165164:0:0:0:0:
320,192,165231,128,0,165298:0:0:0:0:
448,192,165231,128,0,165432:0:0:0:0:
64,192,165298,128,0,165365:0:0:0:0:
320,192,165365,128,0,165432:0:0:0:0:
192,192,165432,128,0,165532:0:0:0:0:
64,192,165432,128,0,165582:0:0:0:0:
448,192,165482,128,0,165582:0:0:0:0:
320,192,165532,128,0,165633:0:0:0:0:
192,192,165582,128,0,165767:0:0:0:0:
64,192,165633,128,0,165700:0:0:0:0:
448,192,165633,128,0,165767:0:0:0:0:
320,192,165700,128,0,165834:0:0:0:0:
64,192,165767,128,0,165834:0:0:0:0:
192,192,165834,128,0,165968:0:0:0:0:
448,192,165834,128,0,166035:0:0:0:0:
320,192,165901,128,0,165968:0:0:0:0:
64,192,165968,128,0,166035:0:0:0:0:
192,192,166035,128,0,166135:0:0:0:0:
320,192,166035,128,0,166185:0:0:0:0:
448,192,166085,128,0,166185:0:0:0:0:
64,192,166135,128,0,166235:0:0:0:0:
192,192,166185,128,0,166302:0:0:0:0:
320,192,166235,128,0,166302:0:0:0:0:
448,192,166235,128,0,166369:0:0:0:0:
64,192,166302,128,0,166503:0:0:0:0:
320,192,166369,128,0,166503:0:0:0:0:
192,192,166436,128,0,166503:0:0:0:0:
448,192,166436,128,0,166570:0:0:0:0:
320,192,166570,128,0,166671:0:0:0:0:
192,192,166570,128,0,166721:0:0:0:0:
64,192,166620,128,0,166721:0:0:0:0:
448,192,166671,128,0,166771:0:0:0:0:
320,192,166721,128,0,166905:0:0:0:0:
192,192,166771,128,0,166838:0:0:0:0:
64,192,166771,128,0,166905:0:0:0:0:
448,192,166838,128,0,166972:0:0:0:0:
192,192,166905,128,0,167039:0:0:0:0:
64,192,166972,128,0,167106:0:0:0:0:
320,192,166972,128,0,167039:0:0:0:0:
192,192,167106,128,0,167206:0:0:0:0:
448,192,167106,128,0,167257:0:0:0:0:
64,192,167156,128,0,167257:0:0:0:0:
320,192,167206,128,0,167307:0:0:0:0:
192,192,167257,128,0,167374:0:0:0:0:
64,192,167307,128,0,167441:0:0:0:0:
448,192,167307,128,0,167441:0:0:0:0:
320,192,167374,128,0,167441:0:0:0:0:
192,192,167441,128,0,167508:0:0:0:0:
320,192,167508,128,0,167658:0:0:0:0:
448,192,167508,128,0,167608:0:0:0:0:
64,192,167558,128,0,167658:0:0:0:0:
192,192,167608,128,0,167709:0:0:0:0:
448,192,167658,128,0,167776:0:0:0:0:
320,192,167709,128,0,167776:0:0:0:0:
64,192,167709,128,0,167843:0:0:0:0:
192,192,167776,128,0,167843:0:0:0:0:
448,192,167843,128,0,167910:0:0:0:0:
64,192,167910,1,0,0:0:0:0:
320,192,167910,1,0,0:0:0:0:
64,192,167976,1,0,0:0:0:0:
192,192,168043,1,0,0:0:0:0:
448,192,168043,1,0,0:0:0:0:
448,192,168110,1,0,0:0:0:0:
192,192,168177,128,0,168311:0:0:0:0:
64,192,168177,128,0,168244:0:0:0:0:
448,192,168244,128,0,168378:0:0:0:0:
64,192,168311,128,0,168445:0:0:0:0:
320,192,168311,128,0,168378:0:0:0:0:
192,192,168445,128,0,168596:0:0:0:0:
448,192,168445,128,0,168546:0:0:0:0:
64,192,168495,128,0,168596:0:0:0:0:
320,192,168546,128,0,168646:0:0:0:0:
448,192,168596,128,0,168713:0:0:0:0:
64,192,168646,128,0,168713:0:0:0:0:
192,192,168646,128,0,168780:0:0:0:0:
320,192,168713,128,0,168847:0:0:0:0:
64,192,168780,128,0,168914:0:0:0:0:
192,192,168847,128,0,168914:0:0:0:0:
448,192,168847,128,0,168981:0:0:0:0:
320,192,168981,128,0,169132:0:0:0:0:
64,192,168981,128,0,169081:0:0:0:0:
448,192,169031,128,0,169132:0:0:0:0:
192,192,169081,128,0,169182:0:0:0:0:
64,192,169132,128,0,169249:0:0:0:0:
448,192,169182,128,0,169249:0:0:0:0:
320,192,169182,128,0,169383:0:0:0:0:
192,192,169249,128,0,169316:0:0:0:0:
448,192,169316,128,0,169450:0:0:0:0:
192,192,169383,128,0,169517:0:0:0:0:
64,192,169383,128,0,169450:0:0:0:0:
320,192,169450,128,0,169584:0:0:0:0:
64,192,169517,128,0,169651:0:0:0:0:
448,192,169584,128,0,169651:0:0:0:0:
192,192,169584,128,0,169718:0:0:0:0:
320,192,169651,128,0,169718:0:0:0:0:
64,192,169718,128,0,169785:0:0:0:0:
448,192,169785,128,0,169935:0:0:0:0:
192,192,169785,128,0,169885:0:0:0:0:
320,192,169835,128,0,169935:0:0:0:0:
64,192,169885,128,0,169985:0:0:0:0:
192,192,169935,128,0,170052:0:0:0:0:
320,192,169985,128,0,170119:0:0:0:0:
448,192,169985,128,0,170052:0:0:0:0:
64,192,170052,128,0,170186:0:0:0:0:
192,192,170119,128,0,170186:0:0:0:0:
448,192,170186,128,0,170320:0:0:0:0:
320,192,170186,128,0,170253:0:0:0:0:
64,192,170320,128,0,170471:0:0:0:0:
320,192,170320,128,0,170421:0:0:0:0:
192,192,170370,128,0,170471:0:0:0:0:
448,192,170421,128,0,170521:0:0:0:0:
320,192,170471,128,0,170521:0:0:0:0:
64,192,170521,128,0,170655:0:0:0:0:
192,192,170521,128,0,170722:0:0:0:0:
448,192,170588,128,0,170655:0:0:0:0:
320,192,170588,128,0,170789:0:0:0:0:
448,192,170722,128,0,170856:0:0:0:0:
64,192,170722,128,0,170789:0:0:0:0:
64,192,170856,128,0,171007:0:0:0:0:
192,192,170856,128,0,170956:0:0:0:0:
320,192,170906,128,0,171007:0:0:0:0:
448,192,170956,128,0,171057:0:0:0:0:
192,192,171007,128,0,171124:0:0:0:0:
320,192,171057,128,0,171191:0:0:0:0:
64,192,171057,128,0,171124:0:0:0:0:
448,192,171124,128,0,171258:0:0:0:0:
192,192,171191,128,0,171258:0:0:0:0:
64,192,171258,128,0,171325:0:0:0:0:
320,192,171258,128,0,171392:0:0:0:0:
192,192,171325,128,0,171459:0:0:0:0:
64,192,171392,128,0,171526:0:0:0:0:
320,192,171459,128,0,171593:0:0:0:0:
448,192,171459,128,0,171526:0:0:0:0:
192,192,171526,128,0,171593:0:0:0:0:
448,192,171593,128,0,171660:0:0:0:0:
192,192,171660,128,0,171760:0:0:0:0:
64,192,171660,128,0,171810:0:0:0:0:
320,192,171710,128,0,171810:0:0:0:0:
448,192,171760,128,0,171860:0:0:0:0:
192,192,171810,128,0,171927:0:0:0:0:
64,192,171860,128,0,171927:0:0:0:0:
320,192,171860,128,0,171994:0:0:0:0:
448,192,171927,128,0,172061:0:0:0:0:
64,192,171994,128,0,172128:0:0:0:0:
192,192,172061,128,0,172195:0:0:0:0:
320,192,172061,128,0,172128:0:0:0:0:
320,192,172195,128,0,172296:0:0:0:0:
448,192,172195,128,0,172346:0:0:0:0:
192,192,172245,128,0,172346:0:0:0:0:
64,192,172296,128,0,172396:0:0:0:0:
320,192,172346,128,0,172530:0:0:0:0:
448,192,172396,128,0,172463:0:0:0:0:
192,192,172396,128,0,172530:0:0:0:0:
64,192,172463,128,0,172530:0:0:0:0:
448,192,172530,128,0,172664:0:0:0:0:
64,192,172597,128,0,172731:0:0:0:0:
320,192,172597,128,0,172664:0:0:0:0:
192,192,172731,128,0,172831:0:0:0:0:
448,192,172731,128,0,172882:0:0:0:0:
320,192,172781,128,0,172882:0:0:0:0:
64,192,172831,128,0,172932:0:0:0:0:
192,192,172882,128,0,172999:0:0:0:0:
320,192,172932,128,0,173066:0:0:0:0:
448,192,172932,128,0,172999:0:0:0:0:
64,192,172999,128,0,173133:0:0:0:0:
448,192,173066,128,0,173133:0:0:0:0:
320,192,173133,128,0,173283:0:0:0:0:
192,192,173133,128,0,173233:0:0:0:0:
64,192,173183,128,0,173283:0:0:0:0:
448,192,173233,128,0,173334:0:0:0:0:
192,192,173283,128,0,173468:0:0:0:0:
320,192,173334,128,0,173401:0:0:0:0:
64,192,173334,128,0,173468:0:0:0:0:
448,192,173401,128,0,173535:0:0:0:0:
320,192,173468,128,0,173535:0:0:0:0:
192,192,173535,128,0,173601:0:0:0:0:
64,192,173535,128,0,173668:0:0:0:0:
448,192,173601,128,0,173735:0:0:0:0:
192,192,173668,128,0,173869:0:0:0:0:
320,192,173735,128,0,173802:0:0:0:0:
64,192,173735,128,0,173869:0:0:0:0:
448,192,173802,128,0,173936:0:0:0:0:
320,192,173869,128,0,173936:0:0:0:0:
192,192,173936,128,0,174003:0:0:0:0:
64,192,173936,128,0,174070:0:0:0:0:
448,192,174003,128,0,174070:0:0:0:0:
192,192,174070,128,0,174271:0:0:0:0:
448,192,174137,128,0,174271:0:0:0:0:
320,192,174137,128,0,174204:0:0:0:0:
64,192,174204,128,0,174338:0:0:0:0:
320,192,174271,128,0,174472:0:0:0:0:
448,192,174338,128,0,174472:0:0:0:0:
192,192,174338,128,0,174405:0:0:0:0:
64,192,174405,128,0,174539:0:0:0:0:
192,192,174472,128,0,174606:0:0:0:0:
320,192,174539,128,0,174673:0:0:0:0:
448,192,174539,128,0,174606:0:0:0:0:
64,192,174606,128,0,174673:0:0:0:0:
448,192,174673,128,0,174807:0:0:0:0:
192,192,174740,128,0,174807:0:0:0:0:
64,192,174740,128,0,174874:0:0:0:0:
320,192,174807,128,0,174941:0:0:0:0:
192,192,174874,128,0,175075:0:0:0:0:
64,192,174941,128,0,175075:0:0:0:0:
448,192,174941,128,0,175008:0:0:0:0:
320,192,175008,128,0,175142:0:0:0:0:
448,192,175075,128,0,175142:0:0:0:0:
192,192,175142,128,0,175343:0:0:0:0:
64,192,175142,128,0,175209:0:0:0:0:
448,192,175209,128,0,175343:0:0:0:0:
64,192,175276,128,0,175410:0:0:0:0:
320,192,175343,128,0,175410:0:0:0:0:
192,192,175410,128,0,175510:0:0:0:0:
448,192,175410,128,0,175560:0:0:0:0:
64,192,175460,128,0,175560:0:0:0:0:
320,192,175510,128,0,175610:0:0:0:0:
192,192,175560,128,0,175677:0:0:0:0:
64,192,175610,128,0,175744:0:0:0:0:
448,192,175610,128,0,175677:0:0:0:0:
320,192,175677,128,0,175811:0:0:0:0:
448,192,175744,128,0,175811:0:0:0:0:
192,192,175811,128,0,175912:0:0:0:0:
64,192,175811,128,0,175962:0:0:0:0:
320,192,175862,128,0,175962:0:0:0:0:
448,192,175912,128,0,176012:0:0:0:0:
192,192,175962,128,0,176079:0:0:0:0:
64,192,176012,128,0,176079:0:0:0:0:
320,192,176012,128,0,176146:0:0:0:0:
448,192,176079,128,0,176146:0:0:0:0:
64,192,176146,128,0,176213:0:0:0:0:
192,192,176213,128,0,176481:0:0:0:0:
320,192,176213,128,0,176280:0:0:0:0:
320,192,176347,128,0,176414:0:0:0:0:
64,192,176347,128,0,176548:0:0:0:0:
448,192,176481,128,0,176548:0:0:0:0:
320,192,176481,128,0,176615:0:0:0:0:
192,192,176548,128,0,176682:0:0:0:0:
64,192,176615,128,0,176682:0:0:0:0:
448,192,176615,128,0,176883:0:0:0:0:
320,192,176682,128,0,176749:0:0:0:0:
64,192,176749,128,0,176883:0:0:0:0:
192,192,176749,128,0,176816:0:0:0:0:
320,192,176816,128,0,176950:0:0:0:0:
192,192,176883,128,0,176950:0:0:0:0:
448,192,176950,128,0,177017:0:0:0:0:
64,192,177017,128,0,177117:0:0:0:0:
192,192,177017,128,0,177167:0:0:0:0:
320,192,177067,128,0,177218:0:0:0:0:
448,192,177117,128,0,177218:0:0:0:0:
64,192,177167,128,0,177285:0:0:0:0:
192,192,177218,128,0,177418:0:0:0:0:
320,192,177285,128,0,177351:0:0:0:0:
448,192,177285,128,0,177418:0:0:0:0:
64,192,177351,128,0,177485:0:0:0:0:
320,192,177418,128,0,177686:0:0:0:0:
448,192,177485,128,0,177552:0:0:0:0:
192,192,177552,128,0,177619:0:0:0:0:
64,192,177552,128,0,177686:0:0:0:0:
448,192,177619,128,0,177753:0:0:0:0:
192,192,177686,128,0,177954:0:0:0:0:
64,192,177753,128,0,177820:0:0:0:0:
320,192,177820,128,0,177887:0:0:0:0:
448,192,177820,128,0,177954:0:0:0:0:
64,192,177887,128,0,178021:0:0:0:0:
320,192,177954,128,0,178222:0:0:0:0:
448,192,178021,128,0,178088:0:0:0:0:
192,192,178088,128,0,178155:0:0:0:0:
64,192,178088,128,0,178222:0:0:0:0:
448,192,178155,128,0,178289:0:0:0:0:
192,192,178222,128,0,178490:0:0:0:0:
64,192,178289,128,0,178356:0:0:0:0:
320,192,178356,128,0,178423:0:0:0:0:
448,192,178356,128,0,178490:0:0:0:0:
64,192,178423,128,0,178557:0:0:0:0:
320,192,178490,128,0,178758:0:0:0:0:
448,192,178557,128,0,178624:0:0:0:0:
192,192,178624,128,0,178691:0:0:0:0:
64,192,178624,128,0,178758:0:0:0:0:
448,192,178691,128,0,178825:0:0:0:0:
192,192,178758,128,0,178959:0:0:0:0:
64,192,178825,128,0,178892:0:0:0:0:
448,192,178892,128,0,178959:0:0:0:0:
320,192,178892,128,0,179026:0:0:0:0:
64,192,178959,128,0,179093:0:0:0:0:
192,192,179026,128,0,179160:0:0:0:0:
448,192,179026,128,0,179093:0:0:0:0:
320,192,179093,128,0,179160:0:0:0:0:
64,192,179160,1,0,0:0:0:0:
448,192,179160,128,0,179360:0:0:0:0:
64,192,179260,1,0,0:0:0:0:
64,192,179360,1,0,0:0:0:0:
448,192,179427,128,0,179494:0:0:0:0:
192,192,179427,128,0,179561:0:0:0:0:
64,192,179494,128,0,179662:0:0:0:0:
320,192,179561,128,0,179662:0:0:0:0:
448,192,179612,128,0,179762:0:0:0:0:
192,192,179662,128,0,179762:0:0:0:0:
320,192,179712,128,0,179829:0:0:0:0:
64,192,179762,128,0,179829:0:0:0:0:
448,192,179829,128,0,179896:0:0:0:0:
192,192,179829,128,0,179963:0:0:0:0:
64,192,179896,128,0,180097:0:0:0:0:
320,192,179963,128,0,180030:0:0:0:0:
448,192,179963,128,0,180097:0:0:0:0:
192,192,180030,128,0,180164:0:0:0:0:
320,192,180097,128,0,180231:0:0:0:0:
448,192,180164,128,0,180365:0:0:0:0:
192,192,180231,128,0,180298:0:0:0:0:
64,192,180231,128,0,180365:0:0:0:0:
320,192,180298,128,0,180432:0:0:0:0:
192,192,180365,128,0,180499:0:0:0:0:
64,192,180432,128,0,180633:0:0:0:0:
320,192,180499,128,0,180566:0:0:0:0:
448,192,180499,128,0,180633:0:0:0:0:
192,192,180566,128,0,180700:0:0:0:0:
320,192,180633,128,0,180767:0:0:0:0:
448,192,180700,128,0,180834:0:0:0:0:
192,192,180767,128,0,180834:0:0:0:0:
64,192,180767,128,0,180901:0:0:0:0:
320,192,180834,128,0,180901:0:0:0:0:
192,192,180901,128,0,181035:0:0:0:0:
448,192,180901,128,0,180968:0:0:0:0:
64,192,180968,128,0,181035:0:0:0:0:
320,192,181035,128,0,181101:0:0:0:0:
448,192,181035,128,0,181235:0:0:0:0:
64,192,181101,128,0,181235:0:0:0:0:
320,192,181168,128,0,181302:0:0:0:0:
192,192,181168,128,0,181235:0:0:0:0:
64,192,181302,128,0,181503:0:0:0:0:
192,192,181302,128,0,181369:0:0:0:0:
320,192,181369,128,0,181436:0:0:0:0:
192,192,181436,128,0,181570:0:0:0:0:
448,192,181436,128,0,181637:0:0:0:0:
64,192,181570,128,0,181704:0:0:0:0:
320,192,181570,128,0,181637:0:0:0:0:
192,192,181637,128,0,181704:0:0:0:0:
320,192,181704,128,0,181905:0:0:0:0:
448,192,181704,128,0,181771:0:0:0:0:
64,192,181771,128,0,181838:0:0:0:0:
192,192,181838,128,0,181905:0:0:0:0:
448,192,181838,128,0,182039:0:0:0:0:
192,192,181972,128,0,182039:0:0:0:0:
320,192,181972,128,0,182106:0:0:0:0:
192,192,182106,128,0,182240:0:0:0:0:
64,192,182106,128,0,182173:0:0:0:0:
448,192,182173,128,0,182307:0:0:0:0:
64,192,182240,128,0,182374:0:0:0:0:
192,192,182307,128,0,182508:0:0:0:0:
320,192,182374,128,0,182508:0:0:0:0:
448,192,182374,128,0,182441:0:0:0:0:
64,192,182441,128,0,182575:0:0:0:0:
448,192,182508,128,0,182642:0:0:0:0:
320,192,182575,128,0,182776:0:0:0:0:
192,192,182642,128,0,182776:0:0:0:0:
64,192,182642,128,0,182709:0:0:0:0:
448,192,182709,128,0,182843:0:0:0:0:
64,192,182776,128,0,182910:0:0:0:0:
192,192,182843,128,0,183043:0:0:0:0:
448,192,182910,128,0,182976:0:0:0:0:
320,192,182910,128,0,183043:0:0:0:0:
64,192,182976,128,0,183110:0:0:0:0:
448,192,183043,128,0,183177:0:0:0:0:
320,192,183110,128,0,183311:0:0:0:0:
192,192,183177,128,0,183311:0:0:0:0:
64,192,183177,128,0,183244:0:0:0:0:
448,192,183244,128,0,183378:0:0:0:0:
64,192,183311,128,0,183445:0:0:0:0:
192,192,183378,128,0,183512:0:0:0:0:
448,192,183445,128,0,183579:0:0:0:0:
320,192,183445,128,0,183512:0:0:0:0:
64,192,183512,128,0,183579:0:0:0:0:
192,192,183579,128,0,183780:0:0:0:0:
320,192,183579,128,0,183646:0:0:0:0:
448,192,183646,128,0,183713:0:0:0:0:
320,192,183713,128,0,183847:0:0:0:0:
64,192,183713,128,0,183780:0:0:0:0:
448,192,183780,128,0,183914:0:0:0:0:
64,192,183847,128,0,183914:0:0:0:0:
192,192,183914,128,0,183981:0:0:0:0:
320,192,183981,128,0,184048:0:0:0:0:
448,192,183981,128,0,184182:0:0:0:0:
64,192,184048,128,0,184182:0:0:0:0:
320,192,184115,128,0,184249:0:0:0:0:
192,192,184182,128,0,184383:0:0:0:0:
448,192,184249,128,0,184450:0:0:0:0:
64,192,184249,128,0,184316:0:0:0:0:
320,192,184316,128,0,184450:0:0:0:0:
64,192,184383,128,0,184517:0:0:0:0:
192,192,184450,128,0,184651:0:0:0:0:
320,192,184517,128,0,184584:0:0:0:0:
448,192,184517,128,0,184718:0:0:0:0:
64,192,184584,128,0,184718:0:0:0:0:
320,192,184651,128,0,184785:0:0:0:0:
192,192,184718,128,0,184918:0:0:0:0:
64,192,184785,128,0,184851:0:0:0:0:
448,192,184785,128,0,184985:0:0:0:0:
320,192,184851,128,0,184985:0:0:0:0:
64,192,184918,128,0,185052:0:0:0:0:
192,192,184985,128,0,185186:0:0:0:0:
448,192,185052,128,0,185253:0:0:0:0:
320,192,185052,128,0,185119:0:0:0:0:
64,192,185119,128,0,185253:0:0:0:0:
320,192,185186,128,0,185320:0:0:0:0:
192,192,185253,128,0,185387:0:0:0:0:
64,192,185320,128,0,185454:0:0:0:0:
448,192,185320,128,0,185521:0:0:0:0:
320,192,185454,128,0,185521:0:0:0:0:
192,192,185454,128,0,185588:0:0:0:0:
64,192,185521,128,0,185655:0:0:0:0:
448,192,185588,128,0,185655:0:0:0:0:
320,192,185588,128,0,185856:0:0:0:0:
448,192,185722,128,0,185990:0:0:0:0:
64,192,185722,128,0,185789:0:0:0:0:
192,192,185856,128,0,185923:0:0:0:0:
64,192,185856,128,0,186057:0:0:0:0:
320,192,185923,128,0,186057:0:0:0:0:
192,192,185990,128,0,186124:0:0:0:0:
448,192,186057,128,0,186258:0:0:0:0:
64,192,186124,128,0,186325:0:0:0:0:
320,192,186124,128,0,186191:0:0:0:0:
192,192,186191,128,0,186325:0:0:0:0:
320,192,186258,128,0,186392:0:0:0:0:
448,192,186325,128,0,186526:0:0:0:0:
192,192,186392,128,0,186459:0:0:0:0:
64,192,186392,128,0,186593:0:0:0:0:
320,192,186459,128,0,186593:0:0:0:0:
192,192,186526,128,0,186660:0:0:0:0:
448,192,186593,128,0,186793:0:0:0:0:
320,192,186660,128,0,186726:0:0:0:0:
64,192,186660,128,0,186860:0:0:0:0:
192,192,186726,128,0,186860:0:0:0:0:
320,192,186793,128,0,186927:0:0:0:0:
448,192,186860,128,0,187061:0:0:0:0:
192,192,186927,128,0,186994:0:0:0:0:
64,192,186927,128,0,187128:0:0:0:0:
320,192,186994,128,0,187128:0:0:0:0:
192,192,187061,128,0,187195:0:0:0:0:
448,192,187128,128,0,187195:0:0:0:0:
320,192,187195,128,0,187329:0:0:0:0:
64,192,187195,128,0,187262:0:0:0:0:
192,192,187262,128,0,187329:0:0:0:0:
448,192,187329,128,0,187396:0:0:0:0:
64,192,187329,128,0,187463:0:0:0:0:
192,192,187396,128,0,187530:0:0:0:0:
320,192,187463,128,0,187530:0:0:0:0:
448,192,187463,128,0,187664:0:0:0:0:
64,192,187530,128,0,187597:0:0:0:0:
192,192,187597,128,0,187664:0:0:0:0:
320,192,187597,128,0,187932:0:0:0:0:
192,192,187731,128,0,187865:0:0:0:0:
448,192,187731,128,0,187798:0:0:0:0:
64,192,187798,128,0,187932:0:0:0:0:
448,192,187865,128,0,187999:0:0:0:0:
192,192,187932,128,0,188200:0:0:0:0:
320,192,187999,128,0,188133:0:0:0:0:
64,192,187999,128,0,188066:0:0:0:0:
448,192,188066,128,0,188200:0:0:0:0:
64,192,188133,128,0,188267:0:0:0:0:
320,192,188200,128,0,188401:0:0:0:0:
448,192,188267,128,0,188334:0:0:0:0:
192,192,188267,128,0,188468:0:0:0:0:
64,192,188334,128,0,188468:0:0:0:0:
448,192,188401,128,0,188601:0:0:0:0:
320,192,188468,128,0,188535:0:0:0:0:
64,192,188535,128,0,188601:0:0:0:0:
192,192,188535,128,0,188668:0:0:0:0:
320,192,188601,128,0,188735:0:0:0:0:
448,192,188668,128,0,188735:0:0:0:0:
64,192,188668,128,0,188869:0:0:0:0:
192,192,188735,128,0,188802:0:0:0:0:
448,192,188802,128,0,188869:0:0:0:0:
320,192,188802,128,0,188936:0:0:0:0:
192,192,188869,128,0,189003:0:0:0:0:
448,192,188936,128,0,189137:0:0:0:0:
64,192,188936,128,0,189003:0:0:0:0:
320,192,189003,128,0,189070:0:0:0:0:
64,192,189070,128,0,189137:0:0:0:0:
192,192,189070,128,0,189204:0:0:0:0:
320,192,189137,128,0,189271:0:0:0:0:
448,192,189204,128,0,189271:0:0:0:0:
64,192,189204,128,0,189405:0:0:0:0:
192,192,189271,128,0,189338:0:0:0:0:
320,192,189338,128,0,189472:0:0:0:0:
448,192,189338,128,0,189405:0:0:0:0:
192,192,189405,128,0,189539:0:0:0:0:
448,192,189472,128,0,189673:0:0:0:0:
64,192,189472,128,0,189539:0:0:0:0:
320,192,189539,128,0,189606:0:0:0:0:
192,192,189606,128,0,189740:0:0:0:0:
64,192,189606,128,0,189673:0:0:0:0:
320,192,189673,128,0,189807:0:0:0:0:
64,192,189740,128,0,189941:0:0:0:0:
448,192,189740,128,0,189807:0:0:0:0:
192,192,189807,128,0,189874:0:0:0:0:
448,192,189874,128,0,189941:0:0:0:0:
320,192,189874,128,0,190008:0:0:0:0:
192,192,189941,128,0,190075:0:0:0:0:
64,192,190008,128,0,190075:0:0:0:0:
448,192,190008,128,0,190209:0:0:0:0:
320,192,190075,128,0,190142:0:0:0:0:
64,192,190142,128,0,190209:0:0:0:0:
192,192,190142,128,0,190276:0:0:0:0:
320,192,190209,128,0,190343:0:0:0:0:
448,192,190276,128,0,190343:0:0:0:0:
64,192,190276,128,0,190476:0:0:0:0:
192,192,190343,128,0,190410:0:0:0:0:
320,192,190410,128,0,190543:0:0:0:0:
448,192,190410,128,0,190476:0:0:0:0:
192,192,190476,128,0,190610:0:0:0:0:
448,192,190543,128,0,190744:0:0:0:0:
64,192,190543,128,0,190610:0:0:0:0:
320,192,190610,128,0,190677:0:0:0:0:
192,192,190677,128,0,190744:0:0:0:0:
64,192,190677,128,0,190811:0:0:0:0:
320,192,190744,128,0,190878:0:0:0:0:
192,192,190811,128,0,190878:0:0:0:0:
448,192,190811,128,0,191012:0:0:0:0:
64,192,190878,128,0,190945:0:0:0:0:
320,192,190945,128,0,191012:0:0:0:0:
192,192,190945,128,0,191079:0:0:0:0:
64,192,191012,128,0,191146:0:0:0:0:
448,192,191079,128,0,191146:0:0:0:0:
320,192,191079,128,0,191146:0:0:0:0:
192,192,191146,128,0,191213:0:0:0:0:
64,192,191213,128,0,191347:0:0:0:0:
320,192,191213,1,0,0:0:0:0:
448,192,191213,128,0,191526:0:0:0:0:
320,192,191347,128,0,191481:0:0:0:0:
192,192,191392,128,0,191436:0:0:0:0:
64,192,191436,128,0,191570:0:0:0:0:
192,192,191481,128,0,191637:0:0:0:0:
320,192,191526,128,0,191593:0:0:0:0:
448,192,191570,128,0,191704:0:0:0:0:
64,192,191615,128,0,191682:0:0:0:0:
320,192,191660,128,0,191749:0:0:0:0:
192,192,191704,128,0,191793:0:0:0:0:
64,192,191749,128,0,191838:0:0:0:0:
448,192,191793,128,0,191860:0:0:0:0:
320,192,191838,128,0,191905:0:0:0:0:
64,192,191883,128,0,191950:0:0:0:0:
448,192,191927,128,0,191994:0:0:0:0:
192,192,191972,128,0,192039:0:0:0:0:
64,192,192017,128,0,192084:0:0:0:0:
320,192,192084,1,0,0:0:0:0:
192,192,192151,1,0,0:0:0:0:
448,192,192218,1,0,0:0:0:0:
320,192,192285,1,0,0:0:0:0:
64,192,192329,1,0,0:0:0:0:
320,192,192374,1,0,0:0:0:0:
448,192,192418,1,0,0:0:0:0:
192,192,192463,1,0,0:0:0:0:
320,192,192508,1,0,0:0:0:0:
192,192,192552,1,0,0:0:0:0:
448,192,192597,1,0,0:0:0:0:
192,192,192642,1,0,0:0:0:0:
320,192,192686,1,0,0:0:0:0:
64,192,192731,1,0,0:0:0:0:
448,192,192776,1,0,0:0:0:0:
192,192,192820,1,0,0:0:0:0:
320,192,192865,1,0,0:0:0:0:
64,192,192910,1,0,0:0:0:0:
320,192,192954,1,0,0:0:0:0:
192,192,192999,1,0,0:0:0:0:
320,192,193043,1,0,0:0:0:0:
448,192,193088,1,0,0:0:0:0:
192,192,193133,1,0,0:0:0:0:
64,192,193177,1,0,0:0:0:0:
448,192,193222,1,0,0:0:0:0:
320,192,193267,1,0,0:0:0:0:
64,192,193311,1,0,0:0:0:0:
320,192,193356,1,0,0:0:0:0:
192,192,193401,1,0,0:0:0:0:
448,192,193445,1,0,0:0:0:0:
192,192,193490,1,0,0:0:0:0:
320,192,193535,1,0,0:0:0:0:
64,192,193579,1,0,0:0:0:0:
320,192,193624,1,0,0:0:0:0:
192,192,193668,1,0,0:0:0:0:
448,192,193713,1,0,0:0:0:0:
64,192,193758,1,0,0:0:0:0:
320,192,193791,1,0,0:0:0:0:
448,192,193825,1,0,0:0:0:0:
192,192,193858,1,0,0:0:0:0:
64,192,193892,1,0,0:0:0:0:
320,192,193925,1,0,0:0:0:0:
192,192,193959,1,0,0:0:0:0:
448,192,193992,1,0,0:0:0:0:
320,192,194026,1,0,0:0:0:0:
64,192,194059,1,0,0:0:0:0:
192,192,194093,1,0,0:0:0:0:
448,192,194126,1,0,0:0:0:0:
64,192,194160,1,0,0:0:0:0:
320,192,194193,1,0,0:0:0:0:
192,192,194226,1,0,0:0:0:0:
448,192,194260,1,0,0:0:0:0:
320,192,194293,1,0,0:0:0:0:
64,192,194327,1,0,0:0:0:0:
448,192,194360,1,0,0:0:0:0:
192,192,194394,1,0,0:0:0:0:
64,192,194427,1,0,0:0:0:0:
320,192,194472,1,0,0:0:0:0:
448,192,194517,1,0,0:0:0:0:
64,192,194561,1,0,0:0:0:0:
320,192,194606,1,0,0:0:0:0:
192,192,194651,1,0,0:0:0:0:
448,192,194695,1,0,0:0:0:0:
192,192,194762,1,0,0:0:0:0:
320,192,194796,1,0,0:0:0:0:
64,192,194829,1,0,0:0:0:0:
192,192,194896,1,0,0:0:0:0:
448,192,194930,1,0,0:0:0:0:
64,192,194963,1,0,0:0:0:0:
320,192,194997,1,0,0:0:0:0:
192,192,195030,1,0,0:0:0:0:
448,192,195097,128,0,196035:0:0:0:0:
64,192,195499,128,0,196035:0:0:0:0:
64,192,197661,1,0,0:0:0:0:
320,192,197711,1,0,0:0:0:0:
192,192,197762,1,0,0:0:0:0:
448,192,197803,1,0,0:0:0:0:
64,192,197864,1,0,0:0:0:0:
192,192,197915,1,0,0:0:0:0:
320,192,197965,1,0,0:0:0:0:
448,192,198016,1,0,0:0:0:0:
64,192,198067,1,0,0:0:0:0:
320,192,198118,1,0,0:0:0:0:
192,192,198169,1,0,0:0:0:0:
320,192,198219,1,0,0:0:0:0:
64,192,198270,1,0,0:0:0:0:
448,192,198321,1,0,0:0:0:0:
192,192,198372,1,0,0:0:0:0:
320,192,198423,1,0,0:0:0:0:
192,192,198474,1,0,0:0:0:0:
64,192,198555,1,0,0:0:0:0:
448,192,198555,1,0,0:0:0:0:
448,192,198758,1,0,0:0:0:0:
64,192,198961,128,0,199022:0:0:0:0:
320,192,198961,128,0,199083:0:0:0:0:
192,192,199022,1,0,0:0:0:0:
64,192,199083,1,0,0:0:0:0:
448,192,199205,1,0,0:0:0:0:
320,192,199327,128,0,199388:0:0:0:0:
192,192,199327,1,0,0:0:0:0:
448,192,199358,128,0,199449:0:0:0:0:
64,192,199449,1,0,0:0:0:0:
320,192,199449,1,0,0:0:0:0:
448,192,199571,1,0,0:0:0:0:
192,192,199693,1,0,0:0:0:0:
320,192,199815,1,0,0:0:0:0:
192,192,199937,1,0,0:0:0:0:
448,192,199937,1,0,0:0:0:0:
320,192,200059,1,0,0:0:0:0:
192,192,200181,1,0,0:0:0:0:
192,192,200303,1,0,0:0:0:0:
320,192,200425,1,0,0:0:0:0:
64,192,200425,1,0,0:0:0:0:
448,192,200547,1,0,0:0:0:0:
192,192,200669,1,0,0:0:0:0:
64,192,200791,1,0,0:0:0:0:
192,192,200913,1,0,0:0:0:0:
448,192,200913,1,0,0:0:0:0:
320,192,201035,1,0,0:0:0:0:
64,192,201156,1,0,0:0:0:0:
320,192,201278,1,0,0:0:0:0:
448,192,201400,1,0,0:0:0:0:
64,192,201400,1,0,0:0:0:0:
192,192,201522,1,0,0:0:0:0:
448,192,201644,1,0,0:0:0:0:
192,192,201766,1,0,0:0:0:0:
192,192,201888,128,0,202010:0:0:0:0:
320,192,201888,128,0,201949:0:0:0:0:
64,192,202010,1,0,0:0:0:0:
320,192,202132,1,0,0:0:0:0:
448,192,202254,1,0,0:0:0:0:
64,192,202376,1,0,0:0:0:0:
320,192,202376,1,0,0:0:0:0:
192,192,202498,1,0,0:0:0:0:
448,192,202620,1,0,0:0:0:0:
64,192,202742,1,0,0:0:0:0:
192,192,202864,1,0,0:0:0:0:
448,192,202864,1,0,0:0:0:0:
320,192,202986,1,0,0:0:0:0:
64,192,203108,1,0,0:0:0:0:
320,192,203230,1,0,0:0:0:0:
64,192,203352,128,0,203413:0:0:0:0:
192,192,203352,128,0,203474:0:0:0:0:
64,192,203474,1,0,0:0:0:0:
192,192,203595,1,0,0:0:0:0:
448,192,203595,1,0,0:0:0:0:
448,192,203717,1,0,0:0:0:0:
320,192,203839,1,0,0:0:0:0:
64,192,203839,1,0,0:0:0:0:
192,192,203961,1,0,0:0:0:0:
320,192,204083,1,0,0:0:0:0:
64,192,204205,1,0,0:0:0:0:
192,192,204327,1,0,0:0:0:0:
448,192,204327,1,0,0:0:0:0:
64,192,204449,1,0,0:0:0:0:
448,192,204571,1,0,0:0:0:0:
320,192,204693,1,0,0:0:0:0:
64,192,204734,1,0,0:0:0:0:
448,192,204774,1,0,0:0:0:0:
320,192,204815,128,0,204876:0:0:0:0:
64,192,204815,128,0,204937:0:0:0:0:
192,192,204876,1,0,0:0:0:0:
448,192,204937,1,0,0:0:0:0:
192,192,205059,1,0,0:0:0:0:
64,192,205181,128,0,205242:0:0:0:0:
320,192,205181,1,0,0:0:0:0:
448,192,205211,128,0,205303:0:0:0:0:
64,192,205303,1,0,0:0:0:0:
192,192,205303,1,0,0:0:0:0:
448,192,205425,1,0,0:0:0:0:
64,192,205547,1,0,0:0:0:0:
320,192,205669,1,0,0:0:0:0:
192,192,205791,1,0,0:0:0:0:
448,192,205791,1,0,0:0:0:0:
320,192,205913,1,0,0:0:0:0:
192,192,206035,1,0,0:0:0:0:
192,192,206156,1,0,0:0:0:0:
320,192,206278,1,0,0:0:0:0:
64,192,206278,1,0,0:0:0:0:
448,192,206400,1,0,0:0:0:0:
192,192,206522,1,0,0:0:0:0:
64,192,206644,1,0,0:0:0:0:
192,192,206766,1,0,0:0:0:0:
448,192,206766,1,0,0:0:0:0:
320,192,206888,1,0,0:0:0:0:
64,192,207010,1,0,0:0:0:0:
320,192,207132,1,0,0:0:0:0:
448,192,207254,1,0,0:0:0:0:
64,192,207254,1,0,0:0:0:0:
192,192,207376,1,0,0:0:0:0:
448,192,207498,1,0,0:0:0:0:
192,192,207620,1,0,0:0:0:0:
192,192,207742,128,0,207864:0:0:0:0:
448,192,207742,128,0,207803:0:0:0:0:
64,192,207864,1,0,0:0:0:0:
320,192,207986,1,0,0:0:0:0:
448,192,208108,1,0,0:0:0:0:
64,192,208230,1,0,0:0:0:0:
320,192,208230,1,0,0:0:0:0:
192,192,208352,1,0,0:0:0:0:
448,192,208474,1,0,0:0:0:0:
64,192,208595,1,0,0:0:0:0:
192,192,208717,1,0,0:0:0:0:
448,192,208717,1,0,0:0:0:0:
320,192,208839,1,0,0:0:0:0:
64,192,208961,1,0,0:0:0:0:
320,192,209083,1,0,0:0:0:0:
64,192,209205,128,0,209266:0:0:0:0:
448,192,209205,128,0,209327:0:0:0:0:
192,192,209327,1,0,0:0:0:0:
64,192,209449,1,0,0:0:0:0:
320,192,209571,1,0,0:0:0:0:
448,192,209693,1,0,0:0:0:0:
64,192,209693,1,0,0:0:0:0:
320,192,209815,1,0,0:0:0:0:
192,192,209937,1,0,0:0:0:0:
64,192,210059,1,0,0:0:0:0:
448,192,210059,1,0,0:0:0:0:
192,192,210181,1,0,0:0:0:0:
448,192,210181,1,0,0:0:0:0:
192,192,210262,1,0,0:0:0:0:
320,192,210343,1,0,0:0:0:0:
320,192,210425,1,0,0:0:0:0:
64,192,210465,1,0,0:0:0:0:
192,192,210506,1,0,0:0:0:0:
448,192,210547,1,0,0:0:0:0:
192,192,210587,1,0,0:0:0:0:
320,192,210669,128,0,210791:0:0:0:0:
64,192,210669,128,0,210730:0:0:0:0:
448,192,210669,1,0,0:0:0:0:
448,192,210791,1,0,0:0:0:0:
192,192,210913,1,0,0:0:0:0:
320,192,211034,1,0,0:0:0:0:
192,192,211034,128,0,211095:0:0:0:0:
64,192,211034,1,0,0:0:0:0:
448,192,211065,128,0,211156:0:0:0:0:
64,192,211156,1,0,0:0:0:0:
320,192,211156,1,0,0:0:0:0:
448,192,211278,1,0,0:0:0:0:
192,192,211400,1,0,0:0:0:0:
64,192,211400,1,0,0:0:0:0:
448,192,211400,1,0,0:0:0:0:
192,192,211522,1,0,0:0:0:0:
64,192,211644,1,0,0:0:0:0:
448,192,211644,1,0,0:0:0:0:
320,192,211644,1,0,0:0:0:0:
320,192,211766,1,0,0:0:0:0:
192,192,211888,1,0,0:0:0:0:
320,192,212010,1,0,0:0:0:0:
64,192,212132,1,0,0:0:0:0:
192,192,212132,1,0,0:0:0:0:
448,192,212132,1,0,0:0:0:0:
64,192,212254,1,0,0:0:0:0:
320,192,212376,1,0,0:0:0:0:
192,192,212498,1,0,0:0:0:0:
64,192,212498,1,0,0:0:0:0:
448,192,212498,1,0,0:0:0:0:
192,192,212620,1,0,0:0:0:0:
320,192,212620,1,0,0:0:0:0:
448,192,212742,1,0,0:0:0:0:
64,192,212864,1,0,0:0:0:0:
192,192,212864,1,0,0:0:0:0:
320,192,212864,1,0,0:0:0:0:
192,192,212986,1,0,0:0:0:0:
448,192,213108,1,0,0:0:0:0:
64,192,213108,1,0,0:0:0:0:
320,192,213108,1,0,0:0:0:0:
320,192,213230,1,0,0:0:0:0:
192,192,213352,1,0,0:0:0:0:
64,192,213474,1,0,0:0:0:0:
320,192,213474,1,0,0:0:0:0:
448,192,213474,1,0,0:0:0:0:
192,192,213595,128,0,213839:0:0:0:0:
320,192,213595,128,0,213656:0:0:0:0:
64,192,213595,1,0,0:0:0:0:
320,192,213717,1,0,0:0:0:0:
64,192,213839,1,0,0:0:0:0:
448,192,213961,1,0,0:0:0:0:
192,192,213961,1,0,0:0:0:0:
320,192,213961,1,0,0:0:0:0:
64,192,214083,1,0,0:0:0:0:
320,192,214083,1,0,0:0:0:0:
192,192,214205,1,0,0:0:0:0:
448,192,214327,1,0,0:0:0:0:
64,192,214327,1,0,0:0:0:0:
320,192,214327,1,0,0:0:0:0:
64,192,214449,1,0,0:0:0:0:
192,192,214571,1,0,0:0:0:0:
448,192,214571,1,0,0:0:0:0:
320,192,214571,1,0,0:0:0:0:
320,192,214693,1,0,0:0:0:0:
448,192,214815,1,0,0:0:0:0:
320,192,214876,1,0,0:0:0:0:
64,192,214922,1,0,0:0:0:0:
192,192,214967,1,0,0:0:0:0:
320,192,215013,1,0,0:0:0:0:
64,192,215059,128,0,215120:0:0:0:0:
192,192,215059,128,0,215303:0:0:0:0:
448,192,215059,1,0,0:0:0:0:
64,192,215181,1,0,0:0:0:0:
320,192,215181,1,0,0:0:0:0:
448,192,215303,1,0,0:0:0:0:
320,192,215425,1,0,0:0:0:0:
192,192,215425,1,0,0:0:0:0:
64,192,215425,1,0,0:0:0:0:
64,192,215547,1,0,0:0:0:0:
320,192,215669,1,0,0:0:0:0:
320,192,215791,1,0,0:0:0:0:
448,192,215791,1,0,0:0:0:0:
192,192,215791,1,0,0:0:0:0:
448,192,215913,1,0,0:0:0:0:
192,192,216034,1,0,0:0:0:0:
320,192,216034,1,0,0:0:0:0:
64,192,216034,1,0,0:0:0:0:
192,192,216156,1,0,0:0:0:0:
320,192,216197,1,0,0:0:0:0:
448,192,216197,1,0,0:0:0:0:
64,192,216278,1,0,0:0:0:0:
448,192,216360,1,0,0:0:0:0:
320,192,216360,1,0,0:0:0:0:
192,192,216400,1,0,0:0:0:0:
64,192,216441,1,0,0:0:0:0:
448,192,216482,1,0,0:0:0:0:
320,192,216522,128,0,216583:0:0:0:0:
64,192,216522,128,0,216644:0:0:0:0:
448,192,216644,1,0,0:0:0:0:
64,192,216705,1,0,0:0:0:0:
320,192,216705,1,0,0:0:0:0:
192,192,216766,1,0,0:0:0:0:
320,192,216888,1,0,0:0:0:0:
192,192,216888,1,0,0:0:0:0:
64,192,216888,128,0,216949:0:0:0:0:
448,192,216919,128,0,217071:0:0:0:0:
64,192,217010,1,0,0:0:0:0:
320,192,217010,1,0,0:0:0:0:
448,192,217132,1,0,0:0:0:0:
64,192,217254,1,0,0:0:0:0:
320,192,217254,1,0,0:0:0:0:
192,192,217254,1,0,0:0:0:0:
192,192,217376,1,0,0:0:0:0:
64,192,217498,1,0,0:0:0:0:
448,192,217498,1,0,0:0:0:0:
320,192,217498,1,0,0:0:0:0:
320,192,217620,1,0,0:0:0:0:
192,192,217742,1,0,0:0:0:0:
448,192,217864,1,0,0:0:0:0:
320,192,217986,1,0,0:0:0:0:
64,192,217986,1,0,0:0:0:0:
192,192,217986,1,0,0:0:0:0:
320,192,218108,1,0,0:0:0:0:
192,192,218230,1,0,0:0:0:0:
64,192,218352,1,0,0:0:0:0:
320,192,218352,1,0,0:0:0:0:
448,192,218352,1,0,0:0:0:0:
448,192,218474,1,0,0:0:0:0:
192,192,218474,1,0,0:0:0:0:
320,192,218595,1,0,0:0:0:0:
64,192,218717,1,0,0:0:0:0:
192,192,218717,1,0,0:0:0:0:
448,192,218717,1,0,0:0:0:0:
64,192,218839,1,0,0:0:0:0:
448,192,218961,1,0,0:0:0:0:
192,192,218961,1,0,0:0:0:0:
320,192,218961,1,0,0:0:0:0:
320,192,219083,1,0,0:0:0:0:
448,192,219205,1,0,0:0:0:0:
64,192,219327,1,0,0:0:0:0:
192,192,219327,1,0,0:0:0:0:
320,192,219327,1,0,0:0:0:0:
448,192,219449,128,0,219510:0:0:0:0:
64,192,219449,1,0,0:0:0:0:
192,192,219449,128,0,219571:0:0:0:0:
448,192,219571,1,0,0:0:0:0:
192,192,219693,1,0,0:0:0:0:
448,192,219815,1,0,0:0:0:0:
64,192,219815,1,0,0:0:0:0:
320,192,219815,1,0,0:0:0:0:
320,192,219937,1,0,0:0:0:0:
192,192,219937,1,0,0:0:0:0:
64,192,220059,1,0,0:0:0:0:
448,192,220181,1,0,0:0:0:0:
192,192,220181,1,0,0:0:0:0:
320,192,220181,1,0,0:0:0:0:
448,192,220303,1,0,0:0:0:0:
192,192,220425,1,0,0:0:0:0:
320,192,220425,1,0,0:0:0:0:
64,192,220425,1,0,0:0:0:0:
192,192,220547,1,0,0:0:0:0:
448,192,220669,1,0,0:0:0:0:
192,192,220791,1,0,0:0:0:0:
320,192,220852,128,0,220974:0:0:0:0:
64,192,220913,128,0,220974:0:0:0:0:
448,192,220913,128,0,221034:0:0:0:0:
192,192,220913,1,0,0:0:0:0:
192,192,221034,1,0,0:0:0:0:
64,192,221034,1,0,0:0:0:0:
64,192,221156,1,0,0:0:0:0:
320,192,221156,1,0,0:0:0:0:
320,192,221278,1,0,0:0:0:0:
192,192,221278,1,0,0:0:0:0:
448,192,221278,1,0,0:0:0:0:
320,192,221400,1,0,0:0:0:0:
448,192,221400,1,0,0:0:0:0:
192,192,221522,1,0,0:0:0:0:
448,192,221522,1,0,0:0:0:0:
192,192,221644,1,0,0:0:0:0:
64,192,221644,1,0,0:0:0:0:
320,192,221644,1,0,0:0:0:0:
64,192,221766,1,0,0:0:0:0:
192,192,221766,1,0,0:0:0:0:
448,192,221888,1,0,0:0:0:0:
320,192,221908,1,0,0:0:0:0:
64,192,221929,1,0,0:0:0:0:
192,192,221949,1,0,0:0:0:0:
320,192,222010,1,0,0:0:0:0:
64,192,222051,1,0,0:0:0:0:
320,192,222091,1,0,0:0:0:0:
192,192,222132,1,0,0:0:0:0:
448,192,222173,1,0,0:0:0:0:
192,192,222213,1,0,0:0:0:0:
320,192,222254,1,0,0:0:0:0:
64,192,222295,1,0,0:0:0:0:
320,192,222335,1,0,0:0:0:0:
192,192,222376,128,0,226766:0:0:0:0:
448,192,226766,1,0,0:0:0:0:
64,192,226766,128,0,226888:0:0:0:0:
320,192,226766,128,0,226827:0:0:0:0:
192,192,226827,1,0,0:0:0:0:
320,192,226888,1,0,0:0:0:0:
64,192,226949,1,0,0:0:0:0:
448,192,227010,1,0,0:0:0:0:
192,192,227010,1,0,0:0:0:0:
448,192,227132,128,0,227254:0:0:0:0:
64,192,227132,1,0,0:0:0:0:
320,192,227254,1,0,0:0:0:0:
192,192,227315,1,0,0:0:0:0:
64,192,227376,128,0,227620:0:0:0:0:
320,192,227457,128,0,227539:0:0:0:0:
448,192,227498,1,0,0:0:0:0:
192,192,227539,128,0,227701:0:0:0:0:
448,192,227620,1,0,0:0:0:0:
320,192,227620,128,0,227782:0:0:0:0:
64,192,227701,128,0,227945:0:0:0:0:
448,192,227742,128,0,227864:0:0:0:0:
192,192,227782,128,0,227864:0:0:0:0:
320,192,227864,128,0,228026:0:0:0:0:
192,192,227945,128,0,228026:0:0:0:0:
448,192,227986,128,0,228108:0:0:0:0:
64,192,228026,128,0,228169:0:0:0:0:
192,192,228108,128,0,228230:0:0:0:0:
320,192,228169,128,0,228230:0:0:0:0:
64,192,228230,128,0,228291:0:0:0:0:
448,192,228230,128,0,228352:0:0:0:0:
64,192,228352,1,0,0:0:0:0:
192,192,228352,1,0,0:0:0:0:
320,192,228413,1,0,0:0:0:0:
448,192,228474,1,0,0:0:0:0:
192,192,228534,1,0,0:0:0:0:
448,192,228595,128,0,228717:0:0:0:0:
64,192,228595,128,0,228717:0:0:0:0:
320,192,228717,128,0,228900:0:0:0:0:
192,192,228778,1,0,0:0:0:0:
64,192,228839,1,0,0:0:0:0:
448,192,228900,128,0,229083:0:0:0:0:
64,192,228961,1,0,0:0:0:0:
192,192,228961,1,0,0:0:0:0:
320,192,229022,1,0,0:0:0:0:
192,192,229083,128,0,229266:0:0:0:0:
448,192,229144,1,0,0:0:0:0:
64,192,229205,128,0,229327:0:0:0:0:
320,192,229205,1,0,0:0:0:0:
448,192,229266,128,0,229449:0:0:0:0:
192,192,229327,1,0,0:0:0:0:
64,192,229449,128,0,229571:0:0:0:0:
320,192,229449,128,0,229571:0:0:0:0:
448,192,229571,1,0,0:0:0:0:
192,192,229693,128,0,229815:0:0:0:0:
64,192,229693,128,0,229754:0:0:0:0:
448,192,229693,128,0,229876:0:0:0:0:
320,192,229754,1,0,0:0:0:0:
64,192,229815,1,0,0:0:0:0:
192,192,229876,1,0,0:0:0:0:
448,192,229937,1,0,0:0:0:0:
320,192,229937,1,0,0:0:0:0:
64,192,229998,1,0,0:0:0:0:
448,192,230059,128,0,230181:0:0:0:0:
192,192,230059,1,0,0:0:0:0:
320,192,230181,1,0,0:0:0:0:
64,192,230242,1,0,0:0:0:0:
320,192,230303,1,0,0:0:0:0:
192,192,230364,1,0,0:0:0:0:
448,192,230425,1,0,0:0:0:0:
320,192,230425,1,0,0:0:0:0:
448,192,230547,1,0,0:0:0:0:
192,192,230547,1,0,0:0:0:0:
320,192,230608,1,0,0:0:0:0:
448,192,230669,128,0,230791:0:0:0:0:
64,192,230669,1,0,0:0:0:0:
192,192,230791,1,0,0:0:0:0:
64,192,230852,1,0,0:0:0:0:
448,192,230913,128,0,231034:0:0:0:0:
192,192,230913,1,0,0:0:0:0:
320,192,231034,1,0,0:0:0:0:
192,192,231095,1,0,0:0:0:0:
320,192,231156,1,0,0:0:0:0:
64,192,231156,1,0,0:0:0:0:
192,192,231278,1,0,0:0:0:0:
64,192,231278,1,0,0:0:0:0:
448,192,231339,1,0,0:0:0:0:
192,192,231400,1,0,0:0:0:0:
448,192,231461,1,0,0:0:0:0:
64,192,231522,128,0,231644:0:0:0:0:
320,192,231522,1,0,0:0:0:0:
448,192,231644,1,0,0:0:0:0:
64,192,231705,1,0,0:0:0:0:
192,192,231766,1,0,0:0:0:0:
320,192,231766,1,0,0:0:0:0:
448,192,231827,1,0,0:0:0:0:
192,192,231888,1,0,0:0:0:0:
64,192,231888,1,0,0:0:0:0:
448,192,232010,1,0,0:0:0:0:
64,192,232010,1,0,0:0:0:0:
320,192,232071,1,0,0:0:0:0:
64,192,232132,128,0,232254:0:0:0:0:
448,192,232132,1,0,0:0:0:0:
192,192,232193,1,0,0:0:0:0:
448,192,232254,1,0,0:0:0:0:
320,192,232254,1,0,0:0:0:0:
64,192,232376,128,0,232498:0:0:0:0:
192,192,232376,1,0,0:0:0:0:
448,192,232437,1,0,0:0:0:0:
192,192,232498,1,0,0:0:0:0:
320,192,232498,1,0,0:0:0:0:
448,192,232620,1,0,0:0:0:0:
320,192,232620,128,0,232681:0:0:0:0:
64,192,232620,128,0,232742:0:0:0:0:
192,192,232681,1,0,0:0:0:0:
320,192,232742,1,0,0:0:0:0:
64,192,232803,1,0,0:0:0:0:
448,192,232864,1,0,0:0:0:0:
192,192,232864,1,0,0:0:0:0:
320,192,232925,1,0,0:0:0:0:
64,192,232986,1,0,0:0:0:0:
448,192,232986,128,0,233108:0:0:0:0:
320,192,233108,1,0,0:0:0:0:
192,192,233169,1,0,0:0:0:0:
64,192,233230,128,0,233392:0:0:0:0:
320,192,233311,128,0,233392:0:0:0:0:
448,192,233352,1,0,0:0:0:0:
192,192,233392,128,0,233555:0:0:0:0:
448,192,233474,1,0,0:0:0:0:
320,192,233474,128,0,233555:0:0:0:0:
64,192,233555,128,0,233717:0:0:0:0:
448,192,233595,128,0,233717:0:0:0:0:
192,192,233636,128,0,233717:0:0:0:0:
320,192,233717,128,0,233880:0:0:0:0:
64,192,233799,128,0,233880:0:0:0:0:
448,192,233839,128,0,233961:0:0:0:0:
192,192,233880,128,0,234022:0:0:0:0:
320,192,233961,128,0,234022:0:0:0:0:
64,192,234022,128,0,234083:0:0:0:0:
192,192,234083,128,0,234144:0:0:0:0:
448,192,234083,128,0,234205:0:0:0:0:
320,192,234144,1,0,0:0:0:0:
64,192,234205,1,0,0:0:0:0:
192,192,234205,1,0,0:0:0:0:
320,192,234266,1,0,0:0:0:0:
448,192,234327,1,0,0:0:0:0:
192,192,234388,1,0,0:0:0:0:
64,192,234449,128,0,234571:0:0:0:0:
448,192,234449,1,0,0:0:0:0:
448,192,234571,128,0,234815:0:0:0:0:
192,192,234632,1,0,0:0:0:0:
64,192,234693,1,0,0:0:0:0:
320,192,234754,128,0,234998:0:0:0:0:
64,192,234815,1,0,0:0:0:0:
192,192,234815,1,0,0:0:0:0:
448,192,234876,1,0,0:0:0:0:
192,192,234937,128,0,235120:0:0:0:0:
64,192,235059,128,0,235181:0:0:0:0:
320,192,235059,1,0,0:0:0:0:
448,192,235120,128,0,235303:0:0:0:0:
192,192,235181,1,0,0:0:0:0:
320,192,235242,1,0,0:0:0:0:
64,192,235303,128,0,235425:0:0:0:0:
192,192,235303,128,0,235486:0:0:0:0:
448,192,235425,1,0,0:0:0:0:
320,192,235486,1,0,0:0:0:0:
448,192,235547,128,0,235730:0:0:0:0:
64,192,235547,1,0,0:0:0:0:
192,192,235547,128,0,235608:0:0:0:0:
320,192,235608,1,0,0:0:0:0:
64,192,235669,128,0,235791:0:0:0:0:
192,192,235730,1,0,0:0:0:0:
448,192,235791,1,0,0:0:0:0:
320,192,235791,1,0,0:0:0:0:
64,192,235852,1,0,0:0:0:0:
448,192,235913,128,0,236034:0:0:0:0:
192,192,235913,128,0,235974:0:0:0:0:
320,192,235974,128,0,236034:0:0:0:0:
192,192,236034,1,0,0:0:0:0:
64,192,236095,128,0,236156:0:0:0:0:
192,192,236156,128,0,236217:0:0:0:0:
448,192,236278,1,0,0:0:0:0:
320,192,236278,128,0,236339:0:0:0:0:
64,192,236339,128,0,236400:0:0:0:0:
448,192,236400,1,0,0:0:0:0:
320,192,236461,1,0,0:0:0:0:
448,192,236522,128,0,236644:0:0:0:0:
64,192,236522,1,0,0:0:0:0:
192,192,236644,1,0,0:0:0:0:
64,192,236705,1,0,0:0:0:0:
448,192,236766,128,0,236888:0:0:0:0:
192,192,236766,1,0,0:0:0:0:
320,192,236888,1,0,0:0:0:0:
192,192,236949,1,0,0:0:0:0:
320,192,237010,128,0,237132:0:0:0:0:
64,192,237010,128,0,237071:0:0:0:0:
192,192,237132,1,0,0:0:0:0:
64,192,237132,1,0,0:0:0:0:
448,192,237193,1,0,0:0:0:0:
64,192,237254,1,0,0:0:0:0:
320,192,237315,1,0,0:0:0:0:
64,192,237376,128,0,237498:0:0:0:0:
448,192,237376,1,0,0:0:0:0:
320,192,237498,1,0,0:0:0:0:
192,192,237559,1,0,0:0:0:0:
64,192,237620,1,0,0:0:0:0:
448,192,237620,1,0,0:0:0:0:
192,192,237742,1,0,0:0:0:0:
320,192,237742,1,0,0:0:0:0:
192,192,237803,1,0,0:0:0:0:
64,192,237864,1,0,0:0:0:0:
448,192,237864,1,0,0:0:0:0:
320,192,237925,1,0,0:0:0:0:
64,192,237986,128,0,238108:0:0:0:0:
192,192,237986,1,0,0:0:0:0:
320,192,238047,1,0,0:0:0:0:
448,192,238108,1,0,0:0:0:0:
192,192,238169,1,0,0:0:0:0:
64,192,238230,128,0,238352:0:0:0:0:
320,192,238230,1,0,0:0:0:0:
320,192,238291,1,0,0:0:0:0:
192,192,238352,1,0,0:0:0:0:
448,192,238474,1,0,0:0:0:0:
320,192,238474,128,0,238534:0:0:0:0:
64,192,238474,128,0,238595:0:0:0:0:
192,192,238534,1,0,0:0:0:0:
448,192,238595,1,0,0:0:0:0:
320,192,238656,1,0,0:0:0:0:
64,192,238717,128,0,238778:0:0:0:0:
320,192,238758,128,0,238839:0:0:0:0:
192,192,238839,128,0,238900:0:0:0:0:
448,192,238880,128,0,238961:0:0:0:0:
64,192,238961,128,0,239022:0:0:0:0:
320,192,239002,128,0,239083:0:0:0:0:
448,192,239083,1,0,0:0:0:0:
64,192,239144,128,0,239226:0:0:0:0:
448,192,239185,128,0,239287:0:0:0:0:
320,192,239205,1,0,0:0:0:0:
192,192,239266,1,0,0:0:0:0:
320,192,239327,128,0,239388:0:0:0:0:
64,192,239368,128,0,239449:0:0:0:0:
448,192,239449,128,0,239571:0:0:0:0:
192,192,239449,1,0,0:0:0:0:
192,192,239571,1,0,0:0:0:0:
320,192,239632,1,0,0:0:0:0:
448,192,239693,128,0,239815:0:0:0:0:
64,192,239693,1,0,0:0:0:0:
320,192,239815,1,0,0:0:0:0:
192,192,239876,1,0,0:0:0:0:
448,192,239937,128,0,240059:0:0:0:0:
64,192,239937,128,0,239998:0:0:0:0:
320,192,239978,1,0,0:0:0:0:
64,192,240059,1,0,0:0:0:0:
192,192,240059,1,0,0:0:0:0:
320,192,240120,1,0,0:0:0:0:
448,192,240181,128,0,240242:0:0:0:0:
192,192,240221,128,0,240303:0:0:0:0:
320,192,240303,128,0,240364:0:0:0:0:
64,192,240343,128,0,240425:0:0:0:0:
448,192,240425,128,0,240486:0:0:0:0:
192,192,240465,128,0,240547:0:0:0:0:
64,192,240547,1,0,0:0:0:0:
448,192,240608,128,0,240730:0:0:0:0:
192,192,240669,1,0,0:0:0:0:
64,192,240709,128,0,240791:0:0:0:0:
320,192,240730,1,0,0:0:0:0:
192,192,240791,128,0,240852:0:0:0:0:
320,192,240831,128,0,240913:0:0:0:0:
64,192,240913,128,0,241034:0:0:0:0:
448,192,240913,1,0,0:0:0:0:
192,192,241034,1,0,0:0:0:0:
448,192,241095,1,0,0:0:0:0:
64,192,241156,128,0,241278:0:0:0:0:
320,192,241156,1,0,0:0:0:0:
448,192,241278,1,0,0:0:0:0:
192,192,241400,128,0,241522:0:0:0:0:
64,192,241400,128,0,241461:0:0:0:0:
448,192,241400,1,0,0:0:0:0:
320,192,241461,1,0,0:0:0:0:
64,192,241522,128,0,241583:0:0:0:0:
320,192,241583,128,0,241644:0:0:0:0:
448,192,241644,1,0,0:0:0:0:
192,192,241644,128,0,241705:0:0:0:0:
64,192,241705,128,0,241766:0:0:0:0:
448,192,241766,128,0,241888:0:0:0:0:
320,192,241766,128,0,241827:0:0:0:0:
192,192,241888,1,0,0:0:0:0:
320,192,241949,1,0,0:0:0:0:
64,192,242010,128,0,242071:0:0:0:0:
192,192,242071,1,0,0:0:0:0:
448,192,242132,1,0,0:0:0:0:
320,192,242132,1,0,0:0:0:0:
192,192,242254,1,0,0:0:0:0:
448,192,242254,1,0,0:0:0:0:
320,192,242315,1,0,0:0:0:0:
64,192,242376,1,0,0:0:0:0:
448,192,242376,128,0,242498:0:0:0:0:
192,192,242498,1,0,0:0:0:0:
64,192,242559,1,0,0:0:0:0:
192,192,242620,1,0,0:0:0:0:
448,192,242620,128,0,242742:0:0:0:0:
320,192,242742,1,0,0:0:0:0:
192,192,242803,1,0,0:0:0:0:
320,192,242864,1,0,0:0:0:0:
64,192,242864,1,0,0:0:0:0:
64,192,242986,1,0,0:0:0:0:
192,192,242986,1,0,0:0:0:0:
448,192,243047,1,0,0:0:0:0:
192,192,243108,1,0,0:0:0:0:
448,192,243169,1,0,0:0:0:0:
320,192,243230,1,0,0:0:0:0:
64,192,243230,128,0,243352:0:0:0:0:
448,192,243352,1,0,0:0:0:0:
192,192,243413,1,0,0:0:0:0:
320,192,243474,1,0,0:0:0:0:
64,192,243474,1,0,0:0:0:0:
448,192,243534,1,0,0:0:0:0:
192,192,243595,1,0,0:0:0:0:
64,192,243595,1,0,0:0:0:0:
448,192,243717,1,0,0:0:0:0:
64,192,243717,1,0,0:0:0:0:
320,192,243778,1,0,0:0:0:0:
64,192,243839,128,0,243961:0:0:0:0:
448,192,243839,1,0,0:0:0:0:
192,192,243900,1,0,0:0:0:0:
320,192,243961,1,0,0:0:0:0:
448,192,243961,1,0,0:0:0:0:
64,192,244083,128,0,244205:0:0:0:0:
192,192,244083,1,0,0:0:0:0:
448,192,244144,1,0,0:0:0:0:
192,192,244205,1,0,0:0:0:0:
320,192,244205,1,0,0:0:0:0:
448,192,244327,1,0,0:0:0:0:
320,192,244327,128,0,244388:0:0:0:0:
64,192,244327,128,0,244449:0:0:0:0:
192,192,244388,1,0,0:0:0:0:
320,192,244449,1,0,0:0:0:0:
64,192,244510,1,0,0:0:0:0:
448,192,244571,1,0,0:0:0:0:
320,192,244571,128,0,244693:0:0:0:0:
192,192,244663,128,0,244845:0:0:0:0:
448,192,244693,128,0,244815:0:0:0:0:
320,192,244754,128,0,244937:0:0:0:0:
64,192,244845,128,0,244937:0:0:0:0:
192,192,244937,128,0,245059:0:0:0:0:
320,192,245059,128,0,245181:0:0:0:0:
448,192,245059,1,0,0:0:0:0:
64,192,245120,1,0,0:0:0:0:
448,192,245181,1,0,0:0:0:0:
192,192,245181,128,0,245425:0:0:0:0:
320,192,245242,1,0,0:0:0:0:
448,192,245303,128,0,245425:0:0:0:0:
64,192,245303,128,0,245425:0:0:0:0:
320,192,245425,128,0,245669:0:0:0:0:
64,192,245486,1,0,0:0:0:0:
448,192,245547,128,0,245669:0:0:0:0:
192,192,245547,128,0,245669:0:0:0:0:
64,192,245669,128,0,245791:0:0:0:0:
320,192,245730,1,0,0:0:0:0:
192,192,245791,128,0,245852:0:0:0:0:
448,192,245791,128,0,245913:0:0:0:0:
320,192,245852,1,0,0:0:0:0:
64,192,245913,1,0,0:0:0:0:
192,192,245913,128,0,246034:0:0:0:0:
448,192,245974,1,0,0:0:0:0:
320,192,246034,128,0,246156:0:0:0:0:
192,192,246095,1,0,0:0:0:0:
64,192,246156,128,0,246258:0:0:0:0:
448,192,246156,1,0,0:0:0:0:
320,192,246258,128,0,246360:0:0:0:0:
192,192,246360,128,0,246461:0:0:0:0:
448,192,246461,128,0,246543:0:0:0:0:
64,192,246461,128,0,246624:0:0:0:0:
192,192,246543,128,0,246624:0:0:0:0:
320,192,246624,128,0,246705:0:0:0:0:
448,192,246705,128,0,246848:0:0:0:0:
64,192,246705,128,0,246776:0:0:0:0:
320,192,246776,128,0,246848:0:0:0:0:
192,192,246848,128,0,246919:0:0:0:0:
448,192,246919,128,0,246980:0:0:0:0:
64,192,246919,128,0,247041:0:0:0:0:
192,192,246980,128,0,247041:0:0:0:0:
320,192,247041,128,0,247102:0:0:0:0:
64,192,247102,128,0,247152:0:0:0:0:
448,192,247102,128,0,247203:0:0:0:0:
320,192,247152,128,0,247234:0:0:0:0:
192,192,247203,128,0,247284:0:0:0:0:
448,192,247254,128,0,247376:0:0:0:0:
64,192,247254,128,0,247315:0:0:0:0:
320,192,247284,128,0,247467:0:0:0:0:
192,192,247376,1,0,0:0:0:0:
64,192,247417,128,0,247498:0:0:0:0:
448,192,247467,128,0,247559:0:0:0:0:
192,192,247498,1,0,0:0:0:0:
320,192,247559,128,0,247650:0:0:0:0:
64,192,247620,1,0,0:0:0:0:
448,192,247650,128,0,247742:0:0:0:0:
192,192,247742,128,0,247803:0:0:0:0:
64,192,247742,128,0,247803:0:0:0:0:
320,192,247803,1,0,0:0:0:0:
192,192,247864,128,0,247986:0:0:0:0:
64,192,247925,1,0,0:0:0:0:
448,192,247986,1,0,0:0:0:0:
320,192,247986,128,0,248108:0:0:0:0:
64,192,248108,128,0,248270:0:0:0:0:
448,192,248189,128,0,248352:0:0:0:0:
320,192,248230,1,0,0:0:0:0:
192,192,248270,128,0,248352:0:0:0:0:
320,192,248352,128,0,248474:0:0:0:0:
448,192,248474,128,0,248595:0:0:0:0:
64,192,248474,128,0,248595:0:0:0:0:
320,192,248595,128,0,248656:0:0:0:0:
192,192,248656,128,0,248717:0:0:0:0:
320,192,248717,128,0,248839:0:0:0:0:
64,192,248717,128,0,248778:0:0:0:0:
448,192,248778,1,0,0:0:0:0:
64,192,248839,1,0,0:0:0:0:
192,192,248839,128,0,248961:0:0:0:0:
320,192,248900,1,0,0:0:0:0:
448,192,248961,128,0,249083:0:0:0:0:
64,192,249022,1,0,0:0:0:0:
192,192,249083,128,0,249175:0:0:0:0:
320,192,249175,128,0,249266:0:0:0:0:
64,192,249266,128,0,249358:0:0:0:0:
448,192,249327,1,0,0:0:0:0:
320,192,249358,128,0,249449:0:0:0:0:
192,192,249449,1,0,0:0:0:0:
448,192,249449,128,0,249571:0:0:0:0:
192,192,249510,1,0,0:0:0:0:
64,192,249571,128,0,249693:0:0:0:0:
320,192,249571,1,0,0:0:0:0:
448,192,249632,1,0,0:0:0:0:
192,192,249693,128,0,249845:0:0:0:0:
320,192,249693,1,0,0:0:0:0:
64,192,249754,1,0,0:0:0:0:
448,192,249815,1,0,0:0:0:0:
320,192,249845,128,0,249998:0:0:0:0:
192,192,249937,1,0,0:0:0:0:
64,192,249998,128,0,250181:0:0:0:0:
448,192,249998,1,0,0:0:0:0:
448,192,250120,1,0,0:0:0:0:
192,192,250150,128,0,250211:0:0:0:0:
320,192,250181,128,0,250547:0:0:0:0:
64,192,250913,1,0,0:0:0:0:
448,192,251034,1,0,0:0:0:0:
64,192,251156,1,0,0:0:0:0:
448,192,251278,1,0,0:0:0:0:
320,192,251339,1,0,0:0:0:0:
64,192,251400,1,0,0:0:0:0:
192,192,251522,1,0,0:0:0:0:
320,192,251583,1,0,0:0:0:0:
64,192,251644,1,0,0:0:0:0:
448,192,251766,1,0,0:0:0:0:
192,192,251827,1,0,0:0:0:0:
64,192,251888,1,0,0:0:0:0:
448,192,251949,1,0,0:0:0:0:
320,192,252010,1,0,0:0:0:0:
64,192,252071,1,0,0:0:0:0:
192,192,252132,1,0,0:0:0:0:
448,192,252193,1,0,0:0:0:0:
64,192,252254,1,0,0:0:0:0:
320,192,252315,1,0,0:0:0:0:
448,192,252376,1,0,0:0:0:0:
192,192,252437,1,0,0:0:0:0:
64,192,252498,1,0,0:0:0:0:
448,192,252559,1,0,0:0:0:0:
192,192,252620,1,0,0:0:0:0:
320,192,252681,1,0,0:0:0:0:
192,192,252742,1,0,0:0:0:0:
64,192,252803,1,0,0:0:0:0:
320,192,252864,1,0,0:0:0:0:
192,192,252925,1,0,0:0:0:0:
320,192,252986,1,0,0:0:0:0:
448,192,253047,1,0,0:0:0:0:
192,192,253108,1,0,0:0:0:0:
64,192,253169,1,0,0:0:0:0:
320,192,253230,1,0,0:0:0:0:
64,192,253291,1,0,0:0:0:0:
448,192,253352,1,0,0:0:0:0:
320,192,253413,1,0,0:0:0:0:
64,192,253474,1,0,0:0:0:0:
448,192,253534,1,0,0:0:0:0:
192,192,253595,1,0,0:0:0:0:
448,192,253656,1,0,0:0:0:0:
64,192,253717,1,0,0:0:0:0:
192,192,253778,1,0,0:0:0:0:
448,192,253839,1,0,0:0:0:0:
64,192,253900,1,0,0:0:0:0:
320,192,253961,1,0,0:0:0:0:
64,192,254022,1,0,0:0:0:0:
320,192,254083,1,0,0:0:0:0:
64,192,254144,1,0,0:0:0:0:
192,192,254205,1,0,0:0:0:0:
320,192,254266,1,0,0:0:0:0:
448,192,254327,1,0,0:0:0:0:
192,192,254388,1,0,0:0:0:0:
448,192,254449,1,0,0:0:0:0:
192,192,254510,1,0,0:0:0:0:
448,192,254571,1,0,0:0:0:0:
64,192,254612,1,0,0:0:0:0:
320,192,254652,1,0,0:0:0:0:
192,192,254693,1,0,0:0:0:0:
448,192,254734,1,0,0:0:0:0:
320,192,254774,1,0,0:0:0:0:
64,192,254815,1,0,0:0:0:0:
448,192,254856,1,0,0:0:0:0:
192,192,254896,1,0,0:0:0:0:
320,192,254937,1,0,0:0:0:0:
64,192,254978,1,0,0:0:0:0:
192,192,255018,1,0,0:0:0:0:
448,192,255059,1,0,0:0:0:0:
320,192,255100,1,0,0:0:0:0:
64,192,255140,1,0,0:0:0:0:
448,192,255181,1,0,0:0:0:0:
192,192,255221,1,0,0:0:0:0:
320,192,255262,1,0,0:0:0:0:
64,192,255303,1,0,0:0:0:0:
320,192,255343,1,0,0:0:0:0:
448,192,255384,1,0,0:0:0:0:
64,192,255425,1,0,0:0:0:0:
192,192,255465,1,0,0:0:0:0:
320,192,255506,1,0,0:0:0:0:
192,192,255547,1,0,0:0:0:0:
448,192,255587,1,0,0:0:0:0:
64,192,255628,1,0,0:0:0:0:
320,192,255669,1,0,0:0:0:0:
192,192,255709,1,0,0:0:0:0:
320,192,255750,1,0,0:0:0:0:
64,192,255791,1,0,0:0:0:0:
448,192,255831,1,0,0:0:0:0:
192,192,255872,1,0,0:0:0:0:
64,192,255913,1,0,0:0:0:0:
320,192,255953,1,0,0:0:0:0:
448,192,255994,1,0,0:0:0:0:
192,192,256034,128,0,256187:0:0:0:0:
64,192,256034,128,0,256278:0:0:0:0:
320,192,256126,128,0,256217:0:0:0:0:
448,192,256217,128,0,256278:0:0:0:0:
192,192,256278,1,0,0:0:0:0:
320,192,256278,1,0,0:0:0:0:
64,192,256400,1,0,0:0:0:0:
320,192,256400,128,0,256461:0:0:0:0:
64,192,256522,1,0,0:0:0:0:
448,192,256583,128,0,256675:0:0:0:0:
192,192,256644,1,0,0:0:0:0:
64,192,256675,128,0,257010:0:0:0:0:
320,192,256766,1,0,0:0:0:0:
192,192,256766,1,0,0:0:0:0:
448,192,256827,1,0,0:0:0:0:
320,192,256888,1,0,0:0:0:0:
448,192,256949,1,0,0:0:0:0:
192,192,257010,128,0,257132:0:0:0:0:
320,192,257132,128,0,257742:0:0:0:0:
448,192,257254,1,0,0:0:0:0:
64,192,257254,1,0,0:0:0:0:
192,192,257315,1,0,0:0:0:0:
64,192,257376,1,0,0:0:0:0:
192,192,257437,1,0,0:0:0:0:
448,192,257498,1,0,0:0:0:0:
64,192,257620,1,0,0:0:0:0:
192,192,257742,1,0,0:0:0:0:
448,192,257742,128,0,257864:0:0:0:0:
320,192,257864,1,0,0:0:0:0:
192,192,257864,128,0,257986:0:0:0:0:
64,192,257986,128,0,258108:0:0:0:0:
320,192,258108,1,0,0:0:0:0:
448,192,258108,128,0,258230:0:0:0:0:
192,192,258230,1,0,0:0:0:0:
320,192,258230,128,0,258352:0:0:0:0:
64,192,258291,1,0,0:0:0:0:
448,192,258352,1,0,0:0:0:0:
192,192,258352,128,0,258474:0:0:0:0:
64,192,258413,1,0,0:0:0:0:
448,192,258474,128,0,258595:0:0:0:0:
320,192,258595,1,0,0:0:0:0:
64,192,258595,128,0,258717:0:0:0:0:
320,192,258717,1,0,0:0:0:0:
192,192,258717,128,0,258839:0:0:0:0:
448,192,258778,1,0,0:0:0:0:
64,192,258839,1,0,0:0:0:0:
320,192,258839,128,0,258961:0:0:0:0:
448,192,258900,1,0,0:0:0:0:
192,192,258961,1,0,0:0:0:0:
64,192,258961,128,0,259144:0:0:0:0:
448,192,259053,128,0,259144:0:0:0:0:
192,192,259144,128,0,259571:0:0:0:0:
320,192,259205,1,0,0:0:0:0:
448,192,259205,1,0,0:0:0:0:
448,192,259327,1,0,0:0:0:0:
64,192,259327,1,0,0:0:0:0:
320,192,259449,1,0,0:0:0:0:
64,192,259571,1,0,0:0:0:0:
320,192,259571,128,0,260547:0:0:0:0:
448,192,259693,1,0,0:0:0:0:
64,192,259693,1,0,0:0:0:0:
192,192,259754,1,0,0:0:0:0:
64,192,259815,1,0,0:0:0:0:
192,192,259876,1,0,0:0:0:0:
448,192,259937,1,0,0:0:0:0:
64,192,260059,1,0,0:0:0:0:
64,192,260181,1,0,0:0:0:0:
448,192,260181,1,0,0:0:0:0:
192,192,260242,1,0,0:0:0:0:
448,192,260303,1,0,0:0:0:0:
192,192,260364,1,0,0:0:0:0:
448,192,260425,1,0,0:0:0:0:
64,192,260425,1,0,0:0:0:0:
192,192,260547,128,0,260669:0:0:0:0:
64,192,260547,1,0,0:0:0:0:
448,192,260669,128,0,260730:0:0:0:0:
320,192,260669,1,0,0:0:0:0:
448,192,260791,1,0,0:0:0:0:
64,192,260791,128,0,260852:0:0:0:0:
320,192,260913,128,0,260974:0:0:0:0:
64,192,260913,1,0,0:0:0:0:
448,192,261034,128,0,261095:0:0:0:0:
320,192,261034,1,0,0:0:0:0:
64,192,261156,128,0,261217:0:0:0:0:
448,192,261156,1,0,0:0:0:0:
320,192,261217,1,0,0:0:0:0:
192,192,261278,128,0,261339:0:0:0:0:
448,192,261278,1,0,0:0:0:0:
320,192,261339,1,0,0:0:0:0:
64,192,261400,128,0,261461:0:0:0:0:
192,192,261400,1,0,0:0:0:0:
448,192,261522,128,0,261583:0:0:0:0:
64,192,261522,1,0,0:0:0:0:
192,192,261644,128,0,261705:0:0:0:0:
448,192,261644,1,0,0:0:0:0:
64,192,261705,5,0,0:0:0:0:
320,192,261766,128,0,261827:0:0:0:0:
192,192,261766,1,0,0:0:0:0:
64,192,261827,1,0,0:0:0:0:
320,192,261888,1,0,0:0:0:0:
448,192,261908,128,0,262254:0:0:0:0:
192,192,262010,1,0,0:0:0:0:
64,192,262132,1,0,0:0:0:0:
320,192,262132,1,0,0:0:0:0:
192,192,262254,128,0,262315:0:0:0:0:
320,192,262254,1,0,0:0:0:0:
64,192,262315,128,0,262864:0:0:0:0:
448,192,262376,1,0,0:0:0:0:
320,192,262498,1,0,0:0:0:0:
192,192,262498,1,0,0:0:0:0:
448,192,262620,1,0,0:0:0:0:
192,192,262620,1,0,0:0:0:0:
320,192,262681,1,0,0:0:0:0:
448,192,262742,1,0,0:0:0:0:
320,192,262803,1,0,0:0:0:0:
192,192,262864,128,0,262945:0:0:0:0:
64,192,262945,128,0,263230:0:0:0:0:
320,192,263108,1,0,0:0:0:0:
192,192,263108,1,0,0:0:0:0:
448,192,263169,1,0,0:0:0:0:
192,192,263230,128,0,263301:0:0:0:0:
448,192,263291,1,0,0:0:0:0:
64,192,263301,128,0,263534:0:0:0:0:
320,192,263352,1,0,0:0:0:0:
320,192,263474,1,0,0:0:0:0:
192,192,263534,128,0,263595:0:0:0:0:
448,192,263595,1,0,0:0:0:0:
64,192,263595,128,0,263961:0:0:0:0:
448,192,263717,1,0,0:0:0:0:
192,192,263717,1,0,0:0:0:0:
320,192,263839,1,0,0:0:0:0:
192,192,263961,1,0,0:0:0:0:
320,192,263961,128,0,264449:0:0:0:0:
448,192,264083,1,0,0:0:0:0:
192,192,264083,1,0,0:0:0:0:
64,192,264144,1,0,0:0:0:0:
192,192,264205,1,0,0:0:0:0:
64,192,264266,1,0,0:0:0:0:
448,192,264327,1,0,0:0:0:0:
64,192,264449,1,0,0:0:0:0:
192,192,264449,128,0,264632:0:0:0:0:
448,192,264571,1,0,0:0:0:0:
64,192,264632,1,0,0:0:0:0:
320,192,264663,1,0,0:0:0:0:
448,192,264693,128,0,265303:0:0:0:0:
64,192,264754,1,0,0:0:0:0:
320,192,264815,1,0,0:0:0:0:
192,192,264815,1,0,0:0:0:0:
192,192,264937,1,0,0:0:0:0:
320,192,265059,1,0,0:0:0:0:
64,192,265059,1,0,0:0:0:0:
320,192,265181,1,0,0:0:0:0:
192,192,265181,1,0,0:0:0:0:
192,192,265303,1,0,0:0:0:0:
320,192,265343,1,0,0:0:0:0:
192,192,265384,1,0,0:0:0:0:
448,192,265425,128,0,265791:0:0:0:0:
64,192,265425,1,0,0:0:0:0:
320,192,265547,1,0,0:0:0:0:
64,192,265547,1,0,0:0:0:0:
192,192,265608,1,0,0:0:0:0:
64,192,265669,1,0,0:0:0:0:
192,192,265730,1,0,0:0:0:0:
320,192,265791,1,0,0:0:0:0:
64,192,265831,1,0,0:0:0:0:
320,192,265872,1,0,0:0:0:0:
192,192,265913,128,0,266034:0:0:0:0:
320,192,266034,1,0,0:0:0:0:
64,192,266034,128,0,266156:0:0:0:0:
448,192,266095,1,0,0:0:0:0:
192,192,266156,1,0,0:0:0:0:
320,192,266156,128,0,266705:0:0:0:0:
448,192,266217,1,0,0:0:0:0:
192,192,266278,1,0,0:0:0:0:
64,192,266278,1,0,0:0:0:0:
448,192,266400,1,0,0:0:0:0:
64,192,266400,1,0,0:0:0:0:
192,192,266522,1,0,0:0:0:0:
64,192,266644,1,0,0:0:0:0:
192,192,266644,1,0,0:0:0:0:
448,192,266766,1,0,0:0:0:0:
320,192,266766,128,0,266827:0:0:0:0:
320,192,266888,128,0,266949:0:0:0:0:
64,192,267010,1,0,0:0:0:0:
320,192,267010,128,0,267071:0:0:0:0:
448,192,267071,1,0,0:0:0:0:
320,192,267132,1,0,0:0:0:0:
192,192,267132,128,0,267193:0:0:0:0:
448,192,267193,1,0,0:0:0:0:
64,192,267254,1,0,0:0:0:0:
192,192,267254,128,0,267315:0:0:0:0:
192,192,267376,128,0,267437:0:0:0:0:
448,192,267417,1,0,0:0:0:0:
448,192,267498,1,0,0:0:0:0:
64,192,267498,128,0,267559:0:0:0:0:
320,192,267579,1,0,0:0:0:0:
64,192,267620,128,0,267681:0:0:0:0:
320,192,267661,1,0,0:0:0:0:
448,192,267742,1,0,0:0:0:0:
64,192,267742,128,0,267986:0:0:0:0:
192,192,267742,128,0,267925:0:0:0:0:
320,192,267833,128,0,267925:0:0:0:0:
448,192,267925,128,0,267986:0:0:0:0:
192,192,267986,128,0,268108:0:0:0:0:
320,192,267986,1,0,0:0:0:0:
64,192,268108,1,0,0:0:0:0:
320,192,268108,128,0,268169:0:0:0:0:
192,192,268169,128,0,268291:0:0:0:0:
448,192,268291,128,0,268474:0:0:0:0:
192,192,268352,1,0,0:0:0:0:
64,192,268382,128,0,268839:0:0:0:0:
320,192,268474,128,0,268534:0:0:0:0:
192,192,268474,128,0,268656:0:0:0:0:
448,192,268534,1,0,0:0:0:0:
320,192,268595,1,0,0:0:0:0:
448,192,268656,1,0,0:0:0:0:
192,192,268717,128,0,268961:0:0:0:0:
320,192,268839,128,0,269510:0:0:0:0:
448,192,268961,128,0,269144:0:0:0:0:
64,192,268961,128,0,269022:0:0:0:0:
192,192,269022,1,0,0:0:0:0:
64,192,269083,1,0,0:0:0:0:
192,192,269144,1,0,0:0:0:0:
448,192,269205,128,0,269327:0:0:0:0:
64,192,269327,1,0,0:0:0:0:
192,192,269449,128,0,269510:0:0:0:0:
448,192,269449,128,0,269693:0:0:0:0:
320,192,269571,128,0,269754:0:0:0:0:
192,192,269571,128,0,269815:0:0:0:0:
64,192,269693,128,0,269937:0:0:0:0:
320,192,269815,128,0,269876:0:0:0:0:
448,192,269815,128,0,269998:0:0:0:0:
192,192,269937,128,0,269998:0:0:0:0:
320,192,269937,128,0,270181:0:0:0:0:
64,192,269998,1,0,0:0:0:0:
448,192,270059,128,0,270120:0:0:0:0:
192,192,270059,128,0,270303:0:0:0:0:
64,192,270120,1,0,0:0:0:0:
448,192,270181,128,0,270425:0:0:0:0:
64,192,270303,128,0,270486:0:0:0:0:
320,192,270303,128,0,270364:0:0:0:0:
320,192,270425,128,0,270486:0:0:0:0:
192,192,270425,128,0,270608:0:0:0:0:
448,192,270486,1,0,0:0:0:0:
64,192,270547,128,0,270608:0:0:0:0:
320,192,270547,128,0,270669:0:0:0:0:
448,192,270608,1,0,0:0:0:0:
64,192,270669,128,0,270913:0:0:0:0:
192,192,270669,128,0,270760:0:0:0:0:
448,192,270760,128,0,270852:0:0:0:0:
192,192,270852,128,0,271400:0:0:0:0:
320,192,270913,1,0,0:0:0:0:
448,192,270913,1,0,0:0:0:0:
448,192,271034,1,0,0:0:0:0:
64,192,271034,1,0,0:0:0:0:
320,192,271156,1,0,0:0:0:0:
64,192,271278,128,0,271339:0:0:0:0:
320,192,271278,128,0,272315:0:0:0:0:
64,192,271400,128,0,271461:0:0:0:0:
448,192,271400,128,0,271583:0:0:0:0:
192,192,271461,1,0,0:0:0:0:
64,192,271522,1,0,0:0:0:0:
192,192,271583,1,0,0:0:0:0:
448,192,271644,128,0,271766:0:0:0:0:
64,192,271766,1,0,0:0:0:0:
64,192,271888,128,0,272071:0:0:0:0:
448,192,271888,128,0,271949:0:0:0:0:
192,192,271949,1,0,0:0:0:0:
448,192,272010,1,0,0:0:0:0:
192,192,272071,1,0,0:0:0:0:
448,192,272132,128,0,272254:0:0:0:0:
64,192,272132,1,0,0:0:0:0:
192,192,272254,128,0,272376:0:0:0:0:
64,192,272254,1,0,0:0:0:0:
448,192,272376,128,0,272437:0:0:0:0:
320,192,272376,1,0,0:0:0:0:
448,192,272498,1,0,0:0:0:0:
64,192,272498,128,0,272559:0:0:0:0:
320,192,272620,128,0,272681:0:0:0:0:
64,192,272620,1,0,0:0:0:0:
192,192,272681,1,0,0:0:0:0:
448,192,272742,128,0,272803:0:0:0:0:
320,192,272742,1,0,0:0:0:0:
192,192,272803,1,0,0:0:0:0:
64,192,272864,128,0,272925:0:0:0:0:
448,192,272864,1,0,0:0:0:0:
320,192,272925,1,0,0:0:0:0:
192,192,272986,128,0,273047:0:0:0:0:
448,192,272986,1,0,0:0:0:0:
320,192,273047,1,0,0:0:0:0:
64,192,273108,128,0,273169:0:0:0:0:
192,192,273108,1,0,0:0:0:0:
448,192,273230,128,0,273291:0:0:0:0:
64,192,273230,1,0,0:0:0:0:
320,192,273291,1,0,0:0:0:0:
192,192,273352,128,0,273413:0:0:0:0:
448,192,273352,1,0,0:0:0:0:
64,192,273413,5,0,0:0:0:0:
320,192,273474,128,0,273534:0:0:0:0:
192,192,273474,1,0,0:0:0:0:
64,192,273534,1,0,0:0:0:0:
320,192,273595,128,0,273778:0:0:0:0:
448,192,273616,128,0,274022:0:0:0:0:
192,192,273717,1,0,0:0:0:0:
64,192,273839,1,0,0:0:0:0:
320,192,273839,1,0,0:0:0:0:
320,192,273961,128,0,274083:0:0:0:0:
192,192,273961,128,0,274144:0:0:0:0:
64,192,274022,128,0,274571:0:0:0:0:
448,192,274083,1,0,0:0:0:0:
320,192,274205,1,0,0:0:0:0:
192,192,274205,1,0,0:0:0:0:
448,192,274327,128,0,274388:0:0:0:0:
192,192,274327,128,0,274510:0:0:0:0:
320,192,274388,1,0,0:0:0:0:
448,192,274449,1,0,0:0:0:0:
320,192,274510,1,0,0:0:0:0:
192,192,274571,128,0,274754:0:0:0:0:
64,192,274652,128,0,274937:0:0:0:0:
192,192,274815,128,0,274876:0:0:0:0:
320,192,274815,128,0,274998:0:0:0:0:
448,192,274876,1,0,0:0:0:0:
192,192,274937,128,0,275059:0:0:0:0:
448,192,274998,1,0,0:0:0:0:
64,192,275008,128,0,275242:0:0:0:0:
320,192,275059,1,0,0:0:0:0:
320,192,275181,1,0,0:0:0:0:
192,192,275242,128,0,275364:0:0:0:0:
448,192,275303,128,0,275364:0:0:0:0:
64,192,275303,128,0,275791:0:0:0:0:
448,192,275425,1,0,0:0:0:0:
192,192,275425,1,0,0:0:0:0:
320,192,275547,1,0,0:0:0:0:
192,192,275669,1,0,0:0:0:0:
320,192,275669,128,0,276156:0:0:0:0:
448,192,275791,128,0,275974:0:0:0:0:
192,192,275791,128,0,275852:0:0:0:0:
64,192,275852,1,0,0:0:0:0:
192,192,275913,1,0,0:0:0:0:
64,192,275974,1,0,0:0:0:0:
448,192,276034,128,0,276217:0:0:0:0:
64,192,276156,128,0,276278:0:0:0:0:
192,192,276156,128,0,276339:0:0:0:0:
448,192,276278,1,0,0:0:0:0:
64,192,276339,128,0,276400:0:0:0:0:
320,192,276370,128,0,276461:0:0:0:0:
448,192,276400,128,0,277010:0:0:0:0:
64,192,276461,1,0,0:0:0:0:
320,192,276522,1,0,0:0:0:0:
192,192,276522,1,0,0:0:0:0:
192,192,276644,1,0,0:0:0:0:
320,192,276766,1,0,0:0:0:0:
64,192,276766,1,0,0:0:0:0:
320,192,276888,1,0,0:0:0:0:
192,192,276888,1,0,0:0:0:0:
192,192,277010,128,0,277051:0:0:0:0:
320,192,277051,128,0,277132:0:0:0:0:
192,192,277091,128,0,277193:0:0:0:0:
448,192,277132,128,0,277498:0:0:0:0:
64,192,277132,1,0,0:0:0:0:
64,192,277254,128,0,277315:0:0:0:0:
320,192,277254,128,0,277437:0:0:0:0:
192,192,277315,1,0,0:0:0:0:
64,192,277376,1,0,0:0:0:0:
192,192,277437,1,0,0:0:0:0:
320,192,277498,128,0,277539:0:0:0:0:
64,192,277539,128,0,277620:0:0:0:0:
320,192,277579,128,0,277681:0:0:0:0:
192,192,277620,128,0,277803:0:0:0:0:
320,192,277742,128,0,277803:0:0:0:0:
64,192,277742,128,0,277925:0:0:0:0:
448,192,277803,1,0,0:0:0:0:
192,192,277864,128,0,277925:0:0:0:0:
320,192,277864,128,0,278413:0:0:0:0:
448,192,277925,1,0,0:0:0:0:
192,192,277986,1,0,0:0:0:0:
64,192,277986,1,0,0:0:0:0:
448,192,278108,1,0,0:0:0:0:
64,192,278108,1,0,0:0:0:0:
192,192,278230,1,0,0:0:0:0:
448,192,278230,1,0,0:0:0:0:
192,192,278352,1,0,0:0:0:0:
64,192,278352,1,0,0:0:0:0:
448,192,278474,1,0,0:0:0:0:
320,192,278474,128,0,278534:0:0:0:0:
192,192,278595,1,0,0:0:0:0:
320,192,278595,128,0,278656:0:0:0:0:
64,192,278717,128,0,278900:0:0:0:0:
320,192,278717,128,0,278778:0:0:0:0:
448,192,278778,1,0,0:0:0:0:
320,192,278839,1,0,0:0:0:0:
192,192,278839,128,0,278900:0:0:0:0:
448,192,278900,1,0,0:0:0:0:
64,192,278961,1,0,0:0:0:0:
192,192,278961,128,0,279022:0:0:0:0:
320,192,279022,1,0,0:0:0:0:
192,192,279083,128,0,279144:0:0:0:0:
448,192,279144,1,0,0:0:0:0:
320,192,279205,1,0,0:0:0:0:
64,192,279205,128,0,279266:0:0:0:0:
448,192,279266,1,0,0:0:0:0:
64,192,279327,128,0,279388:0:0:0:0:
320,192,279388,1,0,0:0:0:0:
448,192,279449,5,0,0:0:0:0:
192,192,279449,128,0,279571:0:0:0:0:
320,192,279541,1,0,0:0:0:0:
64,192,279571,128,0,279693:0:0:0:0:
192,192,279632,1,0,0:0:0:0:
448,192,279693,128,0,279815:0:0:0:0:
320,192,279724,5,0,0:0:0:0:
192,192,279815,128,0,279937:0:0:0:0:
448,192,279906,1,0,0:0:0:0:
320,192,279937,128,0,280059:0:0:0:0:
64,192,279998,1,0,0:0:0:0:
448,192,280059,128,0,280852:0:0:0:0:
192,192,280089,1,0,0:0:0:0:
64,192,280181,1,0,0:0:0:0:
320,192,280181,1,0,0:0:0:0:
320,192,280272,1,0,0:0:0:0:
192,192,280303,1,0,0:0:0:0:
64,192,280364,1,0,0:0:0:0:
192,192,280425,1,0,0:0:0:0:
320,192,280455,1,0,0:0:0:0:
64,192,280547,1,0,0:0:0:0:
192,192,280638,1,0,0:0:0:0:
64,192,280669,1,0,0:0:0:0:
320,192,280730,1,0,0:0:0:0:
192,192,280791,1,0,0:0:0:0:
192,192,280913,5,0,0:0:0:0:
320,192,280913,128,0,281034:0:0:0:0:
64,192,281004,1,0,0:0:0:0:
448,192,281034,128,0,281156:0:0:0:0:
320,192,281095,1,0,0:0:0:0:
192,192,281156,128,0,281278:0:0:0:0:
64,192,281187,1,0,0:0:0:0:
320,192,281278,128,0,281400:0:0:0:0:
192,192,281370,1,0,0:0:0:0:
64,192,281400,128,0,281522:0:0:0:0:
448,192,281461,1,0,0:0:0:0:
192,192,281522,128,0,282315:0:0:0:0:
320,192,281553,1,0,0:0:0:0:
448,192,281644,1,0,0:0:0:0:
64,192,281644,1,0,0:0:0:0:
64,192,281736,1,0,0:0:0:0:
320,192,281766,1,0,0:0:0:0:
448,192,281827,1,0,0:0:0:0:
320,192,281888,1,0,0:0:0:0:
64,192,281919,1,0,0:0:0:0:
448,192,282010,1,0,0:0:0:0:
320,192,282102,1,0,0:0:0:0:
448,192,282132,1,0,0:0:0:0:
64,192,282193,1,0,0:0:0:0:
320,192,282254,1,0,0:0:0:0:
320,192,282376,5,0,0:0:0:0:
64,192,282376,128,0,282498:0:0:0:0:
448,192,282467,1,0,0:0:0:0:
192,192,282498,128,0,282620:0:0:0:0:
64,192,282559,1,0,0:0:0:0:
320,192,282620,128,0,282742:0:0:0:0:
448,192,282650,5,0,0:0:0:0:
64,192,282742,128,0,282864:0:0:0:0:
320,192,282833,1,0,0:0:0:0:
448,192,282864,128,0,282986:0:0:0:0:
192,192,282925,1,0,0:0:0:0:
320,192,282986,128,0,283778:0:0:0:0:
64,192,283016,1,0,0:0:0:0:
192,192,283108,1,0,0:0:0:0:
448,192,283108,1,0,0:0:0:0:
448,192,283199,1,0,0:0:0:0:
64,192,283230,1,0,0:0:0:0:
192,192,283291,1,0,0:0:0:0:
64,192,283352,1,0,0:0:0:0:
448,192,283382,1,0,0:0:0:0:
192,192,283474,1,0,0:0:0:0:
64,192,283565,1,0,0:0:0:0:
192,192,283595,1,0,0:0:0:0:
448,192,283656,1,0,0:0:0:0:
64,192,283717,1,0,0:0:0:0:
320,192,283839,5,0,0:0:0:0:
448,192,283839,1,0,0:0:0:0:
64,192,283931,1,0,0:0:0:0:
448,192,283961,1,0,0:0:0:0:
192,192,284022,5,0,0:0:0:0:
320,192,284083,5,0,0:0:0:0:
64,192,284114,5,0,0:0:0:0:
192,192,284205,1,0,0:0:0:0:
320,192,284297,1,0,0:0:0:0:
448,192,284327,1,0,0:0:0:0:
192,192,284388,1,0,0:0:0:0:
320,192,284449,1,0,0:0:0:0:
64,192,284480,1,0,0:0:0:0:
192,192,284571,1,0,0:0:0:0:
448,192,284571,1,0,0:0:0:0:
448,192,284663,1,0,0:0:0:0:
64,192,284693,1,0,0:0:0:0:
320,192,284754,1,0,0:0:0:0:
64,192,284815,1,0,0:0:0:0:
448,192,284845,1,0,0:0:0:0:
192,192,284937,1,0,0:0:0:0:
320,192,285028,1,0,0:0:0:0:
192,192,285059,1,0,0:0:0:0:
448,192,285120,1,0,0:0:0:0:
64,192,285181,1,0,0:0:0:0:
64,192,285303,5,0,0:0:0:0:
320,192,285303,128,0,285425:0:0:0:0:
192,192,285394,1,0,0:0:0:0:
448,192,285425,128,0,285547:0:0:0:0:
320,192,285486,1,0,0:0:0:0:
64,192,285547,128,0,285669:0:0:0:0:
192,192,285577,5,0,0:0:0:0:
320,192,285669,128,0,285791:0:0:0:0:
64,192,285760,1,0,0:0:0:0:
192,192,285791,128,0,285913:0:0:0:0:
448,192,285852,1,0,0:0:0:0:
64,192,285913,128,0,286705:0:0:0:0:
320,192,285943,1,0,0:0:0:0:
448,192,286034,1,0,0:0:0:0:
192,192,286034,1,0,0:0:0:0:
192,192,286126,1,0,0:0:0:0:
320,192,286156,1,0,0:0:0:0:
448,192,286217,1,0,0:0:0:0:
320,192,286278,1,0,0:0:0:0:
192,192,286309,1,0,0:0:0:0:
448,192,286400,1,0,0:0:0:0:
320,192,286492,1,0,0:0:0:0:
448,192,286522,1,0,0:0:0:0:
192,192,286583,1,0,0:0:0:0:
320,192,286644,1,0,0:0:0:0:
320,192,286766,5,0,0:0:0:0:
192,192,286766,128,0,286888:0:0:0:0:
448,192,286858,1,0,0:0:0:0:
64,192,286888,128,0,287010:0:0:0:0:
192,192,286949,1,0,0:0:0:0:
320,192,287010,128,0,287132:0:0:0:0:
448,192,287041,1,0,0:0:0:0:
192,192,287132,128,0,287254:0:0:0:0:
320,192,287224,1,0,0:0:0:0:
448,192,287254,128,0,287376:0:0:0:0:
64,192,287315,1,0,0:0:0:0:
320,192,287376,128,0,288169:0:0:0:0:
192,192,287406,1,0,0:0:0:0:
64,192,287498,1,0,0:0:0:0:
448,192,287498,1,0,0:0:0:0:
448,192,287589,1,0,0:0:0:0:
192,192,287620,1,0,0:0:0:0:
64,192,287681,1,0,0:0:0:0:
192,192,287742,1,0,0:0:0:0:
448,192,287772,1,0,0:0:0:0:
64,192,287864,1,0,0:0:0:0:
192,192,287955,1,0,0:0:0:0:
64,192,287986,1,0,0:0:0:0:
448,192,288047,1,0,0:0:0:0:
192,192,288108,1,0,0:0:0:0:
192,192,288230,5,0,0:0:0:0:
448,192,288230,128,0,288352:0:0:0:0:
64,192,288321,1,0,0:0:0:0:
320,192,288352,128,0,288474:0:0:0:0:
448,192,288413,1,0,0:0:0:0:
192,192,288474,128,0,288595:0:0:0:0:
64,192,288504,5,0,0:0:0:0:
448,192,288595,128,0,288717:0:0:0:0:
192,192,288687,1,0,0:0:0:0:
64,192,288717,128,0,288839:0:0:0:0:
320,192,288778,1,0,0:0:0:0:
192,192,288839,128,0,289632:0:0:0:0:
448,192,288870,1,0,0:0:0:0:
320,192,288961,1,0,0:0:0:0:
64,192,288961,1,0,0:0:0:0:
64,192,289053,1,0,0:0:0:0:
448,192,289083,1,0,0:0:0:0:
320,192,289144,1,0,0:0:0:0:
448,192,289205,1,0,0:0:0:0:
64,192,289236,1,0,0:0:0:0:
320,192,289327,1,0,0:0:0:0:
448,192,289419,1,0,0:0:0:0:
320,192,289449,1,0,0:0:0:0:
64,192,289510,1,0,0:0:0:0:
448,192,289571,1,0,0:0:0:0:
448,192,289693,5,0,0:0:0:0:
64,192,289693,128,0,289816:0:0:0:0:
320,192,289785,1,0,0:0:0:0:
192,192,289816,128,0,289940:0:0:0:0:
64,192,289877,1,0,0:0:0:0:
448,192,289940,128,0,290066:0:0:0:0:
320,192,289971,1,0,0:0:0:0:
64,192,290066,128,0,290193:0:0:0:0:
192,192,290066,1,0,0:0:0:0:
448,192,290160,1,0,0:0:0:0:
320,192,290193,128,0,290321:0:0:0:0:
192,192,290256,1,0,0:0:0:0:
448,192,290321,128,0,291201:0:0:0:0:
64,192,290353,1,0,0:0:0:0:
192,192,290452,1,0,0:0:0:0:
320,192,290452,1,0,0:0:0:0:
320,192,290551,1,0,0:0:0:0:
64,192,290584,1,0,0:0:0:0:
192,192,290651,1,0,0:0:0:0:
64,192,290718,1,0,0:0:0:0:
320,192,290751,1,0,0:0:0:0:
192,192,290854,1,0,0:0:0:0:
192,192,290956,1,0,0:0:0:0:
64,192,290991,1,0,0:0:0:0:
320,192,291061,1,0,0:0:0:0:
64,192,291131,1,0,0:0:0:0:
192,192,291166,1,0,0:0:0:0:
320,192,291272,1,0,0:0:0:0:
448,192,291272,1,0,0:0:0:0:
64,192,291368,1,0,0:0:0:0:
448,192,291416,1,0,0:0:0:0:
192,192,291464,1,0,0:0:0:0:
64,192,291488,1,0,0:0:0:0:
448,192,291562,1,0,0:0:0:0:
320,192,291598,1,0,0:0:0:0:
192,192,291660,1,0,0:0:0:0:
64,192,291709,1,0,0:0:0:0:
320,192,291759,1,0,0:0:0:0:
64,192,291821,1,0,0:0:0:0:
448,192,291859,1,0,0:0:0:0:
192,192,291935,1,0,0:0:0:0:
320,192,291961,1,0,0:0:0:0:
448,192,292012,1,0,0:0:0:0:
64,192,292063,1,0,0:0:0:0:
320,192,292166,1,0,0:0:0:0:
192,192,292166,1,0,0:0:0:0:
64,192,292271,1,0,0:0:0:0:
448,192,292323,1,0,0:0:0:0:
192,192,292376,1,0,0:0:0:0:
64,192,292402,1,0,0:0:0:0:
448,192,292483,1,0,0:0:0:0:
192,192,292523,1,0,0:0:0:0:
320,192,292591,1,0,0:0:0:0:
64,192,292645,1,0,0:0:0:0:
320,192,292700,1,0,0:0:0:0:
192,192,292768,1,0,0:0:0:0:
448,192,292810,1,0,0:0:0:0:
320,192,292893,1,0,0:0:0:0:
64,192,292921,1,0,0:0:0:0:
448,192,292977,1,0,0:0:0:0:
320,192,293034,1,0,0:0:0:0:
192,192,293148,1,0,0:0:0:0:
64,192,293148,1,0,0:0:0:0:
448,192,293262,1,0,0:0:0:0:
192,192,293277,1,0,0:0:0:0:
64,192,293321,1,0,0:0:0:0:
320,192,293380,1,0,0:0:0:0:
448,192,293409,1,0,0:0:0:0:
64,192,293498,1,0,0:0:0:0:
320,192,293542,1,0,0:0:0:0:
192,192,293617,1,0,0:0:0:0:
320,192,293678,1,0,0:0:0:0:
448,192,293678,1,0,0:0:0:0:
192,192,293738,1,0,0:0:0:0:
448,192,293814,1,0,0:0:0:0:
64,192,293860,1,0,0:0:0:0:
320,192,293953,1,0,0:0:0:0:
192,192,293984,1,0,0:0:0:0:
64,192,294046,1,0,0:0:0:0:
320,192,294094,1,0,0:0:0:0:
448,192,294110,1,0,0:0:0:0:
192,192,294237,1,0,0:0:0:0:
320,192,294237,1,0,0:0:0:0:
448,192,294365,1,0,0:0:0:0:
192,192,294381,1,0,0:0:0:0:
64,192,294430,1,0,0:0:0:0:
320,192,294496,1,0,0:0:0:0:
448,192,294528,1,0,0:0:0:0:
64,192,294627,1,0,0:0:0:0:
320,192,294678,1,0,0:0:0:0:
192,192,294761,1,0,0:0:0:0:
448,192,294829,1,0,0:0:0:0:
192,192,294897,1,0,0:0:0:0:
320,192,294982,1,0,0:0:0:0:
64,192,295033,1,0,0:0:0:0:
192,192,295138,1,0,0:0:0:0:
448,192,295174,1,0,0:0:0:0:
64,192,295244,1,0,0:0:0:0:
320,192,295297,1,0,0:0:0:0:
192,192,295315,1,0,0:0:0:0:
320,192,295459,1,0,0:0:0:0:
448,192,295459,1,0,0:0:0:0:
64,192,295604,1,0,0:0:0:0:
320,192,295622,1,0,0:0:0:0:
448,192,295678,1,0,0:0:0:0:
192,192,295752,1,0,0:0:0:0:
64,192,295789,1,0,0:0:0:0:
448,192,295901,1,0,0:0:0:0:
192,192,295957,1,0,0:0:0:0:
320,192,296054,1,0,0:0:0:0:
192,192,296130,1,0,0:0:0:0:
320,192,296208,1,0,0:0:0:0:
64,192,296305,1,0,0:0:0:0:
448,192,296365,1,0,0:0:0:0:
192,192,296484,1,0,0:0:0:0:
320,192,296524,1,0,0:0:0:0:
448,192,296605,1,0,0:0:0:0:
192,192,296665,1,0,0:0:0:0:
64,192,296686,1,0,0:0:0:0:
448,192,296768,1,0,0:0:0:0:
320,192,296851,1,0,0:0:0:0:
192,192,296851,1,0,0:0:0:0:
448,192,296976,1,0,0:0:0:0:
64,192,297018,1,0,0:0:0:0:
448,192,297103,1,0,0:0:0:0:
192,192,297188,1,0,0:0:0:0:
64,192,297231,1,0,0:0:0:0:
320,192,297296,1,0,0:0:0:0:
448,192,297361,1,0,0:0:0:0:
192,192,297426,1,0,0:0:0:0:
320,192,297538,1,0,0:0:0:0:
64,192,297627,1,0,0:0:0:0:
320,192,297717,1,0,0:0:0:0:
192,192,297830,1,0,0:0:0:0:
448,192,297900,1,0,0:0:0:0:
192,192,297969,1,0,0:0:0:0:
320,192,298038,1,0,0:0:0:0:
64,192,298086,1,0,0:0:0:0:
448,192,298180,1,0,0:0:0:0:
192,192,298251,1,0,0:0:0:0:
320,192,298275,1,0,0:0:0:0:
448,192,298323,1,0,0:0:0:0:
192,192,298469,1,0,0:0:0:0:
64,192,298469,1,0,0:0:0:0:
320,192,298567,1,0,0:0:0:0:
448,192,298666,1,0,0:0:0:0:
192,192,298691,1,0,0:0:0:0:
64,192,298766,1,0,0:0:0:0:
192,192,298816,1,0,0:0:0:0:
320,192,298867,1,0,0:0:0:0:
448,192,298918,1,0,0:0:0:0:
64,192,299072,1,0,0:0:0:0:
320,192,299150,1,0,0:0:0:0:
448,192,299202,1,0,0:0:0:0:
192,192,299281,1,0,0:0:0:0:
64,192,299334,1,0,0:0:0:0:
448,192,299388,1,0,0:0:0:0:
320,192,299388,1,0,0:0:0:0:
192,192,299495,1,0,0:0:0:0:
448,192,299631,1,0,0:0:0:0:
64,192,299714,1,0,0:0:0:0:
320,192,299881,1,0,0:0:0:0:
192,192,299937,1,0,0:0:0:0:
448,192,300022,1,0,0:0:0:0:
64,192,300051,1,0,0:0:0:0:
320,192,300137,1,0,0:0:0:0:
448,192,300166,1,0,0:0:0:0:
64,192,300311,1,0,0:0:0:0:
192,192,300400,1,0,0:0:0:0:
320,192,300400,1,0,0:0:0:0:
448,192,300459,1,0,0:0:0:0:
448,192,300639,1,0,0:0:0:0:
192,192,300669,1,0,0:0:0:0:
64,192,300761,1,0,0:0:0:0:
320,192,300885,1,0,0:0:0:0:
192,192,300916,1,0,0:0:0:0:
448,192,300947,1,0,0:0:0:0:
320,192,301073,1,0,0:0:0:0:
64,192,301136,1,0,0:0:0:0:
320,192,301232,1,0,0:0:0:0:
192,192,301394,1,0,0:0:0:0:
448,192,301526,1,0,0:0:0:0:
64,192,301559,1,0,0:0:0:0:
192,192,301659,5,0,0:0:0:0:
448,192,301726,1,0,0:0:0:0:
320,192,301828,1,0,0:0:0:0:
192,192,301896,1,0,0:0:0:0:
64,192,301931,1,0,0:0:0:0:
320,192,302070,1,0,0:0:0:0:
192,192,302140,1,0,0:0:0:0:
448,192,302211,1,0,0:0:0:0:
320,192,302246,1,0,0:0:0:0:
64,192,302354,1,0,0:0:0:0:
448,192,302426,1,0,0:0:0:0:
192,192,302462,1,0,0:0:0:0:
320,192,302499,1,0,0:0:0:0:
448,192,302609,1,0,0:0:0:0:
64,192,302795,5,0,0:0:0:0:
320,192,302795,1,0,0:0:0:0:
448,192,302855,1,0,0:0:0:0:
64,192,302916,1,0,0:0:0:0:
320,192,302976,1,0,0:0:0:0:
192,192,303037,1,0,0:0:0:0:
320,192,303098,1,0,0:0:0:0:
64,192,303158,1,0,0:0:0:0:
448,192,303219,1,0,0:0:0:0:
192,192,303279,1,0,0:0:0:0:
320,192,303340,128,0,308250:0:0:0:0:
192,192,305522,128,0,308250:0:0:0:0:
448,192,308250,1,0,0:0:0:0:
64,192,308250,1,0,0:0:0:0:
448,192,308343,1,0,0:0:0:0:
320,192,308437,1,0,0:0:0:0:
320,192,308531,1,0,0:0:0:0:
192,192,308625,1,0,0:0:0:0:
192,192,308718,1,0,0:0:0:0:
64,192,308812,1,0,0:0:0:0:
64,192,308906,1,0,0:0:0:0:
448,192,309000,1,0,0:0:0:0:
320,192,309093,1,0,0:0:0:0:
448,192,309187,1,0,0:0:0:0:
192,192,309281,1,0,0:0:0:0:
320,192,309375,1,0,0:0:0:0:
64,192,309468,1,0,0:0:0:0:
192,192,309562,1,0,0:0:0:0:
64,192,309656,1,0,0:0:0:0:
192,192,309750,1,0,0:0:0:0:
192,192,309843,1,0,0:0:0:0:
64,192,309937,1,0,0:0:0:0:
64,192,310031,1,0,0:0:0:0:
192,192,310125,1,0,0:0:0:0:
192,192,310218,1,0,0:0:0:0:
64,192,310312,1,0,0:0:0:0:
64,192,310406,1,0,0:0:0:0:
192,192,310500,1,0,0:0:0:0:
192,192,310593,1,0,0:0:0:0:
64,192,310687,1,0,0:0:0:0:
64,192,310781,1,0,0:0:0:0:
192,192,310875,1,0,0:0:0:0:
192,192,310968,1,0,0:0:0:0:
64,192,311062,1,0,0:0:0:0:
64,192,311156,1,0,0:0:0:0:
192,192,311250,1,0,0:0:0:0:
192,192,311343,1,0,0:0:0:0:
64,192,311437,1,0,0:0:0:0:
64,192,311531,1,0,0:0:0:0:
448,192,311578,1,0,0:0:0:0:
192,192,311625,1,0,0:0:0:0:
320,192,311671,1,0,0:0:0:0:
192,192,311718,1,0,0:0:0:0:
64,192,311812,1,0,0:0:0:0:
64,192,311906,1,0,0:0:0:0:
192,192,312000,1,0,0:0:0:0:
192,192,312093,1,0,0:0:0:0:
64,192,312187,1,0,0:0:0:0:
64,192,312281,1,0,0:0:0:0:
192,192,312375,1,0,0:0:0:0:
192,192,312468,1,0,0:0:0:0:
64,192,312562,1,0,0:0:0:0:
64,192,312656,1,0,0:0:0:0:
192,192,312750,1,0,0:0:0:0:
192,192,312843,1,0,0:0:0:0:
320,192,312890,1,0,0:0:0:0:
64,192,312937,1,0,0:0:0:0:
64,192,313031,1,0,0:0:0:0:
192,192,313125,1,0,0:0:0:0:
192,192,313218,1,0,0:0:0:0:
64,192,313312,1,0,0:0:0:0:
64,192,313406,1,0,0:0:0:0:
192,192,313500,1,0,0:0:0:0:
192,192,313593,1,0,0:0:0:0:
64,192,313687,1,0,0:0:0:0:
64,192,313781,1,0,0:0:0:0:
192,192,313875,1,0,0:0:0:0:
192,192,313968,1,0,0:0:0:0:
64,192,314062,1,0,0:0:0:0:
64,192,314156,1,0,0:0:0:0:
192,192,314250,1,0,0:0:0:0:
192,192,314343,1,0,0:0:0:0:
320,192,314343,1,0,0:0:0:0:
448,192,314437,1,0,0:0:0:0:
448,192,314531,1,0,0:0:0:0:
64,192,314625,1,0,0:0:0:0:
320,192,314625,1,0,0:0:0:0:
192,192,314718,1,0,0:0:0:0:
192,192,314812,1,0,0:0:0:0:
64,192,314906,1,0,0:0:0:0:
448,192,314906,1,0,0:0:0:0:
320,192,315000,1,0,0:0:0:0:
320,192,315093,1,0,0:0:0:0:
448,192,315187,1,0,0:0:0:0:
192,192,315187,1,0,0:0:0:0:
64,192,315281,1,0,0:0:0:0:
64,192,315375,1,0,0:0:0:0:
192,192,315468,1,0,0:0:0:0:
320,192,315468,1,0,0:0:0:0:
448,192,315562,1,0,0:0:0:0:
448,192,315656,1,0,0:0:0:0:
192,192,315750,1,0,0:0:0:0:
192,192,315843,1,0,0:0:0:0:
64,192,315937,1,0,0:0:0:0:
64,192,316031,1,0,0:0:0:0:
192,192,316125,1,0,0:0:0:0:
192,192,316218,1,0,0:0:0:0:
64,192,316312,1,0,0:0:0:0:
64,192,316406,1,0,0:0:0:0:
192,192,316500,1,0,0:0:0:0:
192,192,316593,1,0,0:0:0:0:
64,192,316687,1,0,0:0:0:0:
64,192,316781,1,0,0:0:0:0:
192,192,316875,1,0,0:0:0:0:
192,192,316968,1,0,0:0:0:0:
64,192,317062,1,0,0:0:0:0:
64,192,317156,1,0,0:0:0:0:
192,192,317250,1,0,0:0:0:0:
192,192,317343,1,0,0:0:0:0:
320,192,317343,1,0,0:0:0:0:
64,192,317437,1,0,0:0:0:0:
64,192,317531,1,0,0:0:0:0:
320,192,317531,1,0,0:0:0:0:
192,192,317625,1,0,0:0:0:0:
192,192,317718,1,0,0:0:0:0:
320,192,317718,1,0,0:0:0:0:
64,192,317812,1,0,0:0:0:0:
320,192,317812,1,0,0:0:0:0:
64,192,317906,1,0,0:0:0:0:
192,192,318000,1,0,0:0:0:0:
448,192,318000,1,0,0:0:0:0:
192,192,318093,1,0,0:0:0:0:
320,192,318093,1,0,0:0:0:0:
64,192,318187,1,0,0:0:0:0:
448,192,318187,1,0,0:0:0:0:
64,192,318281,1,0,0:0:0:0:
320,192,318281,1,0,0:0:0:0:
192,192,318375,1,0,0:0:0:0:
320,192,318375,1,0,0:0:0:0:
448,192,318421,1,0,0:0:0:0:
192,192,318468,1,0,0:0:0:0:
320,192,318515,1,0,0:0:0:0:
64,192,318562,1,0,0:0:0:0:
448,192,318562,1,0,0:0:0:0:
192,192,318609,1,0,0:0:0:0:
448,192,318656,1,0,0:0:0:0:
320,192,318703,1,0,0:0:0:0:
192,192,318750,1,0,0:0:0:0:
64,192,318750,1,0,0:0:0:0:
448,192,318796,1,0,0:0:0:0:
64,192,318843,1,0,0:0:0:0:
320,192,318890,1,0,0:0:0:0:
448,192,318937,1,0,0:0:0:0:
192,192,318937,1,0,0:0:0:0:
64,192,318984,1,0,0:0:0:0:
448,192,319031,1,0,0:0:0:0:
192,192,319078,1,0,0:0:0:0:
320,192,319125,1,0,0:0:0:0:
64,192,319125,1,0,0:0:0:0:
448,192,319171,1,0,0:0:0:0:
64,192,319218,1,0,0:0:0:0:
320,192,319265,1,0,0:0:0:0:
192,192,319312,1,0,0:0:0:0:
448,192,319312,1,0,0:0:0:0:
64,192,319359,1,0,0:0:0:0:
448,192,319406,1,0,0:0:0:0:
64,192,319453,1,0,0:0:0:0:
320,192,319500,1,0,0:0:0:0:
192,192,319500,1,0,0:0:0:0:
448,192,319546,1,0,0:0:0:0:
192,192,319593,1,0,0:0:0:0:
448,192,319640,1,0,0:0:0:0:
64,192,319687,1,0,0:0:0:0:
320,192,319687,1,0,0:0:0:0:
192,192,319734,1,0,0:0:0:0:
320,192,319781,1,0,0:0:0:0:
192,192,319828,1,0,0:0:0:0:
448,192,319875,1,0,0:0:0:0:
64,192,319921,1,0,0:0:0:0:
192,192,319968,1,0,0:0:0:0:
320,192,320015,1,0,0:0:0:0:
64,192,320062,128,0,320250:0:0:0:0:
448,192,320062,128,0,320250:0:0:0:0:
64,192,320296,128,0,320367:0:0:0:0:
448,192,320296,128,0,320367:0:0:0:0:
320,192,320437,128,0,320577:0:0:0:0:
192,192,320437,128,0,320554:0:0:0:0:
448,192,320437,128,0,320530:0:0:0:0:
64,192,320437,128,0,320530:0:0:0:0:
64,192,320624,128,0,320718:0:0:0:0:
320,192,320624,128,0,320765:0:0:0:0:
192,192,320624,128,0,320741:0:0:0:0:
448,192,320624,128,0,320718:0:0:0:0:
320,192,320812,128,0,320952:0:0:0:0:
64,192,320812,128,0,320905:0:0:0:0:
448,192,320812,128,0,320905:0:0:0:0:
192,192,320812,128,0,320929:0:0:0:0:
64,192,320999,128,0,321093:0:0:0:0:
320,192,320999,128,0,321140:0:0:0:0:
192,192,320999,128,0,321116:0:0:0:0:
448,192,320999,128,0,321093:0:0:0:0:
320,192,321187,128,0,321327:0:0:0:0:
64,192,321187,128,0,321280:0:0:0:0:
448,192,321187,128,0,321280:0:0:0:0:
192,192,321187,128,0,321304:0:0:0:0:
64,192,321374,128,0,321468:0:0:0:0:
320,192,321374,128,0,321515:0:0:0:0:
192,192,321374,128,0,321491:0:0:0:0:
448,192,321374,128,0,321468:0:0:0:0:
320,192,321562,128,0,321702:0:0:0:0:
64,192,321562,128,0,321655:0:0:0:0:
448,192,321562,128,0,321655:0:0:0:0:
192,192,321562,128,0,321679:0:0:0:0:
64,192,321749,128,0,321843:0:0:0:0:
320,192,321749,128,0,321890:0:0:0:0:
192,192,321749,128,0,321866:0:0:0:0:
448,192,321749,128,0,321843:0:0:0:0:
320,192,321937,128,0,322077:0:0:0:0:
64,192,321937,128,0,322030:0:0:0:0:
448,192,321937,128,0,322030:0:0:0:0:
192,192,321937,128,0,322054:0:0:0:0:
64,192,322124,128,0,322218:0:0:0:0:
320,192,322124,128,0,322265:0:0:0:0:
192,192,322124,128,0,322241:0:0:0:0:
448,192,322124,128,0,322218:0:0:0:0:
320,192,322312,128,0,322452:0:0:0:0:
64,192,322312,128,0,322405:0:0:0:0:
448,192,322312,128,0,322405:0:0:0:0:
192,192,322312,128,0,322429:0:0:0:0:
64,192,322499,128,0,322593:0:0:0:0:
320,192,322499,128,0,322640:0:0:0:0:
192,192,322499,128,0,322616:0:0:0:0:
448,192,322499,128,0,322593:0:0:0:0:
320,192,322687,128,0,322827:0:0:0:0:
64,192,322687,128,0,322780:0:0:0:0:
448,192,322687,128,0,322780:0:0:0:0:
192,192,322687,128,0,322804:0:0:0:0:
64,192,322874,128,0,322968:0:0:0:0:
320,192,322874,128,0,323015:0:0:0:0:
192,192,322874,128,0,322991:0:0:0:0:
448,192,322874,128,0,322968:0:0:0:0:
320,192,323062,128,0,323202:0:0:0:0:
64,192,323062,128,0,323155:0:0:0:0:
448,192,323062,128,0,323155:0:0:0:0:
192,192,323062,128,0,323179:0:0:0:0:
192,192,323249,1,0,0:0:0:0:
320,192,323296,1,0,0:0:0:0:
192,192,323343,1,0,0:0:0:0:
320,192,323390,1,0,0:0:0:0:
448,192,323437,128,0,323530:0:0:0:0:
64,192,323437,128,0,323530:0:0:0:0:
192,192,323437,128,0,323577:0:0:0:0:
320,192,323624,128,0,323741:0:0:0:0:
192,192,323624,128,0,323765:0:0:0:0:
64,192,323624,128,0,323718:0:0:0:0:
448,192,323624,128,0,323718:0:0:0:0:
64,192,323812,128,0,323905:0:0:0:0:
448,192,323812,128,0,323905:0:0:0:0:
320,192,323812,128,0,323929:0:0:0:0:
192,192,323812,128,0,323952:0:0:0:0:
320,192,323999,1,0,0:0:0:0:
448,192,323999,1,0,0:0:0:0:
64,192,324093,1,0,0:0:0:0:
448,192,324093,1,0,0:0:0:0:
64,192,324187,128,0,324280:0:0:0:0:
448,192,324187,128,0,324280:0:0:0:0:
320,192,324187,128,0,324304:0:0:0:0:
192,192,324187,128,0,324327:0:0:0:0:
320,192,324374,128,0,324491:0:0:0:0:
192,192,324374,128,0,324515:0:0:0:0:
64,192,324374,128,0,324468:0:0:0:0:
448,192,324374,128,0,324468:0:0:0:0:
64,192,324562,128,0,324655:0:0:0:0:
448,192,324562,128,0,324655:0:0:0:0:
320,192,324562,128,0,324679:0:0:0:0:
192,192,324562,128,0,324702:0:0:0:0:
320,192,324749,128,0,324866:0:0:0:0:
192,192,324749,128,0,324890:0:0:0:0:
64,192,324749,128,0,324843:0:0:0:0:
448,192,324749,128,0,324843:0:0:0:0:
192,192,324937,128,0,325077:0:0:0:0:
320,192,324937,128,0,325054:0:0:0:0:
448,192,324937,128,0,325030:0:0:0:0:
64,192,324937,128,0,325030:0:0:0:0:
64,192,325124,128,0,325218:0:0:0:0:
448,192,325124,128,0,325218:0:0:0:0:
320,192,325124,128,0,325241:0:0:0:0:
192,192,325124,128,0,325265:0:0:0:0:
448,192,325312,1,0,0:0:0:0:
320,192,325312,1,0,0:0:0:0:
64,192,325405,1,0,0:0:0:0:
320,192,325452,1,0,0:0:0:0:
448,192,325499,128,0,325593:0:0:0:0:
64,192,325499,128,0,325593:0:0:0:0:
192,192,325499,128,0,325640:0:0:0:0:
192,192,325687,128,0,325827:0:0:0:0:
320,192,325687,128,0,325804:0:0:0:0:
448,192,325687,128,0,325780:0:0:0:0:
64,192,325687,128,0,325780:0:0:0:0:
320,192,325874,1,0,0:0:0:0:
448,192,325874,1,0,0:0:0:0:
192,192,325968,1,0,0:0:0:0:
320,192,325968,1,0,0:0:0:0:
192,192,326062,1,0,0:0:0:0:
448,192,326085,1,0,0:0:0:0:
320,192,326155,1,0,0:0:0:0:
192,192,326202,1,0,0:0:0:0:
448,192,326249,1,0,0:0:0:0:
64,192,326296,1,0,0:0:0:0:
192,192,326343,1,0,0:0:0:0:
64,192,326437,1,0,0:0:0:0:
320,192,326437,1,0,0:0:0:0:
448,192,326437,1,0,0:0:0:0:
448,192,326530,1,0,0:0:0:0:
320,192,326530,1,0,0:0:0:0:
64,192,326624,1,0,0:0:0:0:
448,192,326624,1,0,0:0:0:0:
192,192,326624,1,0,0:0:0:0:
64,192,326718,1,0,0:0:0:0:
320,192,326718,1,0,0:0:0:0:
192,192,326812,1,0,0:0:0:0:
448,192,326812,1,0,0:0:0:0:
320,192,326812,1,0,0:0:0:0:
64,192,326905,1,0,0:0:0:0:
192,192,326905,1,0,0:0:0:0:
320,192,326999,1,0,0:0:0:0:
448,192,326999,1,0,0:0:0:0:
64,192,326999,1,0,0:0:0:0:
320,192,327093,1,0,0:0:0:0:
448,192,327093,1,0,0:0:0:0:
448,192,327187,1,0,0:0:0:0:
192,192,327187,1,0,0:0:0:0:
64,192,327187,1,0,0:0:0:0:
64,192,327280,1,0,0:0:0:0:
192,192,327280,1,0,0:0:0:0:
448,192,327374,1,0,0:0:0:0:
64,192,327374,1,0,0:0:0:0:
320,192,327374,1,0,0:0:0:0:
192,192,327468,1,0,0:0:0:0:
448,192,327468,1,0,0:0:0:0:
320,192,327562,1,0,0:0:0:0:
64,192,327562,1,0,0:0:0:0:
192,192,327562,1,0,0:0:0:0:
448,192,327655,1,0,0:0:0:0:
320,192,327655,1,0,0:0:0:0:
192,192,327749,1,0,0:0:0:0:
64,192,327749,1,0,0:0:0:0:
448,192,327749,1,0,0:0:0:0:
192,192,327843,1,0,0:0:0:0:
64,192,327843,1,0,0:0:0:0:
320,192,327937,1,0,0:0:0:0:
448,192,327937,1,0,0:0:0:0:
64,192,327999,1,0,0:0:0:0:
192,192,327999,1,0,0:0:0:0:
320,192,328062,1,0,0:0:0:0:
64,192,328124,1,0,0:0:0:0:
448,192,328124,1,0,0:0:0:0:
192,192,328124,1,0,0:0:0:0:
320,192,328218,1,0,0:0:0:0:
64,192,328218,1,0,0:0:0:0:
192,192,328312,1,0,0:0:0:0:
448,192,328312,1,0,0:0:0:0:
320,192,328312,1,0,0:0:0:0:
64,192,328405,1,0,0:0:0:0:
192,192,328405,1,0,0:0:0:0:
320,192,328499,1,0,0:0:0:0:
448,192,328499,1,0,0:0:0:0:
64,192,328499,1,0,0:0:0:0:
320,192,328593,1,0,0:0:0:0:
448,192,328593,1,0,0:0:0:0:
448,192,328687,1,0,0:0:0:0:
192,192,328687,1,0,0:0:0:0:
64,192,328687,1,0,0:0:0:0:
64,192,328780,1,0,0:0:0:0:
192,192,328780,1,0,0:0:0:0:
448,192,328874,1,0,0:0:0:0:
64,192,328874,1,0,0:0:0:0:
320,192,328874,1,0,0:0:0:0:
192,192,328968,1,0,0:0:0:0:
448,192,328968,1,0,0:0:0:0:
320,192,329062,1,0,0:0:0:0:
64,192,329062,1,0,0:0:0:0:
192,192,329062,1,0,0:0:0:0:
448,192,329155,1,0,0:0:0:0:
320,192,329155,1,0,0:0:0:0:
64,192,329249,1,0,0:0:0:0:
448,192,329249,1,0,0:0:0:0:
320,192,329296,1,0,0:0:0:0:
64,192,329343,1,0,0:0:0:0:
320,192,329390,1,0,0:0:0:0:
192,192,329437,1,0,0:0:0:0:
448,192,329437,1,0,0:0:0:0:
64,192,329437,1,0,0:0:0:0:
192,192,329530,1,0,0:0:0:0:
448,192,329624,1,0,0:0:0:0:
320,192,329624,1,0,0:0:0:0:
64,192,329624,1,0,0:0:0:0:
448,192,329718,1,0,0:0:0:0:
320,192,329718,1,0,0:0:0:0:
192,192,329718,1,0,0:0:0:0:
192,192,329812,1,0,0:0:0:0:
320,192,329812,1,0,0:0:0:0:
64,192,329812,1,0,0:0:0:0:
448,192,329905,1,0,0:0:0:0:
64,192,329905,1,0,0:0:0:0:
448,192,329999,1,0,0:0:0:0:
192,192,329999,1,0,0:0:0:0:
320,192,329999,1,0,0:0:0:0:
192,192,330093,1,0,0:0:0:0:
320,192,330093,1,0,0:0:0:0:
448,192,330187,1,0,0:0:0:0:
192,192,330187,1,0,0:0:0:0:
64,192,330187,1,0,0:0:0:0:
448,192,330280,1,0,0:0:0:0:
64,192,330280,1,0,0:0:0:0:
448,192,330374,1,0,0:0:0:0:
192,192,330374,1,0,0:0:0:0:
320,192,330374,1,0,0:0:0:0:
64,192,330468,1,0,0:0:0:0:
192,192,330468,1,0,0:0:0:0:
448,192,330562,1,0,0:0:0:0:
64,192,330562,1,0,0:0:0:0:
192,192,330608,1,0,0:0:0:0:
448,192,330655,1,0,0:0:0:0:
192,192,330702,1,0,0:0:0:0:
448,192,330749,1,0,0:0:0:0:
64,192,330749,1,0,0:0:0:0:
320,192,330749,1,0,0:0:0:0:
320,192,330843,1,0,0:0:0:0:
448,192,330937,1,0,0:0:0:0:
192,192,330937,1,0,0:0:0:0:
64,192,330937,1,0,0:0:0:0:
64,192,331030,1,0,0:0:0:0:
192,192,331030,1,0,0:0:0:0:
448,192,331124,1,0,0:0:0:0:
320,192,331124,1,0,0:0:0:0:
192,192,331124,1,0,0:0:0:0:
448,192,331218,1,0,0:0:0:0:
64,192,331218,1,0,0:0:0:0:
320,192,331218,1,0,0:0:0:0:
448,192,331312,1,0,0:0:0:0:
320,192,331405,1,0,0:0:0:0:
192,192,331405,1,0,0:0:0:0:
64,192,331405,1,0,0:0:0:0:
64,192,331499,1,0,0:0:0:0:
448,192,331499,1,0,0:0:0:0:
320,192,331499,1,0,0:0:0:0:
192,192,331593,1,0,0:0:0:0:
448,192,331593,1,0,0:0:0:0:
192,192,331687,1,0,0:0:0:0:
320,192,331687,1,0,0:0:0:0:
64,192,331687,1,0,0:0:0:0:
448,192,331780,1,0,0:0:0:0:
192,192,331796,1,0,0:0:0:0:
64,192,331796,1,0,0:0:0:0:
320,192,331874,1,0,0:0:0:0:
192,192,331952,1,0,0:0:0:0:
64,192,331952,1,0,0:0:0:0:
448,192,331968,1,0,0:0:0:0:
448,192,332062,128,0,332187:0:0:0:0:
64,192,332062,128,0,332249:0:0:0:0:
320,192,332124,128,0,332374:0:0:0:0:
192,192,332187,128,0,332312:0:0:0:0:
448,192,332249,128,0,332374:0:0:0:0:
64,192,332312,128,0,332437:0:0:0:0:
192,192,332374,128,0,332437:0:0:0:0:
320,192,332437,1,0,0:0:0:0:
448,192,332437,1,0,0:0:0:0:
64,192,332530,1,0,0:0:0:0:
448,192,332530,1,0,0:0:0:0:
192,192,332624,1,0,0:0:0:0:
192,192,332718,1,0,0:0:0:0:
64,192,332812,1,0,0:0:0:0:
320,192,332812,1,0,0:0:0:0:
448,192,332905,1,0,0:0:0:0:
64,192,332999,1,0,0:0:0:0:
448,192,332999,1,0,0:0:0:0:
320,192,333046,1,0,0:0:0:0:
64,192,333093,1,0,0:0:0:0:
448,192,333140,1,0,0:0:0:0:
192,192,333187,1,0,0:0:0:0:
448,192,333233,1,0,0:0:0:0:
64,192,333280,1,0,0:0:0:0:
320,192,333280,1,0,0:0:0:0:
192,192,333327,1,0,0:0:0:0:
448,192,333374,1,0,0:0:0:0:
64,192,333468,1,0,0:0:0:0:
64,192,333562,1,0,0:0:0:0:
320,192,333562,1,0,0:0:0:0:
448,192,333593,1,0,0:0:0:0:
192,192,333624,1,0,0:0:0:0:
320,192,333655,1,0,0:0:0:0:
64,192,333702,1,0,0:0:0:0:
448,192,333749,1,0,0:0:0:0:
192,192,333796,1,0,0:0:0:0:
64,192,333843,1,0,0:0:0:0:
448,192,333843,1,0,0:0:0:0:
320,192,333890,1,0,0:0:0:0:
192,192,333937,1,0,0:0:0:0:
192,192,334030,1,0,0:0:0:0:
448,192,334030,1,0,0:0:0:0:
320,192,334124,1,0,0:0:0:0:
320,192,334218,1,0,0:0:0:0:
64,192,334312,1,0,0:0:0:0:
448,192,334312,1,0,0:0:0:0:
64,192,334405,1,0,0:0:0:0:
64,192,334499,1,0,0:0:0:0:
320,192,334499,1,0,0:0:0:0:
448,192,334593,1,0,0:0:0:0:
192,192,334640,1,0,0:0:0:0:
448,192,334687,1,0,0:0:0:0:
64,192,334733,1,0,0:0:0:0:
192,192,334780,1,0,0:0:0:0:
320,192,334780,1,0,0:0:0:0:
448,192,334818,1,0,0:0:0:0:
64,192,334855,1,0,0:0:0:0:
320,192,334893,1,0,0:0:0:0:
192,192,334930,1,0,0:0:0:0:
448,192,334968,1,0,0:0:0:0:
448,192,335062,1,0,0:0:0:0:
64,192,335062,1,0,0:0:0:0:
192,192,335108,1,0,0:0:0:0:
64,192,335155,1,0,0:0:0:0:
320,192,335202,1,0,0:0:0:0:
448,192,335249,1,0,0:0:0:0:
192,192,335249,1,0,0:0:0:0:
64,192,335343,1,0,0:0:0:0:
448,192,335343,1,0,0:0:0:0:
320,192,335437,1,0,0:0:0:0:
448,192,335483,1,0,0:0:0:0:
192,192,335530,1,0,0:0:0:0:
64,192,335530,1,0,0:0:0:0:
320,192,335624,1,0,0:0:0:0:
320,192,335718,1,0,0:0:0:0:
448,192,335788,1,0,0:0:0:0:
64,192,335812,1,0,0:0:0:0:
320,192,335835,1,0,0:0:0:0:
192,192,335905,1,0,0:0:0:0:
448,192,335952,1,0,0:0:0:0:
320,192,335999,1,0,0:0:0:0:
192,192,335999,1,0,0:0:0:0:
64,192,336046,1,0,0:0:0:0:
320,192,336093,1,0,0:0:0:0:
64,192,336187,1,0,0:0:0:0:
64,192,336280,1,0,0:0:0:0:
448,192,336280,1,0,0:0:0:0:
192,192,336374,1,0,0:0:0:0:
320,192,336405,1,0,0:0:0:0:
192,192,336468,1,0,0:0:0:0:
320,192,336499,1,0,0:0:0:0:
64,192,336562,1,0,0:0:0:0:
448,192,336562,1,0,0:0:0:0:
448,192,336655,1,0,0:0:0:0:
192,192,336702,1,0,0:0:0:0:
64,192,336749,1,0,0:0:0:0:
320,192,336843,1,0,0:0:0:0:
448,192,336843,1,0,0:0:0:0:
192,192,336890,1,0,0:0:0:0:
64,192,336937,1,0,0:0:0:0:
320,192,336999,1,0,0:0:0:0:
448,192,337030,1,0,0:0:0:0:
192,192,337062,1,0,0:0:0:0:
448,192,337124,1,0,0:0:0:0:
64,192,337155,1,0,0:0:0:0:
192,192,337187,1,0,0:0:0:0:
448,192,337218,1,0,0:0:0:0:
64,192,337312,1,0,0:0:0:0:
320,192,337312,1,0,0:0:0:0:
448,192,337374,1,0,0:0:0:0:
192,192,337405,1,0,0:0:0:0:
64,192,337468,1,0,0:0:0:0:
448,192,337499,1,0,0:0:0:0:
192,192,337530,1,0,0:0:0:0:
64,192,337593,1,0,0:0:0:0:
192,192,337655,1,0,0:0:0:0:
448,192,337687,1,0,0:0:0:0:
320,192,337780,1,0,0:0:0:0:
64,192,337780,1,0,0:0:0:0:
64,192,337874,1,0,0:0:0:0:
448,192,337968,1,0,0:0:0:0:
192,192,337999,1,0,0:0:0:0:
320,192,338030,1,0,0:0:0:0:
64,192,338062,1,0,0:0:0:0:
192,192,338093,1,0,0:0:0:0:
448,192,338124,1,0,0:0:0:0:
320,192,338155,1,0,0:0:0:0:
64,192,338187,1,0,0:0:0:0:
448,192,338218,1,0,0:0:0:0:
192,192,338249,1,0,0:0:0:0:
64,192,338280,1,0,0:0:0:0:
320,192,338312,1,0,0:0:0:0:
448,192,338343,1,0,0:0:0:0:
192,192,338390,1,0,0:0:0:0:
64,192,338390,1,0,0:0:0:0:
320,192,338437,1,0,0:0:0:0:
448,192,338437,1,0,0:0:0:0:
64,192,338530,1,0,0:0:0:0:
448,192,338530,1,0,0:0:0:0:
192,192,338577,1,0,0:0:0:0:
320,192,338624,1,0,0:0:0:0:
192,192,338718,1,0,0:0:0:0:
64,192,338718,1,0,0:0:0:0:
64,192,338812,1,0,0:0:0:0:
320,192,338812,1,0,0:0:0:0:
448,192,338905,1,0,0:0:0:0:
64,192,338999,1,0,0:0:0:0:
448,192,338999,1,0,0:0:0:0:
320,192,339046,1,0,0:0:0:0:
192,192,339093,1,0,0:0:0:0:
64,192,339140,1,0,0:0:0:0:
320,192,339187,1,0,0:0:0:0:
448,192,339187,1,0,0:0:0:0:
320,192,339280,1,0,0:0:0:0:
192,192,339280,1,0,0:0:0:0:
448,192,339374,1,0,0:0:0:0:
64,192,339468,1,0,0:0:0:0:
192,192,339468,1,0,0:0:0:0:
64,192,339562,1,0,0:0:0:0:
320,192,339562,1,0,0:0:0:0:
448,192,339593,1,0,0:0:0:0:
192,192,339624,1,0,0:0:0:0:
320,192,339655,1,0,0:0:0:0:
448,192,339749,1,0,0:0:0:0:
64,192,339749,1,0,0:0:0:0:
448,192,339843,1,0,0:0:0:0:
320,192,339890,1,0,0:0:0:0:
192,192,339937,1,0,0:0:0:0:
64,192,339937,1,0,0:0:0:0:
192,192,340030,1,0,0:0:0:0:
448,192,340030,1,0,0:0:0:0:
320,192,340124,1,0,0:0:0:0:
320,192,340218,1,0,0:0:0:0:
192,192,340218,1,0,0:0:0:0:
64,192,340312,1,0,0:0:0:0:
448,192,340312,1,0,0:0:0:0:
64,192,340405,1,0,0:0:0:0:
64,192,340499,1,0,0:0:0:0:
320,192,340499,1,0,0:0:0:0:
448,192,340593,1,0,0:0:0:0:
192,192,340640,1,0,0:0:0:0:
448,192,340687,1,0,0:0:0:0:
64,192,340687,1,0,0:0:0:0:
320,192,340733,1,0,0:0:0:0:
64,192,340780,1,0,0:0:0:0:
192,192,340874,1,0,0:0:0:0:
448,192,340905,1,0,0:0:0:0:
320,192,340937,1,0,0:0:0:0:
64,192,340968,1,0,0:0:0:0:
192,192,341030,1,0,0:0:0:0:
448,192,341062,1,0,0:0:0:0:
320,192,341062,1,0,0:0:0:0:
64,192,341093,1,0,0:0:0:0:
448,192,341155,1,0,0:0:0:0:
320,192,341202,1,0,0:0:0:0:
192,192,341249,1,0,0:0:0:0:
448,192,341249,1,0,0:0:0:0:
192,192,341343,1,0,0:0:0:0:
64,192,341390,1,0,0:0:0:0:
448,192,341437,1,0,0:0:0:0:
320,192,341437,1,0,0:0:0:0:
192,192,341499,1,0,0:0:0:0:
448,192,341530,1,0,0:0:0:0:
64,192,341562,1,0,0:0:0:0:
320,192,341624,1,0,0:0:0:0:
320,192,341718,1,0,0:0:0:0:
448,192,341788,1,0,0:0:0:0:
64,192,341812,1,0,0:0:0:0:
320,192,341835,1,0,0:0:0:0:
192,192,341905,1,0,0:0:0:0:
448,192,341952,1,0,0:0:0:0:
320,192,341999,1,0,0:0:0:0:
192,192,341999,1,0,0:0:0:0:
64,192,342046,1,0,0:0:0:0:
320,192,342093,1,0,0:0:0:0:
64,192,342187,1,0,0:0:0:0:
192,192,342187,1,0,0:0:0:0:
64,192,342280,1,0,0:0:0:0:
448,192,342280,1,0,0:0:0:0:
192,192,342374,1,0,0:0:0:0:
320,192,342405,1,0,0:0:0:0:
192,192,342468,1,0,0:0:0:0:
320,192,342499,1,0,0:0:0:0:
64,192,342562,1,0,0:0:0:0:
448,192,342562,1,0,0:0:0:0:
448,192,342655,1,0,0:0:0:0:
192,192,342702,1,0,0:0:0:0:
64,192,342749,1,0,0:0:0:0:
320,192,342843,1,0,0:0:0:0:
448,192,342843,1,0,0:0:0:0:
192,192,342890,1,0,0:0:0:0:
64,192,342937,1,0,0:0:0:0:
448,192,342937,1,0,0:0:0:0:
320,192,342999,1,0,0:0:0:0:
64,192,343030,1,0,0:0:0:0:
192,192,343030,1,0,0:0:0:0:
448,192,343124,5,0,0:0:0:0:
192,192,343155,1,0,0:0:0:0:
448,192,343218,1,0,0:0:0:0:
192,192,343249,5,0,0:0:0:0:
320,192,343312,5,0,0:0:0:0:
64,192,343312,1,0,0:0:0:0:
448,192,343382,1,0,0:0:0:0:
320,192,343452,1,0,0:0:0:0:
448,192,343499,1,0,0:0:0:0:
64,192,343499,1,0,0:0:0:0:
192,192,343593,1,0,0:0:0:0:
64,192,343640,1,0,0:0:0:0:
448,192,343687,128,0,343733:0:0:0:0:
192,192,343733,128,0,343897:0:0:0:0:
448,192,343780,128,0,343851:0:0:0:0:
64,192,343827,128,0,344085:0:0:0:0:
320,192,343874,128,0,343944:0:0:0:0:
448,192,343921,128,0,344038:0:0:0:0:
192,192,343968,128,0,344015:0:0:0:0:
320,192,344015,128,0,344179:0:0:0:0:
192,192,344062,128,0,344132:0:0:0:0:
448,192,344108,128,0,344366:0:0:0:0:
64,192,344155,128,0,344343:0:0:0:0:
192,192,344202,128,0,344343:0:0:0:0:
320,192,344249,128,0,344296:0:0:0:0:
320,192,344343,128,0,344437:0:0:0:0:
64,192,344437,5,0,0:0:0:0:
192,192,344437,1,0,0:0:0:0:
448,192,344437,1,0,0:0:0:0:
64,192,344530,1,0,0:0:0:0:
192,192,344530,1,0,0:0:0:0:
64,192,344624,1,0,0:0:0:0:
320,192,344624,1,0,0:0:0:0:
448,192,344624,1,0,0:0:0:0:
320,192,344718,1,0,0:0:0:0:
448,192,344718,1,0,0:0:0:0:
192,192,344812,1,0,0:0:0:0:
64,192,344812,1,0,0:0:0:0:
448,192,344812,1,0,0:0:0:0:
192,192,344905,1,0,0:0:0:0:
64,192,344905,1,0,0:0:0:0:
64,192,344999,1,0,0:0:0:0:
320,192,344999,1,0,0:0:0:0:
448,192,344999,1,0,0:0:0:0:
192,192,345093,1,0,0:0:0:0:
448,192,345093,1,0,0:0:0:0:
320,192,345187,1,0,0:0:0:0:
192,192,345187,1,0,0:0:0:0:
64,192,345187,1,0,0:0:0:0:
64,192,345280,1,0,0:0:0:0:
192,192,345280,1,0,0:0:0:0:
320,192,345374,1,0,0:0:0:0:
448,192,345374,1,0,0:0:0:0:
64,192,345437,1,0,0:0:0:0:
448,192,345468,1,0,0:0:0:0:
192,192,345499,1,0,0:0:0:0:
64,192,345562,1,0,0:0:0:0:
320,192,345562,1,0,0:0:0:0:
320,192,345655,1,0,0:0:0:0:
192,192,345702,1,0,0:0:0:0:
448,192,345749,1,0,0:0:0:0:
64,192,345749,1,0,0:0:0:0:
448,192,345843,1,0,0:0:0:0:
320,192,345890,1,0,0:0:0:0:
192,192,345937,1,0,0:0:0:0:
64,192,345937,1,0,0:0:0:0:
192,192,346030,1,0,0:0:0:0:
64,192,346030,1,0,0:0:0:0:
192,192,346124,1,0,0:0:0:0:
320,192,346124,1,0,0:0:0:0:
448,192,346124,1,0,0:0:0:0:
448,192,346218,1,0,0:0:0:0:
320,192,346218,1,0,0:0:0:0:
320,192,346312,1,0,0:0:0:0:
192,192,346312,1,0,0:0:0:0:
64,192,346312,1,0,0:0:0:0:
64,192,346405,1,0,0:0:0:0:
192,192,346405,1,0,0:0:0:0:
448,192,346499,1,0,0:0:0:0:
320,192,346499,1,0,0:0:0:0:
64,192,346499,1,0,0:0:0:0:
448,192,346593,1,0,0:0:0:0:
192,192,346593,1,0,0:0:0:0:
64,192,346687,1,0,0:0:0:0:
320,192,346687,1,0,0:0:0:0:
192,192,346687,1,0,0:0:0:0:
448,192,346780,1,0,0:0:0:0:
64,192,346780,1,0,0:0:0:0:
320,192,346874,1,0,0:0:0:0:
192,192,346874,1,0,0:0:0:0:
448,192,346874,1,0,0:0:0:0:
192,192,346968,1,0,0:0:0:0:
320,192,347015,1,0,0:0:0:0:
448,192,347062,1,0,0:0:0:0:
64,192,347062,1,0,0:0:0:0:
320,192,347155,1,0,0:0:0:0:
448,192,347155,1,0,0:0:0:0:
192,192,347202,1,0,0:0:0:0:
320,192,347249,1,0,0:0:0:0:
64,192,347249,1,0,0:0:0:0:
448,192,347296,1,0,0:0:0:0:
64,192,347343,1,0,0:0:0:0:
192,192,347343,1,0,0:0:0:0:
320,192,347390,1,0,0:0:0:0:
64,192,347437,1,0,0:0:0:0:
192,192,347437,1,0,0:0:0:0:
448,192,347437,1,0,0:0:0:0:
448,192,347530,1,0,0:0:0:0:
320,192,347530,1,0,0:0:0:0:
192,192,347624,1,0,0:0:0:0:
320,192,347624,1,0,0:0:0:0:
64,192,347624,1,0,0:0:0:0:
64,192,347718,1,0,0:0:0:0:
192,192,347718,1,0,0:0:0:0:
64,192,347812,1,0,0:0:0:0:
448,192,347812,1,0,0:0:0:0:
320,192,347812,1,0,0:0:0:0:
320,192,347905,1,0,0:0:0:0:
448,192,347905,1,0,0:0:0:0:
192,192,347999,1,0,0:0:0:0:
64,192,347999,1,0,0:0:0:0:
320,192,347999,1,0,0:0:0:0:
448,192,348093,1,0,0:0:0:0:
64,192,348093,1,0,0:0:0:0:
192,192,348140,1,0,0:0:0:0:
320,192,348187,1,0,0:0:0:0:
448,192,348187,1,0,0:0:0:0:
64,192,348280,1,0,0:0:0:0:
192,192,348280,1,0,0:0:0:0:
320,192,348327,1,0,0:0:0:0:
64,192,348374,1,0,0:0:0:0:
192,192,348374,1,0,0:0:0:0:
448,192,348374,1,0,0:0:0:0:
448,192,348468,1,0,0:0:0:0:
192,192,348468,1,0,0:0:0:0:
64,192,348562,1,0,0:0:0:0:
320,192,348562,1,0,0:0:0:0:
448,192,348562,1,0,0:0:0:0:
320,192,348655,1,0,0:0:0:0:
192,192,348655,1,0,0:0:0:0:
64,192,348749,1,0,0:0:0:0:
192,192,348749,1,0,0:0:0:0:
448,192,348749,1,0,0:0:0:0:
320,192,348843,1,0,0:0:0:0:
64,192,348843,1,0,0:0:0:0:
320,192,348937,1,0,0:0:0:0:
448,192,348937,1,0,0:0:0:0:
64,192,348983,1,0,0:0:0:0:
192,192,349030,1,0,0:0:0:0:
320,192,349077,1,0,0:0:0:0:
64,192,349124,1,0,0:0:0:0:
448,192,349124,1,0,0:0:0:0:
448,192,349218,1,0,0:0:0:0:
192,192,349218,1,0,0:0:0:0:
192,192,349312,1,0,0:0:0:0:
320,192,349312,1,0,0:0:0:0:
64,192,349312,1,0,0:0:0:0:
448,192,349405,1,0,0:0:0:0:
64,192,349405,1,0,0:0:0:0:
448,192,349499,1,0,0:0:0:0:
320,192,349499,1,0,0:0:0:0:
64,192,349593,1,0,0:0:0:0:
192,192,349593,1,0,0:0:0:0:
320,192,349640,1,0,0:0:0:0:
448,192,349687,1,0,0:0:0:0:
192,192,349687,1,0,0:0:0:0:
64,192,349687,1,0,0:0:0:0:
320,192,349780,1,0,0:0:0:0:
64,192,349780,1,0,0:0:0:0:
320,192,349874,1,0,0:0:0:0:
192,192,349874,1,0,0:0:0:0:
448,192,349921,1,0,0:0:0:0:
192,192,349968,1,0,0:0:0:0:
448,192,350015,1,0,0:0:0:0:
64,192,350062,1,0,0:0:0:0:
320,192,350062,1,0,0:0:0:0:
192,192,350108,1,0,0:0:0:0:
320,192,350155,1,0,0:0:0:0:
192,192,350202,1,0,0:0:0:0:
448,192,350249,128,0,350374:0:0:0:0:
192,192,350374,1,0,0:0:0:0:
448,192,350437,5,0,0:0:0:0:
320,192,350437,1,0,0:0:0:0:
64,192,350437,1,0,0:0:0:0:
448,192,350530,1,0,0:0:0:0:
320,192,350530,1,0,0:0:0:0:
448,192,350624,1,0,0:0:0:0:
192,192,350624,1,0,0:0:0:0:
64,192,350624,1,0,0:0:0:0:
192,192,350718,1,0,0:0:0:0:
64,192,350718,1,0,0:0:0:0:
320,192,350812,1,0,0:0:0:0:
448,192,350812,1,0,0:0:0:0:
64,192,350812,1,0,0:0:0:0:
320,192,350905,1,0,0:0:0:0:
448,192,350905,1,0,0:0:0:0:
448,192,350999,1,0,0:0:0:0:
192,192,350999,1,0,0:0:0:0:
64,192,350999,1,0,0:0:0:0:
320,192,351093,1,0,0:0:0:0:
64,192,351093,1,0,0:0:0:0:
192,192,351187,1,0,0:0:0:0:
320,192,351187,1,0,0:0:0:0:
448,192,351187,1,0,0:0:0:0:
448,192,351280,1,0,0:0:0:0:
320,192,351280,1,0,0:0:0:0:
192,192,351374,1,0,0:0:0:0:
64,192,351374,1,0,0:0:0:0:
448,192,351437,1,0,0:0:0:0:
64,192,351468,1,0,0:0:0:0:
320,192,351499,1,0,0:0:0:0:
448,192,351562,1,0,0:0:0:0:
192,192,351562,1,0,0:0:0:0:
192,192,351655,1,0,0:0:0:0:
320,192,351702,1,0,0:0:0:0:
64,192,351749,1,0,0:0:0:0:
448,192,351749,1,0,0:0:0:0:
64,192,351843,1,0,0:0:0:0:
192,192,351890,1,0,0:0:0:0:
320,192,351937,1,0,0:0:0:0:
448,192,351937,1,0,0:0:0:0:
320,192,352030,1,0,0:0:0:0:
448,192,352030,1,0,0:0:0:0:
320,192,352124,1,0,0:0:0:0:
192,192,352124,1,0,0:0:0:0:
64,192,352124,1,0,0:0:0:0:
64,192,352218,1,0,0:0:0:0:
192,192,352218,1,0,0:0:0:0:
192,192,352312,1,0,0:0:0:0:
320,192,352312,1,0,0:0:0:0:
448,192,352312,1,0,0:0:0:0:
448,192,352405,1,0,0:0:0:0:
320,192,352405,1,0,0:0:0:0:
64,192,352499,1,0,0:0:0:0:
192,192,352499,1,0,0:0:0:0:
448,192,352499,1,0,0:0:0:0:
64,192,352593,1,0,0:0:0:0:
320,192,352593,1,0,0:0:0:0:
448,192,352687,1,0,0:0:0:0:
192,192,352687,1,0,0:0:0:0:
320,192,352687,1,0,0:0:0:0:
64,192,352780,1,0,0:0:0:0:
448,192,352780,1,0,0:0:0:0:
192,192,352874,1,0,0:0:0:0:
320,192,352874,1,0,0:0:0:0:
64,192,352874,1,0,0:0:0:0:
320,192,352968,1,0,0:0:0:0:
192,192,353015,1,0,0:0:0:0:
64,192,353062,1,0,0:0:0:0:
448,192,353062,1,0,0:0:0:0:
192,192,353155,1,0,0:0:0:0:
64,192,353155,1,0,0:0:0:0:
320,192,353202,1,0,0:0:0:0:
192,192,353249,1,0,0:0:0:0:
448,192,353249,1,0,0:0:0:0:
64,192,353296,1,0,0:0:0:0:
448,192,353343,1,0,0:0:0:0:
320,192,353343,1,0,0:0:0:0:
192,192,353390,1,0,0:0:0:0:
448,192,353437,1,0,0:0:0:0:
320,192,353437,1,0,0:0:0:0:
64,192,353437,1,0,0:0:0:0:
64,192,353530,1,0,0:0:0:0:
192,192,353530,1,0,0:0:0:0:
320,192,353624,1,0,0:0:0:0:
192,192,353624,1,0,0:0:0:0:
448,192,353624,1,0,0:0:0:0:
448,192,353718,1,0,0:0:0:0:
320,192,353718,1,0,0:0:0:0:
448,192,353812,1,0,0:0:0:0:
64,192,353812,1,0,0:0:0:0:
192,192,353812,1,0,0:0:0:0:
192,192,353905,1,0,0:0:0:0:
64,192,353905,1,0,0:0:0:0:
320,192,353999,1,0,0:0:0:0:
448,192,353999,1,0,0:0:0:0:
192,192,353999,1,0,0:0:0:0:
64,192,354093,1,0,0:0:0:0:
448,192,354093,1,0,0:0:0:0:
320,192,354140,1,0,0:0:0:0:
192,192,354187,1,0,0:0:0:0:
64,192,354187,1,0,0:0:0:0:
448,192,354280,1,0,0:0:0:0:
320,192,354280,1,0,0:0:0:0:
192,192,354327,1,0,0:0:0:0:
448,192,354374,1,0,0:0:0:0:
320,192,354374,1,0,0:0:0:0:
64,192,354374,1,0,0:0:0:0:
64,192,354468,1,0,0:0:0:0:
320,192,354468,1,0,0:0:0:0:
448,192,354562,1,0,0:0:0:0:
192,192,354562,1,0,0:0:0:0:
64,192,354562,1,0,0:0:0:0:
192,192,354655,1,0,0:0:0:0:
320,192,354655,1,0,0:0:0:0:
448,192,354749,1,0,0:0:0:0:
320,192,354749,1,0,0:0:0:0:
64,192,354749,1,0,0:0:0:0:
192,192,354843,1,0,0:0:0:0:
448,192,354843,1,0,0:0:0:0:
320,192,354937,1,0,0:0:0:0:
64,192,354937,1,0,0:0:0:0:
448,192,354983,1,0,0:0:0:0:
64,192,355030,1,0,0:0:0:0:
192,192,355077,1,0,0:0:0:0:
448,192,355124,1,0,0:0:0:0:
320,192,355124,1,0,0:0:0:0:
64,192,355218,1,0,0:0:0:0:
448,192,355218,1,0,0:0:0:0:
320,192,355312,1,0,0:0:0:0:
192,192,355312,1,0,0:0:0:0:
448,192,355358,1,0,0:0:0:0:
192,192,355405,128,0,355569:0:0:0:0:
448,192,355452,128,0,355522:0:0:0:0:
64,192,355499,128,0,355616:0:0:0:0:
320,192,355546,128,0,355687:0:0:0:0:
448,192,355593,128,0,355780:0:0:0:0:
192,192,355640,128,0,355733:0:0:0:0:
64,192,355687,128,0,355874:0:0:0:0:
320,192,355733,128,0,355827:0:0:0:0:
192,192,355780,128,0,355944:0:0:0:0:
448,192,355827,128,0,355897:0:0:0:0:
320,192,355874,128,0,355991:0:0:0:0:
64,192,355921,128,0,356038:0:0:0:0:
448,192,355968,128,0,356062:0:0:0:0:
192,192,356015,128,0,356108:0:0:0:0:
320,192,356062,1,0,0:0:0:0:
64,192,356108,1,0,0:0:0:0:
320,192,356155,1,0,0:0:0:0:
192,192,356202,1,0,0:0:0:0:
448,192,356249,1,0,0:0:0:0:
192,192,356296,1,0,0:0:0:0:
320,192,356343,1,0,0:0:0:0:
448,192,356390,1,0,0:0:0:0:
192,192,356437,1,0,0:0:0:0:
64,192,356437,1,0,0:0:0:0:
320,192,356483,1,0,0:0:0:0:
64,192,356530,1,0,0:0:0:0:
192,192,356577,1,0,0:0:0:0:
320,192,356624,1,0,0:0:0:0:
448,192,356624,1,0,0:0:0:0:
64,192,356671,1,0,0:0:0:0:
448,192,356718,1,0,0:0:0:0:
64,192,356812,1,0,0:0:0:0:
192,192,356812,1,0,0:0:0:0:
320,192,356812,1,0,0:0:0:0:
320,192,356905,1,0,0:0:0:0:
192,192,356999,1,0,0:0:0:0:
64,192,356999,1,0,0:0:0:0:
448,192,357093,1,0,0:0:0:0:
192,192,357093,1,0,0:0:0:0:
448,192,357187,1,0,0:0:0:0:
320,192,357187,1,0,0:0:0:0:
64,192,357187,1,0,0:0:0:0:
64,192,357280,1,0,0:0:0:0:
192,192,357327,1,0,0:0:0:0:
320,192,357374,1,0,0:0:0:0:
448,192,357374,1,0,0:0:0:0:
192,192,357421,1,0,0:0:0:0:
320,192,357468,1,0,0:0:0:0:
64,192,357468,1,0,0:0:0:0:
64,192,357562,1,0,0:0:0:0:
448,192,357562,1,0,0:0:0:0:
192,192,357562,1,0,0:0:0:0:
448,192,357655,1,0,0:0:0:0:
192,192,357702,1,0,0:0:0:0:
320,192,357749,1,0,0:0:0:0:
64,192,357749,1,0,0:0:0:0:
448,192,357843,1,0,0:0:0:0:
64,192,357890,1,0,0:0:0:0:
192,192,357937,1,0,0:0:0:0:
320,192,357937,1,0,0:0:0:0:
448,192,357937,1,0,0:0:0:0:
192,192,358030,1,0,0:0:0:0:
320,192,358124,1,0,0:0:0:0:
448,192,358124,1,0,0:0:0:0:
64,192,358171,1,0,0:0:0:0:
448,192,358218,1,0,0:0:0:0:
64,192,358265,1,0,0:0:0:0:
320,192,358312,1,0,0:0:0:0:
192,192,358312,1,0,0:0:0:0:
320,192,358405,1,0,0:0:0:0:
192,192,358452,1,0,0:0:0:0:
64,192,358499,1,0,0:0:0:0:
448,192,358499,1,0,0:0:0:0:
320,192,358546,1,0,0:0:0:0:
64,192,358593,1,0,0:0:0:0:
192,192,358640,1,0,0:0:0:0:
320,192,358687,1,0,0:0:0:0:
448,192,358687,1,0,0:0:0:0:
320,192,358780,1,0,0:0:0:0:
192,192,358827,1,0,0:0:0:0:
64,192,358874,1,0,0:0:0:0:
448,192,358874,1,0,0:0:0:0:
64,192,358968,1,0,0:0:0:0:
320,192,358968,1,0,0:0:0:0:
192,192,359062,1,0,0:0:0:0:
448,192,359062,1,0,0:0:0:0:
64,192,359108,1,0,0:0:0:0:
448,192,359155,1,0,0:0:0:0:
64,192,359202,1,0,0:0:0:0:
320,192,359249,1,0,0:0:0:0:
192,192,359249,1,0,0:0:0:0:
448,192,359296,1,0,0:0:0:0:
192,192,359343,1,0,0:0:0:0:
448,192,359390,1,0,0:0:0:0:
320,192,359437,1,0,0:0:0:0:
64,192,359437,1,0,0:0:0:0:
64,192,359530,1,0,0:0:0:0:
448,192,359624,1,0,0:0:0:0:
320,192,359624,1,0,0:0:0:0:
192,192,359671,1,0,0:0:0:0:
320,192,359718,1,0,0:0:0:0:
192,192,359765,1,0,0:0:0:0:
64,192,359812,1,0,0:0:0:0:
448,192,359812,1,0,0:0:0:0:
448,192,359905,1,0,0:0:0:0:
64,192,359999,1,0,0:0:0:0:
192,192,359999,1,0,0:0:0:0:
320,192,360093,1,0,0:0:0:0:
64,192,360140,1,0,0:0:0:0:
448,192,360187,1,0,0:0:0:0:
192,192,360187,1,0,0:0:0:0:
320,192,360187,1,0,0:0:0:0:
192,192,360280,1,0,0:0:0:0:
448,192,360327,1,0,0:0:0:0:
64,192,360374,1,0,0:0:0:0:
320,192,360374,1,0,0:0:0:0:
192,192,360468,1,0,0:0:0:0:
320,192,360515,1,0,0:0:0:0:
192,192,360562,1,0,0:0:0:0:
448,192,360562,1,0,0:0:0:0:
64,192,360562,1,0,0:0:0:0:
448,192,360655,1,0,0:0:0:0:
192,192,360749,1,0,0:0:0:0:
320,192,360749,1,0,0:0:0:0:
448,192,360843,1,0,0:0:0:0:
192,192,360843,1,0,0:0:0:0:
320,192,360937,1,0,0:0:0:0:
64,192,360937,1,0,0:0:0:0:
448,192,360983,1,0,0:0:0:0:
64,192,361030,1,0,0:0:0:0:
320,192,361077,1,0,0:0:0:0:
448,192,361124,1,0,0:0:0:0:
192,192,361124,1,0,0:0:0:0:
64,192,361171,1,0,0:0:0:0:
448,192,361218,1,0,0:0:0:0:
320,192,361265,1,0,0:0:0:0:
64,192,361312,1,0,0:0:0:0:
192,192,361312,1,0,0:0:0:0:
192,192,361405,1,0,0:0:0:0:
448,192,361452,1,0,0:0:0:0:
64,192,361499,1,0,0:0:0:0:
320,192,361499,1,0,0:0:0:0:
64,192,361593,1,0,0:0:0:0:
320,192,361593,1,0,0:0:0:0:
448,192,361687,1,0,0:0:0:0:
192,192,361687,1,0,0:0:0:0:
320,192,361687,1,0,0:0:0:0:
64,192,361780,1,0,0:0:0:0:
192,192,361827,1,0,0:0:0:0:
448,192,361874,1,0,0:0:0:0:
320,192,361874,1,0,0:0:0:0:
64,192,361921,1,0,0:0:0:0:
448,192,361968,1,0,0:0:0:0:
64,192,362015,1,0,0:0:0:0:
192,192,362062,1,0,0:0:0:0:
320,192,362062,1,0,0:0:0:0:
448,192,362108,1,0,0:0:0:0:
192,192,362155,1,0,0:0:0:0:
448,192,362202,1,0,0:0:0:0:
64,192,362249,1,0,0:0:0:0:
320,192,362287,1,0,0:0:0:0:
192,192,362324,1,0,0:0:0:0:
448,192,362362,1,0,0:0:0:0:
320,192,362399,1,0,0:0:0:0:
64,192,362437,1,0,0:0:0:0:
192,192,362437,1,0,0:0:0:0:
448,192,362483,1,0,0:0:0:0:
64,192,362530,1,0,0:0:0:0:
320,192,362624,1,0,0:0:0:0:
448,192,362624,1,0,0:0:0:0:
448,192,362718,1,0,0:0:0:0:
192,192,362718,1,0,0:0:0:0:
192,192,362812,1,0,0:0:0:0:
320,192,362812,1,0,0:0:0:0:
64,192,362812,1,0,0:0:0:0:
320,192,362905,1,0,0:0:0:0:
192,192,362999,1,0,0:0:0:0:
64,192,362999,1,0,0:0:0:0:
448,192,363093,1,0,0:0:0:0:
64,192,363093,1,0,0:0:0:0:
448,192,363187,1,0,0:0:0:0:
320,192,363187,1,0,0:0:0:0:
192,192,363187,1,0,0:0:0:0:
64,192,363233,1,0,0:0:0:0:
320,192,363280,1,0,0:0:0:0:
192,192,363327,1,0,0:0:0:0:
448,192,363374,1,0,0:0:0:0:
64,192,363374,1,0,0:0:0:0:
64,192,363468,1,0,0:0:0:0:
320,192,363515,1,0,0:0:0:0:
448,192,363562,1,0,0:0:0:0:
64,192,363562,1,0,0:0:0:0:
192,192,363562,1,0,0:0:0:0:
448,192,363655,1,0,0:0:0:0:
320,192,363655,1,0,0:0:0:0:
320,192,363749,1,0,0:0:0:0:
448,192,363749,1,0,0:0:0:0:
192,192,363843,1,0,0:0:0:0:
64,192,363843,1,0,0:0:0:0:
448,192,363890,1,0,0:0:0:0:
192,192,363937,1,0,0:0:0:0:
64,192,363937,1,0,0:0:0:0:
320,192,363983,1,0,0:0:0:0:
64,192,364030,1,0,0:0:0:0:
448,192,364030,1,0,0:0:0:0:
192,192,364124,1,0,0:0:0:0:
320,192,364124,1,0,0:0:0:0:
448,192,364218,1,0,0:0:0:0:
192,192,364218,1,0,0:0:0:0:
64,192,364312,1,0,0:0:0:0:
320,192,364312,1,0,0:0:0:0:
192,192,364358,1,0,0:0:0:0:
320,192,364405,1,0,0:0:0:0:
192,192,364452,1,0,0:0:0:0:
448,192,364499,1,0,0:0:0:0:
64,192,364499,1,0,0:0:0:0:
320,192,364546,1,0,0:0:0:0:
64,192,364593,1,0,0:0:0:0:
192,192,364640,1,0,0:0:0:0:
320,192,364687,1,0,0:0:0:0:
448,192,364687,1,0,0:0:0:0:
64,192,364733,1,0,0:0:0:0:
448,192,364780,1,0,0:0:0:0:
320,192,364827,1,0,0:0:0:0:
192,192,364874,1,0,0:0:0:0:
64,192,364874,1,0,0:0:0:0:
448,192,364968,1,0,0:0:0:0:
64,192,364968,1,0,0:0:0:0:
192,192,365062,1,0,0:0:0:0:
448,192,365062,1,0,0:0:0:0:
192,192,365155,1,0,0:0:0:0:
320,192,365202,1,0,0:0:0:0:
448,192,365249,1,0,0:0:0:0:
64,192,365249,1,0,0:0:0:0:
192,192,365296,1,0,0:0:0:0:
448,192,365343,1,0,0:0:0:0:
192,192,365390,1,0,0:0:0:0:
64,192,365437,1,0,0:0:0:0:
320,192,365437,1,0,0:0:0:0:
448,192,365483,1,0,0:0:0:0:
64,192,365530,1,0,0:0:0:0:
320,192,365624,1,0,0:0:0:0:
448,192,365624,1,0,0:0:0:0:
192,192,365671,1,0,0:0:0:0:
64,192,365718,1,0,0:0:0:0:
448,192,365718,1,0,0:0:0:0:
64,192,365812,1,0,0:0:0:0:
320,192,365812,1,0,0:0:0:0:
448,192,365858,1,0,0:0:0:0:
192,192,365905,1,0,0:0:0:0:
64,192,365952,1,0,0:0:0:0:
320,192,365999,1,0,0:0:0:0:
448,192,365999,1,0,0:0:0:0:
192,192,366093,1,0,0:0:0:0:
320,192,366093,1,0,0:0:0:0:
192,192,366187,1,0,0:0:0:0:
448,192,366187,1,0,0:0:0:0:
64,192,366233,1,0,0:0:0:0:
320,192,366280,1,0,0:0:0:0:
448,192,366327,1,0,0:0:0:0:
192,192,366374,1,0,0:0:0:0:
64,192,366374,1,0,0:0:0:0:
320,192,366421,1,0,0:0:0:0:
64,192,366468,1,0,0:0:0:0:
448,192,366515,5,0,0:0:0:0:
320,192,366562,1,0,0:0:0:0:
192,192,366562,1,0,0:0:0:0:
64,192,366608,1,0,0:0:0:0:
320,192,366655,1,0,0:0:0:0:
192,192,366702,1,0,0:0:0:0:
64,192,366749,1,0,0:0:0:0:
448,192,366749,1,0,0:0:0:0:
320,192,366796,1,0,0:0:0:0:
192,192,366843,1,0,0:0:0:0:
64,192,366890,1,0,0:0:0:0:
320,192,366937,1,0,0:0:0:0:
448,192,366937,1,0,0:0:0:0:
192,192,366983,1,0,0:0:0:0:
448,192,367030,1,0,0:0:0:0:
64,192,367077,1,0,0:0:0:0:
192,192,367124,1,0,0:0:0:0:
320,192,367124,1,0,0:0:0:0:
448,192,367171,1,0,0:0:0:0:
192,192,367218,1,0,0:0:0:0:
320,192,367265,1,0,0:0:0:0:
64,192,367312,1,0,0:0:0:0:
448,192,367312,1,0,0:0:0:0:
192,192,367358,1,0,0:0:0:0:
320,192,367405,1,0,0:0:0:0:
448,192,367452,1,0,0:0:0:0:
192,192,367499,1,0,0:0:0:0:
64,192,367499,1,0,0:0:0:0:
320,192,367546,1,0,0:0:0:0:
64,192,367593,1,0,0:0:0:0:
448,192,367640,1,0,0:0:0:0:
192,192,367687,5,0,0:0:0:0:
320,192,367687,1,0,0:0:0:0:
64,192,367733,1,0,0:0:0:0:
320,192,367780,1,0,0:0:0:0:
64,192,367827,1,0,0:0:0:0:
448,192,367874,5,0,0:0:0:0:
192,192,367874,1,0,0:0:0:0:
320,192,367921,1,0,0:0:0:0:
192,192,367968,1,0,0:0:0:0:
320,192,368015,1,0,0:0:0:0:
64,192,368062,5,0,0:0:0:0:
448,192,368062,1,0,0:0:0:0:
192,192,368108,1,0,0:0:0:0:
448,192,368155,5,0,0:0:0:0:
320,192,368202,5,0,0:0:0:0:
192,192,368249,5,0,0:0:0:0:
64,192,368249,1,0,0:0:0:0:
192,192,368343,1,0,0:0:0:0:
64,192,368343,1,0,0:0:0:0:
192,192,368437,5,0,0:0:0:0:
64,192,368437,1,0,0:0:0:0:
192,192,368530,1,0,0:0:0:0:
64,192,368530,1,0,0:0:0:0:
192,192,368624,5,0,0:0:0:0:
64,192,368624,1,0,0:0:0:0:
64,192,368718,1,0,0:0:0:0:
192,192,368718,1,0,0:0:0:0:
64,192,368812,5,0,0:0:0:0:
192,192,368812,1,0,0:0:0:0:
192,192,368905,1,0,0:0:0:0:
64,192,368905,1,0,0:0:0:0:
192,192,368999,5,0,0:0:0:0:
64,192,368999,1,0,0:0:0:0:
192,192,369093,1,0,0:0:0:0:
64,192,369093,1,0,0:0:0:0:
192,192,369187,5,0,0:0:0:0:
64,192,369187,1,0,0:0:0:0:
192,192,369280,1,0,0:0:0:0:
64,192,369280,1,0,0:0:0:0:
64,192,369374,5,0,0:0:0:0:
192,192,369374,1,0,0:0:0:0:
64,192,369468,1,0,0:0:0:0:
192,192,369468,1,0,0:0:0:0:
64,192,369562,5,0,0:0:0:0:
192,192,369562,1,0,0:0:0:0:
64,192,369655,1,0,0:0:0:0:
192,192,369655,1,0,0:0:0:0:
192,192,369749,5,0,0:0:0:0:
64,192,369749,1,0,0:0:0:0:
192,192,369843,1,0,0:0:0:0:
64,192,369843,1,0,0:0:0:0:
448,192,369937,128,0,370030:0:0:0:0:
320,192,369937,128,0,370062:0:0:0:0:
64,192,369937,128,0,370093:0:0:0:0:
