osu file format v14

[General]
AudioFilename: audio.mp3
AudioLeadIn: 0
PreviewTime: 32240
Countdown: 0
SampleSet: Soft
StackLeniency: 0.7
Mode: 0
LetterboxInBreaks: 0
WidescreenStoryboard: 1

[Editor]
Bookmarks: 146,10872,21598,32324,43051,53777,64503,75229,85956,96347
DistanceSpacing: 2.4
BeatDivisor: 4
GridSize: 4
TimelineZoom: 2.899999

[Metadata]
Title:Credits
TitleUnicode:Credits
Artist:Frums
ArtistUnicode:Frums
Creator:s0m3guy
Version:indonesian btmc's Hard.
Source:大血戦 -THE BMS OF FIGHTERS ULTIMATE-
Tags:-jordan- jory [[Pause]] SHOGUNMOON00999 indonesian btmc tonogamikun GeminiGeminii featured artist fa BOFU2015 daikessen Smith au Lait english electronic minimal juke video game maimai MiLK
BeatmapID:3323710
BeatmapSetID:1372002

[Difficulty]
HPDrainRate:4
CircleSize:3.5
OverallDifficulty:6
ApproachRate:8
SliderMultiplier:1.5
SliderTickRate:1

[Events]
//Background and Video events
0,0,"bg.jpg",0,0
Video,-1214,"video.mp4"
//Break Periods
//Storyboard Layer 0 (Background)
//Storyboard Layer 1 (Fail)
//Storyboard Layer 2 (Pass)
//Storyboard Layer 3 (Foreground)
//Storyboard Layer 4 (Overlay)
//Storyboard Sound Samples

[TimingPoints]
146,335.195530726257,4,2,1,30,1,0
13050,-100,4,2,1,26,0,0
13134,-100,4,2,1,22,0,0
13218,-100,4,2,1,18,0,0
13301,-100,4,2,1,14,0,0
13385,-100,4,2,1,10,0,0
13469,-100,4,2,1,5,0,0
13553,-100,4,2,1,30,0,0
15731,-100,4,2,1,26,0,0
15815,-100,4,2,1,22,0,0
15899,-100,4,2,1,18,0,0
15982,-100,4,2,1,14,0,0
16066,-100,4,2,1,10,0,0
16150,-100,4,2,1,5,0,0
16235,-100,4,2,1,30,0,0
18413,-100,4,2,1,26,0,0
18497,-100,4,2,1,22,0,0
18581,-100,4,2,1,18,0,0
18664,-100,4,2,1,14,0,0
18748,-100,4,2,1,10,0,0
18832,-100,4,2,1,5,0,0
18916,-100,4,2,1,30,0,0
21095,-100,4,2,1,25,0,0
21179,-100,4,2,1,20,0,0
21263,-100,4,2,1,15,0,0
21430,-100,4,2,1,20,0,0
21514,-100,4,2,1,25,0,0
21598,-100,4,2,1,40,0,0
23776,-100,4,2,1,36,0,0
23860,-100,4,2,1,32,0,0
23944,-100,4,2,1,28,0,0
24027,-100,4,2,1,24,0,0
24111,-100,4,2,1,20,0,0
24195,-100,4,2,1,16,0,0
24280,-100,4,2,1,40,0,0
26458,-100,4,2,1,36,0,0
26542,-100,4,2,1,32,0,0
26626,-100,4,2,1,28,0,0
26709,-100,4,2,1,24,0,0
26793,-100,4,2,1,20,0,0
26877,-100,4,2,1,16,0,0
26961,-100,4,2,1,40,0,0
29139,-100,4,2,1,36,0,0
29223,-100,4,2,1,32,0,0
29307,-100,4,2,1,28,0,0
29390,-100,4,2,1,24,0,0
29474,-100,4,2,1,20,0,0
29558,-100,4,2,1,16,0,0
29643,-100,4,2,1,40,0,0
31821,-100,4,2,1,35,0,0
31905,-100,4,2,1,30,0,0
31989,-100,4,2,1,25,0,0
32156,-100,4,2,1,30,0,0
32240,-100,4,2,1,35,0,0
32324,-100,4,2,1,50,0,0
37184,-100,4,2,1,45,0,0
37268,-100,4,2,1,40,0,0
37352,-100,4,2,1,35,0,0
37519,-100,4,2,1,40,0,0
37603,-100,4,2,1,45,0,0
37687,-100,4,2,1,50,0,0
42547,-100,4,2,1,45,0,0
42631,-100,4,2,1,40,0,0
42715,-100,4,2,1,35,0,0
42882,-100,4,2,1,40,0,0
42966,-100,4,2,1,45,0,0
43051,-100,4,2,1,50,0,0
47910,-100,4,2,1,45,0,0
47994,-100,4,2,1,40,0,0
48078,-100,4,2,1,35,0,0
48245,-100,4,2,1,40,0,0
48329,-100,4,2,1,45,0,0
48414,-100,4,2,1,50,0,0
53442,-100,4,2,3,50,0,0
53777,-90.9090909090909,4,2,1,60,0,0
64503,-90.9090909090909,4,2,1,60,0,1
69531,-90.9090909090909,4,2,2,60,0,1
69615,-90.9090909090909,4,2,1,60,0,1
75229,-90.9090909090909,4,2,1,50,0,0
77911,-100,4,2,1,40,0,0
80089,-100,4,2,1,36,0,0
80173,-100,4,2,1,32,0,0
80257,-100,4,2,1,28,0,0
80340,-100,4,2,1,24,0,0
80424,-100,4,2,1,20,0,0
80508,-100,4,2,1,16,0,0
80592,-100,4,2,1,40,0,0
82771,-100,4,2,1,36,0,0
82855,-100,4,2,1,32,0,0
82939,-100,4,2,1,28,0,0
83022,-100,4,2,1,24,0,0
83106,-100,4,2,1,20,0,0
83190,-100,4,2,1,16,0,0
83274,-100,4,2,1,40,0,0
85452,-100,4,2,1,35,0,0
85536,-100,4,2,1,30,0,0
85620,-100,4,2,1,25,0,0
85787,-100,4,2,1,30,0,0
85871,-100,4,2,1,35,0,0
85956,-100,4,2,1,30,0,0
88134,-100,4,2,1,26,0,0
88218,-100,4,2,1,22,0,0
88302,-100,4,2,1,18,0,0
88385,-100,4,2,1,14,0,0
88469,-100,4,2,1,10,0,0
88553,-100,4,2,1,5,0,0
88637,-100,4,2,1,30,0,0
90815,-100,4,2,1,26,0,0
90899,-100,4,2,1,22,0,0
90983,-100,4,2,1,18,0,0
91066,-100,4,2,1,14,0,0
91150,-100,4,2,1,10,0,0
91234,-100,4,2,1,5,0,0
91319,-100,4,2,1,30,0,0
93497,-100,4,2,1,26,0,0
93581,-100,4,2,1,22,0,0
93665,-100,4,2,1,18,0,0
93748,-100,4,2,1,14,0,0
93832,-100,4,2,1,10,0,0
93916,-100,4,2,1,5,0,0
94000,-100,4,2,1,30,0,0
94671,-100,4,2,1,35,0,0
94838,-100,4,2,1,40,0,0
95006,-100,4,2,1,45,0,0
95173,-100,4,2,1,50,0,0
95341,-100,4,2,1,55,0,0
95509,-100,4,2,1,60,0,0
95676,-100,4,2,1,65,0,0
96011,-100,4,2,1,70,0,0
96347,-100,4,2,1,5,0,0

[Colours]
Combo1 : 106,106,106
Combo2 : 201,201,201

[HitObjects]
84,332,10872,6,0,P|52:280|52:96,1,225,0|0,3:0|3:0,2:0:0:0:
128,136,11877,2,0,P|156:204|148:296,1,150,0|0,3:0|3:0,2:0:0:0:
76,336,12715,1,0,3:0:0:0:
156,384,12883,2,0,L|208:372,7,37.5,0|0|0|0|0|0|0|0,1:0|1:0|1:0|1:0|1:0|1:0|1:0|1:0,2:0:0:0:
264,304,13553,6,0,L|500:332,1,225,0|0,3:0|3:0,2:0:0:0:
456,212,14559,2,0,L|304:220,1,150,0|0,3:0|3:0,2:0:0:0:
248,164,15397,1,0,3:0:0:0:
308,112,15564,2,0,L|372:128,7,37.5,0|0|0|0|0|0|0|0,1:0|1:0|1:0|1:0|1:0|1:0|1:0|1:0,2:0:0:0:
428,84,16235,6,0,L|388:324,1,225,0|0,3:0|3:0,2:0:0:0:
512,280,17240,2,0,L|496:116,1,150,0|0,3:0|3:0,2:0:0:0:
420,160,18078,1,0,3:0:0:0:
496,116,18246,2,0,L|508:64,7,37.5,0|0|0|0|0|0|0|0,1:0|1:0|1:0|1:0|1:0|1:0|1:0|1:0,2:0:0:0:
448,24,18916,6,0,B|336:12|356:104|236:84,1,225,0|0,3:0|3:0,2:0:0:0:
128,8,19922,2,0,B|116:32|92:56|92:56|124:97|140:164,1,150,0|0,3:0|3:0,2:0:0:0:
152,224,20760,1,0,3:0:0:0:
124,140,20928,2,0,L|80:124,7,37.5,0|0|0|0|0|0|0|0,1:0|1:0|1:0|1:0|1:0|1:0|1:0|1:0,2:0:0:0:
24,240,21598,6,0,L|196:212,1,150,0|2,3:0|2:3,2:0:0:0:
208,248,22101,2,0,L|356:272,1,150,0|2,3:0|2:3,2:0:0:0:
420,216,22604,1,0,3:0:0:0:
432,208,22939,6,0,B|452:144|372:152|396:60,1,150,0|2,3:0|2:3,2:0:0:0:
312,24,23442,1,0,3:0:0:0:
416,72,23609,2,0,L|460:64,7,37.5,0|0|0|0|0|0|0|0,1:0|1:0|1:0|1:0|1:0|1:0|1:0|1:0,2:0:0:0:
432,164,24280,6,0,L|268:136,1,150,0|2,3:0|2:3,2:0:0:0:
264,160,24782,2,0,L|116:185,1,150,0|2,3:0|2:3,2:0:0:0:
24,144,25285,1,0,3:0:0:0:
124,196,25620,2,0,B|143:226|143:226|133:278|133:278|128:279|128:279|115:345,1,150,0|2,3:0|2:3,2:0:0:0:
12,368,26123,1,0,3:0:0:0:
128,332,26291,2,0,L|180:348,7,37.5,0|0|0|0|0|0|0|0,1:0|1:0|1:0|1:0|1:0|1:0|1:0|1:0,2:0:0:0:
240,376,26961,6,0,L|408:336,1,150,0|2,3:0|2:3,2:0:0:0:
440,276,27464,2,0,L|400:108,1,150,0|2,3:0|2:3,2:0:0:0:
328,192,27967,1,0,3:0:0:0:
420,112,28302,2,0,B|444:96|444:96|381:80|381:80|376:84|376:84|300:64,1,150,0|2,3:0|2:3,2:0:0:0:
248,136,28805,1,0,3:0:0:0:
324,64,28972,2,0,L|368:48,7,37.5,0|0|0|0|0|0|0|0,1:0|1:0|1:0|1:0|1:0|1:0|1:0|1:0,2:0:0:0:
240,24,29643,6,0,P|184:32|124:120,1,150,0|2,3:0|2:3,2:0:0:0:
48,132,30146,2,0,P|44:192|100:276,1,150,0|2,3:0|2:3,2:0:0:0:
56,340,30648,1,0,3:0:0:0:
120,384,30983,2,0,B|191:370|191:370|199:374|199:374|290:360,1,150,0|2,3:0|2:3,2:0:0:0:
356,328,31486,1,0,3:0:0:0:
296,252,31654,2,0,L|288:216,7,37.5,0|0|0|0|0|0|0|0,1:0|1:0|1:0|1:0|1:0|1:0|1:0|1:0,2:0:0:0:
356,152,32324,6,0,L|452:160,2,75,0|0|2,3:0|2:0|2:3,2:0:0:0:
300,80,32827,1,0,3:0:0:0:
300,80,32995,2,0,B|264:76|264:76|260:80|260:80|224:76,1,75,8|2,3:0|2:3,2:0:0:0:
148,72,33330,1,0,3:0:0:0:
136,152,33497,1,0,2:0:0:0:
120,232,33665,6,0,P|76:240|40:268,1,75,0|0,3:0|2:0,2:0:0:0:
40,336,34000,1,2,2:3:0:0:
104,384,34168,2,0,L|188:368,1,75,0|8,3:0|3:0,2:0:0:0:
220,304,34503,2,0,L|204:208,1,75,0|0,2:0|3:0,2:0:0:0:
256,164,34838,1,8,3:0:0:0:
327,238,35006,6,0,L|340:312,1,75,0|0,3:0|2:0,2:0:0:0:
344,320,35257,1,0,2:0:0:0:
348,328,35341,1,2,2:3:0:0:
424,284,35509,1,0,3:0:0:0:
502,268,35676,2,0,L|496:232,2,37.5,8|0|2,3:0|2:0|2:3,2:0:0:0:
488,148,36011,1,0,3:0:0:0:
488,148,36179,1,0,2:0:0:0:
472,64,36347,6,0,B|432:72|432:72|432:76|432:76|388:84,1,75,0|0,3:0|2:0,2:0:0:0:
320,72,36682,1,2,2:3:0:0:
272,4,36849,1,0,3:0:0:0:
264,0,37017,2,0,L|216:12,7,37.5,0|0|0|0|0|0|0|0,1:0|1:0|1:0|1:0|1:0|1:0|1:0|1:0,2:0:0:0:
168,68,37687,6,0,L|76:44,2,75,0|0|2,3:0|2:0|2:3,2:0:0:0:
224,128,38190,1,0,3:0:0:0:
228,136,38358,2,0,P|216:172|204:224,1,75,8|2,3:0|2:3,2:0:0:0:
148,288,38693,5,0,3:0:0:0:
208,356,38861,1,0,2:0:0:0:
208,356,39028,2,0,P|252:344|296:340,1,75,0|8,3:0|3:0,2:0:0:0:
364,304,39531,6,0,L|348:216,1,75,0|8,3:0|3:0,2:0:0:0:
436,192,40034,6,0,L|532:176,1,75,0|0,3:0|2:0,2:0:0:0:
340,72,40537,6,0,L|352:152,1,75,0|2,2:0|2:3,2:0:0:0:
484,0,41039,6,0,L|404:12,1,75,8|2,3:0|2:3,2:0:0:0:
320,76,41542,6,0,L|240:88,1,75,0|0,2:0|3:0,2:0:0:0:
184,148,42045,5,2,2:3:0:0:
200,228,42213,1,0,3:0:0:0:
164,304,42380,2,0,L|116:320,7,37.5,0|0|0|0|0|0|0|0,1:0|1:0|1:0|1:0|1:0|1:0|1:0|1:0,2:0:0:0:
192,328,43051,6,0,P|231:331|292:352,2,75,0|0|2,3:0|2:0|2:3,2:0:0:0:
200,236,43553,1,0,3:0:0:0:
208,232,43721,2,0,P|244:241|281:244,1,75,8|2,3:0|2:3,2:0:0:0:
344,188,44056,1,0,3:0:0:0:
356,108,44224,1,0,2:0:0:0:
304,32,44391,6,0,P|264:52|224:56,1,75,0|0,3:0|2:0,2:0:0:0:
156,36,44727,1,2,2:3:0:0:
104,96,44894,2,0,L|120:180,2,75,0|8|0,3:0|3:0|2:0,2:0:0:0:
24,112,45397,2,0,L|40:196,1,75,0|8,3:0|3:0,2:0:0:0:
60,272,45732,6,0,P|104:272|144:292,1,75,0|0,3:0|2:0,2:0:0:0:
140,292,45983,1,0,2:0:0:0:
144,304,46067,1,2,2:3:0:0:
132,384,46235,1,0,3:0:0:0:
228,360,46402,1,8,3:0:0:0:
240,356,46486,1,0,2:0:0:0:
252,352,46570,2,0,P|316:360|352:376,2,75,2|0|0,2:3|3:0|2:0,2:0:0:0:
216,272,47073,6,0,B|224:236|224:236|220:232|220:232|232:176,1,75,0|0,3:0|2:0,2:0:0:0:
312,184,47408,2,0,B|304:220|304:220|308:224|308:224|296:280,1,75,2|0,2:3|3:0,2:0:0:0:
252,112,47743,2,0,L|196:128,7,37.5,0|0|0|0|0|0|0|0,1:0|1:0|1:0|1:0|1:0|1:0|1:0|1:0,2:0:0:0:
336,92,48414,6,0,P|324:144|320:192,1,75,0|0,3:0|2:0,2:0:0:0:
286,253,48749,2,0,P|323:258|360:268,1,75,2|0,2:3|3:0,2:0:0:0:
484,176,49084,2,0,P|446:170|410:161,1,75,8|2,3:0|2:3,2:0:0:0:
460,260,49419,2,0,P|436:308|416:376,1,112.5,0|0,3:0|2:0,2:0:0:0:
384,384,49754,5,0,3:0:0:0:
384,384,49922,2,0,P|360:304|332:260,1,112.5,8|0,3:0|2:0,2:0:0:0:
300,276,50257,6,0,L|208:292,1,75,0|8,3:0|3:0,2:0:0:0:
152,216,50760,6,0,L|225:203,1,75,0|0,3:0|2:0,2:0:0:0:
284,108,51263,6,0,L|192:124,1,75,0|2,2:0|2:3,2:0:0:0:
100,56,51766,6,0,L|173:44,1,75,8|2,3:0|2:3,2:0:0:0:
44,196,52268,6,0,L|31:122,1,75,0|0,2:0|3:0,2:0:0:0:
200,228,52771,6,0,L|126:240,1,75,2|0,2:3|3:0,2:0:0:0:
20,312,53106,2,0,B|56:304|80:320|80:320|100:344|148:344,1,112.5,8|0,3:0|2:0,2:0:0:0:
140,344,53442,1,0,2:0:0:0:
256,264,53777,6,0,L|236:376,1,82.5000025177003,0|0,3:0|2:0,2:0:0:0:
252,360,54028,2,0,L|356:380,1,82.5000025177003,0|0,3:0|3:2,2:0:0:0:
364,176,54447,6,0,L|252:156,1,82.5000025177003,8|0,3:0|2:0,2:0:0:0:
268,172,54699,2,0,L|248:276,1,82.5000025177003,0|0,3:0|3:2,2:0:0:0:
452,280,55118,6,0,L|472:168,1,82.5000025177003,0|0,3:0|2:0,2:0:0:0:
456,184,55369,2,0,L|352:164,1,82.5000025177003,0|0,3:0|3:2,2:0:0:0:
344,368,55788,6,0,L|456:388,1,82.5000025177003,8|0,3:0|2:0,2:0:0:0:
440,372,56039,2,0,L|460:268,1,82.5000025177003,0|0,3:0|3:0,2:0:0:0:
480,264,56291,2,0,B|476:248|476:248|472:244|472:244|464:220,2,41.2500012588501,8|8|0,3:0|3:0|3:0,2:0:0:0:
400,168,56626,5,0,2:0:0:0:
416,160,56710,1,0,3:0:0:0:
496,88,56877,2,0,B|448:68|448:68|440:68|440:68|372:40,1,123.75000377655,0|8,3:2|3:0,2:0:0:0:
300,80,57296,1,0,2:0:0:0:
296,92,57380,2,0,B|302:138|302:138|300:148|300:148|308:192,1,82.5000025177003,0|0,3:0|3:0,2:0:0:0:
272,244,57799,6,0,L|190:254,1,82.5000025177003,0|0,3:0|2:0,2:0:0:0:
182,273,58051,2,0,L|191:354,1,82.5000025177003,0|0,3:0|3:2,2:0:0:0:
112,364,58386,5,0,2:0:0:0:
112,364,58470,6,0,L|60:368,5,41.2500012588501,8|0|0|0|0|0,3:0|2:0|2:0|3:0|2:0|3:0,2:0:0:0:
200,368,58972,1,8,3:0:0:0:
208,376,59056,1,8,3:0:0:0:
216,384,59140,6,0,L|320:368,1,82.5000025177003,0|0,3:0|2:0,2:0:0:0:
312,356,59391,1,0,3:0:0:0:
198,257,59559,2,0,L|206:205,2,41.2500012588501,0|0|0,3:2|2:0|2:0,2:0:0:0:
182,273,59810,6,0,L|98:261,1,82.5000025177003,8|0,3:0|2:0,2:0:0:0:
88,244,60062,1,0,3:0:0:0:
88,136,60229,2,0,L|80:88,2,41.2500012588501,0|0|0,3:2|2:0|2:0,2:0:0:0:
168,136,60481,6,0,B|160:104|160:104|163:96|163:96|154:57,1,82.5000025177003,0|0,3:0|2:0,2:0:0:0:
168,36,60732,2,0,L|260:16,1,82.5000025177003,0|0,3:0|3:2,2:0:0:0:
268,28,60983,2,0,L|280:84,2,41.2500012588501,0|0|8,2:0|2:0|3:0,2:0:0:0:
356,108,61319,1,0,2:0:0:0:
368,104,61402,1,0,3:0:0:0:
440,28,61570,6,0,L|496:16,2,41.2500012588501,0|8|8,3:2|3:0|3:0,2:0:0:0:
428,40,61821,2,0,L|416:136,1,82.5000025177003,0|0,3:0|2:0,2:0:0:0:
428,136,62073,2,0,L|520:152,1,82.5000025177003,0|0,3:0|3:2,2:0:0:0:
504,228,62324,5,0,2:0:0:0:
492,236,62408,1,0,2:0:0:0:
480,244,62492,2,0,B|472:280|472:280|476:284|476:284|465:340,1,82.5000025177003,8|0,3:0|2:0,2:0:0:0:
460,340,62743,1,0,3:0:0:0:
360,308,62911,2,0,L|332:276,2,41.2500012588501,0|0|0,3:2|2:0|2:0,2:0:0:0:
360,332,63162,6,0,L|268:372,1,82.5000025177003,2|0,3:2|2:0,2:0:0:0:
272,360,63414,2,0,L|236:284,1,82.5000025177003,2|0,3:2|3:0,2:0:0:0:
224,280,63665,6,0,L|132:320,1,82.5000025177003,2|8,3:2|3:0,2:0:0:0:
136,308,63916,2,0,L|100:232,1,82.5000025177003,2|0,3:2|3:0,2:0:0:0:
112,196,64168,1,0,2:0:0:0:
236,268,64503,6,0,B|244:224|244:224|256:216|256:216|272:140,1,123.75000377655,0|0,3:0|3:0,2:0:0:0:
368,252,64922,1,2,3:2:0:0:
360,144,65090,5,0,2:0:0:0:
368,140,65173,2,0,B|412:148|412:148|420:160|420:160|496:176,1,123.75000377655,8|0,3:0|3:0,2:0:0:0:
364,256,65592,1,2,3:2:0:0:
512,248,65760,5,0,2:0:0:0:
504,256,65844,2,0,B|496:300|496:300|484:308|484:308|468:384,1,123.75000377655,0|0,3:0|3:0,2:0:0:0:
372,256,66263,1,2,3:2:0:0:
380,380,66430,5,0,2:0:0:0:
372,384,66514,2,0,B|328:376|328:376|320:364|320:364|268:352,1,82.5000025177003,8|0,3:0|2:0,2:0:0:0:
216,360,66849,2,0,L|240:256,1,82.5000025177003,0|8,2:0|3:0,2:0:0:0:
176,224,67101,1,8,3:0:0:0:
168,220,67185,6,0,B|226:206|226:206|232:208|232:208|300:192,1,123.75000377655,0|0,3:0|3:0,2:0:0:0:
360,120,67604,1,2,3:2:0:0:
271,64,67771,1,0,2:0:0:0:
267,72,67855,6,0,B|275:129|275:129|280:134|280:134|293:220,1,123.75000377655,8|0,3:0|3:0,2:0:0:0:
388,232,68274,1,2,3:2:0:0:
436,148,68442,1,0,2:0:0:0:
428,140,68525,6,0,P|364:136|300:196,1,123.75000377655,0|0,3:0|3:0,2:0:0:0:
280,144,68944,2,0,B|272:104|272:104|268:100|268:100|260:52,1,82.5000025177003,2|0,3:2|2:0,2:0:0:0:
344,0,69196,2,0,B|352:40|352:40|356:44|356:44|364:92,1,82.5000025177003,8|0,3:0|2:0,2:0:0:0:
396,152,69531,6,0,L|360:244,1,82.5000025177003,2|8,2:0|3:0,2:0:0:0:
296,284,69782,1,8,3:0:0:0:
288,292,69866,6,0,B|240:280|240:280|232:284|232:284|148:264,1,123.75000377655,0|0,3:0|3:0,2:0:0:0:
64,332,70285,1,2,3:2:0:0:
176,264,70453,1,0,2:0:0:0:
184,260,70537,6,0,B|192:232|192:232|180:196|180:196|172:192|172:192|152:132,1,123.75000377655,8|0,3:0|3:0,2:0:0:0:
64,208,70956,1,2,3:2:0:0:
88,68,71123,1,0,2:0:0:0:
84,64,71207,6,0,B|72:52|72:52|128:56|128:56|132:60|132:60|184:64,1,123.75000377655,0|0,3:0|3:0,2:0:0:0:
256,140,71626,1,2,3:2:0:0:
172,56,71794,1,0,2:0:0:0:
168,48,71877,6,0,B|208:40|208:40|212:36|212:36|284:20,2,82.5000025177003,8|0|0,3:0|2:0|2:0,2:0:0:0:
68,132,72380,1,8,3:0:0:0:
64,140,72464,1,8,3:0:0:0:
60,148,72548,6,0,B|70:209|70:209|68:212|68:212|80:288,1,123.75000377655,0|0,3:0|3:0,2:0:0:0:
16,344,72967,1,2,3:2:0:0:
160,312,73134,1,0,2:0:0:0:
172,308,73218,6,0,P|228:316|292:352,1,123.75000377655,8|0,3:0|3:0,2:0:0:0:
380,304,73637,1,2,3:2:0:0:
320,132,73805,1,0,2:0:0:0:
308,140,73889,6,0,B|280:164|280:164|291:203|291:203|296:204|296:204|312:264,1,123.75000377655,0|0,3:0|3:0,2:0:0:0:
384,312,74308,2,0,B|424:320|424:320|428:324|428:324|476:336,1,82.5000025177003,2|0,3:2|2:0,2:0:0:0:
484,324,74559,5,10,3:2:0:0:
464,236,74727,1,2,3:2:0:0:
440,148,74894,2,0,B|458:138|458:138|464:140|464:140|488:128,4,41.2500012588501,0|0|0|0|4,2:0|2:0|2:0|2:0|3:2,2:0:0:0:
256,192,75313,12,0,77240,1:0:0:0:
416,172,77911,6,0,P|448:224|448:408,1,225,0|0,3:0|3:0,2:0:0:0:
372,368,78916,2,0,P|344:300|352:208,1,150,0|0,3:0|3:0,2:0:0:0:
424,168,79754,1,0,3:0:0:0:
344,120,79922,2,0,L|292:132,7,37.5,0|0|0|0|0|0|0|0,1:0|1:0|1:0|1:0|1:0|1:0|1:0|1:0,2:0:0:0:
224,100,80592,6,0,L|260:324,1,225,0|0,3:0|3:0,2:0:0:0:
120,304,81598,2,0,L|132:152,1,150,0|0,3:0|3:0,2:0:0:0:
40,208,82436,1,0,3:0:0:0:
136,144,82604,2,0,L|192:132,7,37.5,0|0|0|0|0|0|0|0,1:0|1:0|1:0|1:0|1:0|1:0|1:0|1:0,2:0:0:0:
256,48,83274,6,0,L|24:40,1,225,0|0,3:0|3:0,2:0:0:0:
64,132,84280,2,0,L|213:137,1,150,0|0,3:0|3:0,2:0:0:0:
128,232,85118,1,0,3:0:0:0:
224,144,85285,2,0,L|268:136,7,37.5,0|0|0|0|0|0|0|0,1:0|1:0|1:0|1:0|1:0|1:0|1:0|1:0,2:0:0:0:
364,56,85956,6,0,L|332:288,1,225,0|0,3:0|3:0,2:0:0:0:
372,376,86961,2,0,B|416:364|416:364|432:308|432:308|496:292,1,150,0|0,3:0|3:0,2:0:0:0:
476,296,87799,1,0,3:0:0:0:
468,204,87967,2,0,L|460:136,7,37.5,0|0|0|0|0|0|0|0,1:0|1:0|1:0|1:0|1:0|1:0|1:0|1:0,2:0:0:0:
488,80,88637,6,0,B|496:60|512:48|512:48|492:44|492:44|316:64,1,225,0|0,3:0|3:0,2:0:0:0:
220,100,89643,2,0,P|208:140|284:116,1,150,0|0,3:0|3:0,2:0:0:0:
372,208,90481,1,0,3:0:0:0:
304,272,90648,2,0,L|260:256,7,37.5,0|0|0|0|0|0|0|0,1:0|1:0|1:0|1:0|1:0|1:0|1:0|1:0,2:0:0:0:
332,348,91319,6,0,B|419:335|419:335|424:336|424:336|508:324|508:324|512:313|512:313|500:264,1,225,0|0,3:0|3:0,2:0:0:0:
408,236,92324,2,0,B|420:304|420:304|416:308|416:308|432:400,1,150,0|0,3:0|3:0,2:0:0:0:
336,300,93162,1,0,3:0:0:0:
412,228,93330,2,0,B|432:220|432:220|436:224|436:224|460:216,7,37.5,0|0|0|0|0|0|0|0,1:0|1:0|1:0|1:0|1:0|1:0|1:0|1:0,2:0:0:0:
500,164,94000,6,0,P|384:176|272:112,1,225,0|0,3:0|3:0,2:0:0:0:
216,220,95006,2,0,B|228:292|228:292|224:292|224:292|240:380,1,150,0|0,3:0|3:0,2:0:0:0:
304,248,95676,2,0,B|330:240|330:240|344:244|344:244|392:232,1,75,2|0,2:3|3:0,2:0:0:0:
488,176,96011,6,0,B|476:124|418:132|404:148|387:147|375:135|373:113|398:100|414:118,1,150,2|0,2:0|2:0,2:0:0:0:
