osu file format v14

[General]
AudioFilename: audio.mp3
AudioLeadIn: 0
PreviewTime: 33553
Countdown: 1
SampleSet: Normal
StackLeniency: 0.7
Mode: 1
LetterboxInBreaks: 0
WidescreenStoryboard: 0

[Editor]
DistanceSpacing: 1.3
BeatDivisor: 2
GridSize: 32
TimelineZoom: 2.799999

[Metadata]
Title:Credits
TitleUnicode:Credits
Artist:Frums
ArtistUnicode:Frums
Creator:fanhoho
Version:Oni
Source:
Tags:BOFU2015 maimai
BeatmapID:2047196
BeatmapSetID:978216

[Difficulty]
HPDrainRate:6
CircleSize:5
OverallDifficulty:7
ApproachRate:5
SliderMultiplier:0.7
SliderTickRate:1

[Events]
//Background and Video events
0,0,"maxresdefault.jpg",0,0
//Break Periods
//Storyboard Layer 0 (Background)
//Storyboard Layer 1 (Fail)
//Storyboard Layer 2 (Pass)
//Storyboard Layer 3 (Foreground)
//Storyboard Sound Samples

[TimingPoints]
1375,167.597765363129,8,1,0,100,1,0
33553,-100,8,1,0,100,0,0
54671,-25,8,1,0,100,0,1
55006,-100,8,1,0,100,0,0
76458,-100,8,1,0,100,0,0

[HitObjects]
256,192,1375,5,0,0:0:0:0:
256,192,1542,1,0,0:0:0:0:
256,192,1710,1,0,0:0:0:0:
256,192,1877,1,0,0:0:0:0:
256,192,2045,1,0,0:0:0:0:
256,192,2212,1,0,0:0:0:0:
256,192,2380,1,0,0:0:0:0:
256,192,2548,1,0,0:0:0:0:
256,192,2715,1,0,0:0:0:0:
256,192,2883,1,0,0:0:0:0:
256,192,3050,1,0,0:0:0:0:
256,192,3218,1,0,0:0:0:0:
256,192,3302,1,0,0:0:0:0:
256,192,3386,1,2,0:0:0:0:
256,192,3497,1,2,0:0:0:0:
256,192,3609,1,2,0:0:0:0:
256,192,3721,1,2,0:0:0:0:
256,192,3833,1,2,0:0:0:0:
256,192,3944,1,2,0:0:0:0:
256,192,4056,1,0,0:0:0:0:
256,192,4223,1,0,0:0:0:0:
256,192,4391,1,0,0:0:0:0:
256,192,4558,1,0,0:0:0:0:
256,192,4726,1,0,0:0:0:0:
256,192,4893,1,0,0:0:0:0:
256,192,5061,1,0,0:0:0:0:
256,192,5229,1,0,0:0:0:0:
256,192,5396,1,0,0:0:0:0:
256,192,5564,1,0,0:0:0:0:
256,192,5731,1,0,0:0:0:0:
256,192,5899,1,0,0:0:0:0:
256,192,5983,1,0,0:0:0:0:
256,192,6067,1,2,0:0:0:0:
256,192,6178,1,2,0:0:0:0:
256,192,6290,1,2,0:0:0:0:
256,192,6402,1,2,0:0:0:0:
256,192,6514,1,2,0:0:0:0:
256,192,6625,1,2,0:0:0:0:
256,192,6738,1,0,0:0:0:0:
256,192,6905,1,0,0:0:0:0:
256,192,7073,1,0,0:0:0:0:
256,192,7240,1,0,0:0:0:0:
256,192,7408,1,0,0:0:0:0:
256,192,7575,1,0,0:0:0:0:
256,192,7743,1,0,0:0:0:0:
256,192,7911,1,0,0:0:0:0:
256,192,8078,1,0,0:0:0:0:
256,192,8246,1,0,0:0:0:0:
256,192,8413,1,0,0:0:0:0:
256,192,8581,1,0,0:0:0:0:
256,192,8665,1,0,0:0:0:0:
256,192,8749,1,2,0:0:0:0:
256,192,8860,1,2,0:0:0:0:
256,192,8972,1,2,0:0:0:0:
256,192,9084,1,2,0:0:0:0:
256,192,9196,1,2,0:0:0:0:
256,192,9307,1,2,0:0:0:0:
256,192,9419,1,0,0:0:0:0:
256,192,9586,1,0,0:0:0:0:
256,192,9754,1,0,0:0:0:0:
256,192,9921,1,0,0:0:0:0:
256,192,10089,1,0,0:0:0:0:
256,192,10256,1,0,0:0:0:0:
256,192,10424,1,0,0:0:0:0:
256,192,10592,1,0,0:0:0:0:
256,192,10759,1,0,0:0:0:0:
256,192,10927,1,0,0:0:0:0:
256,192,11094,1,0,0:0:0:0:
256,192,11262,1,0,0:0:0:0:
256,192,11346,1,0,0:0:0:0:
256,192,11430,1,2,0:0:0:0:
256,192,11541,1,2,0:0:0:0:
256,192,11653,1,2,0:0:0:0:
256,192,11765,1,2,0:0:0:0:
256,192,11877,1,2,0:0:0:0:
256,192,11988,1,2,0:0:0:0:
256,192,12101,1,0,0:0:0:0:
256,192,12436,1,2,0:0:0:0:
256,192,12520,1,2,0:0:0:0:
256,192,12604,1,0,0:0:0:0:
256,192,12939,1,2,0:0:0:0:
256,192,13023,1,2,0:0:0:0:
256,192,13106,1,0,0:0:0:0:
256,192,13274,1,0,0:0:0:0:
256,192,13442,1,0,0:0:0:0:
256,192,13693,1,2,0:0:0:0:
256,192,13777,1,0,0:0:0:0:
256,192,13944,1,0,0:0:0:0:
256,192,14028,1,0,0:0:0:0:
256,192,14112,1,2,0:0:0:0:
256,192,14154,1,0,0:0:0:0:
256,192,14196,1,2,0:0:0:0:
256,192,14280,1,0,0:0:0:0:
256,192,14363,1,2,0:0:0:0:
256,192,14447,1,0,0:0:0:0:
256,192,14531,1,2,0:0:0:0:
256,192,14615,1,0,0:0:0:0:
256,192,14699,1,2,0:0:0:0:
256,192,14782,1,0,0:0:0:0:
256,192,15117,1,2,0:0:0:0:
256,192,15201,1,2,0:0:0:0:
256,192,15285,1,0,0:0:0:0:
256,192,15620,1,2,0:0:0:0:
256,192,15704,1,2,0:0:0:0:
256,192,15787,1,0,0:0:0:0:
256,192,15955,1,0,0:0:0:0:
256,192,16123,1,0,0:0:0:0:
256,192,16374,1,2,0:0:0:0:
256,192,16458,1,0,0:0:0:0:
256,192,16625,1,0,0:0:0:0:
256,192,16709,1,0,0:0:0:0:
256,192,16793,1,2,0:0:0:0:
256,192,16835,1,0,0:0:0:0:
256,192,16877,1,2,0:0:0:0:
256,192,16961,1,0,0:0:0:0:
256,192,17044,1,2,0:0:0:0:
256,192,17128,1,0,0:0:0:0:
256,192,17212,1,2,0:0:0:0:
256,192,17296,1,0,0:0:0:0:
256,192,17380,1,2,0:0:0:0:
256,192,17464,1,0,0:0:0:0:
256,192,17799,1,2,0:0:0:0:
256,192,17883,1,2,0:0:0:0:
256,192,17967,1,0,0:0:0:0:
256,192,18302,1,2,0:0:0:0:
256,192,18386,1,2,0:0:0:0:
256,192,18469,1,0,0:0:0:0:
256,192,18637,1,0,0:0:0:0:
256,192,18805,1,0,0:0:0:0:
256,192,19056,1,2,0:0:0:0:
256,192,19140,1,0,0:0:0:0:
256,192,19307,1,0,0:0:0:0:
256,192,19391,1,0,0:0:0:0:
256,192,19475,1,2,0:0:0:0:
256,192,19517,1,0,0:0:0:0:
256,192,19559,1,2,0:0:0:0:
256,192,19643,1,0,0:0:0:0:
256,192,19726,1,2,0:0:0:0:
256,192,19810,1,0,0:0:0:0:
256,192,19894,1,2,0:0:0:0:
256,192,19978,1,0,0:0:0:0:
256,192,20062,1,2,0:0:0:0:
256,192,20145,1,0,0:0:0:0:
256,192,20480,1,2,0:0:0:0:
256,192,20564,1,2,0:0:0:0:
256,192,20648,1,0,0:0:0:0:
256,192,20983,1,2,0:0:0:0:
256,192,21067,1,2,0:0:0:0:
256,192,21150,1,0,0:0:0:0:
256,192,21318,1,0,0:0:0:0:
256,192,21486,1,0,0:0:0:0:
256,192,21737,1,2,0:0:0:0:
256,192,21821,1,0,0:0:0:0:
256,192,21988,1,0,0:0:0:0:
256,192,22072,1,0,0:0:0:0:
256,192,22156,1,2,0:0:0:0:
256,192,22198,1,0,0:0:0:0:
256,192,22240,1,2,0:0:0:0:
256,192,22324,1,0,0:0:0:0:
256,192,22407,1,2,0:0:0:0:
256,192,22491,1,0,0:0:0:0:
256,192,22575,1,2,0:0:0:0:
256,192,22659,1,0,0:0:0:0:
256,192,22743,1,2,0:0:0:0:
256,192,22827,1,0,0:0:0:0:
256,192,22995,1,0,0:0:0:0:
256,192,23162,1,2,0:0:0:0:
256,192,23204,1,2,0:0:0:0:
256,192,23330,1,0,0:0:0:0:
256,192,23497,1,0,0:0:0:0:
256,192,23665,1,2,0:0:0:0:
256,192,23707,1,2,0:0:0:0:
256,192,23833,1,0,0:0:0:0:
256,192,23944,1,0,0:0:0:0:
256,192,24056,1,0,0:0:0:0:
256,192,24168,1,0,0:0:0:0:
256,192,24335,1,0,0:0:0:0:
256,192,24419,1,0,0:0:0:0:
256,192,24503,1,2,0:0:0:0:
256,192,24671,1,0,0:0:0:0:
256,192,24754,1,0,0:0:0:0:
256,192,24838,1,2,0:0:0:0:
256,192,24880,1,0,0:0:0:0:
256,192,24922,1,2,0:0:0:0:
256,192,25006,1,0,0:0:0:0:
256,192,25090,1,2,0:0:0:0:
256,192,25173,1,0,0:0:0:0:
256,192,25257,1,2,0:0:0:0:
256,192,25341,1,0,0:0:0:0:
256,192,25425,1,2,0:0:0:0:
256,192,25509,1,0,0:0:0:0:
256,192,25677,1,0,0:0:0:0:
256,192,25844,1,2,0:0:0:0:
256,192,25886,1,2,0:0:0:0:
256,192,26012,1,0,0:0:0:0:
256,192,26179,1,0,0:0:0:0:
256,192,26347,1,2,0:0:0:0:
256,192,26389,1,2,0:0:0:0:
256,192,26515,1,0,0:0:0:0:
256,192,26626,1,0,0:0:0:0:
256,192,26738,1,0,0:0:0:0:
256,192,26850,1,0,0:0:0:0:
256,192,27017,1,0,0:0:0:0:
256,192,27101,1,0,0:0:0:0:
256,192,27185,1,2,0:0:0:0:
256,192,27353,1,0,0:0:0:0:
256,192,27436,1,0,0:0:0:0:
256,192,27520,1,2,0:0:0:0:
256,192,27562,1,0,0:0:0:0:
256,192,27604,1,2,0:0:0:0:
256,192,27688,1,0,0:0:0:0:
256,192,27772,1,2,0:0:0:0:
256,192,27855,1,0,0:0:0:0:
256,192,27939,1,2,0:0:0:0:
256,192,28023,1,0,0:0:0:0:
256,192,28107,1,2,0:0:0:0:
256,192,28190,1,0,0:0:0:0:
256,192,28358,1,0,0:0:0:0:
256,192,28525,1,2,0:0:0:0:
256,192,28567,1,2,0:0:0:0:
256,192,28693,1,0,0:0:0:0:
256,192,28860,1,0,0:0:0:0:
256,192,29028,1,2,0:0:0:0:
256,192,29070,1,2,0:0:0:0:
256,192,29196,1,0,0:0:0:0:
256,192,29307,1,0,0:0:0:0:
256,192,29419,1,0,0:0:0:0:
256,192,29531,1,0,0:0:0:0:
256,192,29698,1,0,0:0:0:0:
256,192,29782,1,0,0:0:0:0:
256,192,29866,1,2,0:0:0:0:
256,192,30034,1,0,0:0:0:0:
256,192,30117,1,0,0:0:0:0:
256,192,30201,1,2,0:0:0:0:
256,192,30243,1,0,0:0:0:0:
256,192,30285,1,2,0:0:0:0:
256,192,30369,1,0,0:0:0:0:
256,192,30453,1,2,0:0:0:0:
256,192,30536,1,0,0:0:0:0:
256,192,30620,1,2,0:0:0:0:
256,192,30704,1,0,0:0:0:0:
256,192,30788,1,2,0:0:0:0:
256,192,30872,1,0,0:0:0:0:
256,192,31040,1,0,0:0:0:0:
256,192,31207,1,2,0:0:0:0:
256,192,31249,1,2,0:0:0:0:
256,192,31375,1,0,0:0:0:0:
256,192,31542,1,0,0:0:0:0:
256,192,31710,1,2,0:0:0:0:
256,192,31752,1,2,0:0:0:0:
256,192,31878,1,0,0:0:0:0:
256,192,31989,1,0,0:0:0:0:
256,192,32101,1,0,0:0:0:0:
256,192,32213,1,0,0:0:0:0:
256,192,32380,1,0,0:0:0:0:
256,192,32464,1,0,0:0:0:0:
256,192,32548,1,2,0:0:0:0:
256,192,32716,1,0,0:0:0:0:
256,192,32799,1,0,0:0:0:0:
256,192,32883,1,2,0:0:0:0:
256,192,32925,1,0,0:0:0:0:
256,192,32967,1,2,0:0:0:0:
256,192,33051,1,0,0:0:0:0:
256,192,33135,1,2,0:0:0:0:
256,192,33218,1,0,0:0:0:0:
256,192,33302,1,2,0:0:0:0:
256,192,33386,1,0,0:0:0:0:
256,192,33470,1,2,0:0:0:0:
256,192,33511,1,2,0:0:0:0:
256,192,33553,1,2,0:0:0:0:
256,192,33595,1,2,0:0:0:0:
256,192,33721,1,0,0:0:0:0:
256,192,33888,1,0,0:0:0:0:
256,192,34056,1,2,0:0:0:0:
256,192,34098,1,2,0:0:0:0:
256,192,34224,1,0,0:0:0:0:
256,192,34391,1,0,0:0:0:0:
256,192,34559,1,2,0:0:0:0:
256,192,34601,1,2,0:0:0:0:
256,192,34727,1,0,0:0:0:0:
256,192,34894,1,2,0:0:0:0:
256,192,35062,1,0,0:0:0:0:
256,192,35145,1,0,0:0:0:0:
256,192,35229,1,2,0:0:0:0:
256,192,35397,1,0,0:0:0:0:
256,192,35481,1,0,0:0:0:0:
256,192,35564,1,2,0:0:0:0:
256,192,35606,1,0,0:0:0:0:
256,192,35732,1,2,0:0:0:0:
256,192,35774,1,0,0:0:0:0:
256,192,35900,1,2,0:0:0:0:
256,192,35942,1,0,0:0:0:0:
256,192,36067,1,2,0:0:0:0:
256,192,36109,1,0,0:0:0:0:
256,192,36235,1,2,0:0:0:0:
256,192,36402,1,2,0:0:0:0:
256,192,36486,1,2,0:0:0:0:
256,192,36570,1,2,0:0:0:0:
256,192,36654,1,2,0:0:0:0:
256,192,36738,1,0,0:0:0:0:
256,192,36905,1,2,0:0:0:0:
256,192,36947,1,2,0:0:0:0:
256,192,36989,1,2,0:0:0:0:
256,192,37031,1,2,0:0:0:0:
256,192,37073,1,2,0:0:0:0:
256,192,37115,1,2,0:0:0:0:
256,192,37157,1,2,0:0:0:0:
256,192,37240,1,0,0:0:0:0:
256,192,37408,1,2,0:0:0:0:
256,192,37450,1,2,0:0:0:0:
256,192,37492,1,2,0:0:0:0:
256,192,37576,1,0,0:0:0:0:
256,192,37743,1,2,0:0:0:0:
256,192,37911,1,0,0:0:0:0:
256,192,38078,1,2,0:0:0:0:
256,192,38246,1,0,0:0:0:0:
256,192,38330,1,0,0:0:0:0:
256,192,38413,1,0,0:0:0:0:
256,192,38497,1,0,0:0:0:0:
256,192,38581,1,0,0:0:0:0:
256,192,38749,1,2,0:0:0:0:
256,192,38916,1,2,0:0:0:0:
256,192,38958,1,2,0:0:0:0:
256,192,39084,1,0,0:0:0:0:
256,192,39251,1,0,0:0:0:0:
256,192,39419,1,2,0:0:0:0:
256,192,39461,1,2,0:0:0:0:
256,192,39587,1,0,0:0:0:0:
256,192,39754,1,0,0:0:0:0:
256,192,39922,1,2,0:0:0:0:
256,192,39964,1,2,0:0:0:0:
256,192,40090,1,0,0:0:0:0:
256,192,40257,1,2,0:0:0:0:
256,192,40299,1,2,0:0:0:0:
256,192,40341,1,2,0:0:0:0:
256,192,40382,1,2,0:0:0:0:
256,192,40424,1,0,0:0:0:0:
256,192,40760,1,2,0:0:0:0:
256,192,40802,1,2,0:0:0:0:
256,192,40844,1,2,0:0:0:0:
256,192,40885,1,2,0:0:0:0:
256,192,40927,1,0,0:0:0:0:
256,192,41263,1,2,0:0:0:0:
256,192,41305,1,2,0:0:0:0:
256,192,41347,1,2,0:0:0:0:
256,192,41388,1,2,0:0:0:0:
256,192,41430,1,0,0:0:0:0:
256,192,41766,1,2,0:0:0:0:
256,192,41808,1,2,0:0:0:0:
256,192,41850,1,2,0:0:0:0:
256,192,41891,1,2,0:0:0:0:
256,192,41933,1,0,0:0:0:0:
256,192,42268,1,2,0:0:0:0:
256,192,42310,1,2,0:0:0:0:
256,192,42352,1,2,0:0:0:0:
256,192,42393,1,2,0:0:0:0:
256,192,42435,1,0,0:0:0:0:
256,192,42771,1,2,0:0:0:0:
256,192,42813,1,2,0:0:0:0:
256,192,42855,1,2,0:0:0:0:
256,192,42896,1,2,0:0:0:0:
256,192,42938,1,0,0:0:0:0:
256,192,43274,1,2,0:0:0:0:
256,192,43316,1,2,0:0:0:0:
256,192,43358,1,2,0:0:0:0:
256,192,43399,1,2,0:0:0:0:
256,192,43441,1,0,0:0:0:0:
256,192,43777,1,2,0:0:0:0:
256,192,43819,1,2,0:0:0:0:
256,192,43861,1,2,0:0:0:0:
256,192,43902,1,2,0:0:0:0:
256,192,43944,1,0,0:0:0:0:
256,192,44280,1,2,0:0:0:0:
256,192,44322,1,2,0:0:0:0:
256,192,44448,1,0,0:0:0:0:
256,192,44615,1,0,0:0:0:0:
256,192,44783,1,2,0:0:0:0:
256,192,44825,1,2,0:0:0:0:
256,192,44951,1,0,0:0:0:0:
256,192,45118,1,0,0:0:0:0:
256,192,45286,1,2,0:0:0:0:
256,192,45328,1,2,0:0:0:0:
256,192,45454,1,0,0:0:0:0:
256,192,45621,1,2,0:0:0:0:
256,192,45789,1,0,0:0:0:0:
256,192,45872,1,0,0:0:0:0:
256,192,45956,1,2,0:0:0:0:
256,192,46124,1,0,0:0:0:0:
256,192,46208,1,0,0:0:0:0:
256,192,46291,1,2,0:0:0:0:
256,192,46333,1,0,0:0:0:0:
256,192,46459,1,2,0:0:0:0:
256,192,46501,1,0,0:0:0:0:
256,192,46627,1,2,0:0:0:0:
256,192,46669,1,0,0:0:0:0:
256,192,46794,1,2,0:0:0:0:
256,192,46836,1,0,0:0:0:0:
256,192,46962,1,2,0:0:0:0:
256,192,47129,1,2,0:0:0:0:
256,192,47213,1,2,0:0:0:0:
256,192,47297,1,2,0:0:0:0:
256,192,47381,1,2,0:0:0:0:
256,192,47465,1,0,0:0:0:0:
256,192,47632,1,2,0:0:0:0:
256,192,47674,1,2,0:0:0:0:
256,192,47716,1,2,0:0:0:0:
256,192,47758,1,2,0:0:0:0:
256,192,47800,1,2,0:0:0:0:
256,192,47842,1,2,0:0:0:0:
256,192,47884,1,2,0:0:0:0:
256,192,47967,1,0,0:0:0:0:
256,192,48135,1,2,0:0:0:0:
256,192,48177,1,2,0:0:0:0:
256,192,48219,1,2,0:0:0:0:
256,192,48303,1,0,0:0:0:0:
256,192,48470,1,2,0:0:0:0:
256,192,48638,1,0,0:0:0:0:
256,192,48805,1,2,0:0:0:0:
256,192,48973,1,0,0:0:0:0:
256,192,49057,1,0,0:0:0:0:
256,192,49140,1,0,0:0:0:0:
256,192,49224,1,0,0:0:0:0:
256,192,49308,1,0,0:0:0:0:
256,192,49476,1,2,0:0:0:0:
256,192,49643,1,2,0:0:0:0:
256,192,49685,1,2,0:0:0:0:
256,192,49811,1,0,0:0:0:0:
256,192,49978,1,0,0:0:0:0:
256,192,50146,1,2,0:0:0:0:
256,192,50188,1,2,0:0:0:0:
256,192,50314,1,0,0:0:0:0:
256,192,50481,1,0,0:0:0:0:
256,192,50649,1,2,0:0:0:0:
256,192,50691,1,2,0:0:0:0:
256,192,50817,1,0,0:0:0:0:
256,192,50984,1,2,0:0:0:0:
256,192,51026,1,2,0:0:0:0:
256,192,51068,1,2,0:0:0:0:
256,192,51109,1,2,0:0:0:0:
256,192,51151,1,0,0:0:0:0:
256,192,51487,1,2,0:0:0:0:
256,192,51529,1,2,0:0:0:0:
256,192,51571,1,2,0:0:0:0:
256,192,51612,1,2,0:0:0:0:
256,192,51654,1,0,0:0:0:0:
256,192,51990,1,2,0:0:0:0:
256,192,52032,1,2,0:0:0:0:
256,192,52074,1,2,0:0:0:0:
256,192,52115,1,2,0:0:0:0:
256,192,52157,1,0,0:0:0:0:
256,192,52493,1,2,0:0:0:0:
256,192,52535,1,2,0:0:0:0:
256,192,52577,1,2,0:0:0:0:
256,192,52618,1,2,0:0:0:0:
256,192,52660,1,0,0:0:0:0:
256,192,52995,1,2,0:0:0:0:
256,192,53037,1,2,0:0:0:0:
256,192,53079,1,2,0:0:0:0:
256,192,53120,1,2,0:0:0:0:
256,192,53162,1,0,0:0:0:0:
256,192,53498,1,2,0:0:0:0:
256,192,53540,1,2,0:0:0:0:
256,192,53582,1,2,0:0:0:0:
256,192,53623,1,2,0:0:0:0:
256,192,53665,1,0,0:0:0:0:
256,192,54001,1,2,0:0:0:0:
256,192,54043,1,2,0:0:0:0:
256,192,54085,1,2,0:0:0:0:
256,192,54126,1,2,0:0:0:0:
256,192,54168,1,0,0:0:0:0:
256,192,54335,1,4,0:0:0:0:
256,192,54671,1,6,0:0:0:0:
256,192,54838,1,6,0:0:0:0:
256,192,55006,1,0,0:0:0:0:
256,192,55173,1,2,0:0:0:0:
256,192,55257,1,2,0:0:0:0:
256,192,55425,1,2,0:0:0:0:
256,192,55676,1,0,0:0:0:0:
256,192,55843,1,2,0:0:0:0:
256,192,55927,1,2,0:0:0:0:
256,192,56095,1,2,0:0:0:0:
256,192,56347,1,0,0:0:0:0:
256,192,56514,1,2,0:0:0:0:
256,192,56598,1,2,0:0:0:0:
256,192,56766,1,2,0:0:0:0:
256,192,57017,1,0,0:0:0:0:
256,192,57184,1,2,0:0:0:0:
256,192,57268,1,2,0:0:0:0:
256,192,57436,1,2,0:0:0:0:
256,192,57520,1,2,0:0:0:0:
256,192,57604,1,2,0:0:0:0:
256,192,57687,1,0,0:0:0:0:
256,192,57854,1,2,0:0:0:0:
256,192,57938,1,2,0:0:0:0:
256,192,58106,1,2,0:0:0:0:
256,192,58358,1,0,0:0:0:0:
256,192,58525,1,2,0:0:0:0:
256,192,58609,1,2,0:0:0:0:
256,192,58777,1,2,0:0:0:0:
256,192,59028,1,0,0:0:0:0:
256,192,59195,1,2,0:0:0:0:
256,192,59279,1,2,0:0:0:0:
256,192,59447,1,2,0:0:0:0:
256,192,59699,1,0,0:0:0:0:
256,192,59782,1,0,0:0:0:0:
256,192,59866,1,2,0:0:0:0:
256,192,59950,1,2,0:0:0:0:
256,192,60034,1,0,0:0:0:0:
256,192,60118,1,2,0:0:0:0:
256,192,60201,1,2,0:0:0:0:
256,192,60285,1,2,0:0:0:0:
256,192,60369,1,0,0:0:0:0:
256,192,60537,1,2,0:0:0:0:
256,192,60620,1,2,0:0:0:0:
256,192,60788,1,2,0:0:0:0:
256,192,60872,1,2,0:0:0:0:
256,192,60956,1,2,0:0:0:0:
256,192,61039,1,0,0:0:0:0:
256,192,61207,1,2,0:0:0:0:
256,192,61291,1,2,0:0:0:0:
256,192,61458,1,2,0:0:0:0:
256,192,61542,1,0,0:0:0:0:
256,192,61626,1,0,0:0:0:0:
256,192,61710,1,0,0:0:0:0:
256,192,61878,1,2,0:0:0:0:
256,192,61961,1,2,0:0:0:0:
256,192,62129,1,2,0:0:0:0:
256,192,62213,1,2,0:0:0:0:
256,192,62297,1,2,0:0:0:0:
256,192,62380,1,0,0:0:0:0:
256,192,62548,1,2,0:0:0:0:
256,192,62632,1,2,0:0:0:0:
256,192,62799,1,2,0:0:0:0:
256,192,62883,1,0,0:0:0:0:
256,192,62967,1,0,0:0:0:0:
256,192,63050,1,0,0:0:0:0:
256,192,63218,1,2,0:0:0:0:
256,192,63301,1,2,0:0:0:0:
256,192,63469,1,2,0:0:0:0:
256,192,63553,1,2,0:0:0:0:
256,192,63637,1,2,0:0:0:0:
256,192,63720,1,0,0:0:0:0:
256,192,63888,1,2,0:0:0:0:
256,192,63972,1,2,0:0:0:0:
256,192,64139,1,2,0:0:0:0:
256,192,64223,1,0,0:0:0:0:
256,192,64307,1,0,0:0:0:0:
256,192,64391,1,0,0:0:0:0:
256,192,64475,1,2,0:0:0:0:
256,192,64643,1,0,0:0:0:0:
256,192,64726,1,2,0:0:0:0:
256,192,64894,1,0,0:0:0:0:
256,192,64978,1,2,0:0:0:0:
256,192,65062,1,0,0:0:0:0:
256,192,65145,1,2,0:0:0:0:
256,192,65313,1,2,0:0:0:0:
256,192,65397,1,0,0:0:0:0:
256,192,65732,1,2,0:0:0:0:
256,192,65816,1,0,0:0:0:0:
256,192,65900,1,0,0:0:0:0:
256,192,65983,1,2,0:0:0:0:
256,192,66067,1,0,0:0:0:0:
256,192,66151,1,0,0:0:0:0:
256,192,66235,1,2,0:0:0:0:
256,192,66319,1,0,0:0:0:0:
256,192,66402,1,2,0:0:0:0:
256,192,66486,1,0,0:0:0:0:
256,192,66570,1,0,0:0:0:0:
256,192,66653,1,2,0:0:0:0:
256,192,66737,1,0,0:0:0:0:
256,192,66821,1,0,0:0:0:0:
256,192,66905,1,2,0:0:0:0:
256,192,66989,1,0,0:0:0:0:
256,192,67073,1,2,0:0:0:0:
256,192,67157,1,0,0:0:0:0:
256,192,67241,1,0,0:0:0:0:
256,192,67324,1,2,0:0:0:0:
256,192,67408,1,0,0:0:0:0:
256,192,67492,1,0,0:0:0:0:
256,192,67576,1,2,0:0:0:0:
256,192,67660,1,0,0:0:0:0:
256,192,67743,1,2,0:0:0:0:
256,192,67785,1,0,0:0:0:0:
256,192,67827,1,2,0:0:0:0:
256,192,67911,1,2,0:0:0:0:
256,192,67995,1,0,0:0:0:0:
256,192,68078,1,2,0:0:0:0:
256,192,68120,1,0,0:0:0:0:
256,192,68162,1,2,0:0:0:0:
256,192,68246,1,2,0:0:0:0:
256,192,68330,1,0,0:0:0:0:
256,192,68414,1,2,0:0:0:0:
256,192,68498,1,0,0:0:0:0:
256,192,68582,1,0,0:0:0:0:
256,192,68665,1,2,0:0:0:0:
256,192,68749,1,0,0:0:0:0:
256,192,68833,1,0,0:0:0:0:
256,192,68917,1,2,0:0:0:0:
256,192,69001,1,0,0:0:0:0:
256,192,69084,1,2,0:0:0:0:
256,192,69168,1,0,0:0:0:0:
256,192,69252,1,0,0:0:0:0:
256,192,69335,1,2,0:0:0:0:
256,192,69419,1,0,0:0:0:0:
256,192,69503,1,0,0:0:0:0:
256,192,69587,1,2,0:0:0:0:
256,192,69671,1,0,0:0:0:0:
256,192,69755,1,2,0:0:0:0:
256,192,69839,1,0,0:0:0:0:
256,192,69923,1,0,0:0:0:0:
256,192,70006,1,2,0:0:0:0:
256,192,70090,1,0,0:0:0:0:
256,192,70174,1,0,0:0:0:0:
256,192,70258,1,2,0:0:0:0:
256,192,70342,1,0,0:0:0:0:
256,192,70425,1,2,0:0:0:0:
256,192,70467,1,0,0:0:0:0:
256,192,70509,1,2,0:0:0:0:
256,192,70593,1,2,0:0:0:0:
256,192,70677,1,0,0:0:0:0:
256,192,70760,1,2,0:0:0:0:
256,192,70802,1,0,0:0:0:0:
256,192,70844,1,2,0:0:0:0:
256,192,70928,1,2,0:0:0:0:
256,192,71012,1,2,0:0:0:0:
256,192,71095,1,2,0:0:0:0:
256,192,71179,1,0,0:0:0:0:
256,192,71263,1,0,0:0:0:0:
256,192,71346,1,2,0:0:0:0:
256,192,71430,1,0,0:0:0:0:
256,192,71514,1,0,0:0:0:0:
256,192,71598,1,2,0:0:0:0:
256,192,71682,1,0,0:0:0:0:
256,192,71765,1,2,0:0:0:0:
256,192,71849,1,0,0:0:0:0:
256,192,71933,1,0,0:0:0:0:
256,192,72016,1,2,0:0:0:0:
256,192,72100,1,0,0:0:0:0:
256,192,72184,1,0,0:0:0:0:
256,192,72268,1,2,0:0:0:0:
256,192,72352,1,0,0:0:0:0:
256,192,72436,1,2,0:0:0:0:
256,192,72520,1,0,0:0:0:0:
256,192,72604,1,0,0:0:0:0:
256,192,72687,1,2,0:0:0:0:
256,192,72771,1,0,0:0:0:0:
256,192,72855,1,0,0:0:0:0:
256,192,72939,1,2,0:0:0:0:
256,192,73023,1,0,0:0:0:0:
256,192,73106,1,2,0:0:0:0:
256,192,73148,1,0,0:0:0:0:
256,192,73190,1,2,0:0:0:0:
256,192,73274,1,2,0:0:0:0:
256,192,73358,1,0,0:0:0:0:
256,192,73441,1,2,0:0:0:0:
256,192,73483,1,0,0:0:0:0:
256,192,73525,1,2,0:0:0:0:
256,192,73609,1,2,0:0:0:0:
256,192,73693,1,0,0:0:0:0:
256,192,73777,1,2,0:0:0:0:
256,192,73861,1,0,0:0:0:0:
256,192,73945,1,0,0:0:0:0:
256,192,74028,1,2,0:0:0:0:
256,192,74112,1,0,0:0:0:0:
256,192,74196,1,0,0:0:0:0:
256,192,74280,1,2,0:0:0:0:
256,192,74364,1,0,0:0:0:0:
256,192,74447,1,2,0:0:0:0:
256,192,74531,1,0,0:0:0:0:
256,192,74615,1,0,0:0:0:0:
256,192,74698,1,2,0:0:0:0:
256,192,74782,1,0,0:0:0:0:
256,192,74866,1,0,0:0:0:0:
256,192,74950,1,2,0:0:0:0:
256,192,75034,1,0,0:0:0:0:
256,192,75118,1,2,0:0:0:0:
256,192,75202,1,0,0:0:0:0:
256,192,75286,1,0,0:0:0:0:
256,192,75369,1,2,0:0:0:0:
256,192,75453,1,0,0:0:0:0:
256,192,75537,1,0,0:0:0:0:
256,192,75621,1,2,0:0:0:0:
256,192,75705,1,0,0:0:0:0:
256,192,75788,1,2,0:0:0:0:
256,192,75830,1,0,0:0:0:0:
256,192,75872,1,2,0:0:0:0:
256,192,75956,1,2,0:0:0:0:
256,192,76040,1,0,0:0:0:0:
256,192,76123,1,2,0:0:0:0:
256,192,76165,1,0,0:0:0:0:
256,192,76207,1,2,0:0:0:0:
256,192,76291,1,2,0:0:0:0:
256,192,76375,1,2,0:0:0:0:
256,192,76458,1,0,0:0:0:0:
256,192,76500,1,0,0:0:0:0:
256,192,76542,1,0,0:0:0:0:
256,192,76584,1,0,0:0:0:0:
256,192,76626,1,0,0:0:0:0:
256,192,76668,1,0,0:0:0:0:
256,192,76710,1,0,0:0:0:0:
256,192,76752,1,0,0:0:0:0:
256,192,76793,1,0,0:0:0:0:
256,192,76835,1,0,0:0:0:0:
256,192,76877,1,0,0:0:0:0:
256,192,76919,1,0,0:0:0:0:
256,192,76961,1,0,0:0:0:0:
256,192,77003,1,0,0:0:0:0:
256,192,77045,1,0,0:0:0:0:
256,192,77087,1,0,0:0:0:0:
256,192,77129,1,0,0:0:0:0:
256,192,77171,1,0,0:0:0:0:
256,192,77212,1,0,0:0:0:0:
256,192,77254,1,0,0:0:0:0:
256,192,77296,1,0,0:0:0:0:
256,192,77338,1,0,0:0:0:0:
256,192,77380,1,0,0:0:0:0:
256,192,77422,1,0,0:0:0:0:
256,192,77464,1,0,0:0:0:0:
256,192,77506,1,0,0:0:0:0:
256,192,77548,1,0,0:0:0:0:
256,192,77590,1,0,0:0:0:0:
256,192,77631,1,0,0:0:0:0:
256,192,77673,1,0,0:0:0:0:
256,192,77715,1,0,0:0:0:0:
256,192,77757,1,0,0:0:0:0:
256,192,77799,1,0,0:0:0:0:
256,192,77883,1,0,0:0:0:0:
256,192,77967,1,0,0:0:0:0:
256,192,78050,1,0,0:0:0:0:
256,192,78134,1,0,0:0:0:0:
256,192,78218,1,0,0:0:0:0:
256,192,78302,1,0,0:0:0:0:
256,192,78386,1,0,0:0:0:0:
256,192,78469,1,0,0:0:0:0:
256,192,78553,1,0,0:0:0:0:
256,192,78637,1,0,0:0:0:0:
256,192,78721,1,0,0:0:0:0:
256,192,78805,1,0,0:0:0:0:
256,192,78888,1,0,0:0:0:0:
256,192,78972,1,0,0:0:0:0:
256,192,79056,1,0,0:0:0:0:
256,192,79140,1,0,0:0:0:0:
256,192,79307,1,0,0:0:0:0:
256,192,79475,1,0,0:0:0:0:
256,192,79643,1,0,0:0:0:0:
256,192,79810,1,0,0:0:0:0:
256,192,79978,1,0,0:0:0:0:
256,192,80145,1,0,0:0:0:0:
256,192,80313,1,0,0:0:0:0:
256,192,80481,1,0,0:0:0:0:
256,192,80816,1,0,0:0:0:0:
256,192,81151,1,0,0:0:0:0:
256,192,81486,1,0,0:0:0:0:
256,192,81821,1,0,0:0:0:0:
256,192,82324,1,0,0:0:0:0:
256,192,82827,1,0,0:0:0:0:
256,192,83162,1,0,0:0:0:0:
256,192,83665,1,0,0:0:0:0:
192,96,83833,2,0,L|320:96,3,70
256,192,84503,1,0,0:0:0:0:
256,192,85006,1,0,0:0:0:0:
256,192,85509,1,0,0:0:0:0:
256,192,85844,1,0,0:0:0:0:
256,192,86347,1,0,0:0:0:0:
192,96,86515,2,0,L|320:96,3,70
256,192,87185,1,0,0:0:0:0:
256,192,87353,1,0,0:0:0:0:
256,192,87520,1,2,0:0:0:0:
256,192,87562,1,2,0:0:0:0:
256,192,87688,1,0,0:0:0:0:
256,192,87855,1,0,0:0:0:0:
256,192,88023,1,2,0:0:0:0:
256,192,88065,1,2,0:0:0:0:
256,192,88191,1,0,0:0:0:0:
256,192,88302,1,0,0:0:0:0:
256,192,88414,1,0,0:0:0:0:
256,192,88526,1,0,0:0:0:0:
256,192,88693,1,0,0:0:0:0:
256,192,88777,1,0,0:0:0:0:
256,192,88861,1,2,0:0:0:0:
256,192,89029,1,0,0:0:0:0:
256,192,89112,1,0,0:0:0:0:
256,192,89196,1,2,0:0:0:0:
256,192,89238,1,0,0:0:0:0:
256,192,89280,1,2,0:0:0:0:
256,192,89364,1,0,0:0:0:0:
256,192,89448,1,2,0:0:0:0:
256,192,89531,1,0,0:0:0:0:
256,192,89615,1,2,0:0:0:0:
256,192,89699,1,0,0:0:0:0:
256,192,89783,1,2,0:0:0:0:
256,192,89866,1,0,0:0:0:0:
256,192,90034,1,0,0:0:0:0:
256,192,90201,1,2,0:0:0:0:
256,192,90243,1,2,0:0:0:0:
256,192,90369,1,0,0:0:0:0:
256,192,90536,1,0,0:0:0:0:
256,192,90704,1,2,0:0:0:0:
256,192,90746,1,2,0:0:0:0:
256,192,90872,1,0,0:0:0:0:
256,192,90983,1,0,0:0:0:0:
256,192,91095,1,0,0:0:0:0:
256,192,91207,1,0,0:0:0:0:
256,192,91374,1,0,0:0:0:0:
256,192,91458,1,0,0:0:0:0:
256,192,91542,1,2,0:0:0:0:
256,192,91710,1,0,0:0:0:0:
256,192,91793,1,0,0:0:0:0:
256,192,91877,1,2,0:0:0:0:
256,192,91919,1,0,0:0:0:0:
256,192,91961,1,2,0:0:0:0:
256,192,92045,1,0,0:0:0:0:
256,192,92129,1,2,0:0:0:0:
256,192,92212,1,0,0:0:0:0:
256,192,92296,1,2,0:0:0:0:
256,192,92380,1,0,0:0:0:0:
256,192,92464,1,2,0:0:0:0:
256,192,92548,1,0,0:0:0:0:
256,192,92716,1,0,0:0:0:0:
256,192,92883,1,2,0:0:0:0:
256,192,92925,1,2,0:0:0:0:
256,192,93051,1,0,0:0:0:0:
256,192,93218,1,0,0:0:0:0:
256,192,93386,1,2,0:0:0:0:
256,192,93428,1,2,0:0:0:0:
256,192,93554,1,0,0:0:0:0:
256,192,93665,1,0,0:0:0:0:
256,192,93777,1,0,0:0:0:0:
256,192,93889,1,0,0:0:0:0:
256,192,94056,1,0,0:0:0:0:
256,192,94140,1,0,0:0:0:0:
256,192,94224,1,2,0:0:0:0:
256,192,94392,1,0,0:0:0:0:
256,192,94475,1,0,0:0:0:0:
256,192,94559,1,2,0:0:0:0:
256,192,94601,1,0,0:0:0:0:
256,192,94643,1,2,0:0:0:0:
256,192,94727,1,0,0:0:0:0:
256,192,94811,1,2,0:0:0:0:
256,192,94894,1,0,0:0:0:0:
256,192,94978,1,2,0:0:0:0:
256,192,95062,1,0,0:0:0:0:
256,192,95146,1,2,0:0:0:0:
256,192,95229,1,0,0:0:0:0:
256,192,95397,1,0,0:0:0:0:
256,192,95564,1,2,0:0:0:0:
256,192,95606,1,2,0:0:0:0:
256,192,95732,1,0,0:0:0:0:
256,192,95899,1,0,0:0:0:0:
256,192,96067,1,2,0:0:0:0:
256,192,96109,1,2,0:0:0:0:
256,192,96235,1,0,0:0:0:0:
256,192,96346,1,0,0:0:0:0:
256,192,96458,1,0,0:0:0:0:
256,192,96570,1,0,0:0:0:0:
256,192,96737,1,0,0:0:0:0:
256,192,96821,1,0,0:0:0:0:
256,192,96905,1,2,0:0:0:0:
256,192,97073,1,0,0:0:0:0:
256,192,97240,1,4,0:0:0:0:
