osu file format v14

[General]
AudioFilename: audio.mp3
AudioLeadIn: 0
PreviewTime: 33478
Countdown: 0
SampleSet: Normal
StackLeniency: 0.7
Mode: 1
LetterboxInBreaks: 0
WidescreenStoryboard: 1

[Editor]
Bookmarks: 1384,12110,33562,55015,76467,97920
DistanceSpacing: 0.4
BeatDivisor: 4
GridSize: 32
TimelineZoom: 3.099999

[Metadata]
Title:Credits
TitleUnicode:Credits
Artist:Frums
ArtistUnicode:Frums
Creator:_DUSK_
Version:Futsuu
Source:BMS
Tags:大血戦 -THE BMS OF FIGHTERS ULTIMATE- smith au lait minimal juke other time BOFU2015 maimai MiLK
BeatmapID:2072253
BeatmapSetID:990649

[Difficulty]
HPDrainRate:7
CircleSize:4
OverallDifficulty:4
ApproachRate:9
SliderMultiplier:1.4
SliderTickRate:1

[Events]
//Background and Video events
0,0,"crbg.png",0,0
//Break Periods
//Storyboard Layer 0 (Background)
//Storyboard Layer 1 (Fail)
//Storyboard Layer 2 (Pass)
//Storyboard Layer 3 (Foreground)
//Storyboard Sound Samples

[TimingPoints]
1384,335.195530726257,4,1,0,30,1,0
65741,-100,4,1,0,30,0,1
76300,-100,4,1,0,30,0,1
76467,-100,4,1,0,30,0,0

[HitObjects]
256,192,12110,5,0,0:0:0:0:
256,192,12613,1,0,0:0:0:0:
256,192,13451,1,0,0:0:0:0:
256,192,13953,1,0,0:0:0:0:
256,192,14791,1,0,0:0:0:0:
256,192,15294,1,0,0:0:0:0:
256,192,16132,1,0,0:0:0:0:
256,192,16635,1,0,0:0:0:0:
256,192,17473,1,0,0:0:0:0:
256,192,17976,1,0,0:0:0:0:
256,192,18814,1,0,0:0:0:0:
256,192,19316,1,0,0:0:0:0:
256,192,20154,1,0,0:0:0:0:
256,192,20657,1,0,0:0:0:0:
256,192,21495,1,0,0:0:0:0:
256,192,21998,1,0,0:0:0:0:
256,192,22836,1,0,0:0:0:0:
256,192,23339,1,0,0:0:0:0:
256,192,23842,1,0,0:0:0:0:
256,192,24177,1,0,0:0:0:0:
256,192,24680,1,0,0:0:0:0:
256,192,25518,1,0,0:0:0:0:
256,192,26020,1,0,0:0:0:0:
256,192,26523,1,0,0:0:0:0:
256,192,26858,1,0,0:0:0:0:
256,192,27361,1,0,0:0:0:0:
256,192,28199,1,0,0:0:0:0:
256,192,28702,1,0,0:0:0:0:
256,192,29205,1,0,0:0:0:0:
256,192,29540,1,0,0:0:0:0:
256,192,30043,1,0,0:0:0:0:
256,192,30881,1,0,0:0:0:0:
256,192,31384,1,0,0:0:0:0:
256,192,31886,1,0,0:0:0:0:
256,192,32221,1,0,0:0:0:0:
256,192,32724,1,0,0:0:0:0:
256,192,33227,1,8,0:0:0:0:
256,192,33562,1,0,0:0:0:0:
256,192,33897,1,0,0:0:0:0:
256,192,34233,1,8,0:0:0:0:
256,192,34903,1,0,0:0:0:0:
256,192,35406,1,0,0:0:0:0:
256,192,35573,1,8,0:0:0:0:
256,192,36244,1,0,0:0:0:0:
256,192,36579,1,0,0:0:0:0:
256,192,36747,1,0,0:0:0:0:
256,192,36914,1,8,0:0:0:0:
256,192,37585,1,0,0:0:0:0:
256,192,37920,1,0,0:0:0:0:
256,192,38255,1,8,0:0:0:0:
256,192,38590,1,8,0:0:0:0:
256,192,38758,1,8,0:0:0:0:
256,192,38925,1,0,0:0:0:0:
256,192,39261,1,0,0:0:0:0:
256,192,39596,1,8,0:0:0:0:
256,192,40266,1,0,0:0:0:0:
256,192,40769,1,0,0:0:0:0:
256,192,40937,1,8,0:0:0:0:
256,192,41272,1,0,0:0:0:0:
256,192,41607,1,0,0:0:0:0:
256,192,42277,1,8,0:0:0:0:
256,192,42948,1,0,0:0:0:0:
256,192,43451,1,0,0:0:0:0:
256,192,43618,1,8,0:0:0:0:
256,192,43953,1,8,0:0:0:0:
256,192,44121,1,8,0:0:0:0:
256,192,44289,1,0,0:0:0:0:
256,192,44791,1,0,0:0:0:0:
256,192,44959,1,8,0:0:0:0:
256,192,45294,1,0,0:0:0:0:
256,192,45629,1,0,0:0:0:0:
256,192,46300,1,8,0:0:0:0:
256,192,46635,1,0,0:0:0:0:
256,192,46970,1,0,0:0:0:0:
256,192,47305,1,0,0:0:0:0:
256,192,47473,1,0,0:0:0:0:
256,192,47640,1,8,0:0:0:0:
256,192,47976,1,8,0:0:0:0:
256,192,48311,1,0,0:0:0:0:
256,192,48646,1,8,0:0:0:0:
256,192,48814,1,0,0:0:0:0:
256,192,48981,1,8,0:0:0:0:
256,192,49652,1,0,0:0:0:0:
256,192,50154,1,0,0:0:0:0:
256,192,50322,1,8,0:0:0:0:
256,192,50657,1,0,0:0:0:0:
256,192,50992,1,0,0:0:0:0:
256,192,51495,1,0,0:0:0:0:
256,192,51663,1,8,0:0:0:0:
256,192,51998,1,0,0:0:0:0:
256,192,52333,1,0,0:0:0:0:
256,192,53004,1,8,0:0:0:0:
256,192,53674,1,0,0:0:0:0:
256,192,54177,1,8,0:0:0:0:
256,192,54344,1,0,0:0:0:0:
256,192,55015,1,0,0:0:0:0:
256,192,55266,1,0,0:0:0:0:
256,192,55685,1,0,0:0:0:0:
256,192,56356,1,0,0:0:0:0:
256,192,56607,1,0,0:0:0:0:
256,192,57026,1,8,0:0:0:0:
256,192,57361,1,8,0:0:0:0:
256,192,57529,1,8,0:0:0:0:
256,192,57696,1,0,0:0:0:0:
256,192,57948,1,0,0:0:0:0:
256,192,58367,1,0,0:0:0:0:
256,192,59037,1,0,0:0:0:0:
256,192,59289,1,0,0:0:0:0:
256,192,59708,1,8,0:0:0:0:
256,192,60043,1,0,0:0:0:0:
256,192,60210,1,8,0:0:0:0:
256,192,60378,1,0,0:0:0:0:
256,192,60629,1,0,0:0:0:0:
256,192,61048,1,8,0:0:0:0:
256,192,61719,1,0,0:0:0:0:
256,192,61970,1,0,0:0:0:0:
256,192,62389,1,8,0:0:0:0:
256,192,62724,1,8,0:0:0:0:
256,192,62892,1,8,0:0:0:0:
256,192,63059,1,0,0:0:0:0:
256,192,63311,1,0,0:0:0:0:
256,192,63730,1,8,0:0:0:0:
256,192,63981,1,0,0:0:0:0:
256,192,64400,1,8,0:0:0:0:
256,192,64652,1,8,0:0:0:0:
256,192,65071,1,0,0:0:0:0:
256,192,65406,1,8,0:0:0:0:
256,192,65741,1,0,0:0:0:0:
256,192,65992,1,0,0:0:0:0:
256,192,66160,1,0,0:0:0:0:
256,192,66411,1,0,0:0:0:0:
256,192,67082,1,0,0:0:0:0:
256,192,67333,1,0,0:0:0:0:
256,192,67501,1,0,0:0:0:0:
256,192,67752,1,8,0:0:0:0:
256,192,68087,1,8,0:0:0:0:
256,192,68255,1,8,0:0:0:0:
256,192,68423,1,0,0:0:0:0:
256,192,68673,1,0,0:0:0:0:
256,192,68841,1,0,0:0:0:0:
256,192,69092,1,0,0:0:0:0:
256,192,69763,1,0,0:0:0:0:
256,192,70014,1,0,0:0:0:0:
256,192,70182,1,0,0:0:0:0:
256,192,70433,1,8,0:0:0:0:
256,192,70601,1,8,0:0:0:0:
256,192,70769,1,8,0:0:0:0:
256,192,71104,1,0,0:0:0:0:
256,192,71355,1,0,0:0:0:0:
256,192,71523,1,0,0:0:0:0:
256,192,71774,1,0,0:0:0:0:
256,192,72445,1,0,0:0:0:0:
256,192,72696,1,0,0:0:0:0:
256,192,72864,1,0,0:0:0:0:
256,192,73115,1,8,0:0:0:0:
256,192,73451,1,8,0:0:0:0:
256,192,73618,1,8,0:0:0:0:
256,192,73786,1,0,0:0:0:0:
256,192,74037,1,0,0:0:0:0:
256,192,74205,1,0,0:0:0:0:
256,192,74456,1,0,0:0:0:0:
256,192,75127,1,0,0:0:0:0:
256,192,75378,1,0,0:0:0:0:
256,192,75546,1,0,0:0:0:0:
256,192,75797,1,8,0:0:0:0:
256,192,76132,1,8,0:0:0:0:
256,192,76300,1,8,0:0:0:0:
256,192,76467,1,8,0:0:0:0:
256,192,76970,1,8,0:0:0:0:
256,192,77138,1,0,0:0:0:0:
256,192,77305,1,0,0:0:0:0:
256,192,77473,1,8,0:0:0:0:
256,192,77808,1,8,0:0:0:0:
256,192,78143,1,0,0:0:0:0:
256,192,78311,1,8,0:0:0:0:
256,192,78478,1,8,0:0:0:0:
256,192,78646,1,0,0:0:0:0:
256,192,78981,1,8,0:0:0:0:
256,192,79149,1,0,0:0:0:0:
256,192,79652,1,0,0:0:0:0:
256,192,80154,1,0,0:0:0:0:
256,192,80490,1,0,0:0:0:0:
256,192,80992,1,0,0:0:0:0:
256,192,81830,1,0,0:0:0:0:
256,192,82333,1,0,0:0:0:0:
256,192,82836,1,0,0:0:0:0:
256,192,83171,1,0,0:0:0:0:
256,192,83674,1,0,0:0:0:0:
256,192,84512,1,0,0:0:0:0:
256,192,85015,1,0,0:0:0:0:
256,192,85518,1,0,0:0:0:0:
256,192,85853,1,0,0:0:0:0:
256,192,86356,1,0,0:0:0:0:
256,192,87194,1,0,0:0:0:0:
256,192,87696,1,0,0:0:0:0:
256,192,88534,1,0,0:0:0:0:
256,192,89037,1,0,0:0:0:0:
256,192,89875,1,0,0:0:0:0:
256,192,90378,1,0,0:0:0:0:
256,192,91216,1,0,0:0:0:0:
256,192,91719,1,0,0:0:0:0:
256,192,92557,1,0,0:0:0:0:
256,192,93059,1,0,0:0:0:0:
256,192,93897,1,0,0:0:0:0:
256,192,94400,1,0,0:0:0:0:
256,192,95238,1,0,0:0:0:0:
256,192,95741,1,0,0:0:0:0:
256,192,96579,1,0,0:0:0:0:
256,192,96747,1,0,0:0:0:0:
256,192,96914,1,0,0:0:0:0:
256,192,97249,1,8,0:0:0:0:
