osu file format v14

[General]
AudioFilename: audio.mp3
AudioLeadIn: 0
PreviewTime: -1
Countdown: 1
SampleSet: None
StackLeniency: 0.7
Mode: 3
LetterboxInBreaks: 0
SpecialStyle: 0
WidescreenStoryboard: 1

[Editor]
DistanceSpacing: 0.8
BeatDivisor: 4
GridSize: 32
TimelineZoom: 1.8

[Metadata]
Title:Credits
TitleUnicode:Credits
Artist:Frums
ArtistUnicode:Frums
Creator:My Angel Hibiki
Version:this is how you approximate this shit
Source:
Tags:
BeatmapID:1571254
BeatmapSetID:745277

[Difficulty]
HPDrainRate:8
CircleSize:4
OverallDifficulty:9
ApproachRate:5
SliderMultiplier:1.4
SliderTickRate:1

[Events]
//Background and Video events
//Break Periods
//Storyboard Layer 0 (Background)
//Storyboard Layer 1 (Fail)
//Storyboard Layer 2 (Pass)
//Storyboard Layer 3 (Foreground)
//Storyboard Sound Samples

[TimingPoints]
1340,335.195530726257,4,1,0,25,1,0

[HitObjects]
448,192,1340,128,0,3183:0:0:0:0:
192,192,1507,1,0,0:0:0:0:
64,192,1675,1,0,0:0:0:0:
320,192,1842,1,0,0:0:0:0:
192,192,2010,1,0,0:0:0:0:
64,192,2177,1,0,0:0:0:0:
320,192,2345,1,0,0:0:0:0:
192,192,2513,1,0,0:0:0:0:
64,192,2680,1,0,0:0:0:0:
320,192,2848,1,0,0:0:0:0:
192,192,3015,1,0,0:0:0:0:
64,192,3183,128,0,4021:0:0:0:0:
192,192,3267,1,0,0:0:0:0:
320,192,3351,1,0,0:0:0:0:
448,192,3351,1,0,0:0:0:0:
192,192,3434,1,0,0:0:0:0:
320,192,3518,1,0,0:0:0:0:
448,192,3518,1,0,0:0:0:0:
192,192,3602,1,0,0:0:0:0:
320,192,3686,1,0,0:0:0:0:
448,192,3686,1,0,0:0:0:0:
192,192,3770,1,0,0:0:0:0:
320,192,3853,1,0,0:0:0:0:
448,192,3853,1,0,0:0:0:0:
192,192,3937,1,0,0:0:0:0:
320,192,4021,1,0,0:0:0:0:
448,192,4021,128,0,5865:0:0:0:0:
192,192,4189,1,0,0:0:0:0:
64,192,4356,1,0,0:0:0:0:
320,192,4524,1,0,0:0:0:0:
192,192,4691,1,0,0:0:0:0:
64,192,4859,1,0,0:0:0:0:
320,192,5027,1,0,0:0:0:0:
192,192,5194,1,0,0:0:0:0:
64,192,5362,1,0,0:0:0:0:
320,192,5529,1,0,0:0:0:0:
192,192,5697,1,0,0:0:0:0:
64,192,5865,128,0,6703:0:0:0:0:
192,192,5948,1,0,0:0:0:0:
320,192,6032,1,0,0:0:0:0:
448,192,6032,1,0,0:0:0:0:
192,192,6116,1,0,0:0:0:0:
320,192,6200,1,0,0:0:0:0:
448,192,6200,1,0,0:0:0:0:
192,192,6284,1,0,0:0:0:0:
320,192,6367,1,0,0:0:0:0:
448,192,6367,1,0,0:0:0:0:
192,192,6451,1,0,0:0:0:0:
320,192,6535,1,0,0:0:0:0:
448,192,6535,1,0,0:0:0:0:
192,192,6619,1,0,0:0:0:0:
320,192,6703,1,0,0:0:0:0:
448,192,6703,128,0,8546:0:0:0:0:
192,192,6870,1,0,0:0:0:0:
64,192,7038,1,0,0:0:0:0:
320,192,7205,1,0,0:0:0:0:
192,192,7373,1,0,0:0:0:0:
64,192,7541,1,0,0:0:0:0:
320,192,7708,1,0,0:0:0:0:
192,192,7876,1,0,0:0:0:0:
64,192,8043,1,0,0:0:0:0:
320,192,8211,1,0,0:0:0:0:
192,192,8379,1,0,0:0:0:0:
64,192,8546,128,0,9384:0:0:0:0:
192,192,8630,1,0,0:0:0:0:
320,192,8714,1,0,0:0:0:0:
448,192,8714,1,0,0:0:0:0:
192,192,8798,1,0,0:0:0:0:
320,192,8881,1,0,0:0:0:0:
448,192,8881,1,0,0:0:0:0:
192,192,8965,1,0,0:0:0:0:
320,192,9049,1,0,0:0:0:0:
448,192,9049,1,0,0:0:0:0:
192,192,9133,1,0,0:0:0:0:
320,192,9217,1,0,0:0:0:0:
448,192,9217,1,0,0:0:0:0:
192,192,9300,1,0,0:0:0:0:
320,192,9384,1,0,0:0:0:0:
448,192,9384,128,0,11228:0:0:0:0:
192,192,9552,1,0,0:0:0:0:
64,192,9719,1,0,0:0:0:0:
320,192,9887,1,0,0:0:0:0:
192,192,10055,1,0,0:0:0:0:
64,192,10222,1,0,0:0:0:0:
320,192,10390,1,0,0:0:0:0:
192,192,10557,1,0,0:0:0:0:
64,192,10725,1,0,0:0:0:0:
320,192,10893,1,0,0:0:0:0:
192,192,11060,1,0,0:0:0:0:
64,192,11228,128,0,12066:0:0:0:0:
192,192,11312,1,0,0:0:0:0:
320,192,11395,1,0,0:0:0:0:
448,192,11395,1,0,0:0:0:0:
192,192,11479,1,0,0:0:0:0:
320,192,11563,1,0,0:0:0:0:
448,192,11563,1,0,0:0:0:0:
192,192,11647,1,0,0:0:0:0:
320,192,11731,1,0,0:0:0:0:
448,192,11731,1,0,0:0:0:0:
192,192,11814,1,0,0:0:0:0:
320,192,11898,1,0,0:0:0:0:
448,192,11898,1,0,0:0:0:0:
192,192,11982,1,0,0:0:0:0:
320,192,12066,1,0,0:0:0:0:
192,192,12066,1,0,0:0:0:0:
448,192,12066,128,0,13909:0:0:0:0:
320,192,12233,1,0,0:0:0:0:
64,192,12401,128,0,12569:0:0:0:0:
192,192,12569,1,0,0:0:0:0:
320,192,12569,1,0,0:0:0:0:
64,192,12736,1,0,0:0:0:0:
320,192,12904,128,0,13071:0:0:0:0:
192,192,13071,1,0,0:0:0:0:
64,192,13071,1,0,0:0:0:0:
320,192,13239,1,0,0:0:0:0:
64,192,13407,1,0,0:0:0:0:
192,192,13407,1,0,0:0:0:0:
320,192,13574,1,0,0:0:0:0:
192,192,13742,128,0,13909:0:0:0:0:
64,192,13909,128,0,14747:0:0:0:0:
320,192,14077,1,0,0:0:0:0:
448,192,14077,1,0,0:0:0:0:
192,192,14161,1,0,0:0:0:0:
448,192,14245,1,0,0:0:0:0:
320,192,14245,1,0,0:0:0:0:
192,192,14328,1,0,0:0:0:0:
320,192,14412,1,0,0:0:0:0:
448,192,14412,1,0,0:0:0:0:
192,192,14496,1,0,0:0:0:0:
320,192,14580,1,0,0:0:0:0:
448,192,14580,1,0,0:0:0:0:
192,192,14664,1,0,0:0:0:0:
448,192,14747,128,0,16591:0:0:0:0:
320,192,14915,1,0,0:0:0:0:
64,192,15083,128,0,15250:0:0:0:0:
192,192,15250,1,0,0:0:0:0:
320,192,15250,1,0,0:0:0:0:
64,192,15418,1,0,0:0:0:0:
320,192,15585,128,0,15753:0:0:0:0:
192,192,15753,1,0,0:0:0:0:
64,192,15753,1,0,0:0:0:0:
320,192,15921,1,0,0:0:0:0:
64,192,16088,1,0,0:0:0:0:
192,192,16088,1,0,0:0:0:0:
320,192,16256,1,0,0:0:0:0:
192,192,16423,128,0,16591:0:0:0:0:
64,192,16591,128,0,17429:0:0:0:0:
448,192,16758,1,0,0:0:0:0:
320,192,16758,1,0,0:0:0:0:
192,192,16842,1,0,0:0:0:0:
320,192,16926,1,0,0:0:0:0:
448,192,16926,1,0,0:0:0:0:
192,192,17010,1,0,0:0:0:0:
320,192,17094,1,0,0:0:0:0:
448,192,17094,1,0,0:0:0:0:
192,192,17177,1,0,0:0:0:0:
320,192,17261,1,0,0:0:0:0:
448,192,17261,1,0,0:0:0:0:
192,192,17345,1,0,0:0:0:0:
448,192,17429,128,0,19272:0:0:0:0:
320,192,17596,1,0,0:0:0:0:
64,192,17764,128,0,17932:0:0:0:0:
192,192,17932,1,0,0:0:0:0:
320,192,17932,1,0,0:0:0:0:
64,192,18099,1,0,0:0:0:0:
320,192,18267,128,0,18434:0:0:0:0:
192,192,18434,1,0,0:0:0:0:
64,192,18434,1,0,0:0:0:0:
320,192,18602,1,0,0:0:0:0:
64,192,18770,1,0,0:0:0:0:
192,192,18770,1,0,0:0:0:0:
320,192,18937,1,0,0:0:0:0:
192,192,19105,128,0,19272:0:0:0:0:
64,192,19272,128,0,20110:0:0:0:0:
448,192,19440,1,0,0:0:0:0:
320,192,19440,1,0,0:0:0:0:
192,192,19524,1,0,0:0:0:0:
320,192,19608,1,0,0:0:0:0:
448,192,19608,1,0,0:0:0:0:
192,192,19691,1,0,0:0:0:0:
320,192,19775,1,0,0:0:0:0:
448,192,19775,1,0,0:0:0:0:
192,192,19859,1,0,0:0:0:0:
320,192,19943,1,0,0:0:0:0:
448,192,19943,1,0,0:0:0:0:
192,192,20027,1,0,0:0:0:0:
448,192,20110,128,0,21954:0:0:0:0:
320,192,20278,1,0,0:0:0:0:
64,192,20446,128,0,20613:0:0:0:0:
192,192,20613,1,0,0:0:0:0:
320,192,20613,1,0,0:0:0:0:
64,192,20781,1,0,0:0:0:0:
320,192,20948,128,0,21116:0:0:0:0:
192,192,21116,1,0,0:0:0:0:
64,192,21116,1,0,0:0:0:0:
320,192,21284,1,0,0:0:0:0:
64,192,21451,1,0,0:0:0:0:
192,192,21451,1,0,0:0:0:0:
320,192,21619,1,0,0:0:0:0:
192,192,21786,128,0,21954:0:0:0:0:
64,192,21954,128,0,22792:0:0:0:0:
448,192,22122,1,0,0:0:0:0:
320,192,22122,1,0,0:0:0:0:
192,192,22205,1,0,0:0:0:0:
320,192,22289,1,0,0:0:0:0:
448,192,22289,1,0,0:0:0:0:
192,192,22373,1,0,0:0:0:0:
320,192,22457,1,0,0:0:0:0:
448,192,22457,1,0,0:0:0:0:
192,192,22541,1,0,0:0:0:0:
320,192,22624,1,0,0:0:0:0:
448,192,22624,1,0,0:0:0:0:
192,192,22708,1,0,0:0:0:0:
448,192,22792,128,0,24636:0:0:0:0:
320,192,22960,1,0,0:0:0:0:
64,192,23127,128,0,23295:0:0:0:0:
192,192,23295,1,0,0:0:0:0:
320,192,23295,1,0,0:0:0:0:
64,192,23462,1,0,0:0:0:0:
320,192,23630,128,0,23798:0:0:0:0:
192,192,23798,1,0,0:0:0:0:
64,192,23798,1,0,0:0:0:0:
320,192,23965,1,0,0:0:0:0:
64,192,24133,1,0,0:0:0:0:
192,192,24133,1,0,0:0:0:0:
320,192,24300,1,0,0:0:0:0:
192,192,24468,128,0,24636:0:0:0:0:
64,192,24636,128,0,25474:0:0:0:0:
448,192,24803,1,0,0:0:0:0:
320,192,24803,1,0,0:0:0:0:
192,192,24887,1,0,0:0:0:0:
320,192,24971,1,0,0:0:0:0:
448,192,24971,1,0,0:0:0:0:
192,192,25055,1,0,0:0:0:0:
320,192,25138,1,0,0:0:0:0:
448,192,25138,1,0,0:0:0:0:
192,192,25222,1,0,0:0:0:0:
320,192,25306,1,0,0:0:0:0:
448,192,25306,1,0,0:0:0:0:
192,192,25390,1,0,0:0:0:0:
448,192,25474,128,0,27317:0:0:0:0:
320,192,25641,1,0,0:0:0:0:
64,192,25809,128,0,25976:0:0:0:0:
192,192,25976,1,0,0:0:0:0:
320,192,25976,1,0,0:0:0:0:
64,192,26144,1,0,0:0:0:0:
320,192,26312,128,0,26479:0:0:0:0:
192,192,26479,1,0,0:0:0:0:
64,192,26479,1,0,0:0:0:0:
320,192,26647,1,0,0:0:0:0:
64,192,26814,1,0,0:0:0:0:
192,192,26814,1,0,0:0:0:0:
320,192,26982,1,0,0:0:0:0:
192,192,27150,128,0,27317:0:0:0:0:
64,192,27317,128,0,28155:0:0:0:0:
448,192,27485,1,0,0:0:0:0:
320,192,27485,1,0,0:0:0:0:
192,192,27569,1,0,0:0:0:0:
320,192,27652,1,0,0:0:0:0:
448,192,27652,1,0,0:0:0:0:
192,192,27736,1,0,0:0:0:0:
320,192,27820,1,0,0:0:0:0:
448,192,27820,1,0,0:0:0:0:
192,192,27904,1,0,0:0:0:0:
320,192,27988,1,0,0:0:0:0:
448,192,27988,1,0,0:0:0:0:
192,192,28071,1,0,0:0:0:0:
448,192,28155,128,0,29999:0:0:0:0:
320,192,28323,1,0,0:0:0:0:
64,192,28490,128,0,28658:0:0:0:0:
320,192,28658,1,0,0:0:0:0:
192,192,28658,1,0,0:0:0:0:
64,192,28826,1,0,0:0:0:0:
320,192,28993,128,0,29161:0:0:0:0:
64,192,29161,1,0,0:0:0:0:
192,192,29161,1,0,0:0:0:0:
320,192,29328,1,0,0:0:0:0:
192,192,29496,1,0,0:0:0:0:
64,192,29496,1,0,0:0:0:0:
320,192,29664,1,0,0:0:0:0:
192,192,29831,128,0,29999:0:0:0:0:
64,192,29999,128,0,30837:0:0:0:0:
448,192,30166,1,0,0:0:0:0:
320,192,30166,1,0,0:0:0:0:
192,192,30250,1,0,0:0:0:0:
320,192,30334,1,0,0:0:0:0:
448,192,30334,1,0,0:0:0:0:
192,192,30418,1,0,0:0:0:0:
320,192,30502,1,0,0:0:0:0:
448,192,30502,1,0,0:0:0:0:
192,192,30585,1,0,0:0:0:0:
320,192,30669,1,0,0:0:0:0:
448,192,30669,1,0,0:0:0:0:
192,192,30753,1,0,0:0:0:0:
448,192,30837,128,0,32680:0:0:0:0:
320,192,31004,1,0,0:0:0:0:
64,192,31172,128,0,31340:0:0:0:0:
192,192,31340,1,0,0:0:0:0:
320,192,31340,1,0,0:0:0:0:
64,192,31507,1,0,0:0:0:0:
320,192,31675,128,0,31842:0:0:0:0:
192,192,31842,1,0,0:0:0:0:
64,192,31842,1,0,0:0:0:0:
320,192,32010,1,0,0:0:0:0:
64,192,32177,1,0,0:0:0:0:
192,192,32177,1,0,0:0:0:0:
320,192,32345,1,0,0:0:0:0:
192,192,32513,128,0,32680:0:0:0:0:
64,192,32680,128,0,33518:0:0:0:0:
448,192,32848,1,0,0:0:0:0:
320,192,32848,1,0,0:0:0:0:
192,192,32932,1,0,0:0:0:0:
320,192,33015,1,0,0:0:0:0:
448,192,33015,1,0,0:0:0:0:
192,192,33099,1,0,0:0:0:0:
320,192,33183,1,0,0:0:0:0:
448,192,33183,1,0,0:0:0:0:
192,192,33267,1,0,0:0:0:0:
320,192,33351,1,0,0:0:0:0:
448,192,33351,1,0,0:0:0:0:
192,192,33434,1,0,0:0:0:0:
448,192,33518,128,0,35362:0:0:0:0:
320,192,33518,1,0,0:0:0:0:
192,192,33686,1,0,0:0:0:0:
64,192,33853,1,0,0:0:0:0:
320,192,34021,1,0,0:0:0:0:
192,192,34021,1,0,0:0:0:0:
192,192,34189,1,0,0:0:0:0:
64,192,34189,1,0,0:0:0:0:
320,192,34356,1,0,0:0:0:0:
320,192,34524,1,0,0:0:0:0:
192,192,34524,1,0,0:0:0:0:
64,192,34691,1,0,0:0:0:0:
192,192,34859,1,0,0:0:0:0:
64,192,34859,1,0,0:0:0:0:
320,192,35027,1,0,0:0:0:0:
192,192,35194,1,0,0:0:0:0:
64,192,35362,128,0,36200:0:0:0:0:
320,192,35362,1,0,0:0:0:0:
448,192,35529,1,0,0:0:0:0:
192,192,35529,1,0,0:0:0:0:
448,192,35697,1,0,0:0:0:0:
448,192,35865,1,0,0:0:0:0:
320,192,35865,1,0,0:0:0:0:
448,192,36032,1,0,0:0:0:0:
192,192,36032,1,0,0:0:0:0:
448,192,36200,128,0,38043:0:0:0:0:
320,192,36200,1,0,0:0:0:0:
192,192,36367,1,0,0:0:0:0:
192,192,36493,1,0,0:0:0:0:
320,192,36493,1,0,0:0:0:0:
320,192,36619,1,0,0:0:0:0:
192,192,36703,1,0,0:0:0:0:
64,192,36703,1,0,0:0:0:0:
192,192,36870,1,0,0:0:0:0:
320,192,36870,1,0,0:0:0:0:
64,192,36954,1,0,0:0:0:0:
192,192,37038,1,0,0:0:0:0:
320,192,37122,1,0,0:0:0:0:
192,192,37205,1,0,0:0:0:0:
64,192,37205,1,0,0:0:0:0:
320,192,37373,1,0,0:0:0:0:
192,192,37373,1,0,0:0:0:0:
64,192,37415,1,0,0:0:0:0:
320,192,37457,1,0,0:0:0:0:
192,192,37457,1,0,0:0:0:0:
64,192,37499,1,0,0:0:0:0:
320,192,37541,1,0,0:0:0:0:
192,192,37708,1,0,0:0:0:0:
320,192,37876,1,0,0:0:0:0:
64,192,38043,128,0,38881:0:0:0:0:
192,192,38043,1,0,0:0:0:0:
448,192,38211,1,0,0:0:0:0:
320,192,38211,1,0,0:0:0:0:
192,192,38295,1,0,0:0:0:0:
320,192,38379,1,0,0:0:0:0:
448,192,38379,1,0,0:0:0:0:
192,192,38462,1,0,0:0:0:0:
320,192,38546,1,0,0:0:0:0:
448,192,38546,1,0,0:0:0:0:
192,192,38630,1,0,0:0:0:0:
320,192,38714,1,0,0:0:0:0:
448,192,38714,1,0,0:0:0:0:
192,192,38798,1,0,0:0:0:0:
448,192,38881,128,0,40725:0:0:0:0:
320,192,38881,1,0,0:0:0:0:
192,192,39049,1,0,0:0:0:0:
64,192,39217,1,0,0:0:0:0:
320,192,39384,1,0,0:0:0:0:
192,192,39384,1,0,0:0:0:0:
64,192,39552,1,0,0:0:0:0:
192,192,39552,1,0,0:0:0:0:
320,192,39719,1,0,0:0:0:0:
320,192,39887,1,0,0:0:0:0:
192,192,39887,1,0,0:0:0:0:
64,192,40055,1,0,0:0:0:0:
192,192,40222,1,0,0:0:0:0:
64,192,40222,1,0,0:0:0:0:
320,192,40390,1,0,0:0:0:0:
192,192,40557,1,0,0:0:0:0:
64,192,40725,128,0,41563:0:0:0:0:
320,192,40725,1,0,0:0:0:0:
192,192,40893,128,0,41060:0:0:0:0:
448,192,40893,1,0,0:0:0:0:
448,192,41228,1,0,0:0:0:0:
320,192,41228,1,0,0:0:0:0:
192,192,41395,128,0,41563:0:0:0:0:
448,192,41563,128,0,43407:0:0:0:0:
320,192,41563,1,0,0:0:0:0:
64,192,41731,1,0,0:0:0:0:
320,192,41898,128,0,42066:0:0:0:0:
192,192,42066,1,0,0:0:0:0:
192,192,42233,1,0,0:0:0:0:
64,192,42233,1,0,0:0:0:0:
320,192,42401,128,0,42569:0:0:0:0:
192,192,42569,1,0,0:0:0:0:
64,192,42569,1,0,0:0:0:0:
64,192,42736,1,0,0:0:0:0:
320,192,42904,128,0,43071:0:0:0:0:
192,192,42904,1,0,0:0:0:0:
192,192,43239,1,0,0:0:0:0:
64,192,43407,128,0,44245:0:0:0:0:
320,192,43407,1,0,0:0:0:0:
448,192,43574,1,0,0:0:0:0:
320,192,43574,1,0,0:0:0:0:
192,192,43658,1,0,0:0:0:0:
320,192,43742,1,0,0:0:0:0:
448,192,43742,1,0,0:0:0:0:
192,192,43826,1,0,0:0:0:0:
320,192,43909,1,0,0:0:0:0:
448,192,43909,1,0,0:0:0:0:
192,192,43993,1,0,0:0:0:0:
320,192,44077,1,0,0:0:0:0:
448,192,44077,1,0,0:0:0:0:
192,192,44161,1,0,0:0:0:0:
320,192,44245,1,0,0:0:0:0:
448,192,44245,128,0,46088:0:0:0:0:
192,192,44412,1,0,0:0:0:0:
64,192,44580,1,0,0:0:0:0:
320,192,44747,1,0,0:0:0:0:
192,192,44747,1,0,0:0:0:0:
192,192,44915,1,0,0:0:0:0:
64,192,44915,1,0,0:0:0:0:
320,192,45083,1,0,0:0:0:0:
320,192,45250,1,0,0:0:0:0:
192,192,45250,1,0,0:0:0:0:
64,192,45418,1,0,0:0:0:0:
192,192,45585,1,0,0:0:0:0:
64,192,45585,1,0,0:0:0:0:
320,192,45753,1,0,0:0:0:0:
192,192,45921,1,0,0:0:0:0:
64,192,46088,128,0,46926:0:0:0:0:
320,192,46088,1,0,0:0:0:0:
448,192,46256,1,0,0:0:0:0:
192,192,46256,1,0,0:0:0:0:
448,192,46423,1,0,0:0:0:0:
320,192,46591,1,0,0:0:0:0:
448,192,46591,1,0,0:0:0:0:
448,192,46758,1,0,0:0:0:0:
192,192,46758,1,0,0:0:0:0:
448,192,46926,128,0,48770:0:0:0:0:
320,192,46926,1,0,0:0:0:0:
192,192,47094,1,0,0:0:0:0:
192,192,47219,1,0,0:0:0:0:
320,192,47219,1,0,0:0:0:0:
320,192,47345,1,0,0:0:0:0:
192,192,47429,1,0,0:0:0:0:
64,192,47429,1,0,0:0:0:0:
192,192,47596,1,0,0:0:0:0:
320,192,47596,1,0,0:0:0:0:
64,192,47680,1,0,0:0:0:0:
192,192,47764,1,0,0:0:0:0:
320,192,47848,1,0,0:0:0:0:
192,192,47932,1,0,0:0:0:0:
64,192,47932,1,0,0:0:0:0:
320,192,48099,1,0,0:0:0:0:
192,192,48099,1,0,0:0:0:0:
64,192,48141,1,0,0:0:0:0:
320,192,48183,1,0,0:0:0:0:
192,192,48183,1,0,0:0:0:0:
64,192,48225,1,0,0:0:0:0:
320,192,48267,1,0,0:0:0:0:
192,192,48434,1,0,0:0:0:0:
320,192,48602,1,0,0:0:0:0:
64,192,48770,128,0,49608:0:0:0:0:
192,192,48770,1,0,0:0:0:0:
448,192,48937,1,0,0:0:0:0:
320,192,48937,1,0,0:0:0:0:
192,192,49021,1,0,0:0:0:0:
320,192,49105,1,0,0:0:0:0:
448,192,49105,1,0,0:0:0:0:
192,192,49189,1,0,0:0:0:0:
320,192,49272,1,0,0:0:0:0:
448,192,49272,1,0,0:0:0:0:
192,192,49356,1,0,0:0:0:0:
320,192,49440,1,0,0:0:0:0:
448,192,49440,1,0,0:0:0:0:
192,192,49524,1,0,0:0:0:0:
448,192,49608,128,0,51451:0:0:0:0:
320,192,49608,1,0,0:0:0:0:
192,192,49775,1,0,0:0:0:0:
64,192,49943,1,0,0:0:0:0:
320,192,50110,1,0,0:0:0:0:
192,192,50110,1,0,0:0:0:0:
64,192,50278,1,0,0:0:0:0:
192,192,50278,1,0,0:0:0:0:
320,192,50446,1,0,0:0:0:0:
320,192,50613,1,0,0:0:0:0:
192,192,50613,1,0,0:0:0:0:
64,192,50781,1,0,0:0:0:0:
192,192,50948,1,0,0:0:0:0:
64,192,50948,1,0,0:0:0:0:
320,192,51116,1,0,0:0:0:0:
192,192,51284,1,0,0:0:0:0:
64,192,51451,128,0,52289:0:0:0:0:
320,192,51451,1,0,0:0:0:0:
192,192,51619,128,0,51786:0:0:0:0:
448,192,51619,1,0,0:0:0:0:
448,192,51954,1,0,0:0:0:0:
320,192,51954,1,0,0:0:0:0:
192,192,52122,128,0,52289:0:0:0:0:
448,192,52289,128,0,54133:0:0:0:0:
320,192,52289,1,0,0:0:0:0:
64,192,52457,1,0,0:0:0:0:
320,192,52624,128,0,52792:0:0:0:0:
192,192,52792,1,0,0:0:0:0:
192,192,52960,1,0,0:0:0:0:
64,192,52960,1,0,0:0:0:0:
320,192,53127,128,0,53295:0:0:0:0:
192,192,53295,1,0,0:0:0:0:
64,192,53295,1,0,0:0:0:0:
64,192,53462,1,0,0:0:0:0:
320,192,53630,128,0,53798:0:0:0:0:
192,192,53630,1,0,0:0:0:0:
192,192,53965,1,0,0:0:0:0:
320,192,54133,1,0,0:0:0:0:
64,192,54300,1,0,0:0:0:0:
192,192,54300,1,0,0:0:0:0:
320,192,54342,1,0,0:0:0:0:
448,192,54342,1,0,0:0:0:0:
64,192,54384,1,0,0:0:0:0:
192,192,54384,1,0,0:0:0:0:
320,192,54426,1,0,0:0:0:0:
448,192,54426,1,0,0:0:0:0:
64,192,54468,1,0,0:0:0:0:
320,192,54636,1,0,0:0:0:0:
448,192,54803,1,0,0:0:0:0:
64,192,54971,128,0,56814:0:0:0:0:
192,192,54971,1,0,0:0:0:0:
448,192,55138,1,0,0:0:0:0:
320,192,55222,1,0,0:0:0:0:
192,192,55222,1,0,0:0:0:0:
320,192,55390,1,0,0:0:0:0:
448,192,55390,1,0,0:0:0:0:
320,192,55641,1,0,0:0:0:0:
192,192,55641,1,0,0:0:0:0:
448,192,55809,1,0,0:0:0:0:
320,192,55893,1,0,0:0:0:0:
192,192,55893,1,0,0:0:0:0:
320,192,56060,1,0,0:0:0:0:
448,192,56060,1,0,0:0:0:0:
192,192,56312,1,0,0:0:0:0:
448,192,56312,1,0,0:0:0:0:
320,192,56479,1,0,0:0:0:0:
192,192,56563,1,0,0:0:0:0:
448,192,56563,1,0,0:0:0:0:
192,192,56731,1,0,0:0:0:0:
320,192,56731,1,0,0:0:0:0:
448,192,56814,128,0,57317:0:0:0:0:
192,192,56982,1,0,0:0:0:0:
320,192,56982,1,0,0:0:0:0:
64,192,57150,1,0,0:0:0:0:
192,192,57233,1,0,0:0:0:0:
320,192,57233,1,0,0:0:0:0:
192,192,57401,1,0,0:0:0:0:
320,192,57485,1,0,0:0:0:0:
448,192,57485,1,0,0:0:0:0:
64,192,57569,1,0,0:0:0:0:
192,192,57569,1,0,0:0:0:0:
448,192,57652,128,0,59496:0:0:0:0:
320,192,57652,1,0,0:0:0:0:
64,192,57820,1,0,0:0:0:0:
192,192,57904,1,0,0:0:0:0:
320,192,57904,1,0,0:0:0:0:
192,192,58071,1,0,0:0:0:0:
64,192,58071,1,0,0:0:0:0:
192,192,58323,1,0,0:0:0:0:
320,192,58323,1,0,0:0:0:0:
64,192,58490,1,0,0:0:0:0:
192,192,58574,1,0,0:0:0:0:
320,192,58574,1,0,0:0:0:0:
192,192,58742,1,0,0:0:0:0:
64,192,58742,1,0,0:0:0:0:
320,192,58993,1,0,0:0:0:0:
64,192,58993,1,0,0:0:0:0:
192,192,59161,1,0,0:0:0:0:
320,192,59245,1,0,0:0:0:0:
64,192,59245,1,0,0:0:0:0:
320,192,59412,1,0,0:0:0:0:
192,192,59412,1,0,0:0:0:0:
64,192,59496,128,0,59999:0:0:0:0:
320,192,59664,1,0,0:0:0:0:
192,192,59664,1,0,0:0:0:0:
448,192,59831,1,0,0:0:0:0:
320,192,59915,1,0,0:0:0:0:
192,192,59915,1,0,0:0:0:0:
320,192,60083,1,0,0:0:0:0:
192,192,60166,1,0,0:0:0:0:
64,192,60166,1,0,0:0:0:0:
448,192,60250,1,0,0:0:0:0:
320,192,60250,1,0,0:0:0:0:
192,192,60334,1,0,0:0:0:0:
64,192,60334,128,0,62177:0:0:0:0:
448,192,60502,1,0,0:0:0:0:
192,192,60585,1,0,0:0:0:0:
320,192,60585,1,0,0:0:0:0:
448,192,60753,1,0,0:0:0:0:
320,192,60753,1,0,0:0:0:0:
448,192,60921,1,0,0:0:0:0:
192,192,61004,1,0,0:0:0:0:
320,192,61004,1,0,0:0:0:0:
448,192,61172,1,0,0:0:0:0:
192,192,61256,1,0,0:0:0:0:
320,192,61256,1,0,0:0:0:0:
448,192,61423,1,0,0:0:0:0:
320,192,61423,1,0,0:0:0:0:
320,192,61591,1,0,0:0:0:0:
448,192,61675,1,0,0:0:0:0:
192,192,61675,1,0,0:0:0:0:
320,192,61842,1,0,0:0:0:0:
448,192,61926,1,0,0:0:0:0:
192,192,61926,1,0,0:0:0:0:
320,192,62094,1,0,0:0:0:0:
192,192,62094,1,0,0:0:0:0:
448,192,62177,128,0,62680:0:0:0:0:
320,192,62345,1,0,0:0:0:0:
192,192,62345,1,0,0:0:0:0:
64,192,62513,1,0,0:0:0:0:
320,192,62596,1,0,0:0:0:0:
192,192,62596,1,0,0:0:0:0:
192,192,62764,1,0,0:0:0:0:
448,192,62848,1,0,0:0:0:0:
320,192,62848,1,0,0:0:0:0:
192,192,62932,1,0,0:0:0:0:
64,192,62932,1,0,0:0:0:0:
320,192,63015,1,0,0:0:0:0:
448,192,63015,128,0,64859:0:0:0:0:
64,192,63183,1,0,0:0:0:0:
320,192,63267,1,0,0:0:0:0:
192,192,63267,1,0,0:0:0:0:
64,192,63434,1,0,0:0:0:0:
192,192,63434,1,0,0:0:0:0:
64,192,63602,1,0,0:0:0:0:
320,192,63686,1,0,0:0:0:0:
192,192,63686,1,0,0:0:0:0:
64,192,63853,1,0,0:0:0:0:
320,192,63937,1,0,0:0:0:0:
192,192,63937,1,0,0:0:0:0:
64,192,64105,1,0,0:0:0:0:
192,192,64105,1,0,0:0:0:0:
192,192,64272,1,0,0:0:0:0:
64,192,64356,1,0,0:0:0:0:
320,192,64356,1,0,0:0:0:0:
192,192,64524,1,0,0:0:0:0:
64,192,64608,1,0,0:0:0:0:
320,192,64608,1,0,0:0:0:0:
192,192,64775,1,0,0:0:0:0:
320,192,64775,1,0,0:0:0:0:
64,192,64859,128,0,65362:0:0:0:0:
192,192,65027,1,0,0:0:0:0:
320,192,65027,1,0,0:0:0:0:
448,192,65194,1,0,0:0:0:0:
192,192,65278,1,0,0:0:0:0:
320,192,65278,1,0,0:0:0:0:
448,192,65362,128,0,65529:0:0:0:0:
192,192,65529,1,0,0:0:0:0:
64,192,65697,1,0,0:0:0:0:
320,192,65697,1,0,0:0:0:0:
448,192,65865,1,0,0:0:0:0:
64,192,65948,1,0,0:0:0:0:
320,192,65948,1,0,0:0:0:0:
64,192,66116,1,0,0:0:0:0:
320,192,66116,1,0,0:0:0:0:
320,192,66284,1,0,0:0:0:0:
192,192,66367,1,0,0:0:0:0:
448,192,66367,1,0,0:0:0:0:
64,192,66367,1,0,0:0:0:0:
320,192,66535,1,0,0:0:0:0:
64,192,66535,1,0,0:0:0:0:
192,192,66619,1,0,0:0:0:0:
448,192,66619,1,0,0:0:0:0:
192,192,66786,1,0,0:0:0:0:
448,192,66786,1,0,0:0:0:0:
192,192,67038,1,0,0:0:0:0:
320,192,67038,1,0,0:0:0:0:
64,192,67205,1,0,0:0:0:0:
192,192,67289,1,0,0:0:0:0:
320,192,67289,1,0,0:0:0:0:
192,192,67457,1,0,0:0:0:0:
320,192,67457,1,0,0:0:0:0:
192,192,67624,1,0,0:0:0:0:
64,192,67708,1,0,0:0:0:0:
448,192,67708,1,0,0:0:0:0:
320,192,67708,1,0,0:0:0:0:
192,192,67876,1,0,0:0:0:0:
64,192,67960,1,0,0:0:0:0:
448,192,67960,1,0,0:0:0:0:
64,192,68127,1,0,0:0:0:0:
448,192,68127,1,0,0:0:0:0:
192,192,68211,1,0,0:0:0:0:
320,192,68211,1,0,0:0:0:0:
64,192,68295,1,0,0:0:0:0:
448,192,68295,1,0,0:0:0:0:
448,192,68379,1,0,0:0:0:0:
192,192,68379,1,0,0:0:0:0:
64,192,68546,1,0,0:0:0:0:
448,192,68630,1,0,0:0:0:0:
192,192,68630,1,0,0:0:0:0:
448,192,68798,1,0,0:0:0:0:
192,192,68798,1,0,0:0:0:0:
192,192,68965,1,0,0:0:0:0:
320,192,69049,1,0,0:0:0:0:
64,192,69049,1,0,0:0:0:0:
448,192,69049,1,0,0:0:0:0:
192,192,69217,1,0,0:0:0:0:
448,192,69217,1,0,0:0:0:0:
320,192,69300,1,0,0:0:0:0:
64,192,69300,1,0,0:0:0:0:
320,192,69468,1,0,0:0:0:0:
64,192,69468,1,0,0:0:0:0:
320,192,69719,1,0,0:0:0:0:
192,192,69719,1,0,0:0:0:0:
448,192,69887,1,0,0:0:0:0:
320,192,69971,1,0,0:0:0:0:
192,192,69971,1,0,0:0:0:0:
320,192,70138,1,0,0:0:0:0:
192,192,70138,1,0,0:0:0:0:
320,192,70306,1,0,0:0:0:0:
448,192,70390,1,0,0:0:0:0:
64,192,70390,1,0,0:0:0:0:
192,192,70390,1,0,0:0:0:0:
320,192,70557,1,0,0:0:0:0:
448,192,70641,1,0,0:0:0:0:
64,192,70641,1,0,0:0:0:0:
448,192,70809,1,0,0:0:0:0:
64,192,70809,1,0,0:0:0:0:
320,192,70893,1,0,0:0:0:0:
192,192,70893,1,0,0:0:0:0:
448,192,70976,1,0,0:0:0:0:
64,192,70976,1,0,0:0:0:0:
320,192,71060,1,0,0:0:0:0:
64,192,71060,1,0,0:0:0:0:
448,192,71228,1,0,0:0:0:0:
448,192,71312,1,0,0:0:0:0:
192,192,71312,1,0,0:0:0:0:
192,192,71479,1,0,0:0:0:0:
64,192,71479,1,0,0:0:0:0:
320,192,71647,1,0,0:0:0:0:
64,192,71731,1,0,0:0:0:0:
448,192,71731,1,0,0:0:0:0:
192,192,71731,1,0,0:0:0:0:
64,192,71898,1,0,0:0:0:0:
320,192,71898,1,0,0:0:0:0:
320,192,71982,1,0,0:0:0:0:
192,192,71982,1,0,0:0:0:0:
448,192,72150,1,0,0:0:0:0:
64,192,72150,1,0,0:0:0:0:
192,192,72317,1,0,0:0:0:0:
320,192,72401,1,0,0:0:0:0:
192,192,72401,1,0,0:0:0:0:
448,192,72569,1,0,0:0:0:0:
448,192,72652,1,0,0:0:0:0:
64,192,72652,1,0,0:0:0:0:
320,192,72820,1,0,0:0:0:0:
192,192,72820,1,0,0:0:0:0:
64,192,72988,1,0,0:0:0:0:
320,192,73071,1,0,0:0:0:0:
448,192,73071,1,0,0:0:0:0:
64,192,73071,1,0,0:0:0:0:
192,192,73239,1,0,0:0:0:0:
192,192,73323,1,0,0:0:0:0:
448,192,73323,1,0,0:0:0:0:
448,192,73490,1,0,0:0:0:0:
320,192,73490,1,0,0:0:0:0:
192,192,73574,1,0,0:0:0:0:
64,192,73574,1,0,0:0:0:0:
448,192,73658,1,0,0:0:0:0:
64,192,73658,1,0,0:0:0:0:
192,192,73742,1,0,0:0:0:0:
448,192,73742,1,0,0:0:0:0:
64,192,73909,1,0,0:0:0:0:
64,192,73993,1,0,0:0:0:0:
320,192,73993,1,0,0:0:0:0:
320,192,74161,1,0,0:0:0:0:
448,192,74161,1,0,0:0:0:0:
192,192,74328,1,0,0:0:0:0:
448,192,74412,1,0,0:0:0:0:
64,192,74412,1,0,0:0:0:0:
320,192,74412,1,0,0:0:0:0:
448,192,74580,1,0,0:0:0:0:
192,192,74580,1,0,0:0:0:0:
192,192,74664,1,0,0:0:0:0:
320,192,74664,1,0,0:0:0:0:
64,192,74831,1,0,0:0:0:0:
448,192,74831,1,0,0:0:0:0:
320,192,74999,1,0,0:0:0:0:
192,192,75083,1,0,0:0:0:0:
320,192,75083,1,0,0:0:0:0:
64,192,75250,1,0,0:0:0:0:
64,192,75334,1,0,0:0:0:0:
448,192,75334,1,0,0:0:0:0:
192,192,75502,1,0,0:0:0:0:
448,192,75502,1,0,0:0:0:0:
320,192,75669,1,0,0:0:0:0:
320,192,75753,1,0,0:0:0:0:
192,192,75753,1,0,0:0:0:0:
448,192,75753,1,0,0:0:0:0:
64,192,75921,1,0,0:0:0:0:
192,192,76004,1,0,0:0:0:0:
64,192,76004,1,0,0:0:0:0:
448,192,76088,1,0,0:0:0:0:
320,192,76088,1,0,0:0:0:0:
192,192,76172,1,0,0:0:0:0:
64,192,76172,1,0,0:0:0:0:
448,192,76256,1,0,0:0:0:0:
320,192,76256,1,0,0:0:0:0:
192,192,76340,1,0,0:0:0:0:
64,192,76340,1,0,0:0:0:0:
320,192,76423,1,0,0:0:0:0:
448,192,76423,128,0,78267:0:0:0:0:
192,192,76507,1,0,0:0:0:0:
320,192,76591,1,0,0:0:0:0:
192,192,76675,1,0,0:0:0:0:
64,192,76758,128,0,76926:0:0:0:0:
320,192,76842,1,0,0:0:0:0:
192,192,76898,1,0,0:0:0:0:
320,192,76954,1,0,0:0:0:0:
64,192,77010,1,0,0:0:0:0:
320,192,77094,1,0,0:0:0:0:
192,192,77177,1,0,0:0:0:0:
320,192,77261,128,0,77429:0:0:0:0:
64,192,77345,1,0,0:0:0:0:
192,192,77401,1,0,0:0:0:0:
64,192,77457,1,0,0:0:0:0:
320,192,77513,1,0,0:0:0:0:
192,192,77596,1,0,0:0:0:0:
64,192,77680,1,0,0:0:0:0:
192,192,77764,1,0,0:0:0:0:
320,192,77764,1,0,0:0:0:0:
64,192,77848,1,0,0:0:0:0:
192,192,77932,1,0,0:0:0:0:
320,192,78015,1,0,0:0:0:0:
192,192,78099,128,0,78267:0:0:0:0:
320,192,78183,1,0,0:0:0:0:
64,192,78267,128,0,79105:0:0:0:0:
320,192,78351,1,0,0:0:0:0:
448,192,78434,1,0,0:0:0:0:
320,192,78434,1,0,0:0:0:0:
192,192,78518,1,0,0:0:0:0:
320,192,78602,1,0,0:0:0:0:
448,192,78602,1,0,0:0:0:0:
192,192,78686,1,0,0:0:0:0:
320,192,78770,1,0,0:0:0:0:
448,192,78770,1,0,0:0:0:0:
192,192,78853,1,0,0:0:0:0:
320,192,78937,1,0,0:0:0:0:
448,192,78937,1,0,0:0:0:0:
192,192,79021,1,0,0:0:0:0:
448,192,79105,128,0,80948:0:0:0:0:
320,192,79105,1,0,0:0:0:0:
192,192,79272,1,0,0:0:0:0:
64,192,79440,128,0,79608:0:0:0:0:
320,192,79608,1,0,0:0:0:0:
192,192,79608,1,0,0:0:0:0:
64,192,79775,1,0,0:0:0:0:
320,192,79943,128,0,80110:0:0:0:0:
64,192,80110,1,0,0:0:0:0:
192,192,80110,1,0,0:0:0:0:
320,192,80278,1,0,0:0:0:0:
192,192,80446,1,0,0:0:0:0:
64,192,80446,1,0,0:0:0:0:
320,192,80613,1,0,0:0:0:0:
192,192,80781,128,0,80948:0:0:0:0:
64,192,80948,128,0,81786:0:0:0:0:
448,192,81116,1,0,0:0:0:0:
320,192,81116,1,0,0:0:0:0:
192,192,81200,1,0,0:0:0:0:
320,192,81284,1,0,0:0:0:0:
448,192,81284,1,0,0:0:0:0:
192,192,81367,1,0,0:0:0:0:
320,192,81451,1,0,0:0:0:0:
448,192,81451,1,0,0:0:0:0:
192,192,81535,1,0,0:0:0:0:
320,192,81619,1,0,0:0:0:0:
448,192,81619,1,0,0:0:0:0:
192,192,81703,1,0,0:0:0:0:
448,192,81786,128,0,83630:0:0:0:0:
320,192,81786,1,0,0:0:0:0:
192,192,81954,1,0,0:0:0:0:
64,192,82122,128,0,82289:0:0:0:0:
320,192,82289,1,0,0:0:0:0:
192,192,82289,1,0,0:0:0:0:
64,192,82457,1,0,0:0:0:0:
320,192,82624,128,0,82792:0:0:0:0:
64,192,82792,1,0,0:0:0:0:
192,192,82792,1,0,0:0:0:0:
320,192,82960,1,0,0:0:0:0:
192,192,83127,1,0,0:0:0:0:
64,192,83127,1,0,0:0:0:0:
320,192,83295,1,0,0:0:0:0:
192,192,83462,128,0,83630:0:0:0:0:
64,192,83630,128,0,84468:0:0:0:0:
448,192,83798,1,0,0:0:0:0:
320,192,83798,1,0,0:0:0:0:
192,192,83881,1,0,0:0:0:0:
320,192,83965,1,0,0:0:0:0:
448,192,83965,1,0,0:0:0:0:
192,192,84049,1,0,0:0:0:0:
320,192,84133,1,0,0:0:0:0:
448,192,84133,1,0,0:0:0:0:
192,192,84217,1,0,0:0:0:0:
320,192,84300,1,0,0:0:0:0:
448,192,84300,1,0,0:0:0:0:
192,192,84384,1,0,0:0:0:0:
320,192,84468,1,0,0:0:0:0:
448,192,84468,128,0,86312:0:0:0:0:
192,192,84636,1,0,0:0:0:0:
64,192,84803,128,0,84971:0:0:0:0:
192,192,84971,1,0,0:0:0:0:
320,192,84971,1,0,0:0:0:0:
64,192,85138,1,0,0:0:0:0:
320,192,85306,128,0,85474:0:0:0:0:
192,192,85474,1,0,0:0:0:0:
64,192,85474,1,0,0:0:0:0:
320,192,85641,1,0,0:0:0:0:
64,192,85809,1,0,0:0:0:0:
192,192,85809,1,0,0:0:0:0:
320,192,85976,1,0,0:0:0:0:
192,192,86144,128,0,86312:0:0:0:0:
64,192,86312,128,0,87150:0:0:0:0:
448,192,86479,1,0,0:0:0:0:
320,192,86479,1,0,0:0:0:0:
192,192,86563,1,0,0:0:0:0:
320,192,86647,1,0,0:0:0:0:
448,192,86647,1,0,0:0:0:0:
192,192,86731,1,0,0:0:0:0:
320,192,86814,1,0,0:0:0:0:
448,192,86814,1,0,0:0:0:0:
192,192,86898,1,0,0:0:0:0:
320,192,86982,1,0,0:0:0:0:
448,192,86982,1,0,0:0:0:0:
192,192,87066,1,0,0:0:0:0:
448,192,87150,128,0,88993:0:0:0:0:
320,192,87150,1,0,0:0:0:0:
192,192,87317,1,0,0:0:0:0:
64,192,87485,128,0,87652:0:0:0:0:
320,192,87652,1,0,0:0:0:0:
192,192,87652,1,0,0:0:0:0:
64,192,87820,1,0,0:0:0:0:
320,192,87988,128,0,88155:0:0:0:0:
64,192,88155,1,0,0:0:0:0:
192,192,88155,1,0,0:0:0:0:
320,192,88323,1,0,0:0:0:0:
192,192,88490,1,0,0:0:0:0:
64,192,88490,1,0,0:0:0:0:
320,192,88658,1,0,0:0:0:0:
192,192,88826,128,0,88993:0:0:0:0:
64,192,88993,128,0,89831:0:0:0:0:
448,192,89161,1,0,0:0:0:0:
320,192,89161,1,0,0:0:0:0:
192,192,89245,1,0,0:0:0:0:
320,192,89328,1,0,0:0:0:0:
448,192,89328,1,0,0:0:0:0:
192,192,89412,1,0,0:0:0:0:
320,192,89496,1,0,0:0:0:0:
448,192,89496,1,0,0:0:0:0:
192,192,89580,1,0,0:0:0:0:
320,192,89664,1,0,0:0:0:0:
448,192,89664,1,0,0:0:0:0:
192,192,89747,1,0,0:0:0:0:
320,192,89831,1,0,0:0:0:0:
448,192,89831,128,0,91675:0:0:0:0:
192,192,89999,1,0,0:0:0:0:
64,192,90166,128,0,90334:0:0:0:0:
192,192,90334,1,0,0:0:0:0:
320,192,90334,1,0,0:0:0:0:
64,192,90502,1,0,0:0:0:0:
320,192,90669,128,0,90837:0:0:0:0:
192,192,90837,1,0,0:0:0:0:
64,192,90837,1,0,0:0:0:0:
320,192,91004,1,0,0:0:0:0:
64,192,91172,1,0,0:0:0:0:
192,192,91172,1,0,0:0:0:0:
320,192,91340,1,0,0:0:0:0:
192,192,91507,128,0,91675:0:0:0:0:
64,192,91675,128,0,92513:0:0:0:0:
448,192,91842,1,0,0:0:0:0:
320,192,91842,1,0,0:0:0:0:
192,192,91926,1,0,0:0:0:0:
320,192,92010,1,0,0:0:0:0:
448,192,92010,1,0,0:0:0:0:
192,192,92094,1,0,0:0:0:0:
320,192,92177,1,0,0:0:0:0:
448,192,92177,1,0,0:0:0:0:
192,192,92261,1,0,0:0:0:0:
320,192,92345,1,0,0:0:0:0:
448,192,92345,1,0,0:0:0:0:
192,192,92429,1,0,0:0:0:0:
448,192,92513,128,0,94356:0:0:0:0:
320,192,92513,1,0,0:0:0:0:
192,192,92680,1,0,0:0:0:0:
64,192,92848,128,0,93015:0:0:0:0:
320,192,93015,1,0,0:0:0:0:
192,192,93015,1,0,0:0:0:0:
64,192,93183,1,0,0:0:0:0:
320,192,93351,128,0,93518:0:0:0:0:
64,192,93518,1,0,0:0:0:0:
192,192,93518,1,0,0:0:0:0:
320,192,93686,1,0,0:0:0:0:
192,192,93853,1,0,0:0:0:0:
64,192,93853,1,0,0:0:0:0:
320,192,94021,1,0,0:0:0:0:
192,192,94189,128,0,94356:0:0:0:0:
64,192,94356,128,0,95194:0:0:0:0:
448,192,94524,1,0,0:0:0:0:
320,192,94524,1,0,0:0:0:0:
192,192,94608,1,0,0:0:0:0:
320,192,94691,1,0,0:0:0:0:
448,192,94691,1,0,0:0:0:0:
192,192,94775,1,0,0:0:0:0:
320,192,94859,1,0,0:0:0:0:
448,192,94859,1,0,0:0:0:0:
192,192,94943,1,0,0:0:0:0:
320,192,95027,1,0,0:0:0:0:
448,192,95027,1,0,0:0:0:0:
192,192,95110,1,0,0:0:0:0:
320,192,95194,1,0,0:0:0:0:
448,192,95194,128,0,97038:0:0:0:0:
192,192,95362,1,0,0:0:0:0:
64,192,95529,128,0,95697:0:0:0:0:
192,192,95697,1,0,0:0:0:0:
320,192,95697,1,0,0:0:0:0:
64,192,95865,1,0,0:0:0:0:
320,192,96032,128,0,96200:0:0:0:0:
192,192,96200,1,0,0:0:0:0:
64,192,96200,1,0,0:0:0:0:
320,192,96367,1,0,0:0:0:0:
64,192,96535,1,0,0:0:0:0:
192,192,96535,1,0,0:0:0:0:
320,192,96703,1,0,0:0:0:0:
192,192,96870,128,0,97038:0:0:0:0:
320,192,97038,1,0,0:0:0:0:
192,192,97247,1,0,0:0:0:0:
64,192,97247,1,0,0:0:0:0:
320,192,97247,1,0,0:0:0:0:
448,192,97247,1,0,0:0:0:0:
