osu file format v14

[General]
AudioFilename: audio.mp3
AudioLeadIn: 0
PreviewTime: 32251
Countdown: 0
SampleSet: Soft
StackLeniency: 0.7
Mode: 3
LetterboxInBreaks: 0
SpecialStyle: 0
WidescreenStoryboard: 1

[Editor]
DistanceSpacing: 0.4
BeatDivisor: 4
GridSize: 32
TimelineZoom: 1.1

[Metadata]
Title:Credits
TitleUnicode:Credits
Artist:Frums
ArtistUnicode:Frums
Creator:-MysticEyes
Version:Hyper
Source:BMS
Tags:大血戦 -THE OF FIGHTERS ULTIMATE- smith au lait minimal juke other time BOFU2015 maimai MiLK
BeatmapID:2084520
BeatmapSetID:996443

[Difficulty]
HPDrainRate:7.5
CircleSize:9
OverallDifficulty:7.5
ApproachRate:5
SliderMultiplier:1.4
SliderTickRate:1

[Events]
//Background and Video events
0,0,"cred.jpg",0,0
//Break Periods
//Storyboard Layer 0 (Background)
//Storyboard Layer 1 (Fail)
//Storyboard Layer 2 (Pass)
//Storyboard Layer 3 (Foreground)
//Storyboard Layer 4 (Overlay)
//Storyboard Sound Samples

[TimingPoints]
73,335.195530726257,4,2,1,60,1,0
64430,-100,4,2,1,60,0,1
75156,-100,4,2,1,60,0,0

[HitObjects]
142,192,73,5,0,0:0:0:0:
369,192,240,1,0,0:0:0:0:
142,192,408,1,0,0:0:0:0:
369,192,575,1,0,0:0:0:0:
142,192,743,1,0,0:0:0:0:
369,192,910,1,0,0:0:0:0:
142,192,1078,1,0,0:0:0:0:
369,192,1246,1,0,0:0:0:0:
142,192,1413,1,0,0:0:0:0:
369,192,1581,1,0,0:0:0:0:
142,192,1748,1,0,0:0:0:0:
256,192,1916,1,0,0:0:0:0:
312,192,2028,1,0,0:0:0:0:
369,192,2140,1,0,0:0:0:0:
426,192,2251,1,0,0:0:0:0:
483,192,2363,1,0,0:0:0:0:
28,192,2475,1,0,0:0:0:0:
85,192,2586,1,0,0:0:0:0:
142,192,2698,1,0,0:0:0:0:
369,192,2754,1,0,0:0:0:0:
142,192,2922,1,0,0:0:0:0:
369,192,3089,1,0,0:0:0:0:
142,192,3257,1,0,0:0:0:0:
369,192,3424,1,0,0:0:0:0:
142,192,3592,1,0,0:0:0:0:
369,192,3760,1,0,0:0:0:0:
142,192,3927,1,0,0:0:0:0:
369,192,4095,1,0,0:0:0:0:
142,192,4262,1,0,0:0:0:0:
369,192,4430,1,0,0:0:0:0:
256,192,4598,1,0,0:0:0:0:
199,192,4709,1,0,0:0:0:0:
142,192,4821,1,0,0:0:0:0:
85,192,4933,1,0,0:0:0:0:
28,192,5045,1,0,0:0:0:0:
483,192,5156,1,0,0:0:0:0:
426,192,5268,1,0,0:0:0:0:
369,192,5380,1,0,0:0:0:0:
142,192,5436,1,0,0:0:0:0:
369,192,5603,1,0,0:0:0:0:
142,192,5771,1,0,0:0:0:0:
369,192,5938,1,0,0:0:0:0:
142,192,6106,1,0,0:0:0:0:
369,192,6274,1,0,0:0:0:0:
142,192,6441,1,0,0:0:0:0:
369,192,6609,1,0,0:0:0:0:
142,192,6776,1,0,0:0:0:0:
369,192,6944,1,0,0:0:0:0:
142,192,7112,1,0,0:0:0:0:
256,192,7279,1,0,0:0:0:0:
312,192,7391,1,0,0:0:0:0:
369,192,7503,1,0,0:0:0:0:
426,192,7614,1,0,0:0:0:0:
483,192,7726,1,0,0:0:0:0:
28,192,7838,1,0,0:0:0:0:
85,192,7950,1,0,0:0:0:0:
142,192,8061,1,0,0:0:0:0:
369,192,8117,1,0,0:0:0:0:
142,192,8285,1,0,0:0:0:0:
369,192,8452,1,0,0:0:0:0:
142,192,8620,1,0,0:0:0:0:
369,192,8788,1,0,0:0:0:0:
142,192,8955,1,0,0:0:0:0:
369,192,9123,1,0,0:0:0:0:
142,192,9290,1,0,0:0:0:0:
369,192,9458,1,0,0:0:0:0:
142,192,9626,1,0,0:0:0:0:
369,192,9793,1,0,0:0:0:0:
256,192,9961,1,0,0:0:0:0:
199,192,10073,1,0,0:0:0:0:
142,192,10184,1,0,0:0:0:0:
85,192,10296,1,0,0:0:0:0:
28,192,10408,1,0,0:0:0:0:
483,192,10519,1,0,0:0:0:0:
426,192,10631,1,0,0:0:0:0:
369,192,10743,1,0,0:0:0:0:
85,192,10799,1,2,0:0:0:0:
142,192,10799,1,0,0:0:0:0:
369,192,10966,1,0,0:0:0:0:
142,192,11134,1,0,0:0:0:20:sdrawkcab.wav
483,192,11134,1,0,0:0:0:0:
199,192,11302,1,2,0:0:0:0:
369,192,11302,1,0,0:0:0:0:
142,192,11469,1,0,0:0:0:0:
369,192,11637,1,0,0:0:0:20:sdrawkcab.wav
483,192,11637,1,0,0:0:0:0:
85,192,11804,1,2,0:0:0:0:
142,192,11804,1,0,0:0:0:0:
369,192,11972,1,0,0:0:0:0:
142,192,12140,1,2,0:0:0:0:
199,192,12140,1,0,0:0:0:0:
369,192,12307,1,0,0:0:0:0:
142,192,12475,1,0,0:0:0:20:sdrawkcab.wav
483,192,12475,1,0,0:0:0:0:
85,192,12642,1,2,0:0:0:0:
256,192,12810,1,0,0:0:0:50:tictic.wav
312,192,12894,1,0,0:0:0:50:tictic.wav
426,192,12978,1,0,0:0:0:40:tictic.wav
483,192,13061,1,0,0:0:0:30:tictic.wav
256,192,13145,1,0,0:0:0:25:tictic.wav
199,192,13229,1,0,0:0:0:20:tictic.wav
85,192,13313,1,0,0:0:0:15:tictic.wav
28,192,13397,1,0,0:0:0:10:tictic.wav
369,192,13480,1,2,0:0:0:0:
426,192,13480,1,0,0:0:0:0:
142,192,13648,1,0,0:0:0:0:
28,192,13816,1,0,0:0:0:20:sdrawkcab.wav
369,192,13816,1,0,0:0:0:0:
142,192,13983,1,2,0:0:0:0:
312,192,13983,1,0,0:0:0:0:
369,192,14151,1,0,0:0:0:0:
28,192,14318,1,0,0:0:0:20:sdrawkcab.wav
142,192,14318,1,0,0:0:0:0:
369,192,14486,1,2,0:0:0:0:
426,192,14486,1,0,0:0:0:0:
142,192,14654,1,0,0:0:0:0:
312,192,14821,1,2,0:0:0:0:
369,192,14821,1,0,0:0:0:0:
142,192,14989,1,0,0:0:0:0:
28,192,15156,1,0,0:0:0:20:sdrawkcab.wav
369,192,15156,1,0,0:0:0:0:
426,192,15324,1,2,0:0:0:0:
256,192,15491,1,0,0:0:0:50:tictic.wav
199,192,15575,1,0,0:0:0:50:tictic.wav
85,192,15659,1,0,0:0:0:40:tictic.wav
28,192,15743,1,0,0:0:0:30:tictic.wav
256,192,15827,1,0,0:0:0:25:tictic.wav
312,192,15910,1,0,0:0:0:20:tictic.wav
426,192,15994,1,0,0:0:0:15:tictic.wav
483,192,16078,1,0,0:0:0:10:tictic.wav
85,192,16162,1,2,0:0:0:0:
142,192,16162,1,0,0:0:0:0:
369,192,16329,1,0,0:0:0:0:
142,192,16497,1,0,0:0:0:20:sdrawkcab.wav
483,192,16497,1,0,0:0:0:0:
199,192,16665,1,2,0:0:0:0:
369,192,16665,1,0,0:0:0:0:
142,192,16832,1,0,0:0:0:0:
369,192,17000,1,0,0:0:0:20:sdrawkcab.wav
483,192,17000,1,0,0:0:0:0:
85,192,17167,1,2,0:0:0:0:
142,192,17167,1,0,0:0:0:0:
369,192,17335,1,0,0:0:0:0:
142,192,17503,1,2,0:0:0:0:
199,192,17503,1,0,0:0:0:0:
369,192,17670,1,0,0:0:0:0:
142,192,17838,1,0,0:0:0:20:sdrawkcab.wav
483,192,17838,1,0,0:0:0:0:
85,192,18005,1,2,0:0:0:0:
256,192,18173,1,0,0:0:0:50:tictic.wav
312,192,18257,1,0,0:0:0:50:tictic.wav
426,192,18341,1,0,0:0:0:40:tictic.wav
483,192,18424,1,0,0:0:0:30:tictic.wav
256,192,18508,1,0,0:0:0:25:tictic.wav
199,192,18592,1,0,0:0:0:20:tictic.wav
85,192,18676,1,0,0:0:0:15:tictic.wav
28,192,18760,1,0,0:0:0:10:tictic.wav
369,192,18843,1,2,0:0:0:0:
426,192,18843,1,0,0:0:0:0:
142,192,19011,1,0,0:0:0:0:
28,192,19179,1,0,0:0:0:20:sdrawkcab.wav
369,192,19179,1,0,0:0:0:0:
142,192,19346,1,2,0:0:0:0:
312,192,19346,1,0,0:0:0:0:
369,192,19514,1,0,0:0:0:0:
28,192,19681,1,0,0:0:0:20:sdrawkcab.wav
142,192,19681,1,0,0:0:0:0:
369,192,19849,1,2,0:0:0:0:
426,192,19849,1,0,0:0:0:0:
142,192,20017,1,0,0:0:0:0:
312,192,20184,1,2,0:0:0:0:
369,192,20184,1,0,0:0:0:0:
142,192,20352,1,0,0:0:0:0:
28,192,20519,1,0,0:0:0:20:sdrawkcab.wav
369,192,20519,1,0,0:0:0:0:
426,192,20687,1,2,0:0:0:0:
256,192,20855,1,0,0:0:0:50:tictic.wav
199,192,20938,1,0,0:0:0:50:tictic.wav
85,192,21022,1,0,0:0:0:40:tictic.wav
28,192,21106,1,0,0:0:0:30:tictic.wav
256,192,21190,1,0,0:0:0:25:tictic.wav
312,192,21274,1,0,0:0:0:20:tictic.wav
426,192,21357,1,0,0:0:0:15:tictic.wav
483,192,21441,1,0,0:0:0:10:tictic.wav
85,192,21525,1,2,0:0:0:0:
142,192,21525,1,0,0:0:0:0:
369,192,21693,1,0,0:0:0:0:
142,192,21860,1,0,0:0:0:20:sdrawkcab.wav
483,192,21860,1,0,0:0:0:0:
199,192,22028,1,2,0:0:0:0:
369,192,22028,1,0,0:0:0:0:
142,192,22195,1,0,0:0:0:0:
256,192,22195,1,0,0:0:0:0:
369,192,22363,1,0,0:0:0:20:sdrawkcab.wav
483,192,22363,1,0,0:0:0:0:
85,192,22531,1,2,0:0:0:0:
142,192,22531,1,0,0:0:0:0:
369,192,22698,1,0,0:0:0:0:
142,192,22866,1,2,0:0:0:0:
199,192,22866,1,0,0:0:0:0:
369,192,23033,1,0,0:0:0:0:
142,192,23201,1,0,0:0:0:20:sdrawkcab.wav
483,192,23201,1,0,0:0:0:0:
85,192,23369,1,2,0:0:0:0:
256,192,23536,1,0,0:0:0:50:tictic.wav
312,192,23620,1,0,0:0:0:50:tictic.wav
426,192,23704,1,0,0:0:0:40:tictic.wav
483,192,23788,1,0,0:0:0:30:tictic.wav
256,192,23871,1,0,0:0:0:25:tictic.wav
199,192,23955,1,0,0:0:0:20:tictic.wav
85,192,24039,1,0,0:0:0:15:tictic.wav
28,192,24123,1,0,0:0:0:10:tictic.wav
369,192,24207,1,2,0:0:0:0:
426,192,24207,1,0,0:0:0:0:
142,192,24374,1,0,0:0:0:0:
28,192,24542,1,0,0:0:0:20:sdrawkcab.wav
369,192,24542,1,0,0:0:0:0:
142,192,24709,1,2,0:0:0:0:
312,192,24709,1,0,0:0:0:0:
256,192,24877,1,0,0:0:0:0:
369,192,24877,1,0,0:0:0:0:
28,192,25045,1,0,0:0:0:20:sdrawkcab.wav
142,192,25045,1,0,0:0:0:0:
369,192,25212,1,2,0:0:0:0:
426,192,25212,1,0,0:0:0:0:
142,192,25380,1,0,0:0:0:0:
312,192,25547,1,2,0:0:0:0:
369,192,25547,1,0,0:0:0:0:
142,192,25715,1,0,0:0:0:0:
28,192,25883,1,0,0:0:0:20:sdrawkcab.wav
369,192,25883,1,0,0:0:0:0:
426,192,26050,1,2,0:0:0:0:
256,192,26218,1,0,0:0:0:50:tictic.wav
199,192,26302,1,0,0:0:0:50:tictic.wav
85,192,26385,1,0,0:0:0:40:tictic.wav
28,192,26469,1,0,0:0:0:30:tictic.wav
256,192,26553,1,0,0:0:0:25:tictic.wav
312,192,26637,1,0,0:0:0:20:tictic.wav
426,192,26721,1,0,0:0:0:15:tictic.wav
483,192,26804,1,0,0:0:0:10:tictic.wav
85,192,26888,1,2,0:0:0:0:
142,192,26888,1,0,0:0:0:0:
369,192,27056,1,0,0:0:0:0:
142,192,27223,1,0,0:0:0:20:sdrawkcab.wav
483,192,27223,1,0,0:0:0:0:
199,192,27391,1,2,0:0:0:0:
369,192,27391,1,0,0:0:0:0:
142,192,27559,1,0,0:0:0:0:
256,192,27559,1,0,0:0:0:0:
369,192,27726,1,0,0:0:0:20:sdrawkcab.wav
483,192,27726,1,0,0:0:0:0:
85,192,27894,1,2,0:0:0:0:
142,192,27894,1,0,0:0:0:0:
369,192,28061,1,0,0:0:0:0:
142,192,28229,1,2,0:0:0:0:
199,192,28229,1,0,0:0:0:0:
369,192,28397,1,0,0:0:0:0:
142,192,28564,1,0,0:0:0:20:sdrawkcab.wav
483,192,28564,1,0,0:0:0:0:
85,192,28732,1,2,0:0:0:0:
256,192,28899,1,0,0:0:0:50:tictic.wav
312,192,28983,1,0,0:0:0:50:tictic.wav
426,192,29067,1,0,0:0:0:40:tictic.wav
483,192,29151,1,0,0:0:0:30:tictic.wav
256,192,29235,1,0,0:0:0:25:tictic.wav
199,192,29318,1,0,0:0:0:20:tictic.wav
85,192,29402,1,0,0:0:0:15:tictic.wav
28,192,29486,1,0,0:0:0:10:tictic.wav
369,192,29570,1,2,0:0:0:0:
426,192,29570,1,0,0:0:0:0:
142,192,29737,1,0,0:0:0:0:
28,192,29905,1,0,0:0:0:20:sdrawkcab.wav
369,192,29905,1,0,0:0:0:0:
142,192,30073,1,2,0:0:0:0:
312,192,30073,1,0,0:0:0:0:
256,192,30240,1,0,0:0:0:0:
369,192,30240,1,0,0:0:0:0:
28,192,30408,1,0,0:0:0:20:sdrawkcab.wav
142,192,30408,1,0,0:0:0:0:
369,192,30575,1,2,0:0:0:0:
426,192,30575,1,0,0:0:0:0:
142,192,30743,1,0,0:0:0:0:
312,192,30910,1,2,0:0:0:0:
369,192,30910,1,0,0:0:0:0:
142,192,31078,1,0,0:0:0:0:
28,192,31246,1,0,0:0:0:20:sdrawkcab.wav
369,192,31246,1,0,0:0:0:0:
426,192,31413,1,2,0:0:0:0:
256,192,31581,1,0,0:0:0:50:tictic.wav
199,192,31665,1,0,0:0:0:50:tictic.wav
85,192,31748,1,0,0:0:0:40:tictic.wav
28,192,31832,1,0,0:0:0:30:tictic.wav
256,192,31916,1,0,0:0:0:25:tictic.wav
312,192,32000,1,0,0:0:0:20:tictic.wav
426,192,32084,1,0,0:0:0:15:tictic.wav
483,192,32167,1,0,0:0:0:10:tictic.wav
199,192,32251,1,2,0:0:0:0:
256,192,32251,1,0,0:0:0:0:
483,192,32586,1,0,0:0:0:20:sdrawkcab.wav
85,192,32754,1,2,0:0:0:0:
142,192,32922,1,8,0:0:0:0:
256,192,32922,1,0,0:0:0:0:
369,192,32922,1,0,0:0:0:0:
483,192,33089,1,0,0:0:0:20:sdrawkcab.wav
199,192,33257,1,2,0:0:0:0:
85,192,33592,1,2,0:0:0:0:
256,192,33592,1,0,0:0:0:0:
483,192,33927,1,0,0:0:0:20:sdrawkcab.wav
256,192,34095,1,2,0:0:0:0:
199,192,34207,1,0,0:0:0:0:
142,192,34318,1,0,0:0:0:0:
85,192,34430,1,0,0:0:0:20:sdrawkcab.wav
28,192,34542,1,0,0:0:0:0:
483,192,34654,1,0,0:0:0:0:
426,192,34765,1,8,0:0:0:0:
369,192,34877,1,0,0:0:0:0:
256,192,34933,1,2,0:0:0:0:
312,192,34933,1,0,0:0:0:0:
28,192,35268,1,0,0:0:0:20:sdrawkcab.wav
426,192,35436,1,2,0:0:0:0:
142,192,35603,1,8,0:0:0:0:
256,192,35603,1,0,0:0:0:0:
369,192,35603,1,0,0:0:0:0:
28,192,35771,1,0,0:0:0:20:sdrawkcab.wav
312,192,35938,1,2,0:0:0:0:
256,192,36274,1,2,0:0:0:0:
426,192,36274,1,0,0:0:0:0:
28,192,36609,1,0,0:0:0:20:sdrawkcab.wav
312,192,36776,1,2,0:0:0:0:
256,192,36944,1,0,0:0:0:50:tictic.wav
199,192,37028,1,0,0:0:0:50:tictic.wav
85,192,37112,1,0,0:0:0:40:tictic.wav
28,192,37195,1,0,0:0:0:30:tictic.wav
256,192,37279,1,0,0:0:0:25:tictic.wav
312,192,37363,1,0,0:0:0:20:tictic.wav
426,192,37447,1,0,0:0:0:15:tictic.wav
483,192,37531,1,0,0:0:0:10:tictic.wav
199,192,37614,1,2,0:0:0:0:
256,192,37614,1,0,0:0:0:0:
483,192,37950,1,0,0:0:0:20:sdrawkcab.wav
85,192,38117,1,2,0:0:0:0:
142,192,38285,1,8,0:0:0:0:
256,192,38285,1,0,0:0:0:0:
369,192,38285,1,0,0:0:0:0:
483,192,38452,1,0,0:0:0:20:sdrawkcab.wav
199,192,38620,1,2,0:0:0:0:
85,192,38955,1,2,0:0:0:0:
256,192,38955,1,0,0:0:0:0:
142,192,39123,1,8,0:0:0:0:
369,192,39123,1,0,0:0:0:0:
483,192,39290,1,0,0:0:0:20:sdrawkcab.wav
256,192,39458,1,2,0:0:0:0:
199,192,39570,1,0,0:0:0:0:
142,192,39681,1,0,0:0:0:0:
85,192,39793,1,0,0:0:0:20:sdrawkcab.wav
28,192,39905,1,0,0:0:0:0:
483,192,40017,1,0,0:0:0:0:
426,192,40128,1,0,0:0:0:0:
369,192,40240,1,0,0:0:0:0:
256,192,40296,1,2,0:0:0:0:
312,192,40296,1,0,0:0:0:0:
28,192,40631,1,0,0:0:0:20:sdrawkcab.wav
426,192,40799,1,2,0:0:0:0:
142,192,40966,1,8,0:0:0:0:
256,192,40966,1,0,0:0:0:0:
369,192,40966,1,0,0:0:0:0:
28,192,41134,1,0,0:0:0:20:sdrawkcab.wav
312,192,41302,1,2,0:0:0:0:
256,192,41637,1,2,0:0:0:0:
426,192,41637,1,0,0:0:0:0:
28,192,41972,1,0,0:0:0:20:sdrawkcab.wav
312,192,42140,1,2,0:0:0:0:
256,192,42307,1,0,0:0:0:50:tictic.wav
199,192,42391,1,0,0:0:0:50:tictic.wav
85,192,42475,1,0,0:0:0:40:tictic.wav
28,192,42559,1,0,0:0:0:30:tictic.wav
256,192,42642,1,0,0:0:0:25:tictic.wav
312,192,42726,1,0,0:0:0:20:tictic.wav
426,192,42810,1,0,0:0:0:15:tictic.wav
483,192,42894,1,0,0:0:0:10:tictic.wav
199,192,42978,1,2,0:0:0:0:
256,192,42978,1,0,0:0:0:0:
483,192,43313,1,0,0:0:0:20:sdrawkcab.wav
85,192,43480,1,2,0:0:0:0:
142,192,43648,1,8,0:0:0:0:
256,192,43648,1,0,0:0:0:0:
369,192,43648,1,0,0:0:0:0:
483,192,43816,1,0,0:0:0:20:sdrawkcab.wav
199,192,43983,1,2,0:0:0:0:
85,192,44318,1,2,0:0:0:0:
256,192,44318,1,0,0:0:0:0:
483,192,44654,1,0,0:0:0:20:sdrawkcab.wav
256,192,44821,1,2,0:0:0:0:
199,192,44933,1,0,0:0:0:0:
142,192,45045,1,0,0:0:0:0:
85,192,45156,1,0,0:0:0:20:sdrawkcab.wav
28,192,45268,1,0,0:0:0:0:
483,192,45380,1,0,0:0:0:0:
426,192,45491,1,8,0:0:0:0:
369,192,45603,1,0,0:0:0:0:
256,192,45659,1,2,0:0:0:0:
312,192,45659,1,0,0:0:0:0:
28,192,45994,1,0,0:0:0:20:sdrawkcab.wav
426,192,46162,1,2,0:0:0:0:
142,192,46329,1,8,0:0:0:0:
256,192,46329,1,0,0:0:0:0:
369,192,46329,1,0,0:0:0:0:
28,192,46497,1,0,0:0:0:20:sdrawkcab.wav
312,192,46665,1,2,0:0:0:0:
256,192,47000,1,2,0:0:0:0:
426,192,47000,1,0,0:0:0:0:
28,192,47335,1,0,0:0:0:20:sdrawkcab.wav
312,192,47503,1,2,0:0:0:0:
256,192,47670,1,0,0:0:0:50:tictic.wav
199,192,47754,1,0,0:0:0:50:tictic.wav
85,192,47838,1,0,0:0:0:40:tictic.wav
28,192,47922,1,0,0:0:0:30:tictic.wav
256,192,48005,1,0,0:0:0:25:tictic.wav
312,192,48089,1,0,0:0:0:20:tictic.wav
426,192,48173,1,0,0:0:0:15:tictic.wav
483,192,48257,1,0,0:0:0:10:tictic.wav
199,192,48341,1,2,0:0:0:0:
256,192,48341,1,0,0:0:0:0:
483,192,48676,1,0,0:0:0:20:sdrawkcab.wav
85,192,48843,1,2,0:0:0:0:
142,192,49011,1,8,0:0:0:0:
256,192,49011,1,0,0:0:0:0:
369,192,49011,1,0,0:0:0:0:
483,192,49179,1,0,0:0:0:20:sdrawkcab.wav
199,192,49346,1,2,0:0:0:0:
85,192,49681,1,2,0:0:0:0:
256,192,49681,1,0,0:0:0:0:
142,192,49849,1,8,0:0:0:0:
369,192,49849,1,0,0:0:0:0:
483,192,50017,1,0,0:0:0:20:sdrawkcab.wav
256,192,50184,1,2,0:0:0:0:
199,192,50296,1,0,0:0:0:0:
142,192,50408,1,0,0:0:0:0:
85,192,50519,1,0,0:0:0:20:sdrawkcab.wav
28,192,50631,1,0,0:0:0:0:
483,192,50743,1,0,0:0:0:0:
426,192,50855,1,0,0:0:0:0:
369,192,50966,1,0,0:0:0:0:
256,192,51022,1,2,0:0:0:0:
312,192,51022,1,0,0:0:0:0:
28,192,51357,1,0,0:0:0:20:sdrawkcab.wav
426,192,51525,1,2,0:0:0:0:
142,192,51693,1,8,0:0:0:0:
256,192,51693,1,0,0:0:0:0:
369,192,51693,1,0,0:0:0:0:
28,192,51860,1,0,0:0:0:20:sdrawkcab.wav
312,192,52028,1,2,0:0:0:0:
256,192,52363,1,2,0:0:0:0:
426,192,52363,1,0,0:0:0:0:
28,192,52698,1,0,0:0:0:20:sdrawkcab.wav
312,192,52866,1,2,0:0:0:0:
142,192,53033,128,8,53369:0:0:0:0:
369,192,53033,128,0,53369:0:0:0:0:
256,192,53369,1,0,0:0:0:0:
256,192,53536,1,0,0:0:0:0:
312,192,53704,1,2,0:0:0:0:
28,192,53871,1,0,0:0:0:0:
426,192,53955,1,2,0:0:0:0:
312,192,54123,1,2,0:0:0:0:
142,192,54374,1,8,0:0:0:0:
369,192,54374,1,0,0:0:0:0:
28,192,54542,1,0,0:0:0:0:
312,192,54626,1,2,0:0:0:0:
426,192,54793,1,2,0:0:0:0:
312,192,55045,1,2,0:0:0:0:
28,192,55212,1,0,0:0:0:0:
426,192,55296,1,2,0:0:0:0:
312,192,55464,1,2,0:0:0:0:
256,192,55547,1,0,0:0:0:0:
199,192,55659,1,0,0:0:0:0:
142,192,55771,1,0,0:0:0:0:
85,192,55883,1,0,0:0:0:0:
28,192,55994,1,0,0:0:0:0:
483,192,56106,1,0,0:0:0:0:
85,192,56218,1,8,0:0:0:0:
426,192,56218,1,0,0:0:0:0:
142,192,56302,1,8,0:0:0:0:
369,192,56302,1,0,0:0:0:0:
199,192,56385,1,2,0:0:0:0:
483,192,56553,1,0,0:0:0:0:
85,192,56637,1,2,0:0:0:0:
199,192,56804,1,2,0:0:0:0:
142,192,57056,1,8,0:0:0:0:
369,192,57056,1,0,0:0:0:0:
483,192,57223,1,0,0:0:0:0:
199,192,57307,1,2,0:0:0:0:
85,192,57475,1,2,0:0:0:0:
199,192,57726,1,2,0:0:0:0:
483,192,57894,1,0,0:0:0:0:
85,192,57978,1,2,0:0:0:0:
199,192,58145,1,2,0:0:0:0:
256,192,58229,1,0,0:0:0:0:
312,192,58341,1,0,0:0:0:0:
369,192,58452,1,0,0:0:0:0:
426,192,58564,1,0,0:0:0:0:
483,192,58676,1,0,0:0:0:0:
28,192,58788,1,0,0:0:0:0:
85,192,58899,1,8,0:0:0:0:
426,192,58899,1,0,0:0:0:0:
142,192,58983,1,8,0:0:0:0:
369,192,58983,1,0,0:0:0:0:
312,192,59067,1,2,0:0:0:0:
28,192,59235,1,0,0:0:0:0:
426,192,59318,1,2,0:0:0:0:
312,192,59486,1,2,0:0:0:0:
256,192,59570,128,0,59737:0:0:0:0:
142,192,59737,1,8,0:0:0:0:
369,192,59737,1,0,0:0:0:0:
28,192,59905,1,0,0:0:0:0:
312,192,59989,1,2,0:0:0:0:
426,192,60156,1,2,0:0:0:0:
256,192,60240,128,0,60408:0:0:0:0:
312,192,60408,1,2,0:0:0:0:
28,192,60575,1,0,0:0:0:0:
426,192,60659,1,2,0:0:0:0:
312,192,60827,1,2,0:0:0:0:
256,192,60910,128,0,61022:0:0:0:0:
199,192,61022,1,0,0:0:0:0:
142,192,61134,1,0,0:0:0:0:
85,192,61246,1,0,0:0:0:0:
28,192,61357,1,0,0:0:0:0:
483,192,61469,1,0,0:0:0:0:
85,192,61581,1,8,0:0:0:0:
426,192,61581,1,0,0:0:0:0:
142,192,61665,1,8,0:0:0:0:
369,192,61665,1,0,0:0:0:0:
199,192,61748,1,2,0:0:0:0:
483,192,61916,1,0,0:0:0:0:
85,192,62000,1,2,0:0:0:0:
199,192,62167,1,2,0:0:0:0:
256,192,62251,128,0,62419:0:0:0:0:
142,192,62419,1,8,0:0:0:0:
369,192,62419,1,0,0:0:0:0:
483,192,62586,1,0,0:0:0:0:
199,192,62670,1,2,0:0:0:0:
85,192,62838,1,2,0:0:0:0:
256,192,62922,128,0,63089:0:0:0:0:
199,192,63089,1,2,0:0:0:0:
483,192,63257,1,0,0:0:0:0:
85,192,63341,1,2,0:0:0:0:
199,192,63508,1,2,0:0:0:0:
256,192,63592,1,0,0:0:0:0:
312,192,63704,1,0,0:0:0:0:
369,192,63816,1,0,0:0:0:0:
426,192,63927,1,0,0:0:0:0:
483,192,64039,1,0,0:0:0:0:
256,192,64095,128,0,64430:0:0:0:0:
85,192,64430,1,2,0:0:0:0:
199,192,64430,1,0,0:0:0:0:
142,192,64598,1,0,0:0:0:0:
312,192,64681,1,2,0:0:0:0:
426,192,64681,1,0,0:0:0:0:
85,192,64849,1,2,0:0:0:0:
199,192,64849,1,0,0:0:0:0:
256,192,64933,1,0,0:0:0:0:
142,192,65017,1,0,0:0:0:0:
369,192,65100,1,8,0:0:0:0:
483,192,65100,1,0,0:0:0:0:
28,192,65268,1,0,0:0:0:0:
312,192,65352,1,2,0:0:0:0:
426,192,65352,1,0,0:0:0:0:
85,192,65519,1,2,0:0:0:0:
199,192,65519,1,0,0:0:0:0:
256,192,65603,1,0,0:0:0:0:
142,192,65687,1,0,0:0:0:0:
312,192,65771,1,2,0:0:0:0:
426,192,65771,1,0,0:0:0:0:
369,192,65938,1,0,0:0:0:0:
85,192,66022,1,2,0:0:0:0:
199,192,66022,1,0,0:0:0:0:
312,192,66190,1,2,0:0:0:0:
426,192,66190,1,0,0:0:0:0:
256,192,66274,1,0,0:0:0:0:
199,192,66385,1,0,0:0:0:0:
142,192,66497,1,0,0:0:0:0:
85,192,66609,1,0,0:0:0:0:
28,192,66721,1,0,0:0:0:0:
312,192,66832,1,0,0:0:0:0:
85,192,66944,1,8,0:0:0:0:
426,192,66944,1,0,0:0:0:0:
142,192,67028,1,8,0:0:0:0:
256,192,67028,1,0,0:0:0:0:
312,192,67112,1,2,0:0:0:0:
426,192,67112,1,0,0:0:0:0:
369,192,67279,1,0,0:0:0:0:
85,192,67363,1,2,0:0:0:0:
199,192,67363,1,0,0:0:0:0:
312,192,67531,1,2,0:0:0:0:
426,192,67531,1,0,0:0:0:0:
256,192,67614,1,0,0:0:0:0:
369,192,67698,1,0,0:0:0:0:
28,192,67782,1,8,0:0:0:0:
142,192,67782,1,0,0:0:0:0:
483,192,67950,1,0,0:0:0:0:
85,192,68033,1,2,0:0:0:0:
199,192,68033,1,0,0:0:0:0:
312,192,68201,1,2,0:0:0:0:
426,192,68201,1,0,0:0:0:0:
256,192,68285,1,0,0:0:0:0:
369,192,68369,1,0,0:0:0:0:
85,192,68452,1,2,0:0:0:0:
199,192,68452,1,0,0:0:0:0:
142,192,68620,1,0,0:0:0:0:
312,192,68704,1,2,0:0:0:0:
426,192,68704,1,0,0:0:0:0:
85,192,68871,1,2,0:0:0:0:
199,192,68871,1,0,0:0:0:0:
256,192,68955,1,0,0:0:0:0:
312,192,69067,1,0,0:0:0:0:
369,192,69179,1,0,0:0:0:0:
426,192,69290,1,0,0:0:0:0:
483,192,69402,1,0,0:0:0:0:
199,192,69514,1,0,0:0:0:0:
85,192,69626,1,8,0:0:0:0:
426,192,69626,1,0,0:0:0:0:
256,192,69709,1,8,0:0:0:0:
369,192,69709,1,0,0:0:0:0:
85,192,69793,1,2,0:0:0:0:
199,192,69793,1,0,0:0:0:0:
142,192,69961,1,0,0:0:0:0:
312,192,70045,1,2,0:0:0:0:
426,192,70045,1,0,0:0:0:0:
85,192,70212,1,2,0:0:0:0:
199,192,70212,1,0,0:0:0:0:
256,192,70296,1,0,0:0:0:0:
142,192,70380,1,0,0:0:0:0:
369,192,70464,1,8,0:0:0:0:
483,192,70464,1,0,0:0:0:0:
28,192,70631,1,0,0:0:0:0:
312,192,70715,1,2,0:0:0:0:
426,192,70715,1,0,0:0:0:0:
85,192,70883,1,2,0:0:0:0:
199,192,70883,1,0,0:0:0:0:
256,192,70966,1,0,0:0:0:0:
142,192,71050,1,0,0:0:0:0:
312,192,71134,1,2,0:0:0:0:
426,192,71134,1,0,0:0:0:0:
369,192,71302,1,0,0:0:0:0:
85,192,71385,1,2,0:0:0:0:
199,192,71385,1,0,0:0:0:0:
312,192,71553,1,2,0:0:0:0:
426,192,71553,1,0,0:0:0:0:
256,192,71637,1,0,0:0:0:0:
199,192,71748,1,0,0:0:0:0:
142,192,71860,1,0,0:0:0:0:
85,192,71972,1,0,0:0:0:0:
28,192,72084,1,0,0:0:0:0:
312,192,72195,1,0,0:0:0:0:
85,192,72307,1,8,0:0:0:0:
426,192,72307,1,0,0:0:0:0:
142,192,72391,1,8,0:0:0:0:
256,192,72391,1,0,0:0:0:0:
312,192,72475,1,2,0:0:0:0:
426,192,72475,1,0,0:0:0:0:
369,192,72642,1,0,0:0:0:0:
85,192,72726,1,2,0:0:0:0:
199,192,72726,1,0,0:0:0:0:
312,192,72894,1,2,0:0:0:0:
426,192,72894,1,0,0:0:0:0:
256,192,72978,1,0,0:0:0:0:
369,192,73061,1,0,0:0:0:0:
28,192,73145,1,8,0:0:0:0:
142,192,73145,1,0,0:0:0:0:
483,192,73313,1,0,0:0:0:0:
85,192,73397,1,2,0:0:0:0:
199,192,73397,1,0,0:0:0:0:
312,192,73564,1,2,0:0:0:0:
426,192,73564,1,0,0:0:0:0:
256,192,73648,1,0,0:0:0:0:
369,192,73732,1,0,0:0:0:0:
85,192,73816,1,2,0:0:0:0:
199,192,73816,1,0,0:0:0:0:
142,192,73983,1,0,0:0:0:0:
312,192,74067,1,2,0:0:0:0:
426,192,74067,1,0,0:0:0:0:
85,192,74235,1,2,0:0:0:0:
199,192,74235,1,0,0:0:0:0:
256,192,74318,1,0,0:0:0:0:
312,192,74430,1,0,0:0:0:0:
369,192,74542,1,0,0:0:0:0:
426,192,74654,1,0,0:0:0:0:
483,192,74765,1,0,0:0:0:0:
199,192,74821,128,0,74933:0:0:0:0:
256,192,74933,128,0,75045:0:0:0:0:
312,192,75045,128,0,75156:0:0:0:0:
28,192,75156,1,2,0:0:0:0:
85,192,75156,1,4,0:0:0:0:
142,192,75156,1,0,0:0:0:0:
369,192,75324,1,0,0:0:0:0:
142,192,75491,1,0,0:0:0:20:sdrawkcab.wav
483,192,75491,1,0,0:0:0:0:
199,192,75659,1,2,0:0:0:0:
369,192,75659,1,0,0:0:0:0:
142,192,75827,1,0,0:0:0:0:
256,192,75827,1,0,0:0:0:0:
369,192,75994,1,0,0:0:0:20:sdrawkcab.wav
483,192,75994,1,0,0:0:0:0:
85,192,76162,1,2,0:0:0:0:
142,192,76162,1,0,0:0:0:0:
369,192,76329,1,0,0:0:0:0:
142,192,76497,1,2,0:0:0:0:
199,192,76497,1,0,0:0:0:0:
369,192,76665,1,0,0:0:0:0:
142,192,76832,1,0,0:0:0:20:sdrawkcab.wav
483,192,76832,1,0,0:0:0:0:
85,192,77000,1,2,0:0:0:0:
256,192,77167,1,0,0:0:0:50:tictic.wav
312,192,77251,1,0,0:0:0:50:tictic.wav
426,192,77335,1,0,0:0:0:40:tictic.wav
483,192,77419,1,0,0:0:0:30:tictic.wav
256,192,77503,1,0,0:0:0:25:tictic.wav
199,192,77586,1,0,0:0:0:20:tictic.wav
85,192,77670,1,0,0:0:0:15:tictic.wav
28,192,77754,1,0,0:0:0:10:tictic.wav
369,192,77838,1,2,0:0:0:0:
426,192,77838,1,0,0:0:0:0:
142,192,78005,1,0,0:0:0:0:
28,192,78173,1,0,0:0:0:20:sdrawkcab.wav
369,192,78173,1,0,0:0:0:0:
142,192,78341,1,2,0:0:0:0:
312,192,78341,1,0,0:0:0:0:
256,192,78508,1,0,0:0:0:0:
369,192,78508,1,0,0:0:0:0:
28,192,78676,1,0,0:0:0:20:sdrawkcab.wav
142,192,78676,1,0,0:0:0:0:
369,192,78843,1,2,0:0:0:0:
426,192,78843,1,0,0:0:0:0:
142,192,79011,1,0,0:0:0:0:
312,192,79179,1,2,0:0:0:0:
369,192,79179,1,0,0:0:0:0:
142,192,79346,1,0,0:0:0:0:
28,192,79514,1,0,0:0:0:20:sdrawkcab.wav
369,192,79514,1,0,0:0:0:0:
426,192,79681,1,2,0:0:0:0:
256,192,79849,1,0,0:0:0:50:tictic.wav
199,192,79933,1,0,0:0:0:50:tictic.wav
85,192,80017,1,0,0:0:0:40:tictic.wav
28,192,80100,1,0,0:0:0:30:tictic.wav
256,192,80184,1,0,0:0:0:25:tictic.wav
312,192,80268,1,0,0:0:0:20:tictic.wav
426,192,80352,1,0,0:0:0:15:tictic.wav
483,192,80436,1,0,0:0:0:10:tictic.wav
85,192,80519,1,2,0:0:0:0:
142,192,80519,1,0,0:0:0:0:
369,192,80687,1,0,0:0:0:0:
142,192,80855,1,0,0:0:0:20:sdrawkcab.wav
483,192,80855,1,0,0:0:0:0:
199,192,81022,1,2,0:0:0:0:
369,192,81022,1,0,0:0:0:0:
142,192,81190,1,0,0:0:0:0:
256,192,81190,1,0,0:0:0:0:
369,192,81357,1,0,0:0:0:20:sdrawkcab.wav
483,192,81357,1,0,0:0:0:0:
85,192,81525,1,2,0:0:0:0:
142,192,81525,1,0,0:0:0:0:
369,192,81693,1,0,0:0:0:0:
142,192,81860,1,2,0:0:0:0:
199,192,81860,1,0,0:0:0:0:
369,192,82028,1,0,0:0:0:0:
142,192,82195,1,0,0:0:0:20:sdrawkcab.wav
483,192,82195,1,0,0:0:0:0:
85,192,82363,1,2,0:0:0:0:
256,192,82531,1,0,0:0:0:50:tictic.wav
312,192,82614,1,0,0:0:0:50:tictic.wav
426,192,82698,1,0,0:0:0:40:tictic.wav
483,192,82782,1,0,0:0:0:30:tictic.wav
256,192,82866,1,0,0:0:0:25:tictic.wav
199,192,82950,1,0,0:0:0:20:tictic.wav
85,192,83033,1,0,0:0:0:15:tictic.wav
28,192,83117,1,0,0:0:0:10:tictic.wav
369,192,83201,1,2,0:0:0:0:
426,192,83201,1,0,0:0:0:0:
142,192,83369,1,0,0:0:0:0:
28,192,83536,1,0,0:0:0:20:sdrawkcab.wav
369,192,83536,1,0,0:0:0:0:
142,192,83704,1,2,0:0:0:0:
312,192,83704,1,0,0:0:0:0:
256,192,83871,1,0,0:0:0:0:
369,192,83871,1,0,0:0:0:0:
28,192,84039,1,0,0:0:0:20:sdrawkcab.wav
142,192,84039,1,0,0:0:0:0:
369,192,84207,1,2,0:0:0:0:
426,192,84207,1,0,0:0:0:0:
142,192,84374,1,0,0:0:0:0:
312,192,84542,1,2,0:0:0:0:
369,192,84542,1,0,0:0:0:0:
142,192,84709,1,0,0:0:0:0:
28,192,84877,1,0,0:0:0:20:sdrawkcab.wav
369,192,84877,1,0,0:0:0:0:
426,192,85045,1,2,0:0:0:0:
256,192,85212,1,0,0:0:0:50:tictic.wav
199,192,85296,1,0,0:0:0:50:tictic.wav
85,192,85380,1,0,0:0:0:40:tictic.wav
28,192,85464,1,0,0:0:0:30:tictic.wav
256,192,85547,1,0,0:0:0:25:tictic.wav
312,192,85631,1,0,0:0:0:20:tictic.wav
426,192,85715,1,0,0:0:0:15:tictic.wav
483,192,85799,1,0,0:0:0:10:tictic.wav
85,192,85883,1,2,0:0:0:0:
142,192,85883,1,0,0:0:0:0:
369,192,86050,1,0,0:0:0:0:
142,192,86218,1,0,0:0:0:20:sdrawkcab.wav
483,192,86218,1,0,0:0:0:0:
199,192,86385,1,2,0:0:0:0:
369,192,86385,1,0,0:0:0:0:
142,192,86553,1,0,0:0:0:0:
256,192,86553,1,0,0:0:0:0:
369,192,86721,1,0,0:0:0:20:sdrawkcab.wav
483,192,86721,1,0,0:0:0:0:
85,192,86888,1,2,0:0:0:0:
142,192,86888,1,0,0:0:0:0:
369,192,87056,1,0,0:0:0:0:
142,192,87223,1,2,0:0:0:0:
199,192,87223,1,0,0:0:0:0:
369,192,87391,1,0,0:0:0:0:
142,192,87559,1,0,0:0:0:20:sdrawkcab.wav
483,192,87559,1,0,0:0:0:0:
85,192,87726,1,2,0:0:0:0:
256,192,87894,1,0,0:0:0:50:tictic.wav
312,192,87978,1,0,0:0:0:50:tictic.wav
426,192,88061,1,0,0:0:0:40:tictic.wav
483,192,88145,1,0,0:0:0:30:tictic.wav
256,192,88229,1,0,0:0:0:25:tictic.wav
199,192,88313,1,0,0:0:0:20:tictic.wav
85,192,88397,1,0,0:0:0:15:tictic.wav
28,192,88480,1,0,0:0:0:10:tictic.wav
369,192,88564,1,2,0:0:0:0:
426,192,88564,1,0,0:0:0:0:
142,192,88732,1,0,0:0:0:0:
28,192,88899,1,0,0:0:0:20:sdrawkcab.wav
369,192,88899,1,0,0:0:0:0:
142,192,89067,1,2,0:0:0:0:
312,192,89067,1,0,0:0:0:0:
256,192,89235,1,0,0:0:0:0:
369,192,89235,1,0,0:0:0:0:
28,192,89402,1,0,0:0:0:20:sdrawkcab.wav
142,192,89402,1,0,0:0:0:0:
369,192,89570,1,2,0:0:0:0:
426,192,89570,1,0,0:0:0:0:
142,192,89737,1,0,0:0:0:0:
312,192,89905,1,2,0:0:0:0:
369,192,89905,1,0,0:0:0:0:
142,192,90073,1,0,0:0:0:0:
28,192,90240,1,0,0:0:0:20:sdrawkcab.wav
369,192,90240,1,0,0:0:0:0:
426,192,90408,1,2,0:0:0:0:
256,192,90575,1,0,0:0:0:50:tictic.wav
199,192,90659,1,0,0:0:0:50:tictic.wav
85,192,90743,1,0,0:0:0:40:tictic.wav
28,192,90827,1,0,0:0:0:30:tictic.wav
256,192,90910,1,0,0:0:0:25:tictic.wav
312,192,90994,1,0,0:0:0:20:tictic.wav
426,192,91078,1,0,0:0:0:15:tictic.wav
483,192,91162,1,0,0:0:0:10:tictic.wav
85,192,91246,1,2,0:0:0:0:
142,192,91246,1,0,0:0:0:0:
369,192,91413,1,0,0:0:0:0:
142,192,91581,1,0,0:0:0:20:sdrawkcab.wav
483,192,91581,1,0,0:0:0:0:
199,192,91748,1,2,0:0:0:0:
369,192,91748,1,0,0:0:0:0:
142,192,91916,1,0,0:0:0:0:
369,192,92084,1,0,0:0:0:20:sdrawkcab.wav
483,192,92084,1,0,0:0:0:0:
85,192,92251,1,2,0:0:0:0:
142,192,92251,1,0,0:0:0:0:
369,192,92419,1,0,0:0:0:0:
142,192,92586,1,2,0:0:0:0:
199,192,92586,1,0,0:0:0:0:
369,192,92754,1,0,0:0:0:0:
142,192,92922,1,0,0:0:0:20:sdrawkcab.wav
483,192,92922,1,0,0:0:0:0:
85,192,93089,1,2,0:0:0:0:
256,192,93257,1,0,0:0:0:50:tictic.wav
312,192,93341,1,0,0:0:0:50:tictic.wav
426,192,93424,1,0,0:0:0:40:tictic.wav
483,192,93508,1,0,0:0:0:30:tictic.wav
256,192,93592,1,0,0:0:0:25:tictic.wav
199,192,93676,1,0,0:0:0:20:tictic.wav
85,192,93760,1,0,0:0:0:15:tictic.wav
28,192,93843,1,0,0:0:0:10:tictic.wav
369,192,93927,1,2,0:0:0:0:
426,192,93927,1,0,0:0:0:0:
142,192,94095,1,0,0:0:0:0:
28,192,94262,1,0,0:0:0:20:sdrawkcab.wav
369,192,94262,1,0,0:0:0:0:
142,192,94430,1,2,0:0:0:0:
312,192,94430,1,0,0:0:0:0:
369,192,94598,1,0,0:0:0:0:
28,192,94765,1,0,0:0:0:20:sdrawkcab.wav
142,192,94765,1,0,0:0:0:0:
369,192,94933,1,2,0:0:0:0:
426,192,94933,1,0,0:0:0:0:
142,192,95100,1,0,0:0:0:0:
312,192,95268,1,2,0:0:0:0:
369,192,95268,1,0,0:0:0:0:
142,192,95436,1,0,0:0:0:0:
28,192,95603,1,0,0:0:0:20:sdrawkcab.wav
369,192,95603,1,0,0:0:0:0:
426,192,95771,1,2,0:0:0:0:
28,192,95938,128,8,96274:0:0:0:0:
142,192,95938,128,0,96274:0:0:0:0:
