osu file format v14

[General]
AudioFilename: audio.mp3
AudioLeadIn: 0
PreviewTime: 10142
Countdown: 0
SampleSet: Soft
StackLeniency: 0.4
Mode: 0
LetterboxInBreaks: 0
WidescreenStoryboard: 1

[Editor]
DistanceSpacing: 1.2
BeatDivisor: 4
GridSize: 4
TimelineZoom: 2.799999

[Metadata]
Title:24eeev0-$
TitleUnicode:24eeev0-$
Artist:Frums
ArtistUnicode:Frums
Creator:Niva
Version:normal
Source:
Tags:frumsxyz frums.xyz frumsdotxyz 24 evenly-spaced bpm increases renoise
BeatmapID:2285176
BeatmapSetID:1086289

[Difficulty]
HPDrainRate:4
CircleSize:3.5
OverallDifficulty:4
ApproachRate:6
SliderMultiplier:1.7
SliderTickRate:1

[Events]
//Background and Video events
0,0,"Klaten57474 .jpg",0,0
//Break Periods
2,8460,9130
2,94021,105434
//Storyboard Layer 0 (Background)
//Storyboard Layer 1 (Fail)
//Storyboard Layer 2 (Pass)
//Storyboard Layer 3 (Foreground)
//Storyboard Layer 4 (Overlay)
//Storyboard Sound Samples

[TimingPoints]
-20,600,4,2,77,50,1,0
2380,-166.666666666667,4,2,77,50,0,0
3580,512.820512820513,4,2,77,50,1,0
3580,-166.666666666667,4,2,77,50,0,0
4092,495.867768595041,4,2,77,50,1,0
4587,508.474576271186,4,2,77,50,1,0
4587,-166.666666666667,4,2,77,50,0,0
5095,571.428571428571,4,2,77,50,1,0
5666,638.297872340426,4,2,77,50,1,0
5666,-166.666666666667,4,2,77,50,0,0
6304,606.060606060606,4,2,77,50,1,0
6910,600,4,2,77,50,1,0
6910,-166.666666666667,4,2,77,50,0,0
7510,750,4,2,77,50,1,0
8260,960,4,2,77,50,1,0
10180,600,4,2,77,35,1,0
10180,-90.9090909090909,4,2,77,35,0,0
10186,-90.9090909090909,4,2,77,5,0,0
10480,-90.9090909090909,4,2,78,10,0,0
10780,-90.9090909090909,4,2,77,15,0,0
11080,-90.9090909090909,4,2,78,20,0,0
11380,-90.9090909090909,4,2,77,5,0,0
11980,600,4,2,77,65,1,0
21580,555.555555555556,4,2,77,65,1,0
21580,-107.52688172043,4,2,77,65,0,0
30469,517.241379310345,4,2,77,65,1,0
30469,-113.636363636364,4,2,77,65,0,0
38745,483.870967741935,4,2,77,65,1,0
38745,-120.481927710843,4,2,77,65,0,0
46487,454.545454545455,4,2,77,65,1,0
46487,-126.582278481013,4,2,77,65,0,0
53759,428.571428571429,4,2,77,65,1,0
53759,-133.333333333333,4,2,77,65,0,0
60617,405.405405405405,4,2,77,65,1,0
60617,-138.888888888889,4,2,77,65,0,0
67103,377.358490566038,4,2,77,65,1,0
67103,-147.058823529412,4,2,77,65,0,0
73141,352.941176470588,4,2,77,65,1,0
73141,-156.25,4,2,77,65,0,0
78788,331.491712707182,4,2,77,65,1,0
78788,-163.934426229508,4,2,77,65,0,0
84092,312.5,4,2,77,65,1,0
84092,-172.413793103448,4,2,77,65,0,0
89092,295.566502463054,4,2,77,65,1,0
89092,-181.818181818182,4,2,77,65,0,0
93821,280.373831775701,4,2,77,65,1,0
93821,-188.679245283019,4,2,77,65,0,0
98307,263.157894736842,4,2,77,65,1,0
98307,-200,4,2,77,65,0,0
102517,247.933884297521,4,2,77,65,1,0
102517,-208.333333333333,4,2,77,65,0,0
106484,234.375,4,2,77,65,1,0
106484,-222.222222222222,4,2,77,65,0,0
110234,222.222222222222,4,2,77,65,1,0
110234,-227.272727272727,4,2,77,65,0,0
113790,211.267605633803,4,2,77,65,1,0
113790,-238.095238095238,4,2,77,65,0,0
117170,201.342281879195,4,2,77,65,1,0
117170,-250,4,2,77,65,0,0
120392,190.47619047619,4,2,77,65,1,0
120392,-263.157894736842,4,2,77,65,0,0
123439,180.722891566265,4,2,77,65,1,0
123439,-270.27027027027,4,2,77,65,0,0
126331,171.919770773639,4,2,77,65,1,0
126331,-285.714285714286,4,2,77,65,0,0
129081,163.934426229508,4,2,77,65,1,0
129081,-294.117647058824,4,2,77,65,0,0
131704,156.657963446475,4,2,77,65,1,0
131704,-303.030303030303,4,2,77,65,0,0
134211,600,4,2,77,5,1,0
136011,-166.666666666667,4,2,77,50,0,0

[Colours]
Combo1 : 255,253,174
Combo2 : 151,255,255
Combo3 : 43,253,190

[HitObjects]
435,303,2380,6,0,L|439:355,1,50.9999984436036,0|2,0:0|0:0,0:0:0:0:
372,167,3580,6,0,P|421:171|457:136,1,101.999996887207,2|2,0:0|0:0,0:0:0:0:
295,259,4587,2,0,P|273:214|225:200,1,101.999996887207,2|2,0:0|0:0,0:0:0:0:
232,56,5666,6,0,P|193:85|142:76,1,101.999996887207,2|2,0:0|0:0,0:0:0:0:
37,202,6910,2,0,P|76:173|127:182,1,101.999996887207,2|2,0:0|0:0,0:0:0:0:
44,0,8260,5,2,0:0:0:0:
44,0,10180,6,2,P|79:153|185:42,1,374.000011413575,0|0,3:0|0:0,1:0:0:0:
422,146,11980,6,0,B|374:149|374:149|346:132|346:132|299:134,1,127.5,4|0,1:2|0:0,0:0:0:0:
261,113,12580,2,0,L|265:200,1,85,10|0,0:0|0:0,0:0:0:0:
211,304,13180,2,0,L|214:371,2,63.75,2|2|0,1:2|0:0|0:0,0:0:0:0:
250,285,13780,1,8,0:0:0:0:
140,238,14080,1,0,1:2:0:0:
180,126,14380,6,0,P|234:141|292:99,1,127.5,0|0,1:2|0:0,0:0:0:0:
324,126,14980,2,0,B|363:116|363:116|408:126,1,85,10|0,0:0|0:0,0:0:0:0:
452,14,15580,2,0,L|532:14,2,63.75,2|2|0,1:2|0:0|0:0,0:0:0:0:
414,37,16180,1,8,0:0:0:0:
301,0,16480,1,0,1:2:0:0:
189,37,16780,6,0,P|157:86|193:140,1,127.5,0|0,1:2|0:0,0:0:0:0:
178,179,17380,2,0,L|270:174,1,85,10|0,0:0|0:0,0:0:0:0:
379,197,17980,2,0,L|373:125,2,63.75,2|2|0,1:2|0:0|0:0,0:0:0:0:
410,230,18580,1,8,0:0:0:0:
312,298,18880,1,2,1:2:0:0:
212,361,19180,6,0,P|177:337|135:337,1,85,2|2,1:2|0:0,0:0:0:0:
97,355,19630,2,0,L|88:268,1,85,2|2,0:0|1:2,0:0:0:0:
57,240,20080,2,0,L|52:194,1,42.5,2|2,0:0|1:2,0:0:0:0:
124,101,20530,2,0,P|156:126|202:117,1,85,2|0,1:2|0:0,0:0:0:0:
232,94,20980,1,10,0:2:0:0:
306,186,21280,1,2,1:2:0:0:
261,296,21580,6,0,P|320:293|364:335,1,118.575003709087,4|0,1:2|0:0,0:0:0:0:
389,302,22135,2,0,B|426:314|426:314|464:300,1,79.050002472725,10|0,0:0|0:0,0:0:0:0:
445,191,22691,2,0,L|502:166,2,59.2875018545437,2|2|0,0:0|0:0|0:0,0:0:0:0:
408,171,23246,1,8,0:0:0:0:
298,191,23524,1,2,0:0:0:0:
188,171,23802,6,0,P|133:182|97:129,1,118.575003709087,0|0,1:2|0:0,0:0:0:0:
67,111,24357,2,0,L|134:68,1,79.050002472725,10|0,0:0|0:0,0:0:0:0:
241,42,24913,2,0,L|208:-7,2,59.2875018545437,2|2|0,0:0|0:0|0:0,0:0:0:0:
263,78,25468,1,8,0:0:0:0:
329,167,25746,1,2,0:0:0:0:
402,251,26024,6,0,P|366:298|312:293,1,118.575003709087,0|0,1:2|0:0,0:0:0:0:
304,332,26580,2,0,P|268:315|226:318,1,79.050002472725,10|0,0:0|0:0,0:0:0:0:
180,216,27135,2,0,B|115:216,2,59.2875018545437,2|2|0,0:0|0:0|0:0,0:0:0:0:
208,184,27691,1,8,0:0:0:0:
308,234,27968,1,2,0:0:0:0:
408,281,28246,6,0,P|448:259|456:216,1,79.050002472725,2|0,1:2|0:0,0:0:0:0:
497,225,28663,2,0,L|488:144,1,79.050002472725,2|2,0:0|1:2,0:0:0:0:
458,119,29080,2,0,L|451:69,1,39.5250012363625,2|2,0:0|1:2,0:0:0:0:
356,26,29496,2,0,B|319:38|319:38|279:26,1,79.050002472725,2|0,1:2|1:2,0:0:0:0:
250,52,29913,2,0,L|202:52,2,39.5250012363625,10|2|2,0:2|1:2|1:2,0:0:0:0:
230,163,30469,6,0,B|200:172|175:155|175:155|149:137|119:146,1,112.200003424072,4|0,1:2|0:0,0:0:0:0:
91,124,30986,2,0,L|96:206,1,74.8000022827149,10|0,0:0|0:0,0:0:0:0:
34,283,31503,1,2,1:2:0:0:
78,377,31762,1,2,0:0:0:0:
181,363,32020,2,0,L|217:383,2,37.4000011413575,8|2|2,0:0|1:2|1:2,0:0:0:0:
186,262,32537,6,0,B|231:262|231:262|252:273|252:273|299:273,1,112.200003424072,0|0,1:2|0:0,0:0:0:0:
316,304,33055,2,0,P|346:286|386:286,1,74.8000022827149,10|0,0:0|0:0,0:0:0:0:
488,302,33572,1,2,1:2:0:0:
505,198,33831,1,2,0:0:0:0:
402,177,34089,2,0,L|408:137,2,37.4000011413575,8|2|2,0:0|1:2|1:2,0:0:0:0:
306,222,34606,6,0,P|255:226|228:173,1,112.200003424072,0|0,1:2|0:0,0:0:0:0:
194,197,35124,2,0,L|117:197,1,74.8000022827149,10|0,0:0|0:0,0:0:0:0:
27,247,35641,1,2,1:2:0:0:
16,142,35900,1,2,0:0:0:0:
4,38,36158,2,0,L|-1:-1,2,37.4000011413575,8|2|0,0:0|0:0|0:0,0:0:0:0:
105,63,36675,6,0,B|127:47|127:47|179:47,1,74.8000022827149,2|2,1:2|0:0,0:0:0:0:
188,12,37063,2,0,B|210:28|210:28|262:28,1,74.8000022827149,2|2,0:0|1:2,0:0:0:0:
293,41,37451,2,0,L|339:41,1,37.4000011413575,2|2,0:0|1:2,0:0:0:0:
417,98,37839,2,0,P|429:135|414:173,1,74.8000022827149,2|0,1:2|0:0,0:0:0:0:
402,202,38227,2,0,L|433:224,2,37.4000011413575,10|2|2,0:2|1:2|1:2,0:0:0:0:
300,233,38745,6,0,P|255:209|195:223,1,105.825001534023,4|0,1:2|0:0,0:0:0:0:
178,192,39228,2,0,B|143:202|143:202|111:193,1,70.5500010226822,10|0,0:0|0:0,0:0:0:0:
22,240,39712,1,2,0:0:0:0:
108,287,39954,1,2,1:2:0:0:
194,335,40196,2,0,L|197:379,2,35.2750005113411,8|2|2,0:0|0:0|0:0,0:0:0:0:
271,272,40680,6,0,B|310:269|310:269|333:281|333:281|375:278,1,105.825001534023,0|0,1:2|0:0,0:0:0:0:
399,303,41164,2,0,P|428:286|464:288,1,70.5500010226822,10|0,0:0|0:0,0:0:0:0:
511,200,41648,1,2,0:0:0:0:
426,149,41890,1,2,1:2:0:0:
342,96,42132,2,0,L|368:73,2,35.2750005113411,8|2|2,0:0|0:0|0:0,0:0:0:0:
264,157,42615,6,0,B|208:157|208:157|190:171|161:173,1,105.825001534023,0|0,1:2|0:0,0:0:0:0:
133,152,43099,2,0,L|141:236,1,70.5500010226822,10|0,0:0|0:0,0:0:0:0:
77,299,43583,1,2,0:0:0:0:
170,332,43825,1,2,1:2:0:0:
256,284,44067,2,0,L|253:248,2,35.2750005113411,8|2|0,0:0|0:0|0:0,0:0:0:0:
347,322,44551,6,0,B|381:314|381:314|416:322,1,70.5500010226822,2|0,1:2|0:0,0:0:0:0:
483,249,45035,2,0,L|491:176,1,70.5500010226822,10|2,0:2|0:0,0:0:0:0:
466,153,45398,2,0,L|474:81,2,70.5500010226822,2|2|2,1:2|1:2|1:2,0:0:0:0:
367,165,46124,2,0,L|350:126,2,35.2750005113411,2|2|0,1:2|1:2|0:0,0:0:0:0:
381,198,46487,6,0,P|315:190|258:231,1,134.300003278809,4|10,1:2|0:0,0:0:0:0:
176,185,47168,1,0,0:0:0:0:
89,146,47396,2,0,B|57:146|57:146|40:152|40:152|23:146|23:146|-13:146,2,100.725002459107,2|2|2,1:2|0:0|1:2,0:0:0:0:
150,74,48305,6,0,P|214:81|254:26,1,134.300003278809,2|10,1:2|0:0,0:0:0:0:
429,93,49214,2,0,L|421:-10,2,100.725002459107,2|2|2,1:2|1:2|1:2,0:0:0:0:
473,175,50123,6,0,L|480:257,1,67.1500016394043,2|2,1:2|0:0,0:0:0:0:
508,330,50577,2,0,L|432:333,1,67.1500016394043,10|2,0:0|0:0,0:0:0:0:
352,299,51032,2,0,B|324:306|303:292|303:292|283:278|256:285,2,100.725002459107,2|0|2,1:2|0:0|1:2,0:0:0:0:
405,221,51941,6,0,B|441:217|441:217|467:230|467:230|502:225|502:225,2,100.725002459107,2|2|2,1:2|1:2|0:0,0:0:0:0:
348,145,52850,2,0,B|312:153|284:166|284:166|258:152|221:143,1,134.300003278809,2|10,1:2|0:0,0:0:0:0:
64,258,53759,6,0,L|27:206,1,63.7500024318696,6|2,1:2|0:0,0:0:0:0:
93,147,54187,2,0,L|41:61,2,95.6250036478044,10|2|0,0:0|1:2|1:2,0:0:0:0:
164,92,55044,2,0,L|227:91,1,63.7500024318696,8|0,0:0|0:0,0:0:0:0:
300,142,55473,6,0,P|343:158|389:139,1,95.6250036478044,2|2,1:2|0:0,0:0:0:0:
448,205,56009,2,0,L|533:205,2,63.7500024318696,2|2|2,0:0|1:2|0:0,0:0:0:0:
390,272,56651,2,0,P|346:254|302:270,1,95.6250036478044,2|0,1:2|0:0,0:0:0:0:
249,341,57187,6,0,L|112:341,1,127.500004863739,2|10,1:2|0:0,0:0:0:0:
187,208,57973,2,0,P|158:185|107:188,1,85.0000032424928,2|0,1:2|1:2,0:0:0:0:
75,103,58473,2,0,L|86:38,1,63.7500024318696,10|2,0:0|0:0,0:0:0:0:
167,76,58901,6,0,P|228:86|266:34,1,127.500004863739,2|10,1:2|0:0,0:0:0:0:
342,83,59544,1,0,0:0:0:0:
421,124,59759,2,0,P|458:82|524:93,1,127.500004863739,2|10,1:2|0:0,0:0:0:0:
475,260,60617,6,0,L|462:386,1,122.400002988281,6|2,1:2|0:0,0:0:0:0:
377,369,61225,1,0,1:2:0:0:
292,357,61427,2,0,P|243:358|222:292,1,122.400002988281,2|0,0:0|1:2,0:0:0:0:
119,156,62238,6,0,B|82:156|82:156|66:164|66:164|29:164,2,91.800002241211,2|2|2,1:2|0:0|1:2,0:0:0:0:
81,279,63150,1,2,1:2:0:0:
169,371,63454,2,0,P|197:353|232:354,1,61.2000014941407,10|2,0:2|0:0,0:0:0:0:
288,295,63860,6,0,P|336:333|397:321,1,122.400002988281,2|2,1:2|0:0,0:0:0:0:
466,279,64468,1,0,1:2:0:0:
456,193,64671,2,0,L|444:72,1,122.400002988281,2|0,0:0|1:2,0:0:0:0:
276,108,65481,6,0,L|280:5,2,91.800002241211,2|2|2,1:2|0:0|1:2,0:0:0:0:
153,148,66394,1,2,1:2:0:0:
193,269,66698,2,0,L|140:301,1,61.2000014941407,10|2,0:2|0:0,0:0:0:0:
65,343,67103,6,0,P|11:328|3:269,1,115.600000705566,6|2,1:2|2:0,0:0:0:0:
41,205,67669,1,0,1:2:0:0:
118,228,67857,2,0,L|233:220,1,115.600000705566,2|0,2:0|1:2,0:0:0:0:
385,162,68612,6,0,L|395:251,2,86.7000005291748,2|2|2,1:2|0:0|1:2,0:0:0:0:
409,43,69461,1,2,1:2:0:0:
289,23,69744,2,0,L|297:90,1,57.8000003527832,10|2,0:2|0:0,0:0:0:0:
218,104,70121,6,0,B|155:98|155:98|134:113|104:113,1,115.600000705566,2|2,1:2|0:0,0:0:0:0:
68,184,70687,1,0,1:2:0:0:
33,257,70876,2,0,P|65:304|123:287,1,115.600000705566,2|0,0:0|1:2,0:0:0:0:
255,376,71631,6,0,P|279:334|341:339,1,115.600000705566,0|2,1:2|0:0,0:0:0:0:
409,297,72197,1,0,1:2:0:0:
480,259,72386,2,0,B|507:207|507:207|475:159,1,115.600000705566,2|0,0:0|1:2,0:0:0:0:
320,212,73141,6,0,L|211:212,1,108.8,6|8,1:2|0:0,0:0:0:0:
142,246,73670,1,0,0:0:0:0:
74,212,73846,2,0,P|43:166|74:133,1,108.8,0|8,1:2|0:0,0:0:0:0:
190,34,74552,6,0,P|150:31|123:1,2,81.6,2|2|2,1:2|0:0|1:2,0:0:0:0:
210,147,75346,1,2,1:2:0:0:
231,259,75611,2,0,L|285:248,1,54.4,10|2,0:0|0:0,0:0:0:0:
304,321,75964,6,0,L|413:298,1,108.8,2|8,1:2|0:0,0:0:0:0:
474,340,76493,1,0,0:0:0:0:
512,275,76670,2,0,P|534:231|505:185,1,108.8,0|8,1:2|0:0,0:0:0:0:
385,89,77376,6,0,B|419:10,2,81.6,2|2|2,1:2|0:2|1:2,0:0:0:0:
339,193,78170,1,2,1:2:0:0:
293,297,78435,2,0,L|268:353,1,54.4,10|2,0:0|0:0,0:0:0:0:
195,326,78788,6,0,P|149:346|102:326,1,103.699995727692,6|8,1:2|0:0,0:0:0:0:
108,269,79285,1,0,0:0:0:0:
115,212,79450,2,0,L|8:223,1,103.699995727692,0|8,1:2|0:0,0:0:0:0:
51,83,80113,6,0,L|138:74,2,77.7749967957689,2|2|2,1:2|0:0|1:2,0:0:0:0:
101,183,80859,1,2,1:2:0:0:
151,281,81108,2,0,B|143:306|143:306|153:336,1,51.8499978638459,10|2,0:0|0:0,0:0:0:0:
130,384,81439,6,0,P|169:356|225:362,1,103.699995727692,2|8,1:2|0:0,0:0:0:0:
278,348,81937,1,0,0:0:0:0:
334,340,82102,2,0,L|448:340,1,103.699995727692,0|8,1:2|0:0,0:0:0:0:
511,215,82765,6,0,P|537:171|501:129,1,103.699995727692,0|8,1:2|0:0,0:0:0:0:
459,106,83263,1,0,0:0:0:0:
409,134,83428,2,0,P|361:135|339:86,1,103.699995727692,0|0,1:2|1:2,0:0:0:0:
197,49,84092,6,0,B|201:101,1,49.3000015045166,6|2,1:2|0:0,0:0:0:0:
177,147,84404,2,0,L|103:153,2,73.950002256775,10|2|2,0:0|1:2|1:2,0:0:0:0:
211,189,85029,1,10,0:0:0:0:
206,327,85342,6,0,L|288:321,2,73.950002256775,2|2|2,1:2|0:0|1:2,0:0:0:0:
110,368,86045,1,2,1:2:0:0:
71,272,86279,2,0,L|53:226,1,49.3000015045166,10|2,0:0|0:0,0:0:0:0:
11,190,86592,6,0,L|61:171,1,49.3000015045166,2|2,1:2|0:0,0:0:0:0:
93,132,86904,2,0,P|79:99|94:64,2,73.950002256775,10|2|2,0:0|1:2|1:2,0:0:0:0:
146,142,87529,1,10,0:0:0:0:
278,105,87842,6,0,B|312:115|312:115|350:104,2,73.950002256775,2|2|2,1:2|0:0|1:2,0:0:0:0:
295,207,88545,1,2,1:2:0:0:
317,307,88779,2,0,L|308:360,1,49.3000015045166,10|2,0:0|0:0,0:0:0:0:
259,331,89092,6,0,L|201:331,1,46.7500014266968,2|6,0:0|1:2,0:0:0:0:
163,314,89387,2,0,L|163:242,2,70.1250021400452,10|2|2,0:0|1:2|1:2,0:0:0:0:
114,331,89978,1,10,0:0:0:0:
23,235,90274,6,0,P|-10:230|-14:189,2,70.1250021400452,2|2|2,1:2|0:0|1:2,0:0:0:0:
113,196,90939,1,2,1:2:0:0:
207,222,91160,2,0,B|230:228|230:228|254:222,1,46.7500014266968,10|2,0:0|0:0,0:0:0:0:
288,259,91456,5,2,1:2:0:0:
412,220,91752,2,0,P|444:230|479:217,2,70.1250021400452,10|2|2,0:0|1:2|1:2,0:0:0:0:
403,169,92343,1,10,0:0:0:0:
449,46,92638,5,0,1:2:0:0:
323,58,92934,2,0,L|317:-13,2,70.1250021400452,10|2|2,0:0|1:2|1:2,0:0:0:0:
328,109,93525,1,10,0:0:0:0:
196,87,93821,5,4,1:2:0:0:
144,70,106484,6,0,P|171:135|242:125,1,152.999995330811,4|2,1:2|1:2,0:0:0:0:
309,208,107187,1,0,0:0:0:0:
380,287,107421,2,0,B|403:262|403:262|451:262|451:262|474:238,2,114.749996498108,2|2|10,1:2|1:2|0:2,0:0:0:0:
337,384,108359,6,0,P|308:360|265:357,1,76.4999976654053,2|0,1:2|0:0,0:0:0:0:
183,293,108827,2,0,P|152:316|108:311,1,76.4999976654053,2|10,1:2|0:0,0:0:0:0:
61,221,109296,6,0,B|102:182|102:182|170:182,1,114.749996498108,2|0,1:2|1:2,2:1:0:0:
197,162,109765,2,0,B|225:160|247:182|247:182|268:206|300:200,1,114.749996498108,2|2,0:0|0:0,0:0:0:0:
398,245,110345,1,2,0:0:0:0:
476,175,110567,1,2,1:2:0:0:
442,75,110789,6,0,P|477:87|516:73,2,74.8000022827149,2|2|2,0:2|0:0|0:0,0:0:0:0:
343,110,111456,1,2,1:2:0:0:
243,142,111678,2,0,B|166:137,1,74.8000022827149,2|0,1:2|0:0,0:0:0:0:
137,110,112011,6,0,P|94:163|140:219,1,149.60000456543,6|2,1:2|1:2,0:0:0:0:
218,284,112678,1,8,0:0:0:0:
171,377,112900,2,0,L|94:371,1,74.8000022827149,2|2,1:2|1:2,0:0:0:0:
19,299,113345,2,0,B|3:265|3:265|19:230,1,74.8000022827149,2|10,0:0|0:0,0:0:0:0:
123,227,113790,6,0,B|104:108,2,107.099996731567,2|2|10,1:2|1:2|0:0,0:0:0:0:
191,300,114635,2,0,B|210:284|210:284|258:284,1,71.399997821045,2|0,1:2|1:2,0:0:0:0:
352,313,115057,6,0,B|338:276|370:249|370:249|402:221|389:186,1,142.79999564209,2|2,0:0|1:2,0:0:0:0:
316,116,115691,2,0,P|278:147|222:135,1,107.099996731567,2|2,1:2|1:2,0:0:0:0:
199,167,116113,1,4,1:2:0:0:
99,157,116325,1,0,1:2:0:0:
58,248,116536,2,0,P|34:297|58:338,1,107.099996731567,2|2,1:2|1:2,0:0:0:0:
81,371,116959,6,0,B|116:359|116:359|148:370,1,71.399997821045,14|0,0:2|1:2,0:0:0:0:
229,320,117371,2,0,P|251:345|288:347,1,68,0|0,1:2|1:2,0:0:0:0:
378,364,117774,2,0,L|449:364,2,68,8|0|0,0:0|1:2|1:2,0:0:0:0:
503,220,118579,6,0,L|435:220,1,68,8|0,0:0|1:2,0:0:0:0:
343,247,118982,2,0,P|319:268|297:247,1,68,0|0,1:2|1:2,0:0:0:0:
226,182,119384,2,0,P|202:160|180:182,1,68,8|0,0:0|1:2,0:0:0:0:
92,220,119787,2,0,L|21:220,2,68,0|0|0,1:2|1:2|1:2,0:0:0:0:
56,130,120392,6,0,B|43:100|43:100|55:70,1,64.5999992114258,4|0,0:0|0:0,0:0:0:0:
79,32,120677,2,0,P|29:35|-1:4,2,96.8999988171387,2|2|10,1:2|1:2|0:0,0:0:0:0:
198,96,121534,2,0,P|220:51|262:40,2,96.8999988171387,2|2|2,1:2|1:2|1:2,0:0:0:0:
90,179,122392,2,0,P|117:220|105:262,2,96.8999988171387,10|2|2,0:0|1:2|1:2,0:0:0:0:
220,217,123249,1,2,1:2:0:0:
220,217,123439,6,0,B|348:209,1,125.800003071289,6|0,1:2|0:0,0:0:0:0:
432,234,123981,1,2,1:2:0:0:
432,234,124161,2,0,P|463:184|421:134,1,125.800003071289,10|2,0:2|1:2,0:0:0:0:
298,13,124884,6,0,P|249:50|190:35,1,125.800003071289,4|0,1:2|0:0,0:0:0:0:
155,118,125426,1,2,1:2:0:0:
155,118,125607,2,0,L|169:246,1,125.800003071289,10|2,0:0|1:2,0:0:0:0:
276,384,126331,5,6,1:2:0:0:
396,352,126588,2,0,P|475:370|518:293,1,178.499994552612,2|10,1:2|0:0,0:0:0:0:
445,143,127448,1,0,1:2:0:0:
445,143,127620,2,0,B|385:148|385:148|335:122|335:122|268:128,1,178.499994552612,2|10,1:2|0:0,0:0:0:0:
105,110,128479,1,0,1:2:0:0:
105,110,128651,2,0,L|132:203,1,89.2499972763062,6|0,1:2|0:0,0:0:0:0:
93,273,129081,6,0,P|156:226|251:235,2,173.40000105835,6|2|10,1:2|1:2|0:0,0:0:0:0:
64,137,130392,1,0,1:2:0:0:
195,90,130720,1,10,0:0:0:0:
330,120,131048,1,0,1:2:0:0:
425,221,131376,1,10,0:0:0:0:
395,358,131704,6,0,B|458:337|458:337|478:350|505:350,2,112.199999657593,2|0|10,1:2|1:2|0:0,0:0:0:0:
274,298,132643,1,2,0:0:0:0:
144,337,132957,2,0,P|90:337|61:289,1,112.199999657593,2|0,1:2|1:2,0:0:0:0:
114,168,133583,2,0,B|184:168|184:168|222:186|222:186|261:168|261:168|330:168,1,224.399999315186,10|0,0:0|0:0,0:0:0:0:
330,168,136011,6,0,P|367:147|324:139,1,101.999996887207,2|4,0:0|0:0,0:0:0:0:
256,192,136686,12,2,143811,0:0:0:0:
