osu file format v14

[General]
AudioFilename: audio.mp3
AudioLeadIn: 0
PreviewTime: 10142
Countdown: 0
SampleSet: Soft
StackLeniency: 0.4
Mode: 0
LetterboxInBreaks: 0
WidescreenStoryboard: 1

[Editor]
DistanceSpacing: 1
BeatDivisor: 4
GridSize: 4
TimelineZoom: 2.799999

[Metadata]
Title:24eeev0-$
TitleUnicode:24eeev0-$
Artist:Frums
ArtistUnicode:Frums
Creator:Niva
Version:easy
Source:
Tags:frumsxyz frums.xyz frumsdotxyz 24 evenly-spaced bpm increases renoise
BeatmapID:2286362
BeatmapSetID:1086289

[Difficulty]
HPDrainRate:3
CircleSize:3
OverallDifficulty:3
ApproachRate:4
SliderMultiplier:1.6
SliderTickRate:1

[Events]
//Background and Video events
0,0,"Klaten57474 .jpg",0,0
//Break Periods
2,94021,105164
//Storyboard Layer 0 (Background)
//Storyboard Layer 1 (Fail)
//Storyboard Layer 2 (Pass)
//Storyboard Layer 3 (Foreground)
//Storyboard Layer 4 (Overlay)
//Storyboard Sound Samples

[TimingPoints]
-20,600,4,2,77,50,1,0
2380,-166.666666666667,4,2,77,50,0,0
3580,512.820512820513,4,2,77,50,1,0
4092,495.867768595041,4,2,77,50,1,0
4587,508.474576271186,4,2,77,50,1,0
5095,571.428571428571,4,2,77,50,1,0
5666,638.297872340426,4,2,77,50,1,0
6304,606.060606060606,4,2,77,50,1,0
6910,600,4,2,77,50,1,0
7510,750,4,2,77,50,1,0
8260,960,4,2,77,50,1,0
10180,600,4,2,77,35,1,0
10180,-90.9090909090909,4,2,77,35,0,0
10186,-90.9090909090909,4,2,77,5,0,0
10480,-90.9090909090909,4,2,78,10,0,0
10780,-90.9090909090909,4,2,77,15,0,0
11080,-90.9090909090909,4,2,78,20,0,0
11380,-90.9090909090909,4,2,77,5,0,0
11980,600,4,2,77,65,1,0
21580,555.555555555556,4,2,77,65,1,0
21580,-108.695652173913,4,2,77,65,0,0
30469,517.241379310345,4,2,77,65,1,0
30469,-116.279069767442,4,2,77,65,0,0
38745,483.870967741935,4,2,77,65,1,0
38745,-125,4,2,77,65,0,0
46487,454.545454545455,4,2,77,65,1,0
46487,-133.333333333333,4,2,77,65,0,0
53759,428.571428571429,4,2,77,65,1,0
53759,-140.845070422535,4,2,77,65,0,0
60617,405.405405405405,4,2,77,65,1,0
60617,-149.253731343284,4,2,77,65,0,0
67103,377.358490566038,4,2,77,65,1,0
67103,-161.290322580645,4,2,77,65,0,0
73141,352.941176470588,4,2,77,65,1,0
73141,-172.413793103448,4,2,77,65,0,0
78788,331.491712707182,4,2,77,65,1,0
78788,-181.818181818182,4,2,77,65,0,0
84092,312.5,4,2,77,65,1,0
84092,-192.307692307692,4,2,77,65,0,0
89092,295.566502463054,4,2,77,65,1,0
89092,-204.081632653061,4,2,77,65,0,0
93821,280.373831775701,4,2,77,65,1,0
93821,-217.391304347826,4,2,77,65,0,0
98307,263.157894736842,4,2,77,65,1,0
98307,-232.558139534884,4,2,77,65,0,0
102517,247.933884297521,4,2,77,65,1,0
102517,-243.90243902439,4,2,77,65,0,0
106484,234.375,4,2,77,65,1,0
106484,-256.410256410256,4,2,77,65,0,0
110234,222.222222222222,4,2,77,65,1,0
110234,-270.27027027027,4,2,77,65,0,0
113790,211.267605633803,4,2,77,65,1,0
113790,-285.714285714286,4,2,77,65,0,0
116959,-278.164116828929,4,2,77,65,0,0
117170,201.342281879195,4,2,77,65,1,0
117170,-303.030303030303,4,2,77,65,0,0
120392,190.47619047619,4,2,77,65,1,0
120392,-322.58064516129,4,2,77,65,0,0
123439,180.722891566265,4,2,77,65,1,0
123439,-333.333333333333,4,2,77,65,0,0
126331,171.919770773639,4,2,77,65,1,0
126331,-357.142857142857,4,2,77,65,0,0
129081,163.934426229508,4,2,77,65,1,0
129081,-370.37037037037,4,2,77,65,0,0
131704,156.657963446475,4,2,77,65,1,0
131704,-384.615384615385,4,2,77,65,0,0
134211,600,4,2,77,5,1,0
136011,-166.666666666667,4,2,77,50,0,0

[Colours]
Combo1 : 255,253,174
Combo2 : 151,255,255
Combo3 : 43,253,190

[HitObjects]
252,169,2380,6,0,L|260:235,1,47.9999985351563,0|2,0:0|0:0,0:0:0:0:
256,192,2830,12,2,8260,0:0:0:0:
87,345,10180,6,2,B|185:345|185:345|262:345|248:291|332:291|332:291|426:291,1,352.000010742188,0|0,3:0|0:0,1:0:0:0:
512,154,11980,6,0,P|433:159|382:97,1,160,4|10,1:2|0:0,0:0:0:0:
316,249,13180,1,2,1:2:0:0:
192,147,13780,2,0,L|110:147,1,80,8|0,0:0|1:2,0:0:0:0:
56,115,14380,2,0,P|18:183|73:244,1,160,0|10,1:2|0:0,0:0:0:0:
222,229,15580,1,2,1:2:0:0:
381,216,16180,2,0,L|375:133,1,80,8|0,0:0|1:2,0:0:0:0:
335,86,16780,6,0,P|410:100|461:34,1,160,0|10,1:2|0:0,0:0:0:0:
504,195,17980,1,2,1:2:0:0:
412,326,18580,2,0,L|334:292,1,80,8|2,0:0|1:2,0:0:0:0:
319,232,19180,1,2,1:2:0:0:
164,265,19780,2,0,B|119:265|119:265|95:278|95:278|46:278,2,120,10|2|2,0:0|1:2|1:2,0:0:0:0:
224,286,20980,2,0,L|228:198,1,80,10|2,0:2|1:2,0:0:0:0:
208,145,21580,6,0,P|261:191|331:171,1,147.199995058594,4|10,1:2|0:0,0:0:0:0:
471,210,22691,1,2,1:2:0:0:
512,69,23246,2,0,L|439:59,1,73.599997529297,8|2,0:0|1:2,0:0:0:0:
416,4,23802,2,0,P|364:49|290:38,1,147.199995058594,0|10,1:2|0:0,0:0:0:0:
155,96,24913,1,2,1:2:0:0:
20,154,25468,2,0,L|90:204,1,73.599997529297,8|2,0:0|1:2,0:0:0:0:
105,249,26024,6,0,B|141:220|141:220|196:220|196:220|230:190,1,147.199995058594,0|10,1:2|0:0,0:0:0:0:
330,299,27135,1,2,1:2:0:0:
450,214,27691,2,0,P|461:175|445:145,1,73.599997529297,8|2,0:0|1:2,0:0:0:0:
461,90,28246,1,2,1:2:0:0:
315,111,28802,2,0,L|319:-6,2,110.399996293945,10|2|2,0:0|1:2|1:2,0:0:0:0:
274,153,29913,2,0,L|271:231,1,73.599997529297,10|2,0:2|1:2,0:0:0:0:
310,270,30469,6,0,P|243:251|176:279,1,137.600002099609,4|10,1:2|0:0,0:0:0:0:
65,199,31503,1,2,1:2:0:0:
148,88,32020,2,0,L|227:98,1,68.8000010498047,8|2,0:0|1:2,0:0:0:0:
251,54,32537,2,0,L|264:197,1,137.600002099609,0|10,1:2|0:0,0:0:0:0:
276,328,33572,1,2,1:2:0:0:
408,366,34089,2,0,L|412:294,1,68.8000010498047,8|2,0:0|1:2,0:0:0:0:
448,255,34606,6,0,P|389:264|352:201,1,137.600002099609,0|10,1:2|0:0,0:0:0:0:
216,232,35641,1,2,1:2:0:0:
80,257,36158,2,0,L|63:187,1,68.8000010498047,8|2,0:0|1:2,0:0:0:0:
30,146,36675,1,2,1:2:0:0:
102,28,37193,2,0,P|53:39|8:9,2,103.200001574707,10|2|2,0:0|1:2|1:2,0:0:0:0:
150,54,38227,2,0,B|184:45|184:45|218:53,1,68.8000010498047,8|2,0:2|1:2,0:0:0:0:
266,29,38745,6,0,L|397:29,1,128,4|10,1:2|0:0,0:0:0:0:
481,122,39712,1,2,1:2:0:0:
441,243,40196,2,0,P|408:231|377:229,1,64,8|2,0:0|1:2,0:0:0:0:
389,178,40680,2,0,P|332:204|264:193,1,128,0|10,1:2|0:0,0:0:0:0:
178,286,41648,1,2,1:2:0:0:
263,381,42132,2,0,L|332:372,1,64,8|2,0:0|1:2,0:0:0:0:
376,384,42615,6,0,P|408:337|477:338,1,128,0|10,1:2|0:0,0:0:0:0:
510,213,43583,1,2,1:2:0:0:
418,123,44067,2,0,L|368:75,1,64,8|2,0:0|1:2,0:0:0:0:
327,104,44551,1,2,1:2:0:0:
209,53,45035,2,0,B|149:53|149:53|122:30,2,96,10|2|2,0:2|1:2|1:2,0:0:0:0:
234,97,46003,2,0,P|227:129|238:162,1,64,10|2,0:0|1:2,0:0:0:0:
216,205,46487,6,0,P|275:198|324:232,1,120.000004577637,4|10,1:2|0:0,0:0:0:0:
434,184,47396,2,0,B|420:77,2,90.0000034332277,2|2|0,1:2|1:2|1:2,0:0:0:0:
480,200,48305,2,0,L|500:341,1,120.000004577637,2|10,1:2|0:0,0:0:0:0:
378,300,49214,2,0,B|336:315|336:315|293:300,2,90.0000034332277,2|2|0,1:2|1:2|1:2,0:0:0:0:
408,337,50123,5,2,1:2:0:0:
494,249,50577,1,10,0:0:0:0:
417,156,51032,2,0,B|421:65,2,90.0000034332277,2|2|0,1:2|1:2|1:2,0:0:0:0:
402,214,51941,2,0,P|445:227|492:210,2,90.0000034332277,2|2|2,1:2|1:2|0:0,0:0:0:0:
384,271,52850,2,0,B|347:271|347:271|325:277|325:277|304:271|304:271|265:271,1,120.000004577637,2|10,1:2|0:0,0:0:0:0:
158,325,53759,5,6,1:2:0:0:
111,221,54187,2,0,L|19:221,2,85.1999957098391,10|2|0,0:0|1:2|1:2,0:0:0:0:
145,190,55044,2,0,L|208:190,1,56.7999971398927,10|0,0:0|0:0,0:0:0:0:
242,167,55473,1,2,1:2:0:0:
332,235,55901,2,0,L|332:344,2,85.1999957098391,10|2|0,0:0|1:2|1:2,0:0:0:0:
358,197,56759,2,0,L|358:136,1,56.7999971398927,10|2,0:0|0:0,0:0:0:0:
379,100,57187,6,0,P|324:95|290:46,2,113.599994279785,2|10|2,1:2|0:0|1:2,0:0:0:0:
486,138,58473,2,0,L|475:198,1,56.7999971398927,10|2,0:0|0:0,0:0:0:0:
491,237,58901,2,0,P|453:276|399:268,1,113.599994279785,2|10,1:2|0:0,0:0:0:0:
310,340,59759,2,0,P|261:310|208:319,1,113.599994279785,2|10,1:2|0:0,0:0:0:0:
130,237,60617,6,0,L|246:195,1,107.199994929199,6|2,1:2|0:0,0:0:0:0:
333,229,61427,1,2,0:0:0:0:
386,136,61833,1,0,1:2:0:0:
314,56,62238,2,0,B|270:70|239:41|239:41|209:13|164:25,2,160.799992393799,2|2|10,1:2|1:2|0:2,0:0:0:0:
411,10,63860,6,0,L|424:132,1,107.199994929199,2|2,1:2|0:0,0:0:0:0:
473,211,64671,1,2,0:0:0:0:
367,231,65076,1,0,1:2:0:0:
262,251,65481,2,0,P|187:243|181:168,2,160.799992393799,2|2|10,1:2|1:2|0:2,0:0:0:0:
315,343,67103,6,0,L|215:360,1,99.1999960644533,6|2,1:2|2:0,0:0:0:0:
119,376,67857,1,2,2:0:0:0:
120,276,68235,1,0,1:2:0:0:
22,292,68612,2,0,L|-2:145,2,148.79999409668,2|2|10,1:2|1:2|0:2,0:0:0:0:
120,276,70121,6,0,B|159:270|159:270|180:282|180:282|215:276,1,99.1999960644533,2|2,1:2|0:0,0:0:0:0:
269,359,70876,1,2,0:0:0:0:
367,371,71253,1,0,1:2:0:0:
441,305,71631,6,0,P|461:262|429:216,1,99.1999960644533,0|2,1:2|0:0,0:0:0:0:
340,241,72386,1,2,0:0:0:0:
242,223,72763,1,0,1:2:0:0:
144,241,73141,6,0,P|99:245|59:206,1,92.8000028320313,6|8,1:2|0:0,0:0:0:0:
113,138,73846,1,0,1:2:0:0:
164,60,74199,1,8,0:0:0:0:
252,88,74552,2,0,B|306:88|306:88|338:108|338:108|390:108,2,139.200004248047,2|2|10,1:2|1:2|0:0,0:0:0:0:
264,180,75964,6,0,P|248:222|270:267,1,92.8000028320313,2|8,1:2|0:0,0:0:0:0:
357,243,76670,1,0,1:2:0:0:
407,320,77023,1,8,0:0:0:0:
336,380,77376,2,0,L|185:373,2,139.200004248047,2|2|10,1:2|1:2|0:0,0:0:0:0:
407,320,78788,6,0,B|421:278|421:278|402:238,1,88.000002685547,6|8,1:2|0:0,0:0:0:0:
314,246,79450,1,0,1:2:0:0:
307,158,79782,1,8,0:0:0:0:
219,167,80113,2,0,B|164:167|164:167|148:158|148:158|89:158,2,132.00000402832,2|2|10,1:2|1:2|0:0,0:0:0:0:
242,251,81439,6,0,B|282:265|282:265|329:249,1,88.000002685547,2|8,1:2|0:0,0:0:0:0:
363,329,82102,2,0,B|405:316|405:316|447:329,1,88.000002685547,0|8,1:2|0:0,0:0:0:0:
496,256,82765,2,0,P|535:181|485:112,1,176.000005371094,0|2,1:2|1:2,0:0:0:0:
324,44,84092,6,0,P|288:62|240:51,1,83.1999994921875,6|10,1:2|0:0,0:0:0:0:
224,90,84560,2,0,L|95:91,1,124.799999238281,0|10,1:2|0:0,0:0:0:0:
115,180,85342,2,0,L|-17:180,2,124.799999238281,2|2|10,1:2|1:2|0:0,0:0:0:0:
178,244,86592,6,0,P|209:222|252:225,1,83.1999994921875,2|10,1:2|0:0,0:0:0:0:
282,195,87060,2,0,P|319:243|378:229,1,124.799999238281,0|10,1:2|0:0,0:0:0:0:
417,311,87842,2,0,B|452:288|452:288|534:288,2,124.799999238281,2|2|10,1:2|1:2|0:0,0:0:0:0:
255,375,89387,6,0,P|195:328|114:329,1,156.799998564453,10|10,0:0|0:0,0:0:0:0:
126,237,90274,2,0,L|111:118,2,117.59999892334,2|2|10,1:2|1:2|0:0,0:0:0:0:
217,246,91456,6,0,P|255:256|293:244,1,78.3999992822266,2|10,1:2|0:0,0:0:0:0:
316,275,91899,2,0,P|365:257|427:276,1,117.59999892334,0|10,1:2|0:0,0:0:0:0:
476,198,92638,2,0,B|490:161|490:161|473:123,1,78.3999992822266,2|10,1:2|0:0,0:0:0:0:
495,91,93082,2,0,L|374:92,1,117.59999892334,0|10,1:2|0:0,0:0:0:0:
295,56,93821,5,4,1:2:0:0:
107,149,106484,6,0,B|154:142|154:142|181:157|181:157|227:148,1,124.800004189453,4|2,1:2|1:2,0:0:0:0:
330,216,107421,2,0,B|423:216,2,93.60000314209,2|2|10,1:2|1:2|0:2,0:0:0:0:
305,259,108359,1,2,1:2:0:0:
236,362,108827,1,2,1:2:0:0:
121,311,109296,6,0,P|62:312|28:259,1,124.800004189453,2|2,1:2|1:2,0:0:0:0:
105,163,110234,1,0,1:2:0:0:
230,192,110678,2,0,L|321:192,1,88.8000021679688,2|2,1:2|1:2,0:0:0:0:
356,220,111234,2,0,P|412:224|449:175,1,118.400002890625,2|2,1:2|1:2,0:0:0:0:
407,92,112011,6,0,L|284:93,1,118.400002890625,6|2,1:2|1:2,0:0:0:0:
219,188,112900,1,2,1:2:0:0:
148,92,113345,1,2,1:2:0:0:
80,188,113790,2,0,B|-12:188,2,83.9999974365235,2|2|10,1:2|1:2|0:0,0:0:0:0:
105,224,114635,6,0,P|150:194|208:205,1,111.999996582031,2|2,1:2|0:0,0:0:0:0:
291,132,115480,2,0,B|339:120|367:149|367:149|398:182|445:167,1,167.999994873047,2|4,1:2|1:2,0:0:0:0:
492,269,116536,1,2,1:2:0:0:
425,359,116959,6,0,P|376:332|318:344,1,111.999996582031,14|0,0:2|1:2,0:0:0:0:
228,384,117774,2,0,B|203:363|203:363|127:363,1,105.599999677734,8|0,0:0|1:2,0:0:0:0:
39,308,118579,2,0,P|18:260|42:214,1,105.599999677734,8|0,0:0|1:2,0:0:0:0:
121,147,119384,2,0,B|174:147|174:147|199:157|199:157|223:147|223:147|278:147,1,158.399999516602,8|0,0:0|1:2,0:0:0:0:
367,96,120392,5,4,0:0:0:0:
367,96,120677,2,0,L|387:22,2,74.39999704834,2|2|10,1:2|1:2|0:0,0:0:0:0:
438,153,121534,2,0,L|462:76,2,74.39999704834,2|2|2,1:2|1:2|1:2,0:0:0:0:
510,204,122392,2,0,L|534:122,2,74.39999704834,10|2|2,0:0|1:2|1:2,0:0:0:0:
510,292,123249,6,0,L|495:346,1,49.5999980322266,2|6,1:2|1:2,0:0:0:0:
306,316,124161,2,0,P|262:331|216:314,2,95.9999970703126,10|2|4,0:2|1:2|1:2,0:0:0:0:
389,142,125607,2,0,L|282:133,1,95.9999970703126,10|2,0:0|1:2,0:0:0:0:
210,89,126331,5,6,1:2:0:0:
210,89,126588,2,0,P|129:68|82:146,1,179.2000021875,2|0,1:2|1:2,0:0:0:0:
19,202,127620,2,0,P|41:282|132:284,1,179.2000021875,2|0,1:2|1:2,0:0:0:0:
183,357,128651,1,6,1:2:0:0:
289,317,129081,6,0,L|420:316,2,129.600003164063,6|2|10,1:2|1:2|0:0,0:0:0:0:
219,264,130392,2,0,P|182:284|136:275,1,86.4000021093751,0|10,1:2|0:0,0:0:0:0:
64,320,131048,2,0,P|28:297|12:253,1,86.4000021093751,0|10,1:2|0:0,0:0:0:0:
48,177,131704,6,0,L|31:4,2,166.399998984375,2|10|2,1:2|0:0|1:2,0:0:0:0:
178,280,133583,2,0,B|221:265|256:292|256:292|293:318|336:305,1,166.399998984375,10|0,0:0|0:0,0:0:0:0:
335,305,136011,6,0,B|352:260|352:260|331:217,1,95.9999970703126,2|4,0:0|0:0,0:0:0:0:
256,192,136686,12,2,143811,0:0:0:0:
