osu file format v14

[General]
AudioFilename: audio.mp3
AudioLeadIn: 0
PreviewTime: 10180
Countdown: 0
SampleSet: Normal
StackLeniency: 0.7
Mode: 1
LetterboxInBreaks: 0
WidescreenStoryboard: 0

[Editor]
DistanceSpacing: 1.2
BeatDivisor: 4
GridSize: 4
TimelineZoom: 2.4

[Metadata]
Title:24eeev0-$
TitleUnicode:24eeev0-$
Artist:Frums
ArtistUnicode:Frums
Creator:Gamelan4
Version:Futsuu
Source:osu!
Tags:fa featured artist Idealism Cychloryn rubies87 mappers' guild mg mpg experimental electronic instrumental
BeatmapID:2321978
BeatmapSetID:1111340

[Difficulty]
HPDrainRate:7
CircleSize:2
OverallDifficulty:4
ApproachRate:0
SliderMultiplier:1.4
SliderTickRate:1

[Events]
//Background and Video events
0,0,"logo-2418172_1280.png",0,20
//Break Periods
//Storyboard Layer 0 (Background)
//Storyboard Layer 1 (Fail)
//Storyboard Layer 2 (Pass)
//Storyboard Layer 3 (Foreground)
//Storyboard Layer 4 (Overlay)
//Storyboard Sound Samples

[TimingPoints]
-20,600,4,1,0,10,1,0
-20,-133.333333333333,4,1,0,10,0,0
280,-133.333333333333,4,1,0,15,0,0
580,-133.333333333333,4,1,0,20,0,0
880,-133.333333333333,4,1,0,25,0,0
1180,-133.333333333333,4,1,0,30,0,0
1480,-133.333333333333,4,1,0,35,0,0
1780,-133.333333333333,4,1,0,40,0,0
2230,-166.666666666667,4,1,0,50,0,0
3580,512.820512820513,4,1,0,50,1,8
3580,-196.078431372549,4,1,0,50,0,8
4092,495.867768595041,4,1,0,50,1,8
4092,-200,4,1,0,50,0,8
4587,508.474576271186,4,1,0,50,1,8
4587,-196.078431372549,4,1,0,50,0,8
5095,571.428571428571,4,1,0,50,1,8
5095,-175.438596491228,4,1,0,50,0,0
5666,638.297872340426,4,1,0,50,1,0
5666,-156.666666666667,4,1,0,50,0,8
6304,606.060606060606,4,1,0,50,1,8
6304,-165,4,1,0,50,0,8
6910,600,4,1,0,50,1,8
6910,-166.666666666667,4,1,0,50,0,8
7510,750,4,1,0,50,1,8
7510,-133.333333333333,4,1,0,50,0,0
8260,960,4,1,0,50,1,0
8260,-104.166666666667,4,1,0,50,0,8
9700,-142.857142857143,4,1,0,50,0,8
11980,600,4,1,0,65,1,0
11980,-133.333333333333,4,1,0,65,0,0
21580,555.555555555556,4,1,0,65,1,0
21580,-125,4,1,0,65,0,0
30468,517.241379310345,4,1,0,65,1,0
30468,-133.333333333333,4,1,0,65,0,0
38743,483.870967741935,4,1,0,65,1,0
38743,-133.333333333333,4,1,0,65,0,0
46484,454.545454545455,4,1,0,65,1,0
46484,-133.333333333333,4,1,0,65,0,0
53756,428.571428571429,4,1,0,65,1,0
53756,-133.333333333333,4,1,0,65,0,0
60613,405.405405405405,4,1,0,65,1,0
60613,-133.333333333333,4,1,0,65,0,0
65275,-125,4,1,0,65,0,0
67099,405.405405405405,4,1,0,65,1,8
67103,377.358490566038,4,1,0,65,1,0
67103,-133.333333333333,4,1,0,65,0,0
73140,352.941176470588,4,1,0,65,1,0
73140,-125,4,1,0,65,0,0
78787,331.491712707182,4,1,0,65,1,0
78787,-133.333333333333,4,1,0,65,0,0
84090,312.5,4,1,0,65,1,1
84090,-133.333333333333,4,1,0,65,0,1
89090,295.566502463054,4,1,0,65,1,0
89090,-142.857142857143,4,1,0,65,0,1
93819,280.373831775701,4,1,0,65,1,0
93819,-153.846153846154,4,1,0,65,0,0
98304,263.157894736842,4,1,0,65,1,0
98304,-163.934426229508,4,1,0,65,0,0
102513,247.933884297521,4,1,0,65,1,0
102513,-172.413793103448,4,1,0,65,0,0
106479,247.933884297521,4,1,0,65,1,8
106479,-172.413793103448,4,1,0,65,0,8
106484,234.375,4,1,0,65,1,0
106484,-181.818181818182,4,1,0,65,0,0
110234,222.222222222222,4,1,0,65,1,0
110234,-192.307692307692,4,1,0,65,0,0
113789,211.267605633803,4,1,0,65,1,0
113789,-200,4,1,0,65,0,0
117169,201.342281879195,4,1,0,65,1,0
117169,-208.333333333333,4,1,0,65,0,0
120390,190.47619047619,4,1,0,65,1,0
120390,-217.391304347826,4,1,0,65,0,0
123437,180.722891566265,4,1,0,65,1,0
123437,-227.272727272727,4,1,0,65,0,0
126328,171.919770773639,4,1,0,65,1,0
126328,-238.095238095238,4,1,0,65,0,0
129078,163.934426229508,4,1,0,65,1,0
129078,-250,4,1,0,65,0,0
131700,163.934426229508,4,1,0,65,1,8
131700,-243.90243902439,4,1,0,65,0,8
131704,156.657963446475,4,1,0,65,1,0
131704,-250,4,1,0,65,0,0
134210,600,4,1,0,20,1,0
134210,-64.5161290322581,4,1,0,20,0,0
136535,-64.5161290322581,4,1,0,40,0,0

[HitObjects]
256,192,130,12,0,1780,0:0:0:0:
248,184,2380,5,0,0:0:0:0:
256,176,3580,5,0,0:0:0:0:
248,192,4092,1,0,0:0:0:0:
256,176,4587,1,0,0:0:0:0:
248,192,5095,1,0,0:0:0:0:
256,168,5666,1,8,0:0:0:0:
248,176,6304,1,8,0:0:0:0:
264,164,6910,1,8,0:0:0:0:
248,176,7510,1,8,0:0:0:0:
264,164,8260,1,8,0:0:0:0:
256,192,10180,12,0,11380,0:0:0:0:
264,172,11980,5,0,0:0:0:0:
268,180,12580,1,8,0:0:0:0:
268,180,13180,1,0,0:0:0:0:
256,180,13780,1,0,0:0:0:0:
268,180,14080,1,0,0:0:0:0:
268,180,14380,1,0,0:0:0:0:
308,196,14980,1,8,0:0:0:0:
264,176,15580,1,0,0:0:0:0:
256,180,16180,1,0,0:0:0:0:
288,172,16480,1,8,0:0:0:0:
264,176,16780,1,0,0:0:0:0:
288,172,17380,1,8,0:0:0:0:
280,168,17980,1,0,0:0:0:0:
256,180,18580,1,0,0:0:0:0:
267,178,18880,1,0,0:0:0:0:
280,168,19180,1,0,0:0:0:0:
280,168,19780,1,8,0:0:0:0:
296,164,20380,1,0,0:0:0:0:
296,164,21580,1,0,0:0:0:0:
304,152,22135,1,8,0:0:0:0:
308,152,22552,1,0,0:0:0:0:
267,178,22691,1,0,0:0:0:0:
256,180,22968,1,0,0:0:0:0:
304,156,23246,1,8,0:0:0:0:
304,156,23802,1,0,0:0:0:0:
388,180,24357,1,8,0:0:0:0:
300,144,24774,1,0,0:0:0:0:
296,152,24913,1,0,0:0:0:0:
300,144,25191,1,0,0:0:0:0:
304,156,25468,1,8,0:0:0:0:
267,178,25746,1,0,0:0:0:0:
296,152,26024,1,0,0:0:0:0:
304,144,26580,1,8,0:0:0:0:
304,136,26996,1,0,0:0:0:0:
304,144,27135,1,0,0:0:0:0:
304,136,27413,1,0,0:0:0:0:
304,156,27691,1,8,0:0:0:0:
304,144,28246,1,0,0:0:0:0:
304,144,28802,1,8,0:0:0:0:
267,178,29080,1,0,0:0:0:0:
304,148,29357,1,0,0:0:0:0:
304,148,30468,1,0,0:0:0:0:
304,140,30985,1,8,0:0:0:0:
304,148,31502,1,0,0:0:0:0:
304,148,32019,1,0,0:0:0:0:
304,148,32278,1,0,0:0:0:0:
304,148,32536,1,0,0:0:0:0:
308,144,33054,1,8,0:0:0:0:
304,136,33571,1,0,0:0:0:0:
320,144,34088,1,0,0:0:0:0:
305,145,34347,1,8,0:0:0:0:
304,136,34605,1,0,0:0:0:0:
336,140,35123,1,8,0:0:0:0:
304,136,35640,1,0,0:0:0:0:
304,136,36157,1,8,0:0:0:0:
305,145,36416,1,0,0:0:0:0:
304,136,36674,1,8,0:0:0:0:
304,136,37192,1,8,0:0:0:0:
304,136,37709,1,0,0:0:0:0:
304,136,38743,1,0,0:0:0:0:
304,136,39226,1,8,0:0:0:0:
304,136,39589,1,0,0:0:0:0:
301,124,39710,1,0,0:0:0:0:
305,145,39952,1,0,0:0:0:0:
304,132,40194,1,8,0:0:0:0:
304,120,40678,1,0,0:0:0:0:
312,128,41162,1,8,0:0:0:0:
304,140,41525,1,0,0:0:0:0:
312,128,41646,1,0,0:0:0:0:
305,145,41888,1,0,0:0:0:0:
308,140,42130,1,8,0:0:0:0:
300,120,42613,1,0,0:0:0:0:
300,120,43097,1,8,0:0:0:0:
352,176,43460,1,0,0:0:0:0:
300,120,43581,1,0,0:0:0:0:
268,128,43823,1,0,0:0:0:0:
300,120,44065,1,8,0:0:0:0:
292,131,44307,1,8,0:0:0:0:
304,128,44549,1,0,0:0:0:0:
304,128,45033,1,8,0:0:0:0:
324,120,45517,1,0,0:0:0:0:
303,135,46484,1,0,0:0:0:0:
303,135,46938,1,8,0:0:0:0:
303,135,47393,1,0,0:0:0:0:
288,128,47847,1,0,0:0:0:0:
303,131,48074,1,8,0:0:0:0:
303,119,48302,1,0,0:0:0:0:
304,144,48529,1,0,0:0:0:0:
311,127,48756,1,8,0:0:0:0:
332,132,49211,1,8,0:0:0:0:
326,134,49552,1,8,0:0:0:0:
326,134,49893,1,8,0:0:0:0:
304,144,50120,1,8,0:0:0:0:
307,139,50574,1,8,0:0:0:0:
277,152,51029,1,0,0:0:0:0:
277,152,51484,1,0,0:0:0:0:
277,152,51711,1,8,0:0:0:0:
277,152,51938,1,0,0:0:0:0:
284,154,52393,1,8,0:0:0:0:
284,154,52847,1,0,0:0:0:0:
284,154,53756,1,0,0:0:0:0:
284,154,54184,1,8,0:0:0:0:
264,157,54506,1,8,0:0:0:0:
272,148,54720,1,8,0:0:0:0:
280,152,54934,1,8,0:0:0:0:
280,152,55148,1,0,0:0:0:0:
280,152,55470,1,8,0:0:0:0:
289,157,55898,1,8,0:0:0:0:
275,151,56220,1,0,0:0:0:0:
272,148,56648,1,0,0:0:0:0:
292,156,57077,1,8,0:0:0:0:
296,147,57934,1,0,0:0:0:0:
321,146,58470,1,8,0:0:0:0:
299,154,58898,1,8,0:0:0:0:
184,160,59113,1,0,0:0:0:0:
299,147,59327,1,8,0:0:0:0:
288,140,59541,1,0,0:0:0:0:
329,159,59756,1,8,0:0:0:0:
352,144,60184,1,8,0:0:0:0:
329,159,60613,1,0,0:0:0:0:
288,180,62234,1,0,0:0:0:0:
320,152,62538,1,0,0:0:0:0:
320,152,62842,1,0,0:0:0:0:
320,152,63146,1,0,0:0:0:0:
320,152,63450,1,0,0:0:0:0:
320,152,63653,1,8,0:0:0:0:
320,152,63856,5,0,0:0:0:0:
320,152,65477,5,0,0:0:0:0:
320,152,65781,1,0,0:0:0:0:
320,152,66085,1,8,0:0:0:0:
320,152,66390,1,0,0:0:0:0:
320,152,66694,1,8,0:0:0:0:
320,152,66896,1,0,0:0:0:0:
320,152,67103,1,8,0:0:0:0:
256,184,68612,1,8,0:0:0:0:
280,168,68895,1,8,0:0:0:0:
280,168,69178,1,0,0:0:0:0:
280,168,69461,1,0,0:0:0:0:
280,168,69744,1,0,0:0:0:0:
280,168,69933,1,8,0:0:0:0:
280,168,70121,1,0,0:0:0:0:
256,192,70499,12,0,72763,0:0:0:0:
272,176,73140,5,8,0:0:0:0:
264,192,74551,1,0,0:0:0:0:
264,192,74816,1,0,0:0:0:0:
264,192,75081,1,0,0:0:0:0:
264,192,75345,1,0,0:0:0:0:
264,192,75610,1,0,0:0:0:0:
264,192,75787,1,8,0:0:0:0:
264,192,75963,1,0,0:0:0:0:
264,188,77375,1,0,0:0:0:0:
264,188,77640,1,0,0:0:0:0:
264,188,77904,1,8,0:0:0:0:
264,188,78169,1,0,0:0:0:0:
264,188,78434,1,8,0:0:0:0:
264,188,78610,1,0,0:0:0:0:
264,188,78787,1,8,0:0:0:0:
264,188,80112,1,8,0:0:0:0:
264,188,80361,1,8,0:0:0:0:
264,188,80610,1,0,0:0:0:0:
264,188,80858,1,0,0:0:0:0:
264,188,81107,1,0,0:0:0:0:
264,188,81273,1,8,0:0:0:0:
264,188,81438,1,0,0:0:0:0:
256,192,81770,12,0,83759,0:0:0:0:
264,200,84090,5,8,0:0:0:0:
256,192,84246,1,8,0:0:0:0:
256,192,84480,1,8,0:0:0:0:
264,176,84715,1,8,0:0:0:0:
256,188,84949,1,8,0:0:0:0:
264,196,85340,1,0,0:0:0:0:
260,200,85574,1,8,0:0:0:0:
264,196,85808,1,0,0:0:0:0:
264,180,86043,1,0,0:0:0:0:
264,196,86277,1,0,0:0:0:0:
264,196,86433,1,8,0:0:0:0:
236,200,86590,1,0,0:0:0:0:
260,184,86746,1,8,0:0:0:0:
268,176,86980,1,8,0:0:0:0:
268,176,87215,1,8,0:0:0:0:
268,176,87449,1,8,0:0:0:0:
260,184,87840,1,0,0:0:0:0:
264,184,88074,1,0,0:0:0:0:
264,184,88308,1,8,0:0:0:0:
260,184,88543,1,0,0:0:0:0:
260,184,88777,1,0,0:0:0:0:
264,184,88933,1,8,0:0:0:0:
280,176,89237,1,8,0:0:0:0:
272,164,89385,1,0,0:0:0:0:
300,176,89681,1,8,0:0:0:0:
264,184,89902,1,8,0:0:0:0:
256,160,90272,1,8,0:0:0:0:
256,160,90493,1,8,0:0:0:0:
256,160,90715,1,0,0:0:0:0:
256,160,90937,1,0,0:0:0:0:
256,192,91454,12,0,93819,0:0:0:0:
244,188,94379,5,0,0:0:0:0:
419,192,94590,1,8,0:0:0:0:
266,173,94800,1,8,0:0:0:0:
324,164,95080,1,8,0:0:0:0:
284,162,95220,1,0,0:0:0:0:
260,184,95501,1,0,0:0:0:0:
249,172,96202,1,0,0:0:0:0:
249,172,96342,1,8,0:0:0:0:
260,184,96482,1,0,0:0:0:0:
242,179,96762,1,0,0:0:0:0:
259,184,96903,1,8,0:0:0:0:
266,165,97183,1,8,0:0:0:0:
259,177,97393,1,0,0:0:0:0:
287,159,97604,1,0,0:0:0:0:
260,184,97744,1,8,0:0:0:0:
264,184,97954,1,0,0:0:0:0:
264,184,98164,1,0,0:0:0:0:
266,156,98435,1,0,0:0:0:0:
323,168,98632,1,8,0:0:0:0:
252,184,98830,1,0,0:0:0:0:
264,184,99027,1,8,0:0:0:0:
264,184,99225,1,8,0:0:0:0:
256,180,99882,1,0,0:0:0:0:
276,168,100409,1,8,0:0:0:0:
256,180,100804,1,8,0:0:0:0:
260,176,100935,1,0,0:0:0:0:
264,160,101198,1,0,0:0:0:0:
284,160,101461,1,0,0:0:0:0:
272,168,101593,1,8,0:0:0:0:
260,160,101856,1,8,0:0:0:0:
248,120,102054,1,0,0:0:0:0:
260,160,102251,1,0,0:0:0:0:
264,132,102382,1,0,0:0:0:0:
280,152,103008,1,8,0:0:0:0:
260,176,103256,1,8,0:0:0:0:
260,176,103380,1,0,0:0:0:0:
252,164,103628,1,8,0:0:0:0:
264,160,103876,1,8,0:0:0:0:
260,168,104124,1,0,0:0:0:0:
264,176,104372,1,0,0:0:0:0:
264,176,104620,1,0,0:0:0:0:
264,176,104868,1,0,0:0:0:0:
264,176,105116,1,0,0:0:0:0:
256,192,105364,12,0,106484,0:0:0:0:
244,168,106952,5,0,0:0:0:0:
261,175,107421,1,8,0:0:0:0:
265,176,107655,1,8,0:0:0:0:
256,192,107773,1,0,0:0:0:0:
234,163,108124,1,0,0:0:0:0:
234,163,108241,1,0,0:0:0:0:
280,187,108593,1,8,0:0:0:0:
256,192,108827,1,0,0:0:0:0:
256,181,108944,1,8,0:0:0:0:
235,197,109062,1,0,0:0:0:0:
256,192,109530,1,0,0:0:0:0:
256,192,109765,1,0,0:0:0:0:
260,159,109999,1,0,0:0:0:0:
256,192,110116,1,8,0:0:0:0:
256,192,110345,1,0,0:0:0:0:
256,192,110567,1,8,0:0:0:0:
256,192,110789,1,0,0:0:0:0:
260,188,111011,1,0,0:0:0:0:
260,188,111234,1,8,0:0:0:0:
260,188,111456,1,8,0:0:0:0:
264,192,111678,1,0,0:0:0:0:
264,192,112456,1,0,0:0:0:0:
274,180,113345,1,8,0:0:0:0:
347,205,113567,1,0,0:0:0:0:
316,189,114211,1,8,0:0:0:0:
324,209,115056,1,0,0:0:0:0:
326,174,115267,1,8,0:0:0:0:
285,187,115479,1,0,0:0:0:0:
308,183,115901,1,0,0:0:0:0:
263,181,116112,1,8,0:0:0:0:
236,193,116535,1,0,0:0:0:0:
280,187,116746,1,0,0:0:0:0:
280,187,116958,1,8,0:0:0:0:
297,190,117370,1,8,0:0:0:0:
305,192,117974,1,0,0:0:0:0:
306,189,118578,1,0,0:0:0:0:
293,187,118981,1,8,0:0:0:0:
318,182,119585,1,0,0:0:0:0:
312,186,120390,1,8,0:0:0:0:
342,170,120675,1,0,0:0:0:0:
322,174,120961,1,0,0:0:0:0:
374,150,121247,1,8,0:0:0:0:
331,166,121532,1,0,0:0:0:0:
326,170,121818,1,8,0:0:0:0:
346,174,122104,1,0,0:0:0:0:
351,172,122390,1,0,0:0:0:0:
350,175,122675,1,0,0:0:0:0:
351,167,122961,1,8,0:0:0:0:
333,151,123247,1,8,0:0:0:0:
316,164,123437,1,0,0:0:0:0:
262,241,124159,1,0,0:0:0:0:
262,241,124882,1,8,0:0:0:0:
317,176,125605,1,8,0:0:0:0:
317,176,126328,1,0,0:0:0:0:
326,168,126585,1,8,0:0:0:0:
317,176,126843,1,8,0:0:0:0:
324,168,127101,1,0,0:0:0:0:
324,168,127359,1,0,0:0:0:0:
326,168,127617,1,8,0:0:0:0:
324,168,127875,1,0,0:0:0:0:
324,168,128133,1,0,0:0:0:0:
324,168,128391,1,0,0:0:0:0:
326,168,128648,1,8,0:0:0:0:
281,196,129078,1,0,0:0:0:0:
281,196,129569,1,0,0:0:0:0:
298,175,130061,1,8,0:0:0:0:
256,192,130389,12,0,134210,0:0:0:0:
263,193,136610,5,0,0:0:0:0:
