osu file format v14

[General]
AudioFilename: audio.mp3
AudioLeadIn: 0
PreviewTime: 69079
Countdown: 0
SampleSet: Drum
StackLeniency: 0.7
Mode: 2
LetterboxInBreaks: 0
WidescreenStoryboard: 0

[Editor]
Bookmarks: 11579,18008,20150,23008,24436,24615,24793,24972,25150,25389,25686,26222,27293,28008,28722,30150,30240,30329,30508,30686,30865,31103,31341,31579,32115,32293,32829,33008,33722,43008,45865,46579,49079,49436,49793,50150,50508,50865,54793,65865,68722,69079,79853,90150,91579,102293,102472,105329,105865,107234,110865,111579,113722,128186,128722,134436,136579,137293,148008,148722
DistanceSpacing: 1
BeatDivisor: 12
GridSize: 32
TimelineZoom: 8

[Metadata]
Title:19ZZ
TitleUnicode:19ZZ
Artist:Frums (unknown "lambda")
ArtistUnicode:Frums (unknown "λ")
Creator:SadEgg
Version:Into Complete Desolation
Source:第二回BMS衆議院選
Tags:i a aka be-music source 偽名党 dai 2 kai dai2kai dainikai bms shūgīnsen shuginsen shuugiinsen gimei tō to tou shuin modern midtempo electronic videogame video game instrumental featured artist fa
BeatmapID:4536929
BeatmapSetID:2153193

[Difficulty]
HPDrainRate:4
CircleSize:4
OverallDifficulty:9.3
ApproachRate:9.3
SliderMultiplier:3.59999990463257
SliderTickRate:4

[Events]
//Background and Video events
0,0,"my_thought_process_while_making_this.jpg",0,0
//Break Periods
2,137493,147454
//Storyboard Layer 0 (Background)
//Storyboard Layer 1 (Fail)
//Storyboard Layer 2 (Pass)
//Storyboard Layer 3 (Foreground)
//Storyboard Layer 4 (Overlay)
//Storyboard Sound Samples

[TimingPoints]
151,714.285714285714,4,2,3,25,1,0
329,-100,4,2,3,25,0,0
10865,-66.6666666666667,4,2,0,20,0,0
11579,-50,4,3,3,25,0,0
20508,-100,4,3,3,35,0,0
20865,-100,4,3,3,45,0,0
21133,-100,4,3,3,50,0,0
21400,-100,4,3,3,55,0,0
21579,-100,4,3,3,60,0,0
21758,-100,4,3,3,65,0,0
21936,-100,4,3,3,70,0,0
22115,-100,4,3,3,75,0,0
22293,-100,4,3,3,15,0,0
22829,-100,4,2,3,25,0,0
23008,-33.3333333333333,4,2,4,25,0,0
23067,-33.3333333333333,4,2,3,25,0,0
24347,-100,4,2,4,25,0,0
25329,-100,4,2,4,25,0,0
25448,-100,4,2,3,25,0,0
25627,-100,4,2,4,25,0,0
25686,-100,4,2,4,25,0,0
25746,-100,4,2,3,25,0,0
26162,-100,4,2,4,25,0,0
26281,-100,4,2,3,25,0,0
26877,-100,4,2,4,25,0,0
26996,-100,4,2,3,25,0,0
27591,-100,4,2,4,25,0,0
27710,-100,4,2,3,25,0,0
28008,-33.3333333333333,4,2,3,25,0,0
28365,-100,4,2,3,25,0,0
28543,-100,4,2,3,25,0,0
28722,-33.3333333333333,4,2,3,25,0,0
30150,-100,4,2,4,25,0,0
30508,-100,4,2,4,25,0,0
30865,-100,4,2,4,25,0,0
31222,-100,4,2,3,25,0,0
31400,-100,4,2,4,25,0,0
31460,-100,4,2,3,25,0,0
31877,-100,4,2,4,25,0,0
31996,-100,4,2,3,25,0,0
32472,-100,4,2,3,25,0,0
32591,-100,4,2,4,25,0,0
32770,-100,4,2,3,25,0,0
33305,-100,4,2,4,25,0,0
33424,-100,4,2,3,25,0,0
33722,-66.6666666666667,4,2,3,25,0,0
34168,-100,4,2,3,25,0,0
34436,-33.3333333333333,4,2,3,25,0,0
34615,-20,4,2,0,60,0,0
35775,-100,4,2,3,5,0,0
35865,-100,4,2,4,25,0,0
36222,-100,4,2,4,25,0,0
36579,-100,4,2,4,25,0,0
36877,-100,4,2,3,25,0,0
37115,-100,4,2,4,25,0,0
37293,-100,4,2,3,25,0,0
37650,-100,4,2,4,25,0,0
37710,-100,4,2,3,25,0,0
38365,-100,4,2,4,25,0,0
38424,-100,4,2,3,25,0,0
39079,-100,4,2,4,25,0,0
39139,-100,4,2,3,25,0,0
39436,-66.6666666666667,4,2,3,25,0,0
39793,-100,4,2,3,25,0,0
40150,-31.25,4,2,3,25,0,0
41579,-100,4,2,4,25,0,0
42353,-100,4,2,3,25,0,0
42650,-100,4,2,4,25,0,0
42710,-100,4,2,3,25,0,0
43008,-100,4,2,4,25,0,0
44198,-100,4,2,3,25,0,0
44436,-100,4,2,4,25,0,0
45329,-66.6666666666667,4,2,3,25,0,0
45686,-50,4,2,3,25,0,0
45865,-20,4,2,3,25,0,0
46579,-100,4,2,3,40,0,0
47293,-66.6666666666667,4,2,3,40,0,0
47650,-100,4,2,3,40,0,0
47829,-66.6666666666667,4,2,3,40,0,0
48365,-100,4,2,3,40,0,0
49079,-83.3333333333333,4,2,3,40,0,0
49436,-100,4,2,3,40,0,0
49793,-83.3333333333333,4,2,3,40,0,0
50150,-100,4,2,3,40,0,0
50865,-66.6666666666667,4,2,3,40,0,0
50984,-66.6666666666667,4,2,3,30,0,0
51103,-100,4,2,3,25,0,0
51222,-66.6666666666667,4,2,3,25,0,0
51341,-66.6666666666667,4,2,3,25,0,0
51579,-66.6666666666667,4,2,3,40,0,0
56579,-50,4,2,3,40,0,0
56936,-100,4,2,3,40,0,0
57293,-52.6315789473684,4,2,3,40,0,0
61534,-52.6315789473684,4,3,3,40,0,0
61624,-52.6315789473684,4,2,3,40,0,0
62650,-52.6315789473684,4,2,3,15,0,0
63008,-52.6315789473684,4,2,3,40,0,0
65865,-52.6315789473684,4,2,4,40,0,0
66222,-52.6315789473684,4,2,4,45,0,0
66579,-52.6315789473684,4,2,3,50,0,0
66624,-52.6315789473684,4,2,4,50,0,0
67650,-52.6315789473684,4,2,3,55,0,0
67695,-52.6315789473684,4,2,4,55,0,0
68008,-52.6315789473684,4,2,4,65,0,0
68246,-52.6315789473684,4,2,3,65,0,0
68484,-100,4,2,4,65,0,0
68722,-52.6315789473684,4,2,3,15,0,0
69079,-52.6315789473684,4,3,3,45,0,0
69168,-52.6315789473684,4,3,3,35,0,0
69258,-52.6315789473684,4,3,3,35,0,0
71579,-52.6315789473684,4,3,3,45,0,0
71936,-52.6315789473684,4,3,3,35,0,0
74079,-52.6315789473684,4,3,4,12,0,0
74124,-52.6315789473684,4,3,3,35,0,0
74793,-52.6315789473684,4,3,3,35,0,0
77293,-52.6315789473684,4,3,3,45,0,0
77650,-52.6315789473684,4,3,3,35,0,0
78722,-66.6666666666667,4,3,3,35,0,0
79436,-100,4,3,3,35,0,0
80508,-100,4,3,3,35,0,0
81222,-66.6666666666667,4,3,3,30,0,0
83008,-66.6666666666667,4,3,3,55,0,0
83365,-66.6666666666667,4,3,3,35,0,0
86222,-66.6666666666667,4,3,3,35,0,0
88722,-66.6666666666667,4,3,3,55,0,0
89079,-66.6666666666667,4,3,3,35,0,0
89793,-50,4,3,3,80,0,0
89972,-100,4,3,3,35,0,0
90150,-66.6666666666667,4,3,3,55,0,0
91579,-22.2222222222222,4,2,3,65,0,1
93722,-25,4,2,3,65,0,1
93900,-25,4,2,3,20,0,1
94436,-22.2222222222222,4,2,3,65,0,1
94704,-25,4,2,3,65,0,1
107606,-25,4,2,4,65,0,1
107695,-25,4,2,3,65,0,1
111311,-25,4,1,2,20,0,1
111579,-25,4,2,4,65,0,0
111936,-25,4,2,4,10,0,0
112293,-25,4,2,4,15,0,0
112650,-25,4,2,4,20,0,0
113008,-25,4,2,4,25,0,0
113365,-25,4,2,4,30,0,0
113722,-25,4,2,3,40,0,1
114436,-25,4,2,3,80,0,1
114659,-25,4,2,3,70,0,1
123008,-25,4,2,4,70,0,1
125031,-25,4,2,3,70,0,1
130508,-25,4,2,4,70,0,1
130552,-25,4,2,3,70,0,1
133900,-25,4,2,3,70,0,1
133960,-25,4,2,3,60,0,1
134020,-25,4,2,3,50,0,1
134079,-25,4,2,3,40,0,1
134139,-25,4,2,3,35,0,1
134198,-25,4,2,3,30,0,1
134258,-25,4,2,3,25,0,1
134317,-100,4,2,3,20,0,1
134436,-12.5,4,3,3,21,0,0
134570,-12.5,4,3,3,21,0,0
134704,-12.5,4,3,3,21,0,0
134793,-12.5,4,3,3,21,0,0
134883,-25,4,3,3,21,0,0
134972,-25,4,3,3,21,0,0
135061,-25,4,3,3,21,0,0
135150,-25,4,3,3,20,0,0
135329,-100,4,3,3,25,0,0
135508,-100,4,3,3,30,0,0
135686,-100,4,3,3,35,0,0
135865,-100,4,3,3,40,0,0
136043,-100,4,3,3,45,0,0
136222,-100,4,3,3,50,0,0
136341,-100,4,3,3,55,0,0
136460,-100,4,3,3,60,0,0
136579,-100,4,3,3,70,0,0
136698,-100,4,3,3,25,0,0
137293,-100,4,2,3,15,0,0
138008,-100,4,2,3,5,0,0
138186,-100,4,2,3,15,0,0
143722,-100,4,2,3,5,0,0
143900,-100,4,2,3,15,0,0
148008,-36.3636363636364,4,3,3,25,0,0
150031,-36.3636363636364,4,3,3,30,0,0
150389,-50,4,3,3,30,0,0
157650,-100,4,3,3,35,0,0
158008,-100,4,3,3,45,0,0
158275,-100,4,3,3,50,0,0
158543,-100,4,3,3,55,0,0
158722,-100,4,3,3,60,0,0
158900,-100,4,3,3,65,0,0
159079,-100,4,3,3,70,0,0
159258,-100,4,3,3,75,0,0
159436,-100,4,3,3,15,0,0
159793,-100,4,2,0,80,0,0
160150,-100,4,2,0,40,0,0
160865,-100,4,2,0,20,0,0
161579,-100,4,2,0,10,0,0
162293,-100,4,2,0,5,0,0

[Colours]
Combo1 : 112,143,134
Combo2 : 108,95,94
Combo3 : 117,124,155
Combo4 : 145,118,148

[HitObjects]
368,80,10865,5,0,0:0:0:0:
392,83,10909,1,0,0:0:0:0:
422,92,10954,1,0,0:0:0:0:
446,110,10999,1,0,0:0:0:0:
469,134,11043,1,0,0:0:0:0:
484,163,11088,1,0,0:0:0:0:
493,200,11133,1,0,0:0:0:0:
498,245,11177,1,0,0:0:0:0:
493,291,11222,1,0,0:0:0:0:
474,330,11267,1,0,0:0:0:0:
446,359,11311,1,0,0:0:0:0:
409,380,11356,1,0,0:0:0:0:
369,384,11400,1,0,0:0:0:0:
326,384,11445,1,0,0:0:0:0:
277,384,11490,1,0,0:0:0:0:
187,205,11579,5,0,3:0:0:0:
131,209,11698,1,0,0:0:0:0:
187,205,11817,1,0,0:0:0:0:
343,206,11936,1,0,0:0:0:0:
392,205,12055,1,0,0:0:0:0:
343,206,12174,1,0,0:0:0:0:
131,209,12293,6,0,L|165:130,1,59.9999984105428,8|0,2:1|0:0,0:0:0:0:
196,208,12412,1,0,0:0:0:0:
259,208,12531,1,0,0:0:0:0:
379,209,12650,1,0,0:0:0:0:
314,207,12770,1,0,0:0:0:0:
379,209,12889,1,0,0:0:0:0:
450,209,13008,5,0,0:0:0:0:
402,214,13127,1,0,0:0:0:0:
215,176,13186,2,0,L|176:116,2,59.9999984105428,8|0|0,2:1|0:0|0:0,0:0:0:0:
286,175,13365,1,0,0:0:0:0:
356,113,13484,1,0,0:0:0:0:
280,46,13603,1,0,0:0:0:0:
187,43,13722,6,0,L|315:45,1,119.999996821086,0|0,0:0|0:0,0:0:0:0:
368,47,13960,1,0,0:0:0:0:
135,191,14079,2,0,L|58:191,1,59.9999984105428,8|0,2:1|0:0,0:0:0:0:
176,193,14198,1,0,0:0:0:0:
290,192,14317,1,0,0:0:0:0:
71,190,14436,5,0,0:0:0:0:
15,194,14555,1,0,0:0:0:0:
71,190,14674,1,0,0:0:0:0:
227,191,14793,1,0,0:0:0:0:
276,190,14912,1,0,0:0:0:0:
227,191,15031,1,0,0:0:0:0:
15,195,15150,6,0,L|46:134,1,59.9999984105428,8|0,2:1|0:0,0:0:0:0:
80,193,15269,1,0,0:0:0:0:
143,193,15388,1,0,0:0:0:0:
263,194,15507,1,0,0:0:0:0:
198,192,15627,1,0,0:0:0:0:
263,194,15746,1,0,0:0:0:0:
334,194,15865,5,0,0:0:0:0:
286,199,15984,1,0,0:0:0:0:
106,162,16043,2,0,L|35:162,2,59.9999984105428,8|0|0,2:1|0:0|0:0,0:0:0:0:
170,160,16222,1,0,0:0:0:0:
74,83,16341,1,0,0:0:0:0:
176,51,16460,1,0,0:0:0:0:
308,50,16579,5,0,0:0:0:0:
360,72,16639,1,0,0:0:0:0:
392,111,16698,1,0,0:0:0:0:
395,176,16758,1,0,0:0:0:0:
364,229,16817,1,0,0:0:0:0:
309,254,16877,1,0,0:0:0:0:
161,52,16936,5,8,2:1:0:0:
109,74,16996,1,0,0:0:0:0:
77,113,17055,1,0,0:0:0:0:
74,178,17115,1,0,0:0:0:0:
105,231,17174,1,0,0:0:0:0:
160,256,17234,1,0,0:0:0:0:
228,259,17293,5,0,0:0:0:0:
124,263,17412,1,0,0:0:0:0:
29,266,17531,1,0,0:0:0:0:
167,262,17650,1,0,0:0:0:0:
271,266,17769,1,0,0:0:0:0:
366,269,17888,1,0,0:0:0:0:
162,235,18008,6,0,L|173:152,1,59.9999984105428,8|0,2:1|0:0,0:0:0:0:
220,235,18127,1,0,0:0:0:0:
345,269,18246,1,0,0:0:0:0:
151,259,18365,1,0,0:0:0:0:
255,263,18484,1,0,0:0:0:0:
151,259,18603,1,0,0:0:0:0:
255,263,18722,5,0,0:0:0:0:
358,224,18841,1,0,0:0:0:0:
413,229,18900,2,0,L|454:185,1,59.9999984105428,8|0,2:1|0:0,0:0:0:0:
196,110,19079,1,0,0:0:0:0:
143,161,19198,1,0,0:0:0:0:
155,209,19258,1,0,0:0:0:0:
194,226,19317,1,0,0:0:0:0:
291,230,19436,5,0,0:0:0:0:
84,227,19555,1,0,0:0:0:0:
45,200,19614,1,0,0:0:0:0:
86,173,19674,1,0,0:0:0:0:
216,148,19793,1,8,2:1:0:0:
292,145,19853,1,0,0:0:0:0:
292,145,19912,2,0,L|224:147,1,59.9999984105428,0|0,0:0|0:0,0:0:0:0:
155,149,20031,1,0,0:0:0:0:
262,146,20150,5,0,0:0:0:0:
297,164,20210,1,0,0:0:0:0:
309,214,20270,1,0,0:0:0:0:
296,245,20329,1,0,0:0:0:0:
265,268,20389,1,0,0:0:0:0:
82,150,20508,1,0,0:0:0:0:
35,218,20628,1,0,0:0:0:0:
79,272,20747,1,0,0:0:0:0:
198,270,20865,5,0,0:0:0:0:
265,247,20944,1,0,0:0:0:0:
295,180,21024,1,0,0:0:0:0:
216,155,21103,1,0,0:0:0:0:
151,110,21182,1,0,0:0:0:0:
128,28,21262,1,0,0:0:0:0:
224,25,21341,1,0,0:0:0:0:
312,27,21420,1,0,0:0:0:0:
362,97,21500,1,0,0:0:0:0:
202,93,21579,5,0,0:0:0:0:
161,124,21639,1,0,0:0:0:0:
141,167,21698,1,0,0:0:0:0:
134,223,21758,1,0,0:0:0:0:
147,278,21817,1,0,0:0:0:0:
174,317,21877,1,0,0:0:0:0:
235,99,21936,1,0,0:0:0:0:
295,127,21996,1,0,0:0:0:0:
340,174,22055,1,0,0:0:0:0:
298,218,22115,1,0,0:0:0:0:
243,244,22174,1,0,0:0:0:0:
183,262,22234,1,0,0:0:0:0:
55,274,22293,1,0,2:0:0:0:
391,77,22829,5,2,0:0:0:0:
416,75,22873,1,0,0:0:0:0:
391,77,22918,1,2,0:0:0:0:
214,33,23008,6,0,B|180:133|166:360|166:360|82:229|108:32|106:38|106:38|54:259|72:204|72:204|131:-1|131:-1|213:371|213:371|308:87|308:87|360:219|360:219|75:216|79:210|79:210|272:35|272:35|85:214|85:214|274:-2|274:-2|89:223|89:223|49:274|49:274|49:197|49:197|252:4|252:4|322:202|322:202|319:359|319:359|159:151|159:151|137:-12|137:-12|81:349|81:349|259:142|259:142|340:29|340:29|425:88|430:366|430:366|479:136|477:47|477:47|269:-89|269:-89|166:193|166:193|95:-19|95:-19|33:237|33:237|192:-14|192:-14|387:284,1,7560.00008811951,4|0,1:3|0:0,0:0:0:0:
169,264,28186,2,0,L|24:26,1,270.000003147125,0|2,0:0|0:0,0:0:0:0:
180,15,28499,2,0,L|218:13,1,22.4999994039536
272,311,28722,6,0,B|190:240|176:13|176:13|92:144|118:341|116:335|116:335|64:114|82:169|82:169|141:374|141:374|223:2|223:2|318:286|318:286|370:154|370:154|85:157|89:163|89:163|281:340|281:340|95:159|95:159|13:422|13:422|99:150|99:150|59:99|59:99|59:176|59:176|262:369|262:369|332:171|332:171|329:14|329:14|169:222|169:222|147:385|147:385|91:24|91:24|269:231|269:231|350:344|350:344|435:285|440:7|440:7|489:237|487:326|487:326|283:457|283:457|171:173|171:173|69:432|69:432|131:182|131:182|326:367|326:367|343:323,1,7290.00008497239,4|0,1:3|0:0,0:0:0:0:
419,26,33722,2,0,L|476:27,8,33.7500003933907,0|0|0|0|0|0|0|0|0,3:2|0:0|0:0|0:0|0:0|0:0|0:0|0:0|0:0,0:0:0:0:
385,25,34124,2,0,L|338:25,5,33.7500003933907,0|2|0|0|0|0,0:0|3:1|0:0|0:0|0:0|0:0,0:0:0:0:
304,26,34392,1,0,0:0:0:0:
184,40,34436,6,0,B|118:132|148:361|148:361|74:233|100:36|98:42|98:42|46:263|64:208|64:208|123:3|123:3|205:375|205:375|300:91|300:91|352:223|352:223|67:220|71:214|71:214|264:39|264:39|77:218|77:218|266:2|266:2|81:227|81:227|41:278|41:278|41:201|41:201|244:8|244:8|314:206|314:206|311:363|311:363|151:155|151:155|129:-8|129:-8|73:353|73:353|251:146|251:146|332:33|332:33|417:92|422:370|422:370|471:140|469:51|469:51|265:-80|265:-80|153:204|153:204|51:-55|51:-55|113:195|113:195|308:10|308:10|325:54,1,7290.00008497239,4|0,1:3|0:0,0:0:0:0:
432,29,39436,1,0,0:0:0:0:
482,32,39496,1,0,0:0:0:0:
274,112,39615,1,0,0:0:0:0:
251,132,39674,1,0,0:0:0:0:
274,147,39734,1,0,0:0:0:0:
304,176,39793,1,2,0:0:0:0:
317,219,39853,1,2,0:0:0:0:
306,270,39912,1,2,0:0:0:0:
273,313,39972,1,2,0:0:0:0:
228,341,40031,1,2,0:0:0:0:
178,359,40091,1,2,0:0:0:0:
35,360,40150,6,0,B|37:201|118:6|118:6|219:382|219:382|295:-33|295:-33|370:383|370:383|427:-47|427:-47|151:-42|151:-42|304:201|304:201|150:-38|150:-38|307:203|307:203|149:-38|149:-38|393:51|477:377|477:377|340:95|340:95|52:100|52:100|130:371|130:371|50:98|50:98|154:366|154:366|45:89|45:89|144:368|144:368|50:86|50:86|161:329|161:329|330:90|330:90|177:332|177:332|334:97|334:97|199:236|165:331|165:331|297:78|343:26|343:26,1,8063.99978637696,4|0,1:3|0:0,0:0:0:0:
478,42,45329,6,0,P|498:88|474:178,1,135.000001573563
431,171,45567,1,0,0:0:0:0:
371,171,45627,1,0,0:0:0:0:
308,170,45686,1,0,0:0:0:0:
235,172,45746,1,0,0:0:0:0:
77,137,45865,5,0,1:0:0:0:
211,133,45984,1,0,1:0:0:0:
320,373,46103,2,0,B|219:200|219:200|219:132|219:132|221:450|221:450|220:508|220:508|219:369|219:369|220:483|220:483|205:352|205:352|-7:354,1,1199.99996821086,0|12,1:0|1:3,0:0:0:0:
231,185,46936,1,0,0:0:0:0:
304,188,47055,2,0,L|387:187,1,59.9999984105428
322,84,47293,2,0,B|57:84|57:84|91:178,1,360.000004196167,4|0,0:3|0:0,0:0:0:0:
196,292,47888,1,0,0:0:0:0:
296,287,48007,2,0,P|390:252|436:-90,1,450.000005245209,8|0,1:3|0:0,0:0:0:0:
265,181,48722,5,4,0:3:0:0:
447,179,49079,6,0,L|384:177,3,53.9999969215394,2|0|0|0,0:0|0:0|0:0|0:0,0:0:0:0:
173,173,49436,1,8,1:3:0:0:
356,176,49793,2,0,L|285:173,3,53.9999969215394,2|0|0|0,0:0|0:0|0:0|0:0,0:0:0:0:
85,172,50150,1,4,0:3:0:0:
333,268,50508,5,2,0:0:0:0:
376,230,50552,1,0,0:0:0:0:
403,177,50597,1,0,0:0:0:0:
374,130,50642,1,0,0:0:0:0:
331,104,50686,1,2,0:0:0:0:
280,134,50731,1,0,0:0:0:0:
251,181,50775,1,0,0:0:0:0:
278,234,50820,1,0,0:0:0:0:
333,268,50865,5,8,1:3:0:0:
66,87,51043,2,0,L|157:163,2,90.0000010490418,0|0|0,0:0|0:0|0:0,0:0:0:0:
175,98,51400,1,0,0:0:0:0:
337,71,51579,6,0,P|246:71|339:216,1,360.000004196167,4|0,1:0|0:0,0:0:0:0:
466,77,52174,1,0,0:0:0:0:
231,65,52293,2,0,P|109:77|108:290,1,360.000004196167,8|0,1:3|0:0,0:0:0:0:
196,292,52889,1,0,0:0:0:0:
322,84,53008,2,0,B|57:84|57:84|84:208,1,360.000004196167,4|0,0:3|0:0,0:0:0:0:
196,292,53603,1,0,0:0:0:0:
335,296,53722,2,0,P|426:260|521:29,1,360.000004196167,8|0,1:3|0:0,0:0:0:0:
91,196,54436,5,4,0:3:0:0:
352,121,54793,2,0,L|428:119,2,45.0000005245209,2|0|0,0:0|0:0|0:0,0:0:0:0:
212,123,54972,2,0,L|133:125,1,45.0000005245209,2|0,0:0|0:0,0:0:0:0:
213,221,55091,1,0,0:0:0:0:
257,225,55150,6,0,P|311:228|452:232,1,180.000002098084,8|0,1:3|0:0,0:0:0:0:
209,122,55508,2,0,L|211:169,2,45.0000005245209,2|0|0,0:0|0:0|0:0,0:0:0:0:
103,85,55746,1,0,0:0:0:0:
30,77,55865,2,0,L|26:295,1,180.000002098084,8|0,1:3|0:0,0:0:0:0:
160,272,56222,1,2,0:0:0:0:
434,351,56579,6,0,P|492:154|436:10,1,359.999990463257,12|0,1:3|0:0,0:0:0:0:
387,85,56996,1,0,0:0:0:0:
349,112,57055,1,0,0:0:0:0:
352,164,57115,1,0,0:0:0:0:
386,202,57174,1,0,0:0:0:0:
436,209,57234,1,0,0:0:0:0:
280,216,57293,6,0,B|81:104|81:104|57:344,1,455.999975743613,4|0,1:0|0:0,0:0:0:0:
162,15,57889,1,0,0:0:0:0:
262,25,58008,2,0,B|435:24|435:24|257:28|257:28|255:150,1,455.999975743613,8|0,1:3|0:0,0:0:0:0:
351,27,58603,1,0,0:0:0:0:
133,23,58722,6,0,P|28:124|141:378,1,455.999975743613,4|0,0:3|0:0,0:0:0:0:
248,359,59317,1,0,0:0:0:0:
357,43,59436,1,10,1:3:0:0:
14,55,59793,1,0,0:0:0:0:
121,60,59912,1,0,0:0:0:0:
213,65,60031,1,0,0:0:0:0:
28,357,60150,1,4,0:3:0:0:
265,75,60508,5,2,0:0:0:0:
319,94,60567,1,2,0:0:0:0:
346,134,60627,1,2,0:0:0:0:
319,161,60686,1,2,0:0:0:0:
266,187,60746,1,2,0:0:0:0:
192,200,60805,1,2,0:0:0:0:
53,42,60865,2,0,L|51:384,1,341.999981807709,8|2,1:3|0:1,0:0:0:0:
79,342,61281,5,0,0:0:0:0:
117,294,61341,1,0,0:0:0:0:
161,248,61400,1,2,0:0:0:0:
223,217,61460,1,0,0:0:0:0:
293,209,61520,1,0,0:0:0:0:
368,209,61579,1,4,0:3:0:0:
489,109,61758,1,2,0:0:0:0:
489,33,61936,5,2,0:0:0:0:
431,34,61981,1,2,0:0:0:0:
376,48,62025,1,2,0:0:0:0:
336,83,62070,1,2,0:0:0:0:
314,132,62115,1,2,0:0:0:0:
335,186,62159,1,2,0:0:0:0:
385,214,62204,1,2,0:0:0:0:
195,270,62293,2,0,B|24:265|24:265|27:80,1,341.999981807709,8|0,1:3|0:0,0:0:0:0:
181,85,62829,1,0,0:0:0:0:
342,208,63008,6,0,P|274:192|364:-67,1,455.999975743613,4|0,1:0|0:0,0:0:0:0:
448,3,63603,1,0,0:0:0:0:
254,284,63722,2,0,P|186:268|276:9,1,455.999975743613,8|0,1:3|0:0,0:0:0:0:
360,11,64317,1,0,0:0:0:0:
164,19,64436,2,0,B|78:164|78:164|109:379,1,341.999981807709,4|2,0:3|0:0,0:0:0:0:
391,344,65150,1,8,1:3:0:0:
47,195,65508,1,6,0:0:0:0:
248,26,65865,5,4,1:0:0:0:
318,55,65984,1,0,0:0:0:0:
352,116,66103,1,0,0:0:0:0:
351,182,66222,1,0,0:0:0:0:
317,232,66341,1,0,0:0:0:0:
247,262,66460,1,0,0:0:0:0:
396,278,66579,5,8,1:3:0:0:
319,251,66698,1,2,0:0:0:0:
276,193,66817,1,2,0:3:0:0:
277,127,66936,1,2,0:3:0:0:
319,79,67055,1,2,0:3:0:0:
407,51,67174,1,2,0:0:0:0:
296,63,67293,5,4,0:3:0:0:
342,67,67353,1,0,0:0:0:0:
379,85,67412,1,0,0:0:0:0:
402,119,67472,1,0,0:0:0:0:
408,163,67531,1,0,0:0:0:0:
384,209,67591,1,0,0:0:0:0:
264,182,67650,5,4,0:3:0:0:
230,209,67710,1,0,0:0:0:0:
211,244,67770,1,0,0:0:0:0:
225,288,67829,1,0,0:0:0:0:
251,312,67889,1,0,0:0:0:0:
292,333,67948,1,0,0:0:0:0:
357,343,68008,6,0,L|89:342,2,227.999987871806,12|4|12,1:3|0:3|1:3,0:0:0:0:
46,325,68722,2,0,L|66:263,5,56.9999969679516,4|0|0|0|0|0,0:0|0:0|0:0|0:0|0:0|0:0,0:0:0:0:
31,194,69079,5,0,1:0:0:0:
136,194,69168,1,0,0:0:0:0:
177,230,69258,1,0,0:0:0:0:
135,269,69347,1,0,0:0:0:0:
32,272,69436,1,8,0:1:0:0:
208,272,69615,1,0,1:0:0:0:
380,273,69793,6,0,L|293:272,2,85.4999954519273,0|0|0,0:0|0:0|0:0,0:0:0:0:
208,272,70150,2,0,L|38:272,2,113.999993935903,0|0|0,0:0|0:0|0:0,0:0:0:0:
322,271,70508,2,0,L|424:273,2,85.4999954519273,0|0|0,0:0|0:0|0:0,0:0:0:0:
176,214,70865,5,8,0:1:0:0:
132,173,70909,1,0,0:0:0:0:
119,109,70954,1,0,0:0:0:0:
144,33,70999,1,0,0:0:0:0:
187,201,71043,1,0,0:0:0:0:
244,209,71088,1,0,0:0:0:0:
312,199,71133,1,0,0:0:0:0:
397,49,71222,2,0,L|397:314,1,256.499986355782,0|0,0:0|0:0,0:0:0:0:
209,146,71579,5,8,0:1:0:0:
352,146,71758,1,8,0:1:0:0:
209,146,71936,1,0,1:0:0:0:
314,146,72025,1,0,0:0:0:0:
355,182,72115,1,0,0:0:0:0:
315,228,72204,1,0,0:0:0:0:
246,250,72293,1,8,0:1:0:0:
405,219,72472,1,0,1:0:0:0:
232,255,72650,6,0,L|146:255,2,85.4999954519273,0|0|0,0:0|0:0|0:0,0:0:0:0:
388,257,73007,2,0,L|483:176,2,113.999993935903,0|0|0,0:0|0:0|0:0,0:0:0:0:
271,254,73365,2,0,L|169:256,2,85.4999954519273,0|0|0,0:0|0:0|0:0,0:0:0:0:
443,36,73722,1,8,0:1:0:0:
481,83,73767,1,0,0:0:0:0:
489,141,73811,1,0,0:0:0:0:
480,202,73856,1,0,0:0:0:0:
462,249,73900,1,0,0:0:0:0:
426,295,73945,1,0,0:0:0:0:
371,325,73990,1,0,0:0:0:0:
308,341,74034,1,0,0:0:0:0:
176,341,74079,6,0,L|78:341,2,85.4999954519273,0|0|0,0:2|0:0|0:0,0:0:0:0:
227,308,74302,1,0,0:0:0:0:
243,233,74347,1,0,0:0:0:0:
207,173,74392,1,0,0:0:0:0:
79,185,74436,6,0,B|41:90|41:90|61:6,1,170.999990903855,0|0,1:0|0:0,0:0:0:0:
172,91,74793,2,0,L|262:90,3,85.4999954519273,0|0|0|0,1:0|0:0|0:0|0:0,0:0:0:0:
350,87,75150,2,0,B|462:84|462:84|484:163,1,170.999990903855,8|0,0:1|1:0,0:0:0:0:
312,161,75508,2,0,L|201:163,2,85.4999954519273,0|0|0,0:0|0:0|0:0,0:0:0:0:
470,148,75865,2,0,L|482:268,1,85.4999954519273,0|0,0:0|0:0,0:0:0:0:
394,253,76043,1,0,0:0:0:0:
198,190,76222,6,0,L|113:192,2,85.4999954519273,0|0|0,0:0|0:0|0:0,0:0:0:0:
242,183,76445,1,0,0:0:0:0:
280,139,76490,1,0,0:0:0:0:
300,76,76534,1,0,0:0:0:0:
191,45,76579,2,0,L|13:46,1,170.999990903855,8|0,0:1|0:0,0:0:0:0:
196,103,76936,1,0,0:0:0:0:
213,62,76981,1,0,0:0:0:0:
193,75,77025,1,0,0:0:0:0:
213,93,77070,1,0,0:0:0:0:
191,45,77115,1,0,0:0:0:0:
52,95,77293,6,0,L|50:278,1,170.999990903855,8|8,0:1|0:1,0:0:0:0:
241,113,77650,2,0,L|353:111,2,85.4999954519273,0|0|0,1:0|0:0|0:0,0:0:0:0:
141,114,77918,1,0,0:0:0:0:
241,113,78008,2,0,L|63:114,1,170.999990903855,8|0,0:1|1:0,0:0:0:0:
243,187,78365,2,0,L|359:185,1,85.4999954519273,0|0,0:0|0:0,0:0:0:0:
414,186,78543,1,0,0:0:0:0:
282,329,78722,6,0,L|166:328,2,101.250001180172,0|0|0,0:0|0:0|0:0,0:0:0:0:
390,327,79079,2,0,L|495:328,2,101.250001180172,8|0|0,0:1|0:0|0:0,0:0:0:0:
236,302,79436,5,8,0:1:0:0:
193,289,79496,1,0,0:0:0:0:
155,264,79555,1,0,0:0:0:0:
143,223,79615,1,0,0:0:0:0:
157,178,79674,1,0,0:0:0:0:
196,143,79734,1,0,0:0:0:0:
244,123,79793,1,8,0:2:0:0:
294,94,79853,1,0,0:0:0:0:
317,43,79912,1,0,0:0:0:0:
298,2,79972,1,0,0:0:0:0:
246,0,80031,1,0,0:0:0:0:
183,2,80091,1,0,0:0:0:0:
70,8,80150,6,0,L|8:67,2,67.5000007867814,0|0|0,0:0|0:0|0:0,0:0:0:0:
162,4,80508,1,0,1:0:0:0:
253,8,80597,1,0,0:0:0:0:
344,12,80686,1,0,0:0:0:0:
435,15,80775,1,0,0:0:0:0:
253,8,80865,2,0,L|194:7,2,44.9999988079071,8|0|0,0:1|0:0|1:0,0:0:0:0:
435,15,81222,6,0,L|358:16,2,67.5000007867814,0|0|0,0:0|0:0|0:0,0:0:0:0:
182,18,81579,2,0,L|64:18,2,90.0000010490418,4|0|0,0:3|0:0|0:0,0:0:0:0:
302,24,81936,2,0,L|386:24,1,67.5000007867814,0|0,1:0|0:0,0:0:0:0:
185,27,82115,2,0,P|140:59|197:103,1,135.000001573563,0|8,0:0|0:1,0:0:0:0:
273,113,82383,1,0,0:0:0:0:
182,106,82472,1,0,1:0:0:0:
364,31,82650,2,0,P|408:58|352:175,1,202.500002360344,8|0,0:2|0:0,0:0:0:0:
188,27,83008,6,0,L|335:26,1,135.000001573563,8|8,0:1|0:1,0:0:0:0:
66,31,83365,2,0,L|39:103,1,67.5000007867814,0|0,1:0|0:0,0:0:0:0:
66,31,83543,1,0,0:0:0:0:
123,166,83633,1,0,0:0:0:0:
230,156,83722,2,0,L|390:152,1,135.000001573563,8|0,0:1|1:0,0:0:0:0:
243,163,84079,2,0,L|242:80,1,67.5000007867814,0|0,0:0|0:0,0:0:0:0:
71,81,84258,1,0,0:0:0:0:
267,82,84436,6,0,L|165:81,2,90.0000010490418,4|0|0,0:3|0:0|0:0,0:0:0:0:
49,74,84793,2,0,L|47:134,1,33.7500003933907,0|0,1:0|0:0,0:0:0:0:
38,77,84883,1,0,0:0:0:0:
143,110,84972,1,0,0:0:0:0:
301,106,85150,2,0,L|441:107,1,135.000001573563,8|0,0:1|1:0,0:0:0:0:
134,44,85508,5,8,0:2:0:0:
96,45,85552,1,0,0:0:0:0:
87,67,85597,1,0,0:0:0:0:
79,102,85642,1,0,0:0:0:0:
72,129,85686,1,0,1:0:0:0:
64,164,85731,1,0,0:0:0:0:
111,185,85775,1,0,0:0:0:0:
227,109,85865,2,0,L|271:109,1,33.7500003933907,0|0,1:0|0:0,0:0:0:0:
245,138,85954,2,0,L|286:137,1,33.7500003933907,0|0,0:0|0:0,0:0:0:0:
268,172,86043,2,0,L|307:171,1,33.7500003933907,0|0,0:0|0:0,0:0:0:0:
286,208,86133,1,0,0:0:0:0:
184,209,86222,6,0,L|90:214,2,67.5000007867814,0|0|0,1:0|0:0|0:0,0:0:0:0:
26,215,86490,1,0,0:0:0:0:
115,203,86579,2,0,P|153:164|131:141,1,67.5000007867814,8|0,0:1|0:0,0:0:0:0:
44,111,86758,2,0,L|22:47,1,67.5000007867814,0|0,1:0|0:0,0:0:0:0:
90,67,86936,2,0,L|136:64,1,33.7500003933907,0|0,0:0|0:0,0:0:0:0:
175,65,87025,2,0,L|229:62,1,33.7500003933907,0|0,0:0|0:0,0:0:0:0:
90,67,87115,6,0,L|-5:67,2,67.5000007867814,0|0|4,0:0|0:0|0:3,0:0:0:0:
211,72,87412,1,0,0:0:0:0:
331,74,87531,1,0,0:0:0:0:
414,64,87650,2,0,L|333:66,2,67.5000007867814,0|0|0,1:0|0:0|0:0,0:0:0:0:
191,63,88008,2,0,L|108:63,2,67.5000007867814,8|0|0,0:1|0:0|1:0,0:0:0:0:
353,70,88365,2,0,L|380:229,1,135.000001573563,8|4,0:2|0:3,0:0:0:0:
83,222,88722,1,8,0:1:0:0:
379,242,89079,6,0,L|424:172,2,67.5000007867814,0|0|0,1:0|0:0|0:0,0:0:0:0:
311,242,89347,2,0,L|221:243,1,67.5000007867814,0|8,0:0|0:1,0:0:0:0:
378,231,89615,1,0,1:0:0:0:
45,244,89793,2,0,L|98:171,3,89.9999976158143,0|0|0|0,0:0|0:0|0:0|0:0,0:0:0:0:
190,176,90150,1,0,1:0:0:0:
256,192,90508,12,0,91043,0:0:0:0:
256,192,91222,12,0,91400,0:0:0:0:
485,274,91579,6,0,B|188:3|188:3|272:197|272:197,1,607.500007081032,4|4,1:0|0:3,0:0:0:0:
485,274,92115,2,0,B|254:76|254:76|154:-12|154:-12,1,405.000004720688,4|8,0:3|1:3,0:0:0:0:
465,204,92650,2,0,B|158:-7|158:-7|246:224|246:224,1,607.500007081032,4|4,1:0|0:3,0:0:0:0:
467,56,93186,6,0,B|185:355|185:355|137:393|137:393,1,405.000004720688,4|4,0:3|0:3,0:0:0:0:
43,358,93543,2,0,L|255:14,1,405.000004720688,4|8,0:3|1:3,0:0:0:0:
154,340,93900,1,12,0:0:0:0:
107,288,93945,1,0,0:0:0:0:
95,212,93990,1,0,0:0:0:0:
117,138,94034,1,0,0:0:0:0:
148,73,94079,1,0,0:0:0:0:
193,26,94124,1,0,0:0:0:0:
238,0,94168,1,0,0:0:0:0:
279,0,94213,1,0,0:0:0:0:
325,0,94258,1,0,0:0:0:0:
364,0,94302,1,0,0:0:0:0:
408,5,94347,1,0,0:0:0:0:
446,27,94392,1,0,0:0:0:0:
485,274,94436,6,0,B|188:3|188:3|258:158|258:158,1,540.000006294251,4|4,1:0|0:3,0:0:0:0:
485,274,94972,2,0,B|254:73|254:73|164:-9|164:-9,1,359.999990463257,4|8,0:3|1:3,0:0:0:0:
243,92,95240,1,2,0:0:0:0:
318,93,95329,1,2,0:0:0:0:
243,92,95418,1,2,0:0:0:0:
318,93,95508,2,0,B|14:12|14:12|15:281|15:281,1,539.999985694885,4|4,1:0|0:3,0:0:0:0:
284,20,96044,6,0,B|18:243|18:243|74:259|74:259,1,359.999990463257,4|4,0:3|0:3,0:0:0:0:
200,287,96400,1,4,0:3:0:0:
373,277,96579,5,8,1:3:0:0:
121,28,96758,1,12,0:0:0:0:
77,44,96802,1,0,0:0:0:0:
50,72,96847,1,0,0:0:0:0:
36,110,96892,1,0,0:0:0:0:
32,142,96936,1,0,0:0:0:0:
36,110,96981,1,0,0:0:0:0:
50,72,97025,1,0,0:0:0:0:
77,44,97070,1,0,0:0:0:0:
121,28,97115,1,0,0:0:0:0:
157,26,97159,1,0,0:0:0:0:
194,26,97204,1,0,0:0:0:0:
244,27,97249,1,0,0:0:0:0:
300,30,97293,6,0,B|37:280|37:280|117:57,1,539.999985694885,4|4,1:0|0:3,0:0:0:0:
300,30,97829,6,0,B|34:253|34:253|90:269|90:269,1,359.999990463257,4|8,0:3|1:3,0:0:0:0:
336,44,98365,2,0,B|73:294|73:294|153:71,1,539.999985694885,4|4,1:0|0:3,0:0:0:0:
336,44,98901,2,0,B|70:267|70:267|126:283|126:283,1,359.999990463257,4|4,0:3|0:3,0:0:0:0:
219,198,99258,1,4,0:3:0:0:
358,191,99436,5,8,1:3:0:0:
398,190,99481,1,0,0:0:0:0:
424,189,99525,1,0,0:0:0:0:
442,189,99570,1,0,0:0:0:0:
453,189,99615,1,14,0:0:0:0:
458,187,99659,1,0,0:0:0:0:
458,187,99704,1,0,0:0:0:0:
453,189,99748,1,0,0:0:0:0:
437,186,99793,1,0,0:0:0:0:
409,193,99853,1,0,0:0:0:0:
370,187,99912,1,0,0:0:0:0:
326,192,99972,2,0,L|260:73,1,119.999996821086,2|2,0:0|0:0,0:0:0:0:
209,85,100091,1,2,0:0:0:0:
133,76,100150,6,0,L|321:383,1,359.999990463257,4|0,1:0|0:0,0:0:0:0:
255,81,100418,1,2,0:0:0:0:
72,355,100686,2,0,L|276:30,1,359.999990463257,6|0,0:3|0:0,0:0:0:0:
144,65,100954,1,2,0:0:0:0:
290,361,101222,2,2,L|484:38,1,359.999990463257,6|0,0:3|0:0,0:0:0:0:
304,57,101490,1,2,0:0:0:0:
465,193,101758,2,0,B|274:-6|274:-6|212:100,1,359.999990463257,6|0,0:3|0:0,0:0:0:0:
218,82,102025,2,0,B|298:341|298:341|335:231,1,359.999990463257,2|0,0:0|0:0,0:0:0:0:
146,84,102293,5,2,0:1:0:0:
105,98,102338,1,0,0:1:0:0:
87,143,102383,1,0,0:1:0:0:
110,175,102427,1,0,0:0:0:0:
148,287,102472,2,0,B|316:-31|316:-31|448:232|448:232|449:316,1,719.999980926514,12|2,1:3|0:0,0:0:0:0:
343,340,103008,6,0,L|176:14,1,359.999990463257,4|0,1:0|0:0,0:0:0:0:
252,341,103275,2,0,L|419:15,1,359.999990463257,4|0,0:3|0:0,0:0:0:0:
250,22,103543,1,4,0:3:0:0:
71,27,103722,1,8,1:3:0:0:
155,24,103841,2,0,L|155:309,1,239.999993642171,2|2,0:0|0:0,0:0:0:0:
34,255,104079,6,0,L|210:-70,1,359.999990463257,4|0,1:0|0:0,0:0:0:0:
147,25,104347,2,0,L|299:361,1,359.999990463257,4|0,0:3|0:0,0:0:0:0:
386,342,104615,2,0,L|30:189,1,359.999990463257,4|4,0:3|0:3,0:0:0:0:
165,166,104972,1,4,0:3:0:0:
345,163,105150,1,8,1:3:0:0:
56,59,105329,5,12,0:0:0:0:
44,79,105374,1,0,0:0:0:0:
39,122,105418,1,0,0:0:0:0:
48,151,105463,1,0,0:0:0:0:
73,172,105508,1,0,0:0:0:0:
111,182,105552,1,0,0:0:0:0:
151,175,105597,1,0,0:0:0:0:
194,152,105642,1,0,0:0:0:0:
240,119,105686,1,0,0:0:0:0:
250,96,105731,1,0,0:0:0:0:
240,119,105775,1,0,0:0:0:0:
189,151,105820,1,0,0:0:0:0:
93,57,105865,6,0,L|273:377,1,359.999990463257,4|0,1:0|0:0,0:0:0:0:
360,374,106133,2,0,L|197:29,1,359.999990463257,4|0,0:3|0:0,0:0:0:0:
26,68,106400,1,4,0:3:0:0:
201,57,106579,2,0,L|263:227,1,119.999996821086,10|0,1:3|0:0,0:0:0:0:
290,194,106698,2,0,B|305:335|305:335|290:196,1,239.999993642171,2|2,0:0|0:0,0:0:0:0:
48,202,106936,6,0,B|160:-6|160:-6|224:116,1,359.999990463257,4|0,1:0|0:0,0:0:0:0:
290,194,107204,2,0,B|186:-13|186:-13|131:110,1,359.999990463257,4|0,0:3|0:0,0:0:0:0:
210,20,107472,2,0,B|366:343|366:343|40:195,1,719.999980926514,4|4,0:3|0:3,0:0:0:0:
210,20,108008,1,8,1:3:0:0:
353,19,108186,1,12,0:0:0:0:
377,36,108231,1,0,0:0:0:0:
353,50,108275,1,0,0:0:0:0:
384,62,108320,1,0,0:0:0:0:
345,83,108365,1,0,0:0:0:0:
377,104,108409,1,0,0:0:0:0:
333,122,108454,1,0,0:0:0:0:
367,146,108499,1,0,0:0:0:0:
327,176,108543,1,0,0:0:0:0:
348,188,108588,1,0,0:0:0:0:
313,224,108633,1,0,0:0:0:0:
273,251,108677,1,0,0:0:0:0:
150,368,108722,6,0,L|35:15,1,359.999990463257,4|0,1:0|0:0,0:0:0:0:
106,324,108989,2,0,L|273:-2,1,359.999990463257,4|0,0:3|0:0,0:0:0:0:
86,6,109257,1,4,0:3:0:0:
263,25,109436,1,8,1:3:0:0:
302,46,109481,1,0,0:0:0:0:
296,88,109525,1,0,0:0:0:0:
336,97,109570,1,0,0:0:0:0:
323,148,109615,1,2,0:0:0:0:
348,183,109659,1,0,0:0:0:0:
325,213,109704,1,0,0:0:0:0:
106,324,109793,6,0,L|241:-28,1,359.999990463257,4|0,1:0|0:0,0:0:0:0:
312,42,110061,2,0,L|5:265,1,359.999990463257,4|0,0:3|0:0,0:0:0:0:
78,319,110329,2,0,L|233:-55,2,359.999990463257,4|4|4,0:3|0:3|0:3,0:0:0:0:
258,310,110865,1,8,1:3:0:0:
304,299,110909,1,0,0:0:0:0:
342,258,110954,1,0,0:0:0:0:
364,213,110999,1,0,0:0:0:0:
351,162,111043,1,14,0:0:0:0:
318,127,111088,1,0,0:0:0:0:
280,105,111133,1,0,0:0:0:0:
235,109,111177,1,0,0:0:0:0:
190,140,111222,1,0,0:0:0:0:
165,198,111267,1,0,0:0:0:0:
176,260,111311,1,0,0:0:0:0:
208,301,111356,1,0,0:0:0:0:
254,328,111400,1,0,0:0:0:0:
304,345,111445,1,0,0:0:0:0:
358,347,111490,1,0,0:0:0:0:
427,51,111579,6,0,B|335:89|295:371|295:371|241:13|241:13|311:372|311:372|228:18|228:18|325:367|325:367|213:30|213:30|339:360|339:360|194:30|194:30|356:353|356:353|181:40|181:40|374:346|374:346|48:185,1,4319.99988555908,4|8,0:3|3:2,0:0:0:0:
107,42,113900,1,2,0:0:0:0:
202,332,114079,1,6,0:0:0:0:
357,39,114258,1,0,0:0:0:0:
477,41,114436,6,0,B|259:339|259:339|259:206,1,479.999987284343,4|4,1:0|0:3,0:0:0:0:
51,130,114883,1,0,0:0:0:0:
18,185,114972,1,4,0:3:0:0:
253,164,115329,2,0,B|227:71|227:71|198:159,1,179.999995231629,2|2,0:0|0:0,0:0:0:0:
35,41,115508,2,0,B|253:339|253:339|254:215,1,479.999987284343,4|4,1:0|0:3,0:0:0:0:
451,130,115954,1,0,0:0:0:0:
494,185,116044,1,4,0:3:0:0:
319,192,116222,2,0,B|171:4|171:4|60:59,1,359.999990463257,4|4,0:3|0:3,0:0:0:0:
206,173,116579,5,10,1:3:0:0:
373,172,116758,1,10,0:0:0:0:
427,151,116847,1,2,0:0:0:0:
376,112,116936,1,2,0:0:0:0:
206,59,117025,1,2,0:0:0:0:
124,45,117115,2,0,P|134:203|182:222,1,179.999995231629,6|0,0:0|0:0,0:0:0:0:
206,59,117293,6,0,B|424:357|424:357|424:245,1,479.999987284343,4|4,1:0|0:3,0:0:0:0:
206,59,117740,1,0,0:0:0:0:
150,61,117829,1,4,0:3:0:0:
320,63,118097,2,0,L|418:220,1,179.999995231629,2|2,0:0|0:0,0:0:0:0:
415,215,118275,1,2,0:0:0:0:
243,52,118365,2,0,B|25:350|25:350|25:238,1,479.999987284343,4|4,1:0|0:3,0:0:0:0:
230,51,118811,1,0,0:0:0:0:
287,54,118900,2,0,B|24:306|24:306|170:-30,1,719.999980926514,4|4,0:3|0:3,0:0:0:0:
13,65,119436,5,8,1:3:0:0:
190,73,119615,1,12,0:0:0:0:
237,72,119659,1,0,0:0:0:0:
276,99,119704,1,0,0:0:0:0:
300,145,119749,1,0,0:0:0:0:
311,192,119793,1,0,0:0:0:0:
305,245,119838,1,0,0:0:0:0:
286,284,119883,1,0,0:0:0:0:
252,306,119927,1,0,0:0:0:0:
215,328,119972,1,0,0:0:0:0:
256,327,120017,1,0,0:0:0:0:
303,330,120061,1,0,0:0:0:0:
395,382,120150,6,0,B|194:121|194:121|189:37|189:37|194:181,1,539.999985694885,4|0,1:0|0:0,0:0:0:0:
371,23,120597,1,0,0:0:0:0:
454,23,120686,1,4,0:3:0:0:
201,26,120865,1,8,1:3:0:0:
123,26,120984,2,0,L|85:153,3,119.999996821086,2|2|2|2,0:0|0:0|0:0|0:0,0:0:0:0:
162,152,121222,1,4,1:0:0:0:
306,162,121460,2,0,B|407:363|407:363|501:194|501:194|498:187|498:187|476:149|476:149|502:189,1,479.999987284343,4|0,0:3|0:0,0:0:0:0:
450,124,121758,1,4,0:3:0:0:
164,15,121936,2,0,L|59:389,1,359.999990463257,4|4,0:3|0:3,0:0:0:0:
208,353,122293,5,8,1:3:0:0:
272,356,122353,1,0,0:0:0:0:
281,301,122412,1,0,0:0:0:0:
237,115,122471,1,14,0:0:0:0:
192,81,122531,1,0,0:0:0:0:
178,26,122591,1,0,0:0:0:0:
192,81,122650,1,0,0:0:0:0:
237,115,122710,1,0,0:0:0:0:
293,137,122769,1,0,0:0:0:0:
342,143,122829,1,2,0:0:0:0:
287,145,122888,1,2,0:0:0:0:
229,146,122948,1,2,0:0:0:0:
108,27,123008,6,0,B|257:357|257:357|110:26|110:26|260:354|260:354|442:52|442:52|91:149|91:149|183:311|183:311|259:165|259:165|197:314|197:314|107:0|107:0|60:215|60:215|175:353|175:353|247:164|247:164|51:407|51:407|172:31|172:31|174:27|174:27|171:36,1,3959.99989509583,4|8,1:0|1:3,0:0:0:0:
328,124,125150,6,0,L|377:37,2,89.9999976158143,2|0|0,0:1|0:0|0:0,0:0:0:0:
105,65,125329,2,0,B|102:375|102:375|102:323|102:323|200:-40,1,719.999980926514,8|2,1:3|0:0,0:0:0:0:
343,340,125865,6,0,L|176:14,1,359.999990463257,4|0,1:0|0:0,0:0:0:0:
252,341,126132,2,0,L|419:15,1,359.999990463257,0|0,0:0|0:0,0:0:0:0:
250,22,126400,1,4,0:3:0:0:
71,27,126579,1,8,1:3:0:0:
155,24,126698,2,0,L|155:309,1,239.999993642171,2|2,0:0|0:0,0:0:0:0:
34,255,126936,6,0,L|210:-70,1,359.999990463257,4|0,1:0|0:0,0:0:0:0:
147,25,127204,2,0,L|299:361,1,359.999990463257
386,342,127472,2,0,L|30:189,1,359.999990463257,4|4,0:3|0:3,0:0:0:0:
165,166,127829,1,4,0:3:0:0:
345,163,128007,1,10,1:3:0:0:
56,59,128186,5,0,0:0:0:0:
44,79,128231,1,0,0:0:0:0:
39,122,128275,1,0,0:0:0:0:
48,151,128320,1,0,0:0:0:0:
73,172,128365,1,2,0:0:0:0:
111,182,128409,1,0,0:0:0:0:
151,175,128454,1,2,0:0:0:0:
194,152,128499,1,0,0:0:0:0:
240,119,128543,1,2,0:0:0:0:
250,96,128588,1,0,0:0:0:0:
240,119,128632,1,0,0:0:0:0:
189,146,128677,1,0,0:0:0:0:
93,57,128722,6,0,L|273:377,1,359.999990463257,4|0,1:0|0:0,0:0:0:0:
360,374,128990,2,0,L|125:22,1,359.999990463257,0|0,0:0|0:0,0:0:0:0:
26,68,129257,1,4,0:3:0:0:
201,57,129436,2,0,L|263:227,1,119.999996821086,10|0,1:3|0:0,0:0:0:0:
290,194,129555,2,0,B|305:335|305:335|290:196,1,239.999993642171,2|2,0:0|0:0,0:0:0:0:
48,202,129793,6,0,B|160:-6|160:-6|224:116,1,359.999990463257,4|0,1:0|0:0,0:0:0:0:
290,194,130061,2,0,B|186:-13|186:-13|131:110,1,359.999990463257,0|0,0:0|0:0,0:0:0:0:
210,20,130329,2,0,B|366:343|366:343|40:195,1,719.999980926514,4|4,0:3|0:3,0:0:0:0:
210,20,130865,1,10,1:3:0:0:
353,19,131043,5,10,0:0:0:0:
377,36,131088,1,0,0:0:0:0:
353,50,131132,1,2,0:0:0:0:
384,62,131177,1,0,0:0:0:0:
345,83,131222,1,2,0:0:0:0:
377,104,131266,1,0,0:0:0:0:
333,122,131311,1,2,0:0:0:0:
367,146,131356,1,0,0:0:0:0:
327,176,131400,1,6,0:0:0:0:
348,188,131445,1,0,0:0:0:0:
313,224,131490,1,0,0:0:0:0:
273,251,131534,1,0,0:0:0:0:
150,368,131579,6,0,L|35:15,1,359.999990463257,4|0,1:0|0:0,0:0:0:0:
106,324,131846,2,0,L|273:-2,1,359.999990463257,0|0,0:0|0:0,0:0:0:0:
86,6,132114,1,4,0:3:0:0:
263,25,132293,1,10,1:3:0:0:
302,46,132338,1,0,0:0:0:0:
296,88,132382,1,0,0:0:0:0:
336,97,132427,1,0,0:0:0:0:
323,148,132472,1,2,0:0:0:0:
348,183,132516,1,0,0:0:0:0:
325,213,132561,1,0,0:0:0:0:
106,324,132650,6,0,L|241:-28,1,359.999990463257,4|0,1:0|0:0,0:0:0:0:
312,42,132918,2,0,L|5:265,1,359.999990463257,0|0,0:0|0:0,0:0:0:0:
78,319,133186,2,0,L|233:-55,3,359.999990463257,4|4|4|10,0:3|0:3|0:3|1:3,0:0:0:0:
405,12,133900,1,14,0:0:0:0:
446,32,133945,1,0,0:0:0:0:
465,64,133990,1,0,0:0:0:0:
477,113,134034,1,0,0:0:0:0:
468,161,134079,1,0,0:0:0:0:
451,202,134124,1,0,0:0:0:0:
420,236,134168,1,0,0:0:0:0:
382,263,134213,1,0,0:0:0:0:
309,271,134258,1,0,0:0:0:0:
87,69,134436,6,0,L|46:160,7,89.9999976158143
81,22,134615,2,0,L|57:118,7,89.9999976158143
74,16,134793,2,0,L|68:117,8,89.9999976158143
147,70,135031,5,0,0:0:0:0:
207,72,135091,1,0,0:0:0:0:
255,75,135150,1,0,0:0:0:0:
310,75,135210,1,0,0:0:0:0:
332,74,135270,1,0,0:0:0:0:
310,75,135330,1,0,0:0:0:0:
255,75,135389,1,0,0:0:0:0:
102,69,135448,5,0,0:0:0:0:
56,100,135508,1,0,0:0:0:0:
30,149,135567,1,0,0:0:0:0:
52,193,135627,1,0,0:0:0:0:
99,228,135686,1,0,0:0:0:0:
160,239,135746,1,0,0:0:0:0:
220,240,135805,1,0,0:0:0:0:
281,241,135865,1,0,0:0:0:0:
341,241,135924,1,0,0:0:0:0:
401,242,135983,1,0,0:0:0:0:
462,243,136043,1,0,0:0:0:0:
341,240,136103,5,0,0:0:0:0:
281,241,136162,1,0,0:0:0:0:
220,240,136222,1,0,0:0:0:0:
280,240,136281,1,0,0:0:0:0:
340,241,136340,1,0,0:0:0:0:
370,241,136400,1,0,0:0:0:0:
340,241,136460,1,0,0:0:0:0:
279,242,136520,1,0,0:0:0:0:
160,239,136579,1,8,0:2:0:0:
37,239,136698,1,0,0:0:0:0:
293,58,137115,1,0,0:0:0:0:
472,54,137293,1,0,0:0:0:0:
383,51,148008,5,0,0:0:0:0:
428,58,148067,1,0,0:0:0:0:
461,98,148127,1,0,0:0:0:0:
430,148,148186,1,0,0:0:0:0:
380,150,148246,1,0,0:0:0:0:
341,103,148305,1,0,0:0:0:0:
383,51,148365,1,0,0:0:0:0:
428,58,148424,1,0,0:0:0:0:
461,98,148484,1,0,0:0:0:0:
448,156,148543,1,0,0:0:0:0:
408,190,148603,1,0,0:0:0:0:
350,211,148662,1,0,0:0:0:0:
223,208,148722,5,0,0:0:0:0:
167,212,148841,1,0,0:0:0:0:
223,208,148960,1,0,0:0:0:0:
379,209,149079,1,0,0:0:0:0:
428,208,149198,1,0,0:0:0:0:
379,209,149317,1,0,0:0:0:0:
131,209,149436,6,0,L|165:132,1,61.8749989509583,8|0,2:1|0:0,0:0:0:0:
196,208,149555,1,0,0:0:0:0:
259,208,149674,1,0,0:0:0:0:
379,209,149793,1,0,0:0:0:0:
314,207,149913,1,0,0:0:0:0:
379,209,150032,1,0,0:0:0:0:
450,209,150151,5,0,0:0:0:0:
402,214,150270,1,0,0:0:0:0:
199,172,150329,2,0,L|156:94,2,82.4999986012777,8|0|0,2:1|0:0|0:0,0:0:0:0:
286,175,150508,1,0,0:0:0:0:
356,113,150627,1,0,0:0:0:0:
280,46,150746,1,0,0:0:0:0:
62,47,150865,2,0,L|134:153,3,119.999996821086,0|0|0|8,0:0|0:0|0:0|2:1,0:0:0:0:
186,155,151281,1,0,0:0:0:0:
246,156,151341,2,0,L|366:156,1,119.999996821086,0|0,0:0|0:0,0:0:0:0:
71,190,151579,5,0,0:0:0:0:
15,194,151698,1,0,0:0:0:0:
71,190,151817,1,0,0:0:0:0:
227,191,151936,1,0,0:0:0:0:
276,190,152055,1,0,0:0:0:0:
227,191,152174,1,0,0:0:0:0:
15,195,152293,6,0,L|46:134,1,59.9999984105428,8|0,2:1|0:0,0:0:0:0:
80,193,152412,1,0,0:0:0:0:
143,193,152531,1,0,0:0:0:0:
263,194,152650,1,0,0:0:0:0:
198,192,152770,1,0,0:0:0:0:
263,194,152889,1,0,0:0:0:0:
334,194,153008,5,0,0:0:0:0:
286,199,153127,1,0,0:0:0:0:
106,162,153186,6,0,L|35:162,2,59.9999984105428,8|0|0,2:1|0:0|0:0,0:0:0:0:
170,160,153365,1,0,0:0:0:0:
74,83,153484,1,0,0:0:0:0:
176,51,153603,1,0,0:0:0:0:
296,57,153722,5,0,0:0:0:0:
348,78,153781,1,0,0:0:0:0:
374,131,153841,1,0,0:0:0:0:
349,180,153900,1,0,0:0:0:0:
297,212,153960,1,0,0:0:0:0:
102,60,154079,1,8,2:1:0:0:
39,77,154139,1,0,0:0:0:0:
15,142,154198,1,0,0:0:0:0:
31,214,154258,1,0,0:0:0:0:
77,262,154317,1,0,0:0:0:0:
148,279,154377,1,0,0:0:0:0:
208,282,154436,6,0,L|263:162,2,119.999996821086,0|0|0,0:0|0:0|0:0,0:0:0:0:
87,190,154793,1,0,0:0:0:0:
55,293,154912,1,0,0:0:0:0:
123,351,155031,1,0,0:0:0:0:
255,263,155150,5,8,2:1:0:0:
306,243,155210,1,0,0:0:0:0:
358,224,155269,1,0,0:0:0:0:
453,185,155389,1,0,0:0:0:0:
196,110,155507,1,0,0:0:0:0:
143,161,155626,1,0,0:0:0:0:
155,209,155686,1,0,0:0:0:0:
194,226,155745,1,0,0:0:0:0:
291,230,155864,1,0,0:0:0:0:
84,227,155983,1,0,0:0:0:0:
45,200,156042,1,8,2:1:0:0:
86,173,156102,1,0,0:0:0:0:
187,156,156221,1,0,0:0:0:0:
306,168,156341,6,0,L|409:78,1,119.999996821086,0|0,0:0|0:0,0:0:0:0:
374,29,156579,1,0,0:0:0:0:
260,32,156698,1,0,0:0:0:0:
45,55,156817,2,0,L|129:148,2,119.999996821086,0|8|0,0:0|2:1|0:0,0:0:0:0:
160,86,157174,1,0,0:0:0:0:
267,101,157293,5,0,0:0:0:0:
327,122,157353,1,0,0:0:0:0:
372,156,157413,1,0,0:0:0:0:
392,206,157472,1,0,0:0:0:0:
374,244,157532,1,0,0:0:0:0:
169,156,157651,1,0,0:0:0:0:
122,224,157771,1,0,0:0:0:0:
166,278,157890,1,0,0:0:0:0:
285,276,158008,5,0,0:0:0:0:
352,253,158087,1,0,0:0:0:0:
382,186,158167,1,0,0:0:0:0:
303,161,158246,1,0,0:0:0:0:
238,116,158325,1,0,0:0:0:0:
215,34,158405,1,0,0:0:0:0:
311,31,158484,1,0,0:0:0:0:
399,33,158563,1,0,0:0:0:0:
449,103,158643,1,0,0:0:0:0:
289,99,158722,5,0,0:0:0:0:
248,130,158782,1,0,0:0:0:0:
228,173,158841,1,0,0:0:0:0:
221,229,158901,1,0,0:0:0:0:
234,284,158960,1,0,0:0:0:0:
261,323,159020,1,0,0:0:0:0:
322,105,159079,1,0,0:0:0:0:
382,133,159139,1,0,0:0:0:0:
427,180,159198,1,0,0:0:0:0:
270,160,159258,1,0,0:0:0:0:
215,186,159317,1,0,0:0:0:0:
157,205,159377,1,0,0:0:0:0:
20,221,159436,1,0,0:0:0:0:
256,192,159793,12,0,162293,0:0:0:0:
