osu file format v14

[General]
AudioFilename: audio.mp3
AudioLeadIn: 0
PreviewTime: 45842
Countdown: 0
SampleSet: Soft
StackLeniency: 0.7
Mode: 3
LetterboxInBreaks: 0
SpecialStyle: 0
WidescreenStoryboard: 1

[Editor]
Bookmarks: 80150
DistanceSpacing: 1.5
BeatDivisor: 4
GridSize: 4
TimelineZoom: 2.1

[Metadata]
Title:19ZZ
TitleUnicode:19ZZ
Artist:Frums (unknown "lambda")
ArtistUnicode:Frums(unknown "λ")
Creator:Paraxia
Version:normal
Source:第二回BMS衆議院選
Tags:oct4 collab featured artist fa mappers' guild mpg mg modern midtempo electronic instrumental gimei-tou 偽名党 Dainikai BMS Shuugiinsen Dai 2-kai BMS Shuuin frums.xyz frumsdotxyz
BeatmapID:4475077
BeatmapSetID:2124805

[Difficulty]
HPDrainRate:7.2
CircleSize:7
OverallDifficulty:7.2
ApproachRate:5
SliderMultiplier:1.4
SliderTickRate:1

[Events]
//Background and Video events
0,0,"19zzbg.png",0,0
//Break Periods
//Storyboard Layer 0 (Background)
//Storyboard Layer 1 (Fail)
//Storyboard Layer 2 (Pass)
//Storyboard Layer 3 (Foreground)
//Storyboard Layer 4 (Overlay)
//Storyboard Sound Samples

[TimingPoints]
151,714.285714285714,4,2,1,60,1,0
46579,-100,4,2,1,60,0,1
50865,-100,4,2,1,60,0,0
51579,-100,4,2,1,60,0,1
56579,-100,4,2,1,60,0,0
57293,-100,4,2,1,60,0,1
62293,-100,4,2,1,60,0,0
63008,-100,4,2,1,60,0,1
68722,-100,4,2,1,60,0,0
91579,-100,4,2,1,60,0,1
111579,-100,4,2,1,60,0,0
114436,-100,4,2,1,60,0,1
134436,-100,4,2,1,60,0,0

[HitObjects]
329,192,151,5,0,0:0:0:0:
36,192,329,128,0,1043:0:0:0:0:
329,192,508,1,0,0:0:0:0:
182,192,1043,128,0,1758:0:0:0:0:
475,192,1758,128,0,2472:0:0:0:0:
329,192,2472,128,0,3186:0:0:0:0:
36,192,3186,128,0,3900:0:0:0:0:
256,192,3900,128,0,4615:0:0:0:0:
109,192,4615,128,0,5329:0:0:0:0:
402,192,5329,128,0,5865:0:0:0:0:
329,192,5865,1,0,0:0:0:0:
36,192,6043,128,0,6758:0:0:0:0:
329,192,6222,1,0,0:0:0:0:
182,192,6758,128,0,7472:0:0:0:0:
475,192,7472,128,0,8186:0:0:0:0:
329,192,8186,128,0,8900:0:0:0:0:
256,192,8900,128,0,9615:0:0:0:0:
109,192,9615,128,0,10329:0:0:0:0:
402,192,10329,128,0,10865:0:0:0:0:
36,192,11579,128,0,14436:0:0:0:0:
329,192,11579,1,0,0:0:0:0:
329,192,11936,1,0,0:0:0:0:
475,192,12293,1,0,0:0:0:0:
256,192,12472,1,0,0:0:0:0:
256,192,12829,1,0,0:0:0:0:
475,192,13186,1,0,0:0:0:0:
329,192,13543,1,0,0:0:0:0:
475,192,14079,1,0,0:0:0:0:
475,192,14436,128,0,17293:0:0:0:0:
182,192,14436,1,0,0:0:0:0:
182,192,14793,1,0,0:0:0:0:
36,192,15150,1,0,0:0:0:0:
256,192,15329,1,0,0:0:0:0:
256,192,15686,1,0,0:0:0:0:
36,192,16043,1,0,0:0:0:0:
182,192,16400,1,0,0:0:0:0:
329,192,16579,128,0,16936:0:0:0:0:
182,192,16936,128,0,17293:0:0:0:0:
109,192,17293,128,0,20150:0:0:0:0:
329,192,17293,1,0,0:0:0:0:
329,192,17650,1,0,0:0:0:0:
475,192,18008,1,0,0:0:0:0:
256,192,18186,1,0,0:0:0:0:
256,192,18543,1,0,0:0:0:0:
475,192,18900,1,0,0:0:0:0:
329,192,19258,1,0,0:0:0:0:
475,192,19793,1,0,0:0:0:0:
402,192,20150,128,0,21758:0:0:0:0:
182,192,20150,1,0,0:0:0:0:
109,192,20508,1,0,0:0:0:0:
256,192,20865,1,0,0:0:0:0:
109,192,21222,1,0,0:0:0:0:
256,192,21400,1,0,0:0:0:0:
109,192,21579,1,0,0:0:0:0:
329,192,21758,1,0,0:0:0:0:
182,192,21936,1,0,0:0:0:0:
329,192,22115,1,0,0:0:0:0:
329,192,22293,1,0,0:0:0:0:
329,192,22829,1,0,0:0:0:0:
256,192,22918,1,0,0:0:0:0:
182,192,23008,128,0,24436:0:0:0:0:
36,192,23008,128,0,24436:0:0:0:0:
329,192,24436,128,0,28008:0:0:0:0:
475,192,24436,128,0,28008:0:0:0:0:
109,192,28008,1,0,0:0:0:0:
182,192,28186,1,0,0:0:0:0:
329,192,28365,1,0,0:0:0:0:
402,192,28543,1,0,0:0:0:0:
256,192,28722,128,0,30150:0:0:0:0:
475,192,28722,128,0,30150:0:0:0:0:
329,192,30150,128,0,33722:0:0:0:0:
36,192,30150,128,0,33722:0:0:0:0:
182,192,33722,1,0,0:0:0:0:
256,192,33841,1,0,0:0:0:0:
329,192,34168,1,0,0:0:0:0:
182,192,34302,1,0,0:0:0:0:
402,192,34436,128,0,35865:0:0:0:0:
109,192,34436,128,0,35865:0:0:0:0:
36,192,35865,128,0,39436:0:0:0:0:
256,192,35865,128,0,39436:0:0:0:0:
475,192,39436,128,0,39793:0:0:0:0:
109,192,39793,128,0,40150:0:0:0:0:
329,192,40150,128,0,43008:0:0:0:0:
182,192,40150,128,0,41579:0:0:0:0:
109,192,41579,128,0,43008:0:0:0:0:
402,192,43008,128,0,44436:0:0:0:0:
475,192,43008,128,0,44436:0:0:0:0:
256,192,44436,128,0,45865:0:0:0:0:
36,192,45865,1,0,0:0:0:0:
109,192,45984,1,0,0:0:0:0:
182,192,46103,1,0,0:0:0:0:
329,192,46579,128,0,47293:0:0:0:0:
475,192,46579,128,0,47293:0:0:0:0:
182,192,47293,128,0,48722:0:0:0:0:
329,192,48008,1,0,0:0:0:0:
402,192,48008,1,0,0:0:0:0:
256,192,48722,128,0,49079:0:0:0:0:
329,192,49079,1,0,0:0:0:0:
256,192,49436,128,0,49793:0:0:0:0:
182,192,49793,1,0,0:0:0:0:
256,192,50150,128,0,50508:0:0:0:0:
475,192,50508,1,0,0:0:0:0:
329,192,50686,1,0,0:0:0:0:
109,192,50865,1,0,0:0:0:0:
36,192,50865,1,0,0:0:0:0:
36,192,51579,128,0,53008:0:0:0:0:
182,192,51579,128,0,52293:0:0:0:0:
329,192,52293,1,0,0:0:0:0:
402,192,52293,1,0,0:0:0:0:
329,192,52650,1,0,0:0:0:0:
329,192,53008,128,0,54436:0:0:0:0:
182,192,53722,1,0,0:0:0:0:
109,192,53722,1,0,0:0:0:0:
256,192,54436,128,0,54793:0:0:0:0:
182,192,54793,1,0,0:0:0:0:
256,192,55150,128,0,55508:0:0:0:0:
329,192,55508,1,0,0:0:0:0:
256,192,55865,128,0,56222:0:0:0:0:
36,192,56222,128,0,56579:0:0:0:0:
402,192,56579,1,0,0:0:0:0:
475,192,56579,1,0,0:0:0:0:
475,192,57293,128,0,58722:0:0:0:0:
256,192,57293,128,0,58008:0:0:0:0:
182,192,58008,1,0,0:0:0:0:
109,192,58008,1,0,0:0:0:0:
329,192,58365,1,0,0:0:0:0:
109,192,58722,128,0,60150:0:0:0:0:
329,192,59436,1,0,0:0:0:0:
402,192,59436,1,0,0:0:0:0:
182,192,60150,128,0,60508:0:0:0:0:
256,192,60508,1,0,0:0:0:0:
329,192,60865,128,0,61222:0:0:0:0:
256,192,61222,1,0,0:0:0:0:
182,192,61579,128,0,61936:0:0:0:0:
256,192,61936,1,0,0:0:0:0:
329,192,62115,1,0,0:0:0:0:
109,192,62293,1,0,0:0:0:0:
36,192,62293,1,0,0:0:0:0:
36,192,63008,128,0,64436:0:0:0:0:
256,192,63008,128,0,63722:0:0:0:0:
329,192,63722,1,0,0:0:0:0:
402,192,63722,1,0,0:0:0:0:
329,192,64436,128,0,65865:0:0:0:0:
182,192,65150,1,0,0:0:0:0:
109,192,65150,1,0,0:0:0:0:
256,192,65865,128,0,67293:0:0:0:0:
402,192,66579,1,0,0:0:0:0:
475,192,66579,1,0,0:0:0:0:
475,192,67293,128,0,68722:0:0:0:0:
329,192,67650,1,0,0:0:0:0:
36,192,68008,1,0,0:0:0:0:
109,192,68008,1,0,0:0:0:0:
182,192,68246,1,0,0:0:0:0:
256,192,68484,1,0,0:0:0:0:
329,192,69079,1,0,0:0:0:0:
182,192,69079,1,0,0:0:0:0:
256,192,69436,1,0,0:0:0:0:
475,192,69615,1,0,0:0:0:0:
329,192,69793,1,0,0:0:0:0:
109,192,70150,1,0,0:0:0:0:
182,192,70329,1,0,0:0:0:0:
109,192,70508,1,0,0:0:0:0:
256,192,70865,1,0,0:0:0:0:
182,192,71222,128,0,71579:0:0:0:0:
475,192,71579,1,0,0:0:0:0:
329,192,71579,1,0,0:0:0:0:
36,192,71758,1,0,0:0:0:0:
182,192,71936,1,0,0:0:0:0:
329,192,71936,1,0,0:0:0:0:
256,192,72293,1,0,0:0:0:0:
182,192,72472,1,0,0:0:0:0:
36,192,72650,1,0,0:0:0:0:
402,192,73008,1,0,0:0:0:0:
329,192,73186,1,0,0:0:0:0:
402,192,73365,1,0,0:0:0:0:
256,192,73722,1,0,0:0:0:0:
402,192,74079,1,0,0:0:0:0:
182,192,74436,1,0,0:0:0:0:
36,192,74436,1,0,0:0:0:0:
475,192,74615,1,0,0:0:0:0:
329,192,74793,1,0,0:0:0:0:
182,192,74793,1,0,0:0:0:0:
256,192,75150,1,0,0:0:0:0:
402,192,75329,1,0,0:0:0:0:
329,192,75508,1,0,0:0:0:0:
182,192,75865,1,0,0:0:0:0:
36,192,76043,1,0,0:0:0:0:
182,192,76222,1,0,0:0:0:0:
256,192,76579,1,0,0:0:0:0:
182,192,76936,128,0,77293:0:0:0:0:
329,192,77293,1,0,0:0:0:0:
475,192,77293,1,0,0:0:0:0:
36,192,77472,1,0,0:0:0:0:
182,192,77650,1,0,0:0:0:0:
329,192,77650,1,0,0:0:0:0:
256,192,78008,1,0,0:0:0:0:
109,192,78186,1,0,0:0:0:0:
182,192,78365,1,0,0:0:0:0:
329,192,78722,1,0,0:0:0:0:
475,192,78900,1,0,0:0:0:0:
329,192,79079,1,0,0:0:0:0:
256,192,79436,1,0,0:0:0:0:
109,192,79793,1,0,0:0:0:0:
36,192,80150,1,0,0:0:0:0:
402,192,80150,1,0,0:0:0:0:
329,192,80508,1,0,0:0:0:0:
182,192,80508,1,0,0:0:0:0:
256,192,80865,1,0,0:0:0:0:
475,192,81043,1,0,0:0:0:0:
329,192,81222,1,0,0:0:0:0:
109,192,81579,1,0,0:0:0:0:
182,192,81758,1,0,0:0:0:0:
402,192,81936,1,0,0:0:0:0:
256,192,82293,1,0,0:0:0:0:
182,192,82650,128,0,83008:0:0:0:0:
475,192,83008,1,0,0:0:0:0:
329,192,83008,1,0,0:0:0:0:
36,192,83186,1,0,0:0:0:0:
182,192,83365,1,0,0:0:0:0:
329,192,83365,1,0,0:0:0:0:
256,192,83722,1,0,0:0:0:0:
182,192,83900,1,0,0:0:0:0:
36,192,84079,1,0,0:0:0:0:
402,192,84436,1,0,0:0:0:0:
329,192,84615,1,0,0:0:0:0:
109,192,84793,1,0,0:0:0:0:
256,192,85150,1,0,0:0:0:0:
402,192,85508,1,0,0:0:0:0:
182,192,85865,1,0,0:0:0:0:
36,192,85865,1,0,0:0:0:0:
475,192,86043,1,0,0:0:0:0:
329,192,86222,1,0,0:0:0:0:
182,192,86222,1,0,0:0:0:0:
256,192,86579,1,0,0:0:0:0:
402,192,86758,1,0,0:0:0:0:
329,192,86936,1,0,0:0:0:0:
182,192,87293,1,0,0:0:0:0:
36,192,87472,1,0,0:0:0:0:
402,192,87650,1,0,0:0:0:0:
256,192,88008,1,0,0:0:0:0:
182,192,88365,128,0,88722:0:0:0:0:
329,192,88722,1,0,0:0:0:0:
475,192,88722,1,0,0:0:0:0:
36,192,88900,1,0,0:0:0:0:
182,192,89079,1,0,0:0:0:0:
329,192,89079,1,0,0:0:0:0:
256,192,89436,1,0,0:0:0:0:
109,192,89615,1,0,0:0:0:0:
182,192,89793,1,0,0:0:0:0:
329,192,90150,1,0,0:0:0:0:
256,192,90150,1,0,0:0:0:0:
36,192,90508,128,0,90865:0:0:0:0:
256,192,90865,128,0,91579:0:0:0:0:
182,192,91579,1,0,0:0:0:0:
402,192,91847,1,0,0:0:0:0:
329,192,92115,1,0,0:0:0:0:
182,192,92293,1,0,0:0:0:0:
36,192,92293,1,0,0:0:0:0:
475,192,92650,1,0,0:0:0:0:
109,192,92918,1,0,0:0:0:0:
256,192,93186,1,0,0:0:0:0:
329,192,93365,1,0,0:0:0:0:
182,192,93543,1,0,0:0:0:0:
402,192,93722,1,0,0:0:0:0:
475,192,93722,1,0,0:0:0:0:
329,192,94436,1,0,0:0:0:0:
36,192,94704,1,0,0:0:0:0:
182,192,94972,1,0,0:0:0:0:
256,192,95150,1,0,0:0:0:0:
475,192,95150,1,0,0:0:0:0:
402,192,95508,1,0,0:0:0:0:
329,192,95775,1,0,0:0:0:0:
182,192,96043,1,0,0:0:0:0:
475,192,96222,1,0,0:0:0:0:
36,192,96400,1,0,0:0:0:0:
329,192,96579,1,0,0:0:0:0:
402,192,96579,1,0,0:0:0:0:
256,192,97293,1,0,0:0:0:0:
402,192,97561,1,0,0:0:0:0:
329,192,97829,1,0,0:0:0:0:
182,192,98008,1,0,0:0:0:0:
109,192,98008,1,0,0:0:0:0:
402,192,98365,1,0,0:0:0:0:
36,192,98633,1,0,0:0:0:0:
256,192,98900,1,0,0:0:0:0:
329,192,99079,1,0,0:0:0:0:
109,192,99258,1,0,0:0:0:0:
182,192,99436,1,0,0:0:0:0:
475,192,99436,1,0,0:0:0:0:
402,192,99972,1,0,0:0:0:0:
182,192,100150,1,0,0:0:0:0:
256,192,100418,1,0,0:0:0:0:
329,192,100686,1,0,0:0:0:0:
109,192,100954,1,0,0:0:0:0:
402,192,101222,1,0,0:0:0:0:
475,192,101490,1,0,0:0:0:0:
182,192,101758,1,0,0:0:0:0:
36,192,102025,1,0,0:0:0:0:
329,192,102293,1,0,0:0:0:0:
256,192,102472,1,0,0:0:0:0:
182,192,102472,1,0,0:0:0:0:
329,192,103008,1,0,0:0:0:0:
109,192,103275,1,0,0:0:0:0:
182,192,103543,1,0,0:0:0:0:
475,192,103722,1,0,0:0:0:0:
329,192,103722,1,0,0:0:0:0:
36,192,104079,1,0,0:0:0:0:
402,192,104347,1,0,0:0:0:0:
256,192,104615,1,0,0:0:0:0:
182,192,104793,1,0,0:0:0:0:
329,192,104972,1,0,0:0:0:0:
36,192,105150,1,0,0:0:0:0:
109,192,105150,1,0,0:0:0:0:
182,192,105865,1,0,0:0:0:0:
475,192,106133,1,0,0:0:0:0:
329,192,106400,1,0,0:0:0:0:
36,192,106579,1,0,0:0:0:0:
256,192,106579,1,0,0:0:0:0:
109,192,106936,1,0,0:0:0:0:
182,192,107204,1,0,0:0:0:0:
329,192,107472,1,0,0:0:0:0:
36,192,107650,1,0,0:0:0:0:
475,192,107829,1,0,0:0:0:0:
109,192,108008,1,0,0:0:0:0:
182,192,108008,1,0,0:0:0:0:
256,192,108722,1,0,0:0:0:0:
109,192,108990,1,0,0:0:0:0:
182,192,109258,1,0,0:0:0:0:
402,192,109436,1,0,0:0:0:0:
329,192,109436,1,0,0:0:0:0:
109,192,109793,1,0,0:0:0:0:
475,192,110061,1,0,0:0:0:0:
256,192,110329,1,0,0:0:0:0:
182,192,110508,1,0,0:0:0:0:
402,192,110686,1,0,0:0:0:0:
36,192,110865,1,0,0:0:0:0:
329,192,110865,1,0,0:0:0:0:
256,192,111579,128,0,113722:0:0:0:0:
329,192,113722,1,0,0:0:0:0:
182,192,113722,1,0,0:0:0:0:
402,192,114436,1,0,0:0:0:0:
109,192,114674,1,0,0:0:0:0:
329,192,114972,1,0,0:0:0:0:
256,192,115150,1,0,0:0:0:0:
36,192,115150,1,0,0:0:0:0:
182,192,115508,1,0,0:0:0:0:
475,192,115746,1,0,0:0:0:0:
329,192,116043,1,0,0:0:0:0:
109,192,116222,1,0,0:0:0:0:
256,192,116400,1,0,0:0:0:0:
182,192,116579,1,0,0:0:0:0:
402,192,116579,1,0,0:0:0:0:
36,192,117293,1,0,0:0:0:0:
402,192,117531,1,0,0:0:0:0:
475,192,117829,1,0,0:0:0:0:
182,192,118008,1,0,0:0:0:0:
109,192,118008,1,0,0:0:0:0:
256,192,118365,1,0,0:0:0:0:
329,192,118603,1,0,0:0:0:0:
36,192,118900,1,0,0:0:0:0:
402,192,119079,1,0,0:0:0:0:
182,192,119258,1,0,0:0:0:0:
109,192,119436,1,0,0:0:0:0:
475,192,119436,1,0,0:0:0:0:
256,192,120150,1,0,0:0:0:0:
182,192,120389,1,0,0:0:0:0:
402,192,120686,1,0,0:0:0:0:
109,192,120865,1,0,0:0:0:0:
329,192,120865,1,0,0:0:0:0:
36,192,121222,1,0,0:0:0:0:
402,192,121460,1,0,0:0:0:0:
329,192,121758,1,0,0:0:0:0:
109,192,121936,1,0,0:0:0:0:
256,192,122115,1,0,0:0:0:0:
475,192,122293,1,0,0:0:0:0:
402,192,122293,1,0,0:0:0:0:
182,192,122829,1,0,0:0:0:0:
36,192,123008,1,0,0:0:0:0:
256,192,123246,1,0,0:0:0:0:
402,192,123543,1,0,0:0:0:0:
109,192,123781,1,0,0:0:0:0:
329,192,124079,1,0,0:0:0:0:
475,192,124317,1,0,0:0:0:0:
182,192,124615,1,0,0:0:0:0:
402,192,124853,1,0,0:0:0:0:
256,192,125150,1,0,0:0:0:0:
329,192,125329,1,0,0:0:0:0:
109,192,125329,1,0,0:0:0:0:
109,192,125865,1,0,0:0:0:0:
402,192,126103,1,0,0:0:0:0:
182,192,126400,1,0,0:0:0:0:
256,192,126579,1,0,0:0:0:0:
475,192,126579,1,0,0:0:0:0:
329,192,126936,1,0,0:0:0:0:
36,192,127174,1,0,0:0:0:0:
182,192,127472,1,0,0:0:0:0:
402,192,127650,1,0,0:0:0:0:
256,192,127829,1,0,0:0:0:0:
329,192,128008,1,0,0:0:0:0:
109,192,128008,1,0,0:0:0:0:
475,192,128722,1,0,0:0:0:0:
109,192,128960,1,0,0:0:0:0:
36,192,129258,1,0,0:0:0:0:
329,192,129436,1,0,0:0:0:0:
402,192,129436,1,0,0:0:0:0:
256,192,129793,1,0,0:0:0:0:
182,192,130031,1,0,0:0:0:0:
475,192,130329,1,0,0:0:0:0:
109,192,130508,1,0,0:0:0:0:
329,192,130686,1,0,0:0:0:0:
402,192,130865,1,0,0:0:0:0:
36,192,130865,1,0,0:0:0:0:
256,192,131579,1,0,0:0:0:0:
329,192,131817,1,0,0:0:0:0:
109,192,132115,1,0,0:0:0:0:
402,192,132293,1,0,0:0:0:0:
182,192,132293,1,0,0:0:0:0:
475,192,132650,1,0,0:0:0:0:
109,192,132889,1,0,0:0:0:0:
182,192,133186,1,0,0:0:0:0:
402,192,133365,5,0,0:0:0:0:
256,192,133543,1,0,0:0:0:0:
36,192,133722,1,0,0:0:0:0:
109,192,133722,1,0,0:0:0:0:
256,192,134436,128,0,136579:0:0:0:0:
182,192,135150,128,0,136579:0:0:0:0:
329,192,135865,128,0,136579:0:0:0:0:
109,192,136579,5,0,0:0:0:0:
402,192,136579,1,0,0:0:0:0:
475,192,137115,1,0,0:0:0:0:
329,192,137293,1,0,0:0:0:0:
36,192,137472,128,0,138186:0:0:0:0:
329,192,137650,1,0,0:0:0:0:
182,192,138186,128,0,138900:0:0:0:0:
475,192,138900,128,0,139615:0:0:0:0:
329,192,139615,128,0,140329:0:0:0:0:
36,192,140329,128,0,141043:0:0:0:0:
256,192,141043,128,0,141758:0:0:0:0:
109,192,141758,128,0,142472:0:0:0:0:
402,192,142472,128,0,143008:0:0:0:0:
329,192,143008,1,0,0:0:0:0:
36,192,143186,128,0,143900:0:0:0:0:
329,192,143365,1,0,0:0:0:0:
182,192,143900,128,0,144615:0:0:0:0:
475,192,144615,128,0,145329:0:0:0:0:
329,192,145329,128,0,146043:0:0:0:0:
256,192,146043,128,0,146758:0:0:0:0:
109,192,146758,128,0,147472:0:0:0:0:
402,192,147472,128,0,148008:0:0:0:0:
36,192,148722,128,0,151579:0:0:0:0:
329,192,148722,1,0,0:0:0:0:
329,192,149079,1,0,0:0:0:0:
475,192,149436,1,0,0:0:0:0:
256,192,149615,1,0,0:0:0:0:
256,192,149972,1,0,0:0:0:0:
475,192,150329,1,0,0:0:0:0:
329,192,150686,1,0,0:0:0:0:
475,192,151222,1,0,0:0:0:0:
475,192,151579,128,0,154436:0:0:0:0:
182,192,151579,1,0,0:0:0:0:
182,192,151936,1,0,0:0:0:0:
36,192,152293,1,0,0:0:0:0:
256,192,152472,1,0,0:0:0:0:
256,192,152829,1,0,0:0:0:0:
36,192,153186,1,0,0:0:0:0:
182,192,153543,1,0,0:0:0:0:
329,192,153722,128,0,154079:0:0:0:0:
182,192,154079,128,0,154436:0:0:0:0:
109,192,154436,128,0,157293:0:0:0:0:
329,192,154436,1,0,0:0:0:0:
329,192,154793,1,0,0:0:0:0:
475,192,155150,1,0,0:0:0:0:
256,192,155329,1,0,0:0:0:0:
256,192,155686,1,0,0:0:0:0:
475,192,156043,1,0,0:0:0:0:
329,192,156400,1,0,0:0:0:0:
475,192,156936,1,0,0:0:0:0:
402,192,157293,128,0,158900:0:0:0:0:
182,192,157293,1,0,0:0:0:0:
109,192,157650,1,0,0:0:0:0:
256,192,158008,1,0,0:0:0:0:
109,192,158365,1,0,0:0:0:0:
256,192,158543,1,0,0:0:0:0:
109,192,158722,1,0,0:0:0:0:
329,192,158900,1,0,0:0:0:0:
182,192,159079,1,0,0:0:0:0:
329,192,159258,1,0,0:0:0:0:
329,192,159436,1,0,0:0:0:0:
