osu file format v14

[General]
AudioFilename: audio.mp3
AudioLeadIn: 0
PreviewTime: 45842
Countdown: 0
SampleSet: Soft
StackLeniency: 0.7
Mode: 3
LetterboxInBreaks: 0
SpecialStyle: 0
WidescreenStoryboard: 1

[Editor]
Bookmarks: 80150,131043
DistanceSpacing: 1.5
BeatDivisor: 8
GridSize: 4
TimelineZoom: 2.5

[Metadata]
Title:19ZZ
TitleUnicode:19ZZ
Artist:Frums (unknown "lambda")
ArtistUnicode:Frums(unknown "λ")
Creator:Paraxia
Version:insane
Source:第二回BMS衆議院選
Tags:oct4 collab featured artist fa mappers' guild mpg mg modern midtempo electronic instrumental gimei-tou 偽名党 Dainikai BMS Shuugiinsen Dai 2-kai BMS Shuuin frums.xyz frumsdotxyz
BeatmapID:4465816
BeatmapSetID:2124805

[Difficulty]
HPDrainRate:7.8
CircleSize:7
OverallDifficulty:7.8
ApproachRate:5
SliderMultiplier:1.4
SliderTickRate:1

[Events]
//Background and Video events
0,0,"19zzbg.png",0,0
//Break Periods
//Storyboard Layer 0 (Background)
//Storyboard Layer 1 (Fail)
//Storyboard Layer 2 (Pass)
//Storyboard Layer 3 (Foreground)
//Storyboard Layer 4 (Overlay)
//Storyboard Sound Samples

[TimingPoints]
151,714.285714285714,4,2,1,60,1,0
46579,-100,4,2,1,60,0,1
50865,-100,4,2,1,60,0,0
51579,-100,4,2,1,60,0,1
56579,-100,4,2,1,60,0,0
57293,-100,4,2,1,60,0,1
62293,-100,4,2,1,60,0,0
63008,-100,4,2,1,60,0,1
68722,-100,4,2,1,60,0,0
91579,-100,4,2,1,60,0,1
111579,-100,4,2,1,60,0,0
114436,-100,4,2,1,60,0,1
134436,-100,4,2,1,60,0,0

[HitObjects]
329,192,151,5,0,0:0:0:0:
402,192,151,1,0,0:0:0:0:
475,192,329,128,0,1043:0:0:0:0:
36,192,329,128,0,418:0:0:0:0:
329,192,508,1,0,0:0:0:0:
402,192,508,1,0,0:0:0:0:
36,192,508,128,0,597:0:0:0:0:
36,192,686,128,0,775:0:0:0:0:
36,192,865,128,0,954:0:0:0:0:
329,192,1043,1,0,0:0:0:0:
402,192,1043,1,0,0:0:0:0:
109,192,1043,128,0,1758:0:0:0:0:
182,192,1043,128,0,1133:0:0:0:0:
182,192,1222,128,0,1311:0:0:0:0:
182,192,1400,128,0,1490:0:0:0:0:
182,192,1579,128,0,1668:0:0:0:0:
256,192,1758,128,0,2472:0:0:0:0:
475,192,1758,128,0,1847:0:0:0:0:
475,192,1936,128,0,2025:0:0:0:0:
475,192,2115,128,0,2204:0:0:0:0:
475,192,2293,128,0,2383:0:0:0:0:
182,192,2472,128,0,3186:0:0:0:0:
329,192,2472,128,0,2561:0:0:0:0:
329,192,2650,128,0,2740:0:0:0:0:
329,192,2829,128,0,2918:0:0:0:0:
329,192,3008,128,0,3097:0:0:0:0:
256,192,3186,128,0,3900:0:0:0:0:
36,192,3186,128,0,3275:0:0:0:0:
36,192,3365,128,0,3454:0:0:0:0:
36,192,3543,128,0,3633:0:0:0:0:
36,192,3722,128,0,3811:0:0:0:0:
329,192,3900,128,0,3990:0:0:0:0:
475,192,3900,128,0,4615:0:0:0:0:
329,192,4079,128,0,4168:0:0:0:0:
329,192,4258,128,0,4347:0:0:0:0:
329,192,4436,128,0,4525:0:0:0:0:
182,192,4615,128,0,5329:0:0:0:0:
109,192,4615,128,0,4704:0:0:0:0:
109,192,4793,128,0,4883:0:0:0:0:
109,192,4972,128,0,5061:0:0:0:0:
109,192,5150,128,0,5240:0:0:0:0:
256,192,5329,128,0,6043:0:0:0:0:
402,192,5329,128,0,5418:0:0:0:0:
402,192,5508,128,0,5597:0:0:0:0:
329,192,5597,128,0,5686:0:0:0:0:
182,192,5686,128,0,5775:0:0:0:0:
109,192,5775,128,0,5865:0:0:0:0:
329,192,5865,1,0,0:0:0:0:
402,192,5865,1,0,0:0:0:0:
475,192,6043,128,0,6758:0:0:0:0:
36,192,6043,128,0,6133:0:0:0:0:
329,192,6222,1,0,0:0:0:0:
256,192,6222,1,0,0:0:0:0:
36,192,6222,128,0,6311:0:0:0:0:
36,192,6400,128,0,6490:0:0:0:0:
36,192,6579,128,0,6668:0:0:0:0:
402,192,6758,1,0,0:0:0:0:
182,192,6758,128,0,7472:0:0:0:0:
329,192,6758,128,0,6847:0:0:0:0:
329,192,6936,128,0,7025:0:0:0:0:
329,192,7115,128,0,7204:0:0:0:0:
329,192,7293,128,0,7383:0:0:0:0:
256,192,7472,128,0,8186:0:0:0:0:
475,192,7472,128,0,7561:0:0:0:0:
475,192,7650,128,0,7740:0:0:0:0:
475,192,7829,128,0,7918:0:0:0:0:
475,192,8008,128,0,8097:0:0:0:0:
109,192,8186,128,0,8900:0:0:0:0:
329,192,8186,128,0,8275:0:0:0:0:
329,192,8365,128,0,8454:0:0:0:0:
329,192,8543,128,0,8633:0:0:0:0:
329,192,8722,128,0,8811:0:0:0:0:
256,192,8900,128,0,8990:0:0:0:0:
36,192,8900,128,0,9615:0:0:0:0:
256,192,9079,128,0,9168:0:0:0:0:
256,192,9258,128,0,9347:0:0:0:0:
256,192,9436,128,0,9525:0:0:0:0:
329,192,9615,128,0,10329:0:0:0:0:
109,192,9615,128,0,9704:0:0:0:0:
109,192,9793,128,0,9883:0:0:0:0:
109,192,9972,128,0,10061:0:0:0:0:
109,192,10150,128,0,10240:0:0:0:0:
182,192,10329,128,0,10865:0:0:0:0:
402,192,10329,128,0,10418:0:0:0:0:
402,192,10508,128,0,10597:0:0:0:0:
402,192,10686,128,0,10775:0:0:0:0:
475,192,10865,128,0,11103:0:0:0:0:
256,192,11103,1,0,0:0:0:0:
182,192,11162,1,0,0:0:0:0:
109,192,11222,1,0,0:0:0:0:
402,192,11281,1,0,0:0:0:0:
329,192,11341,1,0,0:0:0:0:
109,192,11400,1,0,0:0:0:0:
182,192,11445,1,0,0:0:0:0:
329,192,11490,1,0,0:0:0:0:
402,192,11534,1,0,0:0:0:0:
256,192,11579,1,0,0:0:0:0:
109,192,11579,1,0,0:0:0:0:
36,192,11579,1,0,0:0:0:0:
182,192,11698,1,0,0:0:0:0:
329,192,11698,1,0,0:0:0:0:
402,192,11817,1,0,0:0:0:0:
475,192,11817,1,0,0:0:0:0:
109,192,11936,1,0,0:0:0:0:
36,192,11936,1,0,0:0:0:0:
256,192,11936,1,0,0:0:0:0:
402,192,12055,1,0,0:0:0:0:
475,192,12055,1,0,0:0:0:0:
329,192,12174,1,0,0:0:0:0:
182,192,12174,1,0,0:0:0:0:
256,192,12293,1,0,0:0:0:0:
36,192,12293,1,0,0:0:0:0:
475,192,12293,1,0,0:0:0:0:
182,192,12412,1,0,0:0:0:0:
329,192,12412,1,0,0:0:0:0:
109,192,12531,1,0,0:0:0:0:
36,192,12531,1,0,0:0:0:0:
256,192,12650,1,0,0:0:0:0:
402,192,12650,1,0,0:0:0:0:
329,192,12770,1,0,0:0:0:0:
182,192,12770,1,0,0:0:0:0:
109,192,12889,1,0,0:0:0:0:
36,192,12889,1,0,0:0:0:0:
402,192,13008,1,0,0:0:0:0:
475,192,13008,1,0,0:0:0:0:
329,192,13127,1,0,0:0:0:0:
256,192,13127,1,0,0:0:0:0:
109,192,13186,1,0,0:0:0:0:
36,192,13186,1,0,0:0:0:0:
402,192,13246,1,0,0:0:0:0:
475,192,13246,1,0,0:0:0:0:
109,192,13365,1,0,0:0:0:0:
182,192,13365,1,0,0:0:0:0:
256,192,13484,1,0,0:0:0:0:
329,192,13484,1,0,0:0:0:0:
182,192,13603,1,0,0:0:0:0:
109,192,13603,1,0,0:0:0:0:
36,192,13722,1,0,0:0:0:0:
475,192,13722,1,0,0:0:0:0:
402,192,13841,1,0,0:0:0:0:
109,192,13841,1,0,0:0:0:0:
182,192,13960,1,0,0:0:0:0:
329,192,13960,1,0,0:0:0:0:
256,192,14079,1,0,0:0:0:0:
475,192,14079,1,0,0:0:0:0:
36,192,14079,1,0,0:0:0:0:
182,192,14198,1,0,0:0:0:0:
329,192,14198,1,0,0:0:0:0:
109,192,14317,1,0,0:0:0:0:
402,192,14317,1,0,0:0:0:0:
475,192,14436,1,0,0:0:0:0:
36,192,14436,1,0,0:0:0:0:
256,192,14436,1,0,0:0:0:0:
182,192,14555,1,0,0:0:0:0:
329,192,14555,1,0,0:0:0:0:
402,192,14674,1,0,0:0:0:0:
475,192,14674,1,0,0:0:0:0:
256,192,14793,1,0,0:0:0:0:
109,192,14793,1,0,0:0:0:0:
36,192,14793,1,0,0:0:0:0:
402,192,14912,1,0,0:0:0:0:
475,192,14912,1,0,0:0:0:0:
329,192,15031,1,0,0:0:0:0:
182,192,15031,1,0,0:0:0:0:
256,192,15150,1,0,0:0:0:0:
36,192,15150,1,0,0:0:0:0:
475,192,15150,1,0,0:0:0:0:
109,192,15270,1,0,0:0:0:0:
329,192,15270,1,0,0:0:0:0:
182,192,15389,1,0,0:0:0:0:
402,192,15389,1,0,0:0:0:0:
475,192,15508,1,0,0:0:0:0:
256,192,15508,1,0,0:0:0:0:
182,192,15627,1,0,0:0:0:0:
402,192,15627,1,0,0:0:0:0:
109,192,15746,1,0,0:0:0:0:
329,192,15746,1,0,0:0:0:0:
36,192,15865,1,0,0:0:0:0:
256,192,15865,1,0,0:0:0:0:
182,192,15984,1,0,0:0:0:0:
109,192,15984,1,0,0:0:0:0:
402,192,16043,1,0,0:0:0:0:
475,192,16043,1,0,0:0:0:0:
256,192,16103,1,0,0:0:0:0:
36,192,16103,1,0,0:0:0:0:
109,192,16222,1,0,0:0:0:0:
329,192,16222,1,0,0:0:0:0:
182,192,16341,1,0,0:0:0:0:
256,192,16341,1,0,0:0:0:0:
109,192,16460,1,0,0:0:0:0:
329,192,16460,1,0,0:0:0:0:
182,192,16579,1,0,0:0:0:0:
475,192,16579,1,0,0:0:0:0:
402,192,16639,1,0,0:0:0:0:
329,192,16698,1,0,0:0:0:0:
109,192,16758,1,0,0:0:0:0:
182,192,16817,1,0,0:0:0:0:
256,192,16877,1,0,0:0:0:0:
475,192,16936,1,0,0:0:0:0:
402,192,16936,1,0,0:0:0:0:
36,192,16936,1,0,0:0:0:0:
329,192,16996,1,0,0:0:0:0:
182,192,17055,1,0,0:0:0:0:
109,192,17115,1,0,0:0:0:0:
329,192,17174,1,0,0:0:0:0:
402,192,17234,1,0,0:0:0:0:
256,192,17293,1,0,0:0:0:0:
36,192,17293,1,0,0:0:0:0:
109,192,17293,1,0,0:0:0:0:
182,192,17412,1,0,0:0:0:0:
329,192,17412,1,0,0:0:0:0:
402,192,17531,1,0,0:0:0:0:
475,192,17531,1,0,0:0:0:0:
256,192,17650,1,0,0:0:0:0:
109,192,17650,1,0,0:0:0:0:
36,192,17650,1,0,0:0:0:0:
402,192,17770,1,0,0:0:0:0:
475,192,17770,1,0,0:0:0:0:
329,192,17889,1,0,0:0:0:0:
182,192,17889,1,0,0:0:0:0:
475,192,18008,1,0,0:0:0:0:
36,192,18008,1,0,0:0:0:0:
256,192,18008,1,0,0:0:0:0:
182,192,18127,1,0,0:0:0:0:
329,192,18127,1,0,0:0:0:0:
402,192,18246,1,0,0:0:0:0:
109,192,18246,1,0,0:0:0:0:
475,192,18365,1,0,0:0:0:0:
256,192,18365,1,0,0:0:0:0:
329,192,18484,1,0,0:0:0:0:
182,192,18484,1,0,0:0:0:0:
109,192,18603,1,0,0:0:0:0:
402,192,18603,1,0,0:0:0:0:
256,192,18722,1,0,0:0:0:0:
182,192,18722,1,0,0:0:0:0:
329,192,18841,1,0,0:0:0:0:
402,192,18841,1,0,0:0:0:0:
109,192,18900,1,0,0:0:0:0:
36,192,18900,1,0,0:0:0:0:
256,192,18960,1,0,0:0:0:0:
475,192,18960,1,0,0:0:0:0:
402,192,19079,1,0,0:0:0:0:
182,192,19079,1,0,0:0:0:0:
329,192,19198,1,0,0:0:0:0:
109,192,19198,1,0,0:0:0:0:
182,192,19317,1,0,0:0:0:0:
256,192,19317,1,0,0:0:0:0:
329,192,19436,1,0,0:0:0:0:
402,192,19436,1,0,0:0:0:0:
182,192,19555,1,0,0:0:0:0:
109,192,19555,1,0,0:0:0:0:
402,192,19674,1,0,0:0:0:0:
475,192,19674,1,0,0:0:0:0:
109,192,19793,1,0,0:0:0:0:
36,192,19793,1,0,0:0:0:0:
329,192,19793,1,0,0:0:0:0:
182,192,19912,1,0,0:0:0:0:
256,192,19912,1,0,0:0:0:0:
329,192,20031,1,0,0:0:0:0:
475,192,20031,1,0,0:0:0:0:
36,192,20150,128,0,21758:0:0:0:0:
182,192,20210,1,0,0:0:0:0:
329,192,20270,1,0,0:0:0:0:
475,192,20329,1,0,0:0:0:0:
256,192,20389,1,0,0:0:0:0:
109,192,20508,1,0,0:0:0:0:
402,192,20508,1,0,0:0:0:0:
329,192,20627,1,0,0:0:0:0:
475,192,20746,1,0,0:0:0:0:
182,192,20865,1,0,0:0:0:0:
109,192,20865,1,0,0:0:0:0:
329,192,20944,1,0,0:0:0:0:
402,192,21024,1,0,0:0:0:0:
182,192,21103,1,0,0:0:0:0:
109,192,21103,1,0,0:0:0:0:
402,192,21182,1,0,0:0:0:0:
329,192,21262,1,0,0:0:0:0:
109,192,21341,1,0,0:0:0:0:
256,192,21341,1,0,0:0:0:0:
329,192,21420,1,0,0:0:0:0:
402,192,21500,1,0,0:0:0:0:
109,192,21579,1,0,0:0:0:0:
256,192,21579,1,0,0:0:0:0:
402,192,21639,1,0,0:0:0:0:
329,192,21698,1,0,0:0:0:0:
182,192,21758,1,0,0:0:0:0:
329,192,21817,1,0,0:0:0:0:
402,192,21877,1,0,0:0:0:0:
182,192,21936,1,0,0:0:0:0:
402,192,21996,1,0,0:0:0:0:
329,192,22055,1,0,0:0:0:0:
182,192,22115,1,0,0:0:0:0:
329,192,22174,1,0,0:0:0:0:
402,192,22234,1,0,0:0:0:0:
182,192,22293,1,0,0:0:0:0:
182,192,22829,1,0,0:0:0:0:
329,192,22918,1,0,0:0:0:0:
182,192,22963,1,0,0:0:0:0:
109,192,23008,128,0,24347:0:0:0:0:
36,192,23008,128,0,24347:0:0:0:0:
402,192,23008,128,0,24347:0:0:0:0:
475,192,23008,128,0,24347:0:0:0:0:
36,192,24436,128,0,27918:0:0:0:0:
256,192,24436,128,0,27918:0:0:0:0:
475,192,24436,128,0,27918:0:0:0:0:
329,192,24436,1,0,0:0:0:0:
182,192,24548,1,0,0:0:0:0:
329,192,24659,1,0,0:0:0:0:
182,192,24793,1,0,0:0:0:0:
329,192,24950,1,0,0:0:0:0:
182,192,25195,1,0,0:0:0:0:
329,192,25418,1,0,0:0:0:0:
109,192,25686,1,0,0:0:0:0:
402,192,25865,1,0,0:0:0:0:
402,192,26222,1,0,0:0:0:0:
109,192,26445,1,0,0:0:0:0:
109,192,26936,1,0,0:0:0:0:
402,192,27204,1,0,0:0:0:0:
182,192,27606,128,0,27918:0:0:0:0:
329,192,27606,128,0,27918:0:0:0:0:
182,192,28008,1,0,0:0:0:0:
256,192,28030,1,0,0:0:0:0:
329,192,28052,1,0,0:0:0:0:
182,192,28186,1,0,0:0:0:0:
109,192,28209,1,0,0:0:0:0:
36,192,28231,1,0,0:0:0:0:
329,192,28365,1,0,0:0:0:0:
256,192,28387,1,0,0:0:0:0:
182,192,28409,1,0,0:0:0:0:
475,192,28543,1,0,0:0:0:0:
402,192,28566,1,0,0:0:0:0:
329,192,28588,1,0,0:0:0:0:
182,192,28722,128,0,30061:0:0:0:0:
402,192,28722,128,0,30061:0:0:0:0:
475,192,28722,128,0,30061:0:0:0:0:
36,192,28722,128,0,30061:0:0:0:0:
109,192,30150,128,0,33633:0:0:0:0:
256,192,30150,128,0,33633:0:0:0:0:
402,192,30150,128,0,33633:0:0:0:0:
329,192,30150,1,0,0:0:0:0:
182,192,30262,1,0,0:0:0:0:
329,192,30374,1,0,0:0:0:0:
182,192,30508,1,0,0:0:0:0:
329,192,30664,1,0,0:0:0:0:
182,192,30909,1,0,0:0:0:0:
329,192,31133,1,0,0:0:0:0:
36,192,31400,1,0,0:0:0:0:
475,192,31579,1,0,0:0:0:0:
475,192,31936,1,0,0:0:0:0:
36,192,32159,1,0,0:0:0:0:
36,192,32650,1,0,0:0:0:0:
475,192,32918,1,0,0:0:0:0:
182,192,33320,128,0,33633:0:0:0:0:
329,192,33320,128,0,33633:0:0:0:0:
182,192,33722,1,0,0:0:0:0:
329,192,33722,1,0,0:0:0:0:
109,192,33841,1,0,0:0:0:0:
36,192,33841,1,0,0:0:0:0:
402,192,33900,1,0,0:0:0:0:
475,192,33900,1,0,0:0:0:0:
182,192,33960,1,0,0:0:0:0:
329,192,34020,1,0,0:0:0:0:
109,192,34079,1,0,0:0:0:0:
402,192,34168,128,0,34287:0:0:0:0:
475,192,34168,128,0,34287:0:0:0:0:
109,192,34287,1,0,0:0:0:0:
182,192,34317,1,0,0:0:0:0:
329,192,34347,1,0,0:0:0:0:
36,192,34436,128,0,35775:0:0:0:0:
475,192,34436,128,0,35775:0:0:0:0:
256,192,34436,128,0,35775:0:0:0:0:
109,192,34436,128,0,35775:0:0:0:0:
256,192,35865,128,0,39347:0:0:0:0:
329,192,35865,128,0,39347:0:0:0:0:
182,192,35865,128,0,39347:0:0:0:0:
402,192,35865,1,0,0:0:0:0:
109,192,35976,1,0,0:0:0:0:
402,192,36088,1,0,0:0:0:0:
109,192,36222,1,0,0:0:0:0:
402,192,36378,1,0,0:0:0:0:
109,192,36624,1,0,0:0:0:0:
402,192,36847,1,0,0:0:0:0:
36,192,37115,1,0,0:0:0:0:
475,192,37293,1,0,0:0:0:0:
475,192,37650,1,0,0:0:0:0:
109,192,37874,1,0,0:0:0:0:
36,192,38186,1,0,0:0:0:0:
402,192,38543,1,0,0:0:0:0:
109,192,38722,1,0,0:0:0:0:
36,192,39034,128,0,39347:0:0:0:0:
475,192,39034,128,0,39347:0:0:0:0:
182,192,39436,1,0,0:0:0:0:
329,192,39436,1,0,0:0:0:0:
36,192,39555,1,0,0:0:0:0:
475,192,39555,1,0,0:0:0:0:
182,192,39615,1,0,0:0:0:0:
256,192,39674,1,0,0:0:0:0:
329,192,39734,1,0,0:0:0:0:
475,192,39793,1,0,0:0:0:0:
109,192,39853,1,0,0:0:0:0:
182,192,39912,1,0,0:0:0:0:
402,192,39972,1,0,0:0:0:0:
329,192,40017,1,0,0:0:0:0:
182,192,40061,1,0,0:0:0:0:
109,192,40106,1,0,0:0:0:0:
256,192,40150,128,0,41579:0:0:0:0:
36,192,40150,128,0,42918:0:0:0:0:
402,192,40150,128,0,41579:0:0:0:0:
475,192,40150,128,0,42918:0:0:0:0:
329,192,41579,128,0,42918:0:0:0:0:
182,192,41579,128,0,42918:0:0:0:0:
109,192,43008,128,0,45775:0:0:0:0:
36,192,43008,128,0,44436:0:0:0:0:
402,192,43008,128,0,45775:0:0:0:0:
475,192,43008,128,0,44436:0:0:0:0:
256,192,44436,128,0,45775:0:0:0:0:
182,192,45508,128,0,45775:0:0:0:0:
329,192,45508,128,0,45775:0:0:0:0:
109,192,45865,1,0,0:0:0:0:
182,192,45865,1,0,0:0:0:0:
182,192,45984,1,0,0:0:0:0:
109,192,45984,1,0,0:0:0:0:
109,192,46103,1,0,0:0:0:0:
182,192,46103,1,0,0:0:0:0:
402,192,46222,1,0,0:0:0:0:
329,192,46311,1,0,0:0:0:0:
402,192,46400,128,0,46490:0:0:0:0:
329,192,46490,128,0,46579:0:0:0:0:
109,192,46579,1,0,0:0:0:0:
36,192,46579,1,0,0:0:0:0:
256,192,46579,128,0,47204:0:0:0:0:
475,192,46579,128,0,47204:0:0:0:0:
182,192,46668,1,0,0:0:0:0:
329,192,46758,1,0,0:0:0:0:
109,192,46847,1,0,0:0:0:0:
402,192,46936,128,0,47204:0:0:0:0:
182,192,47025,1,0,0:0:0:0:
329,192,47115,1,0,0:0:0:0:
182,192,47204,1,0,0:0:0:0:
109,192,47293,128,0,47918:0:0:0:0:
402,192,47293,128,0,47918:0:0:0:0:
36,192,47293,1,0,0:0:0:0:
182,192,47472,1,0,0:0:0:0:
329,192,47472,1,0,0:0:0:0:
256,192,47650,1,0,0:0:0:0:
475,192,47650,1,0,0:0:0:0:
329,192,47829,1,0,0:0:0:0:
182,192,47829,1,0,0:0:0:0:
402,192,48008,128,0,48633:0:0:0:0:
109,192,48008,128,0,48633:0:0:0:0:
36,192,48008,1,0,0:0:0:0:
475,192,48008,1,0,0:0:0:0:
329,192,48186,128,0,48275:0:0:0:0:
182,192,48275,128,0,48633:0:0:0:0:
329,192,48499,128,0,48633:0:0:0:0:
402,192,48722,128,0,49079:0:0:0:0:
475,192,48722,128,0,49079:0:0:0:0:
182,192,48722,1,0,0:0:0:0:
109,192,48722,1,0,0:0:0:0:
329,192,48900,128,0,49079:0:0:0:0:
182,192,49079,1,0,0:0:0:0:
36,192,49079,1,0,0:0:0:0:
329,192,49168,1,0,0:0:0:0:
182,192,49258,1,0,0:0:0:0:
402,192,49258,1,0,0:0:0:0:
329,192,49347,1,0,0:0:0:0:
109,192,49436,128,0,49793:0:0:0:0:
36,192,49436,128,0,49793:0:0:0:0:
256,192,49436,1,0,0:0:0:0:
475,192,49436,1,0,0:0:0:0:
182,192,49615,128,0,49793:0:0:0:0:
329,192,49793,1,0,0:0:0:0:
475,192,49793,1,0,0:0:0:0:
256,192,49883,1,0,0:0:0:0:
329,192,49972,1,0,0:0:0:0:
109,192,49972,1,0,0:0:0:0:
182,192,50061,1,0,0:0:0:0:
402,192,50150,128,0,50508:0:0:0:0:
475,192,50150,128,0,50508:0:0:0:0:
256,192,50150,1,0,0:0:0:0:
36,192,50150,1,0,0:0:0:0:
329,192,50329,128,0,50508:0:0:0:0:
36,192,50508,1,0,0:0:0:0:
109,192,50552,1,0,0:0:0:0:
182,192,50597,1,0,0:0:0:0:
402,192,50686,1,0,0:0:0:0:
329,192,50731,1,0,0:0:0:0:
256,192,50775,1,0,0:0:0:0:
182,192,50865,1,0,0:0:0:0:
109,192,50865,1,0,0:0:0:0:
36,192,50865,1,0,0:0:0:0:
475,192,50865,1,0,0:0:0:0:
402,192,51043,128,0,51133:0:0:0:0:
182,192,51162,128,0,51252:0:0:0:0:
329,192,51301,128,0,51381:0:0:0:0:
109,192,51420,128,0,51500:0:0:0:0:
256,192,51579,128,0,52204:0:0:0:0:
36,192,51579,128,0,52204:0:0:0:0:
329,192,51579,1,0,0:0:0:0:
475,192,51579,1,0,0:0:0:0:
182,192,51668,1,0,0:0:0:0:
402,192,51758,1,0,0:0:0:0:
109,192,51847,1,0,0:0:0:0:
329,192,51936,128,0,52204:0:0:0:0:
182,192,52025,1,0,0:0:0:0:
402,192,52115,1,0,0:0:0:0:
109,192,52204,1,0,0:0:0:0:
256,192,52293,128,0,52650:0:0:0:0:
36,192,52293,128,0,52650:0:0:0:0:
329,192,52293,1,0,0:0:0:0:
475,192,52293,1,0,0:0:0:0:
182,192,52472,1,0,0:0:0:0:
402,192,52650,128,0,52918:0:0:0:0:
475,192,52650,128,0,52918:0:0:0:0:
256,192,52829,1,0,0:0:0:0:
329,192,53008,128,0,53633:0:0:0:0:
109,192,53008,128,0,53633:0:0:0:0:
36,192,53008,1,0,0:0:0:0:
256,192,53186,1,0,0:0:0:0:
475,192,53186,1,0,0:0:0:0:
402,192,53365,1,0,0:0:0:0:
182,192,53365,1,0,0:0:0:0:
256,192,53543,1,0,0:0:0:0:
36,192,53543,1,0,0:0:0:0:
109,192,53722,128,0,54347:0:0:0:0:
329,192,53722,128,0,54347:0:0:0:0:
402,192,53722,1,0,0:0:0:0:
475,192,53722,1,0,0:0:0:0:
182,192,53900,128,0,53990:0:0:0:0:
402,192,53990,128,0,54347:0:0:0:0:
182,192,54213,128,0,54347:0:0:0:0:
109,192,54436,128,0,54793:0:0:0:0:
36,192,54436,128,0,54793:0:0:0:0:
256,192,54436,1,0,0:0:0:0:
182,192,54615,128,0,54793:0:0:0:0:
329,192,54793,1,0,0:0:0:0:
402,192,54793,1,0,0:0:0:0:
182,192,54883,1,0,0:0:0:0:
329,192,54972,1,0,0:0:0:0:
402,192,54972,1,0,0:0:0:0:
182,192,55061,1,0,0:0:0:0:
402,192,55150,128,0,55508:0:0:0:0:
475,192,55150,128,0,55508:0:0:0:0:
256,192,55150,1,0,0:0:0:0:
36,192,55150,1,0,0:0:0:0:
329,192,55329,128,0,55508:0:0:0:0:
182,192,55508,1,0,0:0:0:0:
256,192,55508,1,0,0:0:0:0:
109,192,55597,1,0,0:0:0:0:
36,192,55597,1,0,0:0:0:0:
329,192,55686,1,0,0:0:0:0:
475,192,55731,1,0,0:0:0:0:
256,192,55775,1,0,0:0:0:0:
402,192,55820,1,0,0:0:0:0:
329,192,55865,1,0,0:0:0:0:
109,192,55865,128,0,56222:0:0:0:0:
36,192,55865,128,0,56222:0:0:0:0:
182,192,55865,1,0,0:0:0:0:
182,192,56043,128,0,56222:0:0:0:0:
256,192,56222,128,0,56579:0:0:0:0:
36,192,56579,128,0,56787:0:0:0:0:
109,192,56579,128,0,56787:0:0:0:0:
182,192,56579,128,0,56787:0:0:0:0:
329,192,56579,128,0,56698:0:0:0:0:
402,192,56579,128,0,56698:0:0:0:0:
475,192,56579,128,0,56698:0:0:0:0:
329,192,56787,128,0,56966:0:0:0:0:
402,192,56787,128,0,56966:0:0:0:0:
475,192,56787,128,0,56966:0:0:0:0:
182,192,56877,128,0,56966:0:0:0:0:
109,192,56877,128,0,56966:0:0:0:0:
36,192,56877,128,0,56966:0:0:0:0:
256,192,56966,128,0,57174:0:0:0:0:
329,192,57174,128,0,57293:0:0:0:0:
402,192,57293,1,0,0:0:0:0:
182,192,57293,128,0,57918:0:0:0:0:
475,192,57293,128,0,57918:0:0:0:0:
256,192,57383,1,0,0:0:0:0:
109,192,57472,1,0,0:0:0:0:
329,192,57561,1,0,0:0:0:0:
36,192,57650,1,0,0:0:0:0:
256,192,57740,1,0,0:0:0:0:
109,192,57829,1,0,0:0:0:0:
329,192,57918,1,0,0:0:0:0:
182,192,58008,128,0,58365:0:0:0:0:
402,192,58008,1,0,0:0:0:0:
36,192,58008,1,0,0:0:0:0:
475,192,58008,128,0,58365:0:0:0:0:
329,192,58186,1,0,0:0:0:0:
256,192,58365,128,0,58633:0:0:0:0:
402,192,58365,128,0,58633:0:0:0:0:
109,192,58543,1,0,0:0:0:0:
36,192,58722,128,0,60061:0:0:0:0:
329,192,58722,128,0,60061:0:0:0:0:
182,192,58722,1,0,0:0:0:0:
256,192,58900,1,0,0:0:0:0:
475,192,58900,1,0,0:0:0:0:
402,192,59079,1,0,0:0:0:0:
109,192,59079,1,0,0:0:0:0:
182,192,59258,1,0,0:0:0:0:
256,192,59258,1,0,0:0:0:0:
402,192,59436,1,0,0:0:0:0:
475,192,59436,1,0,0:0:0:0:
109,192,59436,1,0,0:0:0:0:
256,192,59615,128,0,59704:0:0:0:0:
109,192,59704,128,0,60061:0:0:0:0:
256,192,59927,128,0,60061:0:0:0:0:
329,192,60150,128,0,60508:0:0:0:0:
475,192,60150,128,0,60508:0:0:0:0:
182,192,60150,1,0,0:0:0:0:
256,192,60329,128,0,60508:0:0:0:0:
109,192,60508,1,0,0:0:0:0:
182,192,60567,1,0,0:0:0:0:
36,192,60627,1,0,0:0:0:0:
402,192,60686,1,0,0:0:0:0:
329,192,60746,1,0,0:0:0:0:
475,192,60805,1,0,0:0:0:0:
36,192,60865,128,0,61222:0:0:0:0:
182,192,60865,128,0,61222:0:0:0:0:
402,192,60865,1,0,0:0:0:0:
256,192,60865,1,0,0:0:0:0:
256,192,61043,128,0,61222:0:0:0:0:
329,192,61222,1,0,0:0:0:0:
402,192,61281,1,0,0:0:0:0:
329,192,61341,1,0,0:0:0:0:
182,192,61400,1,0,0:0:0:0:
109,192,61460,1,0,0:0:0:0:
182,192,61520,1,0,0:0:0:0:
329,192,61579,128,0,61936:0:0:0:0:
475,192,61579,128,0,61936:0:0:0:0:
256,192,61579,1,0,0:0:0:0:
36,192,61579,1,0,0:0:0:0:
256,192,61758,128,0,61936:0:0:0:0:
36,192,61936,1,0,0:0:0:0:
182,192,61981,1,0,0:0:0:0:
475,192,62025,1,0,0:0:0:0:
329,192,62070,1,0,0:0:0:0:
109,192,62115,1,0,0:0:0:0:
182,192,62159,1,0,0:0:0:0:
402,192,62204,1,0,0:0:0:0:
329,192,62249,1,0,0:0:0:0:
256,192,62293,1,0,0:0:0:0:
109,192,62293,1,0,0:0:0:0:
36,192,62293,1,0,0:0:0:0:
475,192,62293,1,0,0:0:0:0:
36,192,63008,128,0,63633:0:0:0:0:
475,192,63008,128,0,63633:0:0:0:0:
256,192,63008,1,0,0:0:0:0:
329,192,63186,1,0,0:0:0:0:
182,192,63275,1,0,0:0:0:0:
402,192,63365,1,0,0:0:0:0:
109,192,63454,1,0,0:0:0:0:
329,192,63543,1,0,0:0:0:0:
182,192,63633,1,0,0:0:0:0:
475,192,63722,128,0,64436:0:0:0:0:
36,192,63722,128,0,64436:0:0:0:0:
256,192,63722,1,0,0:0:0:0:
402,192,63722,1,0,0:0:0:0:
329,192,63811,1,0,0:0:0:0:
182,192,63900,1,0,0:0:0:0:
402,192,63990,1,0,0:0:0:0:
109,192,64079,1,0,0:0:0:0:
329,192,64168,1,0,0:0:0:0:
182,192,64258,1,0,0:0:0:0:
329,192,64347,1,0,0:0:0:0:
109,192,64436,128,0,65061:0:0:0:0:
402,192,64436,128,0,65061:0:0:0:0:
256,192,64436,1,0,0:0:0:0:
182,192,64615,1,0,0:0:0:0:
329,192,64615,1,0,0:0:0:0:
256,192,64793,1,0,0:0:0:0:
475,192,64793,1,0,0:0:0:0:
329,192,64972,1,0,0:0:0:0:
182,192,64972,1,0,0:0:0:0:
109,192,65150,128,0,65508:0:0:0:0:
402,192,65150,128,0,65508:0:0:0:0:
256,192,65150,1,0,0:0:0:0:
475,192,65150,1,0,0:0:0:0:
329,192,65329,1,0,0:0:0:0:
36,192,65329,1,0,0:0:0:0:
256,192,65508,1,0,0:0:0:0:
475,192,65597,1,0,0:0:0:0:
402,192,65642,1,0,0:0:0:0:
329,192,65686,1,0,0:0:0:0:
256,192,65731,1,0,0:0:0:0:
182,192,65775,1,0,0:0:0:0:
109,192,65820,1,0,0:0:0:0:
475,192,65865,1,0,0:0:0:0:
36,192,65865,128,0,67293:0:0:0:0:
402,192,65865,1,0,0:0:0:0:
329,192,65984,1,0,0:0:0:0:
256,192,65984,1,0,0:0:0:0:
402,192,66103,1,0,0:0:0:0:
475,192,66103,1,0,0:0:0:0:
256,192,66222,1,0,0:0:0:0:
182,192,66222,1,0,0:0:0:0:
329,192,66341,1,0,0:0:0:0:
402,192,66341,1,0,0:0:0:0:
256,192,66460,1,0,0:0:0:0:
182,192,66460,1,0,0:0:0:0:
329,192,66579,1,0,0:0:0:0:
402,192,66579,1,0,0:0:0:0:
475,192,66579,1,0,0:0:0:0:
109,192,66698,1,0,0:0:0:0:
182,192,66698,1,0,0:0:0:0:
402,192,66817,1,0,0:0:0:0:
475,192,66817,1,0,0:0:0:0:
256,192,66936,1,0,0:0:0:0:
182,192,66936,1,0,0:0:0:0:
329,192,67055,1,0,0:0:0:0:
402,192,67055,1,0,0:0:0:0:
182,192,67174,1,0,0:0:0:0:
109,192,67174,1,0,0:0:0:0:
475,192,67293,128,0,68722:0:0:0:0:
256,192,67293,1,0,0:0:0:0:
402,192,67293,1,0,0:0:0:0:
182,192,67353,1,0,0:0:0:0:
109,192,67412,1,0,0:0:0:0:
329,192,67472,1,0,0:0:0:0:
256,192,67531,1,0,0:0:0:0:
182,192,67591,1,0,0:0:0:0:
109,192,67650,1,0,0:0:0:0:
36,192,67650,1,0,0:0:0:0:
402,192,67710,1,0,0:0:0:0:
329,192,67770,1,0,0:0:0:0:
109,192,67829,1,0,0:0:0:0:
182,192,67889,1,0,0:0:0:0:
256,192,67948,1,0,0:0:0:0:
329,192,68008,1,0,0:0:0:0:
402,192,68008,1,0,0:0:0:0:
36,192,68008,1,0,0:0:0:0:
36,192,68246,1,0,0:0:0:0:
109,192,68246,1,0,0:0:0:0:
182,192,68246,1,0,0:0:0:0:
36,192,68484,1,0,0:0:0:0:
109,192,68484,1,0,0:0:0:0:
182,192,68484,1,0,0:0:0:0:
329,192,68722,1,0,0:0:0:0:
182,192,68781,1,0,0:0:0:0:
402,192,68841,1,0,0:0:0:0:
109,192,68900,1,0,0:0:0:0:
329,192,68960,1,0,0:0:0:0:
182,192,69020,1,0,0:0:0:0:
256,192,69079,1,0,0:0:0:0:
402,192,69079,1,0,0:0:0:0:
475,192,69079,1,0,0:0:0:0:
36,192,69168,1,0,0:0:0:0:
182,192,69258,1,0,0:0:0:0:
475,192,69258,1,0,0:0:0:0:
36,192,69347,1,0,0:0:0:0:
256,192,69436,1,0,0:0:0:0:
402,192,69436,1,0,0:0:0:0:
182,192,69615,1,0,0:0:0:0:
109,192,69615,1,0,0:0:0:0:
329,192,69615,1,0,0:0:0:0:
475,192,69793,1,0,0:0:0:0:
109,192,69793,1,0,0:0:0:0:
329,192,69883,1,0,0:0:0:0:
475,192,69972,1,0,0:0:0:0:
182,192,69972,1,0,0:0:0:0:
36,192,70150,1,0,0:0:0:0:
402,192,70150,1,0,0:0:0:0:
329,192,70270,1,0,0:0:0:0:
182,192,70270,1,0,0:0:0:0:
36,192,70329,1,0,0:0:0:0:
475,192,70389,1,0,0:0:0:0:
256,192,70389,1,0,0:0:0:0:
109,192,70508,1,0,0:0:0:0:
329,192,70508,1,0,0:0:0:0:
402,192,70597,1,0,0:0:0:0:
329,192,70686,1,0,0:0:0:0:
182,192,70686,1,0,0:0:0:0:
256,192,70865,1,0,0:0:0:0:
36,192,70865,1,0,0:0:0:0:
109,192,70865,1,0,0:0:0:0:
475,192,70924,1,0,0:0:0:0:
329,192,70984,1,0,0:0:0:0:
182,192,71043,128,0,71222:0:0:0:0:
329,192,71222,128,0,71579:0:0:0:0:
36,192,71400,1,0,0:0:0:0:
256,192,71400,1,0,0:0:0:0:
402,192,71579,1,0,0:0:0:0:
475,192,71579,1,0,0:0:0:0:
109,192,71579,1,0,0:0:0:0:
402,192,71758,1,0,0:0:0:0:
475,192,71758,1,0,0:0:0:0:
182,192,71758,1,0,0:0:0:0:
36,192,71936,1,0,0:0:0:0:
109,192,71936,1,0,0:0:0:0:
182,192,71936,1,0,0:0:0:0:
475,192,72025,1,0,0:0:0:0:
329,192,72115,1,0,0:0:0:0:
36,192,72115,1,0,0:0:0:0:
475,192,72204,1,0,0:0:0:0:
256,192,72293,1,0,0:0:0:0:
402,192,72293,1,0,0:0:0:0:
182,192,72472,1,0,0:0:0:0:
109,192,72472,1,0,0:0:0:0:
329,192,72472,1,0,0:0:0:0:
36,192,72650,1,0,0:0:0:0:
402,192,72650,1,0,0:0:0:0:
182,192,72740,1,0,0:0:0:0:
36,192,72829,1,0,0:0:0:0:
329,192,72829,1,0,0:0:0:0:
475,192,73008,1,0,0:0:0:0:
109,192,73008,1,0,0:0:0:0:
182,192,73127,1,0,0:0:0:0:
329,192,73127,1,0,0:0:0:0:
475,192,73186,1,0,0:0:0:0:
36,192,73246,1,0,0:0:0:0:
256,192,73246,1,0,0:0:0:0:
182,192,73365,1,0,0:0:0:0:
402,192,73365,1,0,0:0:0:0:
109,192,73454,1,0,0:0:0:0:
182,192,73543,1,0,0:0:0:0:
329,192,73543,1,0,0:0:0:0:
475,192,73722,1,0,0:0:0:0:
256,192,73722,1,0,0:0:0:0:
402,192,73722,1,0,0:0:0:0:
36,192,73781,1,0,0:0:0:0:
182,192,73841,1,0,0:0:0:0:
329,192,73900,1,0,0:0:0:0:
256,192,74079,1,0,0:0:0:0:
36,192,74079,1,0,0:0:0:0:
475,192,74139,1,0,0:0:0:0:
329,192,74198,1,0,0:0:0:0:
182,192,74258,1,0,0:0:0:0:
402,192,74436,1,0,0:0:0:0:
475,192,74436,1,0,0:0:0:0:
256,192,74436,128,0,74793:0:0:0:0:
109,192,74615,1,0,0:0:0:0:
36,192,74615,1,0,0:0:0:0:
402,192,74793,1,0,0:0:0:0:
475,192,74793,1,0,0:0:0:0:
329,192,74793,1,0,0:0:0:0:
36,192,74883,1,0,0:0:0:0:
182,192,74972,1,0,0:0:0:0:
475,192,74972,1,0,0:0:0:0:
36,192,75061,1,0,0:0:0:0:
256,192,75150,1,0,0:0:0:0:
329,192,75150,1,0,0:0:0:0:
182,192,75329,1,0,0:0:0:0:
109,192,75329,1,0,0:0:0:0:
402,192,75329,1,0,0:0:0:0:
109,192,75508,1,0,0:0:0:0:
329,192,75508,1,0,0:0:0:0:
402,192,75597,1,0,0:0:0:0:
329,192,75686,1,0,0:0:0:0:
182,192,75686,1,0,0:0:0:0:
402,192,75865,1,0,0:0:0:0:
109,192,75865,1,0,0:0:0:0:
182,192,75984,1,0,0:0:0:0:
475,192,75984,1,0,0:0:0:0:
36,192,76043,1,0,0:0:0:0:
256,192,76103,1,0,0:0:0:0:
402,192,76103,1,0,0:0:0:0:
182,192,76222,1,0,0:0:0:0:
329,192,76222,1,0,0:0:0:0:
402,192,76311,1,0,0:0:0:0:
329,192,76400,1,0,0:0:0:0:
109,192,76400,1,0,0:0:0:0:
256,192,76579,1,0,0:0:0:0:
36,192,76579,1,0,0:0:0:0:
109,192,76579,1,0,0:0:0:0:
402,192,76639,1,0,0:0:0:0:
182,192,76698,1,0,0:0:0:0:
329,192,76758,128,0,76936:0:0:0:0:
109,192,76936,128,0,77293:0:0:0:0:
475,192,77115,1,0,0:0:0:0:
256,192,77115,1,0,0:0:0:0:
402,192,77293,1,0,0:0:0:0:
329,192,77293,1,0,0:0:0:0:
182,192,77293,1,0,0:0:0:0:
182,192,77472,1,0,0:0:0:0:
329,192,77472,1,0,0:0:0:0:
256,192,77650,1,0,0:0:0:0:
109,192,77650,1,0,0:0:0:0:
36,192,77650,1,0,0:0:0:0:
402,192,77740,1,0,0:0:0:0:
475,192,77740,1,0,0:0:0:0:
329,192,77829,1,0,0:0:0:0:
182,192,77829,1,0,0:0:0:0:
109,192,77918,1,0,0:0:0:0:
36,192,77918,1,0,0:0:0:0:
256,192,78008,1,0,0:0:0:0:
475,192,78008,1,0,0:0:0:0:
402,192,78008,1,0,0:0:0:0:
402,192,78186,1,0,0:0:0:0:
329,192,78186,1,0,0:0:0:0:
182,192,78186,1,0,0:0:0:0:
109,192,78365,1,0,0:0:0:0:
36,192,78365,1,0,0:0:0:0:
182,192,78454,1,0,0:0:0:0:
256,192,78454,1,0,0:0:0:0:
329,192,78543,1,0,0:0:0:0:
402,192,78543,1,0,0:0:0:0:
402,192,78722,1,0,0:0:0:0:
475,192,78722,1,0,0:0:0:0:
109,192,78722,1,0,0:0:0:0:
329,192,78841,1,0,0:0:0:0:
256,192,78841,1,0,0:0:0:0:
182,192,78960,1,0,0:0:0:0:
109,192,78960,1,0,0:0:0:0:
36,192,79079,1,0,0:0:0:0:
402,192,79079,1,0,0:0:0:0:
475,192,79079,1,0,0:0:0:0:
182,192,79198,1,0,0:0:0:0:
329,192,79198,1,0,0:0:0:0:
109,192,79317,1,0,0:0:0:0:
36,192,79317,1,0,0:0:0:0:
256,192,79436,1,0,0:0:0:0:
475,192,79436,1,0,0:0:0:0:
182,192,79436,1,0,0:0:0:0:
329,192,79496,1,0,0:0:0:0:
402,192,79555,1,0,0:0:0:0:
109,192,79615,1,0,0:0:0:0:
182,192,79674,1,0,0:0:0:0:
256,192,79734,1,0,0:0:0:0:
475,192,79793,1,0,0:0:0:0:
36,192,79793,1,0,0:0:0:0:
329,192,79853,1,0,0:0:0:0:
182,192,79912,1,0,0:0:0:0:
402,192,79972,1,0,0:0:0:0:
109,192,80031,1,0,0:0:0:0:
329,192,80091,1,0,0:0:0:0:
256,192,80150,1,0,0:0:0:0:
36,192,80150,1,0,0:0:0:0:
475,192,80150,1,0,0:0:0:0:
329,192,80270,1,0,0:0:0:0:
182,192,80389,1,0,0:0:0:0:
256,192,80508,1,0,0:0:0:0:
109,192,80508,1,0,0:0:0:0:
36,192,80508,1,0,0:0:0:0:
402,192,80508,1,0,0:0:0:0:
475,192,80597,1,0,0:0:0:0:
329,192,80686,1,0,0:0:0:0:
475,192,80775,1,0,0:0:0:0:
256,192,80865,1,0,0:0:0:0:
109,192,80865,1,0,0:0:0:0:
329,192,81043,1,0,0:0:0:0:
402,192,81043,1,0,0:0:0:0:
182,192,81043,1,0,0:0:0:0:
36,192,81222,1,0,0:0:0:0:
402,192,81222,1,0,0:0:0:0:
182,192,81311,1,0,0:0:0:0:
36,192,81400,1,0,0:0:0:0:
329,192,81400,1,0,0:0:0:0:
475,192,81579,1,0,0:0:0:0:
109,192,81579,1,0,0:0:0:0:
182,192,81698,1,0,0:0:0:0:
329,192,81698,1,0,0:0:0:0:
475,192,81758,1,0,0:0:0:0:
36,192,81817,1,0,0:0:0:0:
256,192,81817,1,0,0:0:0:0:
402,192,81936,1,0,0:0:0:0:
182,192,81936,1,0,0:0:0:0:
109,192,82025,1,0,0:0:0:0:
182,192,82115,1,0,0:0:0:0:
475,192,82115,1,0,0:0:0:0:
256,192,82293,1,0,0:0:0:0:
475,192,82293,1,0,0:0:0:0:
402,192,82293,1,0,0:0:0:0:
36,192,82353,1,0,0:0:0:0:
182,192,82412,1,0,0:0:0:0:
329,192,82472,128,0,82650:0:0:0:0:
182,192,82650,128,0,83008:0:0:0:0:
475,192,82829,1,0,0:0:0:0:
256,192,82829,1,0,0:0:0:0:
109,192,83008,1,0,0:0:0:0:
36,192,83008,1,0,0:0:0:0:
402,192,83008,1,0,0:0:0:0:
109,192,83186,1,0,0:0:0:0:
36,192,83186,1,0,0:0:0:0:
329,192,83186,1,0,0:0:0:0:
475,192,83365,1,0,0:0:0:0:
402,192,83365,1,0,0:0:0:0:
329,192,83365,1,0,0:0:0:0:
36,192,83454,1,0,0:0:0:0:
182,192,83543,1,0,0:0:0:0:
475,192,83543,1,0,0:0:0:0:
36,192,83633,1,0,0:0:0:0:
256,192,83722,1,0,0:0:0:0:
109,192,83722,1,0,0:0:0:0:
329,192,83900,1,0,0:0:0:0:
402,192,83900,1,0,0:0:0:0:
182,192,83900,1,0,0:0:0:0:
475,192,84079,1,0,0:0:0:0:
109,192,84079,1,0,0:0:0:0:
329,192,84168,1,0,0:0:0:0:
475,192,84258,1,0,0:0:0:0:
182,192,84258,1,0,0:0:0:0:
36,192,84436,1,0,0:0:0:0:
402,192,84436,1,0,0:0:0:0:
329,192,84555,1,0,0:0:0:0:
182,192,84555,1,0,0:0:0:0:
36,192,84615,1,0,0:0:0:0:
475,192,84674,1,0,0:0:0:0:
256,192,84674,1,0,0:0:0:0:
329,192,84793,1,0,0:0:0:0:
109,192,84793,1,0,0:0:0:0:
402,192,84883,1,0,0:0:0:0:
329,192,84972,1,0,0:0:0:0:
182,192,84972,1,0,0:0:0:0:
36,192,85150,1,0,0:0:0:0:
256,192,85150,1,0,0:0:0:0:
109,192,85150,1,0,0:0:0:0:
475,192,85210,1,0,0:0:0:0:
329,192,85270,1,0,0:0:0:0:
182,192,85329,1,0,0:0:0:0:
256,192,85508,1,0,0:0:0:0:
475,192,85508,1,0,0:0:0:0:
36,192,85567,1,0,0:0:0:0:
182,192,85627,1,0,0:0:0:0:
329,192,85686,1,0,0:0:0:0:
109,192,85865,1,0,0:0:0:0:
36,192,85865,1,0,0:0:0:0:
256,192,85865,128,0,86222:0:0:0:0:
402,192,86043,1,0,0:0:0:0:
475,192,86043,1,0,0:0:0:0:
109,192,86222,1,0,0:0:0:0:
36,192,86222,1,0,0:0:0:0:
182,192,86222,1,0,0:0:0:0:
475,192,86311,1,0,0:0:0:0:
329,192,86400,1,0,0:0:0:0:
475,192,86490,1,0,0:0:0:0:
256,192,86579,1,0,0:0:0:0:
182,192,86579,1,0,0:0:0:0:
329,192,86758,1,0,0:0:0:0:
402,192,86758,1,0,0:0:0:0:
36,192,86758,1,0,0:0:0:0:
402,192,86936,1,0,0:0:0:0:
182,192,86936,1,0,0:0:0:0:
109,192,87025,1,0,0:0:0:0:
182,192,87115,1,0,0:0:0:0:
329,192,87115,1,0,0:0:0:0:
109,192,87293,1,0,0:0:0:0:
402,192,87293,1,0,0:0:0:0:
182,192,87412,1,0,0:0:0:0:
329,192,87412,1,0,0:0:0:0:
475,192,87472,1,0,0:0:0:0:
36,192,87531,1,0,0:0:0:0:
256,192,87531,1,0,0:0:0:0:
329,192,87650,1,0,0:0:0:0:
182,192,87650,1,0,0:0:0:0:
109,192,87740,1,0,0:0:0:0:
182,192,87829,1,0,0:0:0:0:
256,192,88008,1,0,0:0:0:0:
475,192,88008,1,0,0:0:0:0:
402,192,88008,1,0,0:0:0:0:
109,192,88067,1,0,0:0:0:0:
329,192,88127,1,0,0:0:0:0:
182,192,88186,128,0,88365:0:0:0:0:
402,192,88365,128,0,88722:0:0:0:0:
36,192,88543,1,0,0:0:0:0:
256,192,88543,1,0,0:0:0:0:
109,192,88722,1,0,0:0:0:0:
182,192,88722,1,0,0:0:0:0:
329,192,88722,1,0,0:0:0:0:
329,192,88900,1,0,0:0:0:0:
182,192,88900,1,0,0:0:0:0:
256,192,89079,1,0,0:0:0:0:
402,192,89079,1,0,0:0:0:0:
475,192,89079,1,0,0:0:0:0:
109,192,89168,1,0,0:0:0:0:
36,192,89168,1,0,0:0:0:0:
182,192,89258,1,0,0:0:0:0:
329,192,89258,1,0,0:0:0:0:
402,192,89347,1,0,0:0:0:0:
475,192,89347,1,0,0:0:0:0:
256,192,89436,1,0,0:0:0:0:
36,192,89436,1,0,0:0:0:0:
109,192,89436,1,0,0:0:0:0:
109,192,89615,1,0,0:0:0:0:
182,192,89615,1,0,0:0:0:0:
329,192,89615,1,0,0:0:0:0:
402,192,89793,1,0,0:0:0:0:
475,192,89793,1,0,0:0:0:0:
329,192,89883,1,0,0:0:0:0:
182,192,89883,1,0,0:0:0:0:
36,192,89972,1,0,0:0:0:0:
109,192,89972,1,0,0:0:0:0:
182,192,90031,1,0,0:0:0:0:
329,192,90091,1,0,0:0:0:0:
402,192,90150,1,0,0:0:0:0:
475,192,90150,1,0,0:0:0:0:
36,192,90150,1,0,0:0:0:0:
36,192,90508,128,0,90686:0:0:0:0:
475,192,90686,128,0,90865:0:0:0:0:
256,192,90865,128,0,91103:0:0:0:0:
182,192,91103,1,0,0:0:0:0:
329,192,91162,1,0,0:0:0:0:
256,192,91222,128,0,91579:0:0:0:0:
36,192,91579,128,0,91847:0:0:0:0:
402,192,91579,128,0,91758:0:0:0:0:
109,192,91579,128,0,91847:0:0:0:0:
475,192,91579,128,0,91758:0:0:0:0:
475,192,91847,128,0,92115:0:0:0:0:
329,192,91847,128,0,92115:0:0:0:0:
402,192,91847,128,0,92115:0:0:0:0:
256,192,92115,128,0,92293:0:0:0:0:
36,192,92115,128,0,92293:0:0:0:0:
109,192,92115,128,0,92293:0:0:0:0:
182,192,92293,1,0,0:0:0:0:
475,192,92293,1,0,0:0:0:0:
402,192,92293,1,0,0:0:0:0:
256,192,92472,1,0,0:0:0:0:
256,192,92561,1,0,0:0:0:0:
329,192,92650,128,0,92829:0:0:0:0:
182,192,92650,128,0,92829:0:0:0:0:
475,192,92650,128,0,92918:0:0:0:0:
402,192,92740,128,0,92918:0:0:0:0:
36,192,92918,128,0,93186:0:0:0:0:
182,192,92918,128,0,93186:0:0:0:0:
329,192,92918,128,0,93186:0:0:0:0:
109,192,93186,128,0,93365:0:0:0:0:
402,192,93186,128,0,93365:0:0:0:0:
475,192,93186,128,0,93365:0:0:0:0:
36,192,93365,128,0,93543:0:0:0:0:
182,192,93365,128,0,93543:0:0:0:0:
256,192,93365,128,0,93543:0:0:0:0:
402,192,93543,128,0,93722:0:0:0:0:
329,192,93543,128,0,93722:0:0:0:0:
475,192,93543,128,0,93722:0:0:0:0:
109,192,93722,1,0,0:0:0:0:
36,192,93722,1,0,0:0:0:0:
256,192,93722,1,0,0:0:0:0:
402,192,93900,1,0,0:0:0:0:
329,192,93960,1,0,0:0:0:0:
256,192,94020,1,0,0:0:0:0:
475,192,94079,1,0,0:0:0:0:
402,192,94139,1,0,0:0:0:0:
329,192,94198,1,0,0:0:0:0:
36,192,94258,1,0,0:0:0:0:
109,192,94317,1,0,0:0:0:0:
182,192,94377,1,0,0:0:0:0:
256,192,94436,128,0,94704:0:0:0:0:
475,192,94436,128,0,94615:0:0:0:0:
402,192,94436,128,0,94704:0:0:0:0:
329,192,94436,128,0,94704:0:0:0:0:
109,192,94704,128,0,94972:0:0:0:0:
182,192,94704,128,0,94972:0:0:0:0:
475,192,94704,128,0,94883:0:0:0:0:
36,192,94972,128,0,95150:0:0:0:0:
256,192,94972,128,0,95150:0:0:0:0:
329,192,94972,128,0,95150:0:0:0:0:
109,192,95150,1,0,0:0:0:0:
402,192,95150,1,0,0:0:0:0:
475,192,95150,1,0,0:0:0:0:
329,192,95240,1,0,0:0:0:0:
256,192,95329,1,0,0:0:0:0:
256,192,95418,1,0,0:0:0:0:
475,192,95508,128,0,95775:0:0:0:0:
329,192,95508,128,0,95686:0:0:0:0:
36,192,95508,128,0,95775:0:0:0:0:
109,192,95597,128,0,95775:0:0:0:0:
402,192,95775,128,0,96043:0:0:0:0:
182,192,95775,128,0,96043:0:0:0:0:
329,192,95775,128,0,96043:0:0:0:0:
109,192,96043,128,0,96222:0:0:0:0:
475,192,96043,128,0,96222:0:0:0:0:
36,192,96043,128,0,96222:0:0:0:0:
329,192,96222,128,0,96400:0:0:0:0:
182,192,96222,128,0,96400:0:0:0:0:
256,192,96222,128,0,96400:0:0:0:0:
475,192,96400,128,0,96579:0:0:0:0:
402,192,96400,128,0,96579:0:0:0:0:
109,192,96400,128,0,96579:0:0:0:0:
36,192,96579,1,0,0:0:0:0:
329,192,96579,1,0,0:0:0:0:
256,192,96579,1,0,0:0:0:0:
109,192,96758,1,0,0:0:0:0:
182,192,96817,1,0,0:0:0:0:
256,192,96877,1,0,0:0:0:0:
36,192,96936,1,0,0:0:0:0:
109,192,96996,1,0,0:0:0:0:
182,192,97055,1,0,0:0:0:0:
329,192,97115,1,0,0:0:0:0:
402,192,97174,1,0,0:0:0:0:
475,192,97234,1,0,0:0:0:0:
36,192,97293,128,0,97472:0:0:0:0:
182,192,97293,128,0,97561:0:0:0:0:
109,192,97293,128,0,97561:0:0:0:0:
329,192,97293,128,0,97561:0:0:0:0:
36,192,97561,128,0,97829:0:0:0:0:
475,192,97561,128,0,97740:0:0:0:0:
402,192,97561,128,0,97829:0:0:0:0:
182,192,97829,128,0,98008:0:0:0:0:
475,192,97829,128,0,98008:0:0:0:0:
256,192,97829,128,0,98008:0:0:0:0:
402,192,98008,1,0,0:0:0:0:
36,192,98008,1,0,0:0:0:0:
109,192,98008,1,0,0:0:0:0:
329,192,98067,1,0,0:0:0:0:
182,192,98127,1,0,0:0:0:0:
329,192,98186,1,0,0:0:0:0:
182,192,98246,1,0,0:0:0:0:
329,192,98305,1,0,0:0:0:0:
475,192,98365,128,0,98633:0:0:0:0:
402,192,98365,128,0,98543:0:0:0:0:
36,192,98365,128,0,98633:0:0:0:0:
256,192,98454,128,0,98633:0:0:0:0:
402,192,98633,128,0,98900:0:0:0:0:
329,192,98633,128,0,98900:0:0:0:0:
182,192,98633,128,0,98811:0:0:0:0:
109,192,98900,128,0,99079:0:0:0:0:
182,192,98900,128,0,99079:0:0:0:0:
36,192,98900,128,0,99079:0:0:0:0:
329,192,99079,128,0,99258:0:0:0:0:
256,192,99079,128,0,99258:0:0:0:0:
475,192,99079,128,0,99258:0:0:0:0:
402,192,99258,128,0,99436:0:0:0:0:
109,192,99258,128,0,99436:0:0:0:0:
36,192,99258,128,0,99436:0:0:0:0:
182,192,99436,1,0,0:0:0:0:
329,192,99436,1,0,0:0:0:0:
256,192,99436,1,0,0:0:0:0:
36,192,99615,1,0,0:0:0:0:
109,192,99674,1,0,0:0:0:0:
182,192,99734,1,0,0:0:0:0:
256,192,99793,1,0,0:0:0:0:
329,192,99853,1,0,0:0:0:0:
402,192,99912,1,0,0:0:0:0:
182,192,99972,128,0,100150:0:0:0:0:
109,192,100061,128,0,100150:0:0:0:0:
402,192,100150,128,0,100329:0:0:0:0:
36,192,100150,128,0,100329:0:0:0:0:
475,192,100150,128,0,100329:0:0:0:0:
256,192,100150,128,0,100329:0:0:0:0:
256,192,100418,128,0,100508:0:0:0:0:
36,192,100418,128,0,100508:0:0:0:0:
402,192,100418,128,0,100508:0:0:0:0:
475,192,100418,128,0,100508:0:0:0:0:
109,192,100508,1,0,0:0:0:0:
182,192,100508,1,0,0:0:0:0:
329,192,100508,1,0,0:0:0:0:
256,192,100686,128,0,100865:0:0:0:0:
36,192,100686,128,0,100865:0:0:0:0:
475,192,100686,128,0,100865:0:0:0:0:
109,192,100686,128,0,100865:0:0:0:0:
475,192,100954,128,0,101043:0:0:0:0:
256,192,100954,128,0,101043:0:0:0:0:
109,192,100954,128,0,101043:0:0:0:0:
36,192,100954,128,0,101043:0:0:0:0:
182,192,101043,1,0,0:0:0:0:
402,192,101043,1,0,0:0:0:0:
329,192,101043,1,0,0:0:0:0:
402,192,101222,128,0,101400:0:0:0:0:
329,192,101222,128,0,101400:0:0:0:0:
475,192,101222,128,0,101400:0:0:0:0:
109,192,101222,128,0,101400:0:0:0:0:
329,192,101490,128,0,101579:0:0:0:0:
402,192,101490,128,0,101579:0:0:0:0:
109,192,101490,128,0,101579:0:0:0:0:
475,192,101490,128,0,101579:0:0:0:0:
256,192,101579,1,0,0:0:0:0:
182,192,101579,1,0,0:0:0:0:
36,192,101579,1,0,0:0:0:0:
109,192,101758,128,0,101936:0:0:0:0:
475,192,101758,128,0,101936:0:0:0:0:
256,192,101758,128,0,101936:0:0:0:0:
36,192,101758,128,0,101936:0:0:0:0:
36,192,102025,128,0,102115:0:0:0:0:
109,192,102025,128,0,102115:0:0:0:0:
475,192,102025,128,0,102115:0:0:0:0:
256,192,102025,128,0,102115:0:0:0:0:
182,192,102115,1,0,0:0:0:0:
329,192,102115,1,0,0:0:0:0:
402,192,102115,1,0,0:0:0:0:
182,192,102293,1,0,0:0:0:0:
475,192,102293,1,0,0:0:0:0:
109,192,102293,1,0,0:0:0:0:
36,192,102293,1,0,0:0:0:0:
402,192,102353,1,0,0:0:0:0:
329,192,102412,1,0,0:0:0:0:
256,192,102472,128,0,102918:0:0:0:0:
475,192,102472,128,0,102918:0:0:0:0:
36,192,102472,128,0,102918:0:0:0:0:
182,192,102472,128,0,102918:0:0:0:0:
475,192,103008,128,0,103275:0:0:0:0:
109,192,103008,128,0,103186:0:0:0:0:
402,192,103008,128,0,103275:0:0:0:0:
329,192,103008,128,0,103275:0:0:0:0:
36,192,103275,128,0,103543:0:0:0:0:
256,192,103275,128,0,103543:0:0:0:0:
109,192,103275,128,0,103543:0:0:0:0:
182,192,103543,128,0,103722:0:0:0:0:
475,192,103543,128,0,103722:0:0:0:0:
402,192,103543,128,0,103722:0:0:0:0:
329,192,103722,1,0,0:0:0:0:
36,192,103722,1,0,0:0:0:0:
109,192,103722,1,0,0:0:0:0:
256,192,103841,1,0,0:0:0:0:
256,192,103960,1,0,0:0:0:0:
402,192,104079,128,0,104347:0:0:0:0:
182,192,104079,128,0,104347:0:0:0:0:
475,192,104079,128,0,104258:0:0:0:0:
329,192,104168,128,0,104347:0:0:0:0:
36,192,104347,128,0,104525:0:0:0:0:
109,192,104347,128,0,104615:0:0:0:0:
475,192,104347,128,0,104615:0:0:0:0:
36,192,104615,128,0,104793:0:0:0:0:
402,192,104615,128,0,104793:0:0:0:0:
329,192,104615,128,0,104793:0:0:0:0:
109,192,104793,128,0,104972:0:0:0:0:
182,192,104793,128,0,104972:0:0:0:0:
256,192,104793,128,0,104972:0:0:0:0:
402,192,104972,128,0,105150:0:0:0:0:
329,192,104972,128,0,105150:0:0:0:0:
475,192,104972,128,0,105150:0:0:0:0:
182,192,105150,1,0,0:0:0:0:
36,192,105150,1,0,0:0:0:0:
256,192,105150,1,0,0:0:0:0:
109,192,105329,1,0,0:0:0:0:
182,192,105389,1,0,0:0:0:0:
256,192,105448,1,0,0:0:0:0:
36,192,105508,1,0,0:0:0:0:
109,192,105567,1,0,0:0:0:0:
182,192,105627,1,0,0:0:0:0:
475,192,105686,1,0,0:0:0:0:
402,192,105746,1,0,0:0:0:0:
329,192,105805,1,0,0:0:0:0:
256,192,105865,128,0,106133:0:0:0:0:
36,192,105865,128,0,106043:0:0:0:0:
109,192,105865,128,0,106133:0:0:0:0:
182,192,105865,128,0,106133:0:0:0:0:
402,192,106133,128,0,106400:0:0:0:0:
329,192,106133,128,0,106400:0:0:0:0:
36,192,106133,128,0,106311:0:0:0:0:
475,192,106400,128,0,106579:0:0:0:0:
256,192,106400,128,0,106579:0:0:0:0:
182,192,106400,128,0,106579:0:0:0:0:
402,192,106579,1,0,0:0:0:0:
109,192,106579,1,0,0:0:0:0:
36,192,106579,1,0,0:0:0:0:
256,192,106698,1,0,0:0:0:0:
256,192,106817,1,0,0:0:0:0:
36,192,106936,128,0,107204:0:0:0:0:
109,192,106936,128,0,107115:0:0:0:0:
402,192,106936,128,0,107204:0:0:0:0:
182,192,107025,128,0,107204:0:0:0:0:
109,192,107204,128,0,107472:0:0:0:0:
329,192,107204,128,0,107472:0:0:0:0:
256,192,107204,128,0,107472:0:0:0:0:
402,192,107472,128,0,107650:0:0:0:0:
36,192,107472,128,0,107650:0:0:0:0:
475,192,107472,128,0,107650:0:0:0:0:
182,192,107650,128,0,107829:0:0:0:0:
329,192,107650,128,0,107829:0:0:0:0:
256,192,107650,128,0,107829:0:0:0:0:
36,192,107829,128,0,108008:0:0:0:0:
109,192,107829,128,0,108008:0:0:0:0:
402,192,107829,128,0,108008:0:0:0:0:
475,192,108008,1,0,0:0:0:0:
182,192,108008,1,0,0:0:0:0:
256,192,108008,1,0,0:0:0:0:
402,192,108186,1,0,0:0:0:0:
329,192,108246,1,0,0:0:0:0:
256,192,108305,1,0,0:0:0:0:
475,192,108365,1,0,0:0:0:0:
402,192,108424,1,0,0:0:0:0:
329,192,108484,1,0,0:0:0:0:
182,192,108543,1,0,0:0:0:0:
109,192,108603,1,0,0:0:0:0:
36,192,108662,1,0,0:0:0:0:
475,192,108722,128,0,108990:0:0:0:0:
329,192,108722,128,0,108990:0:0:0:0:
402,192,108722,128,0,108990:0:0:0:0:
182,192,108722,128,0,108900:0:0:0:0:
182,192,108990,128,0,109258:0:0:0:0:
36,192,108990,128,0,109258:0:0:0:0:
256,192,108990,128,0,109258:0:0:0:0:
329,192,109258,128,0,109436:0:0:0:0:
109,192,109258,128,0,109436:0:0:0:0:
402,192,109258,128,0,109436:0:0:0:0:
36,192,109436,1,0,0:0:0:0:
475,192,109436,1,0,0:0:0:0:
256,192,109436,1,0,0:0:0:0:
182,192,109496,1,0,0:0:0:0:
329,192,109555,1,0,0:0:0:0:
182,192,109615,1,0,0:0:0:0:
329,192,109674,1,0,0:0:0:0:
182,192,109734,1,0,0:0:0:0:
256,192,109793,128,0,110061:0:0:0:0:
36,192,109793,128,0,110061:0:0:0:0:
109,192,109793,128,0,109972:0:0:0:0:
402,192,109883,128,0,110061:0:0:0:0:
109,192,110061,128,0,110329:0:0:0:0:
182,192,110061,128,0,110329:0:0:0:0:
329,192,110061,128,0,110240:0:0:0:0:
329,192,110329,128,0,110508:0:0:0:0:
36,192,110329,128,0,110508:0:0:0:0:
402,192,110329,128,0,110508:0:0:0:0:
182,192,110508,128,0,110686:0:0:0:0:
256,192,110508,128,0,110686:0:0:0:0:
475,192,110508,128,0,110686:0:0:0:0:
109,192,110686,128,0,110865:0:0:0:0:
36,192,110686,128,0,110865:0:0:0:0:
402,192,110686,128,0,110865:0:0:0:0:
182,192,110865,1,0,0:0:0:0:
329,192,110865,1,0,0:0:0:0:
256,192,110865,1,0,0:0:0:0:
475,192,111043,1,0,0:0:0:0:
402,192,111103,1,0,0:0:0:0:
329,192,111162,1,0,0:0:0:0:
256,192,111222,1,0,0:0:0:0:
182,192,111281,1,0,0:0:0:0:
109,192,111341,1,0,0:0:0:0:
36,192,111400,1,0,0:0:0:0:
402,192,111490,1,0,0:0:0:0:
256,192,111579,128,0,113722:0:0:0:0:
329,192,111579,1,0,0:0:0:0:
182,192,111579,1,0,0:0:0:0:
109,192,111936,1,0,0:0:0:0:
402,192,112055,1,0,0:0:0:0:
109,192,112174,1,0,0:0:0:0:
402,192,112293,1,0,0:0:0:0:
109,192,112412,1,0,0:0:0:0:
402,192,112531,1,0,0:0:0:0:
109,192,112650,1,0,0:0:0:0:
182,192,112740,1,0,0:0:0:0:
402,192,112829,1,0,0:0:0:0:
329,192,112918,1,0,0:0:0:0:
109,192,113008,1,0,0:0:0:0:
182,192,113097,1,0,0:0:0:0:
402,192,113186,1,0,0:0:0:0:
329,192,113275,1,0,0:0:0:0:
36,192,113365,1,0,0:0:0:0:
109,192,113424,1,0,0:0:0:0:
182,192,113484,1,0,0:0:0:0:
475,192,113543,1,0,0:0:0:0:
402,192,113603,1,0,0:0:0:0:
329,192,113662,1,0,0:0:0:0:
36,192,113722,128,0,113811:0:0:0:0:
475,192,113722,128,0,113811:0:0:0:0:
182,192,113722,128,0,113811:0:0:0:0:
402,192,113900,128,0,114079:0:0:0:0:
182,192,114079,128,0,114258:0:0:0:0:
109,192,114258,128,0,114436:0:0:0:0:
36,192,114436,128,0,114674:0:0:0:0:
475,192,114436,128,0,114585:0:0:0:0:
402,192,114436,128,0,114674:0:0:0:0:
256,192,114436,128,0,114674:0:0:0:0:
109,192,114674,128,0,114972:0:0:0:0:
475,192,114674,128,0,114972:0:0:0:0:
182,192,114674,128,0,114972:0:0:0:0:
329,192,114972,128,0,115150:0:0:0:0:
256,192,114972,128,0,115150:0:0:0:0:
36,192,114972,128,0,115150:0:0:0:0:
109,192,115150,1,0,0:0:0:0:
182,192,115150,1,0,0:0:0:0:
402,192,115150,1,0,0:0:0:0:
256,192,115329,1,0,0:0:0:0:
256,192,115418,1,0,0:0:0:0:
402,192,115508,128,0,115746:0:0:0:0:
329,192,115508,128,0,115746:0:0:0:0:
36,192,115508,128,0,115656:0:0:0:0:
182,192,115597,128,0,115746:0:0:0:0:
36,192,115746,128,0,116043:0:0:0:0:
475,192,115746,128,0,116043:0:0:0:0:
256,192,115746,128,0,115954:0:0:0:0:
182,192,116043,128,0,116222:0:0:0:0:
329,192,116043,128,0,116222:0:0:0:0:
256,192,116043,128,0,116222:0:0:0:0:
109,192,116222,128,0,116400:0:0:0:0:
36,192,116222,128,0,116400:0:0:0:0:
475,192,116222,128,0,116400:0:0:0:0:
256,192,116400,128,0,116579:0:0:0:0:
329,192,116400,128,0,116579:0:0:0:0:
402,192,116400,128,0,116579:0:0:0:0:
182,192,116579,1,0,0:0:0:0:
109,192,116579,1,0,0:0:0:0:
475,192,116579,128,0,116758:0:0:0:0:
329,192,116758,128,0,116847:0:0:0:0:
182,192,116847,128,0,116936:0:0:0:0:
402,192,116936,128,0,117025:0:0:0:0:
109,192,117025,128,0,117115:0:0:0:0:
256,192,117115,128,0,117293:0:0:0:0:
182,192,117293,128,0,117531:0:0:0:0:
36,192,117293,128,0,117531:0:0:0:0:
402,192,117293,128,0,117442:0:0:0:0:
475,192,117293,128,0,117531:0:0:0:0:
329,192,117531,128,0,117829:0:0:0:0:
402,192,117531,128,0,117829:0:0:0:0:
109,192,117531,128,0,117829:0:0:0:0:
256,192,117829,128,0,118008:0:0:0:0:
182,192,117829,128,0,118008:0:0:0:0:
475,192,117829,128,0,118008:0:0:0:0:
402,192,118008,1,0,0:0:0:0:
109,192,118008,1,0,0:0:0:0:
36,192,118008,1,0,0:0:0:0:
329,192,118097,1,0,0:0:0:0:
256,192,118186,1,0,0:0:0:0:
256,192,118275,1,0,0:0:0:0:
182,192,118365,128,0,118603:0:0:0:0:
36,192,118365,128,0,118514:0:0:0:0:
475,192,118365,128,0,118603:0:0:0:0:
402,192,118454,128,0,118603:0:0:0:0:
36,192,118603,128,0,118900:0:0:0:0:
256,192,118603,128,0,118900:0:0:0:0:
329,192,118603,128,0,118900:0:0:0:0:
109,192,118900,128,0,119079:0:0:0:0:
182,192,118900,128,0,119079:0:0:0:0:
475,192,118900,128,0,119079:0:0:0:0:
402,192,119079,128,0,119258:0:0:0:0:
256,192,119079,128,0,119258:0:0:0:0:
36,192,119079,128,0,119258:0:0:0:0:
329,192,119258,128,0,119436:0:0:0:0:
182,192,119258,128,0,119436:0:0:0:0:
109,192,119258,128,0,119436:0:0:0:0:
256,192,119436,1,0,0:0:0:0:
402,192,119436,1,0,0:0:0:0:
475,192,119436,1,0,0:0:0:0:
109,192,119615,1,0,0:0:0:0:
182,192,119674,1,0,0:0:0:0:
256,192,119734,1,0,0:0:0:0:
36,192,119793,1,0,0:0:0:0:
109,192,119853,1,0,0:0:0:0:
182,192,119912,1,0,0:0:0:0:
329,192,119972,1,0,0:0:0:0:
402,192,120031,1,0,0:0:0:0:
475,192,120091,1,0,0:0:0:0:
256,192,120150,128,0,120299:0:0:0:0:
109,192,120150,128,0,120389:0:0:0:0:
36,192,120150,128,0,120389:0:0:0:0:
182,192,120150,128,0,120389:0:0:0:0:
475,192,120389,128,0,120686:0:0:0:0:
329,192,120389,128,0,120686:0:0:0:0:
256,192,120389,128,0,120686:0:0:0:0:
182,192,120686,128,0,120865:0:0:0:0:
36,192,120686,128,0,120865:0:0:0:0:
402,192,120686,128,0,120865:0:0:0:0:
256,192,120865,1,0,0:0:0:0:
475,192,120865,1,0,0:0:0:0:
109,192,120865,1,0,0:0:0:0:
329,192,120924,1,0,0:0:0:0:
182,192,120984,1,0,0:0:0:0:
329,192,121043,1,0,0:0:0:0:
182,192,121103,1,0,0:0:0:0:
329,192,121162,1,0,0:0:0:0:
402,192,121222,128,0,121371:0:0:0:0:
475,192,121222,128,0,121460:0:0:0:0:
36,192,121222,128,0,121460:0:0:0:0:
109,192,121311,128,0,121460:0:0:0:0:
256,192,121460,128,0,121758:0:0:0:0:
402,192,121460,128,0,121758:0:0:0:0:
182,192,121460,128,0,121758:0:0:0:0:
329,192,121758,128,0,121936:0:0:0:0:
36,192,121758,128,0,121936:0:0:0:0:
475,192,121758,128,0,121936:0:0:0:0:
256,192,121936,128,0,122115:0:0:0:0:
109,192,121936,128,0,122115:0:0:0:0:
182,192,121936,128,0,122115:0:0:0:0:
329,192,122115,128,0,122293:0:0:0:0:
36,192,122115,128,0,122293:0:0:0:0:
402,192,122115,128,0,122293:0:0:0:0:
475,192,122293,1,0,0:0:0:0:
182,192,122293,1,0,0:0:0:0:
109,192,122293,1,0,0:0:0:0:
475,192,122472,1,0,0:0:0:0:
402,192,122531,1,0,0:0:0:0:
329,192,122591,1,0,0:0:0:0:
256,192,122650,1,0,0:0:0:0:
182,192,122710,1,0,0:0:0:0:
109,192,122770,1,0,0:0:0:0:
329,192,122829,128,0,123008:0:0:0:0:
182,192,122918,128,0,123008:0:0:0:0:
256,192,123008,128,0,123156:0:0:0:0:
402,192,123008,128,0,123156:0:0:0:0:
36,192,123008,128,0,123156:0:0:0:0:
109,192,123008,128,0,123156:0:0:0:0:
36,192,123246,128,0,123365:0:0:0:0:
109,192,123246,128,0,123365:0:0:0:0:
402,192,123246,128,0,123365:0:0:0:0:
256,192,123246,128,0,123365:0:0:0:0:
475,192,123365,1,0,0:0:0:0:
329,192,123365,1,0,0:0:0:0:
182,192,123365,1,0,0:0:0:0:
109,192,123543,128,0,123692:0:0:0:0:
475,192,123543,128,0,123692:0:0:0:0:
256,192,123543,128,0,123692:0:0:0:0:
402,192,123543,128,0,123692:0:0:0:0:
475,192,123781,128,0,123900:0:0:0:0:
109,192,123781,128,0,123900:0:0:0:0:
256,192,123781,128,0,123900:0:0:0:0:
402,192,123781,128,0,123900:0:0:0:0:
36,192,123900,1,0,0:0:0:0:
329,192,123900,1,0,0:0:0:0:
182,192,123900,1,0,0:0:0:0:
182,192,124079,128,0,124228:0:0:0:0:
256,192,124079,128,0,124228:0:0:0:0:
109,192,124079,128,0,124228:0:0:0:0:
402,192,124079,128,0,124228:0:0:0:0:
402,192,124317,128,0,124436:0:0:0:0:
256,192,124317,128,0,124436:0:0:0:0:
109,192,124317,128,0,124436:0:0:0:0:
182,192,124317,128,0,124436:0:0:0:0:
475,192,124436,1,0,0:0:0:0:
36,192,124436,1,0,0:0:0:0:
329,192,124436,1,0,0:0:0:0:
256,192,124615,128,0,124764:0:0:0:0:
109,192,124615,128,0,124764:0:0:0:0:
475,192,124615,128,0,124764:0:0:0:0:
402,192,124615,128,0,124764:0:0:0:0:
109,192,124853,128,0,124972:0:0:0:0:
256,192,124853,128,0,124972:0:0:0:0:
475,192,124853,128,0,124972:0:0:0:0:
402,192,124853,128,0,124972:0:0:0:0:
182,192,124972,1,0,0:0:0:0:
329,192,124972,1,0,0:0:0:0:
36,192,124972,1,0,0:0:0:0:
402,192,125150,1,0,0:0:0:0:
329,192,125150,1,0,0:0:0:0:
36,192,125150,1,0,0:0:0:0:
475,192,125150,1,0,0:0:0:0:
109,192,125210,1,0,0:0:0:0:
182,192,125270,1,0,0:0:0:0:
36,192,125329,128,0,125775:0:0:0:0:
329,192,125329,128,0,125775:0:0:0:0:
475,192,125329,128,0,125775:0:0:0:0:
256,192,125329,128,0,125775:0:0:0:0:
475,192,125865,128,0,126103:0:0:0:0:
256,192,125865,128,0,126103:0:0:0:0:
402,192,125865,128,0,126014:0:0:0:0:
36,192,125865,128,0,126103:0:0:0:0:
402,192,126103,128,0,126400:0:0:0:0:
109,192,126103,128,0,126400:0:0:0:0:
329,192,126103,128,0,126400:0:0:0:0:
182,192,126400,128,0,126579:0:0:0:0:
256,192,126400,128,0,126579:0:0:0:0:
475,192,126400,128,0,126579:0:0:0:0:
36,192,126579,1,0,0:0:0:0:
329,192,126579,1,0,0:0:0:0:
109,192,126579,1,0,0:0:0:0:
256,192,126698,1,0,0:0:0:0:
256,192,126817,1,0,0:0:0:0:
109,192,126936,128,0,127085:0:0:0:0:
475,192,126936,128,0,127174:0:0:0:0:
36,192,126936,128,0,127174:0:0:0:0:
329,192,127025,128,0,127174:0:0:0:0:
182,192,127174,128,0,127472:0:0:0:0:
109,192,127174,128,0,127472:0:0:0:0:
256,192,127174,128,0,127472:0:0:0:0:
36,192,127472,128,0,127650:0:0:0:0:
402,192,127472,128,0,127650:0:0:0:0:
329,192,127472,128,0,127650:0:0:0:0:
182,192,127650,128,0,127829:0:0:0:0:
475,192,127650,128,0,127829:0:0:0:0:
109,192,127650,128,0,127829:0:0:0:0:
329,192,127829,128,0,128008:0:0:0:0:
256,192,127829,128,0,128008:0:0:0:0:
36,192,127829,128,0,128008:0:0:0:0:
182,192,128008,1,0,0:0:0:0:
109,192,128008,1,0,0:0:0:0:
475,192,128008,1,0,0:0:0:0:
402,192,128186,1,0,0:0:0:0:
329,192,128246,1,0,0:0:0:0:
256,192,128305,1,0,0:0:0:0:
475,192,128365,1,0,0:0:0:0:
402,192,128424,1,0,0:0:0:0:
329,192,128484,1,0,0:0:0:0:
182,192,128543,1,0,0:0:0:0:
109,192,128603,1,0,0:0:0:0:
36,192,128662,1,0,0:0:0:0:
256,192,128722,128,0,128960:0:0:0:0:
402,192,128722,128,0,128871:0:0:0:0:
182,192,128722,128,0,128960:0:0:0:0:
475,192,128722,128,0,128960:0:0:0:0:
109,192,128960,128,0,129258:0:0:0:0:
402,192,128960,128,0,129258:0:0:0:0:
36,192,128960,128,0,129258:0:0:0:0:
475,192,129258,128,0,129436:0:0:0:0:
329,192,129258,128,0,129436:0:0:0:0:
182,192,129258,128,0,129436:0:0:0:0:
402,192,129436,1,0,0:0:0:0:
109,192,129436,1,0,0:0:0:0:
36,192,129436,1,0,0:0:0:0:
256,192,129555,1,0,0:0:0:0:
256,192,129674,1,0,0:0:0:0:
329,192,129793,128,0,130031:0:0:0:0:
36,192,129793,128,0,130031:0:0:0:0:
475,192,129793,128,0,130031:0:0:0:0:
109,192,129883,128,0,130031:0:0:0:0:
256,192,130031,128,0,130329:0:0:0:0:
402,192,130031,128,0,130329:0:0:0:0:
182,192,130031,128,0,130329:0:0:0:0:
329,192,130329,128,0,130508:0:0:0:0:
109,192,130329,128,0,130508:0:0:0:0:
475,192,130329,128,0,130508:0:0:0:0:
256,192,130508,128,0,130686:0:0:0:0:
36,192,130508,128,0,130686:0:0:0:0:
182,192,130508,128,0,130686:0:0:0:0:
109,192,130686,128,0,130865:0:0:0:0:
475,192,130686,128,0,130865:0:0:0:0:
402,192,130686,128,0,130865:0:0:0:0:
182,192,130865,1,0,0:0:0:0:
329,192,130865,1,0,0:0:0:0:
36,192,130865,1,0,0:0:0:0:
402,192,131043,1,0,0:0:0:0:
329,192,131103,1,0,0:0:0:0:
256,192,131162,1,0,0:0:0:0:
475,192,131222,1,0,0:0:0:0:
402,192,131281,1,0,0:0:0:0:
329,192,131341,1,0,0:0:0:0:
36,192,131400,1,0,0:0:0:0:
109,192,131460,1,0,0:0:0:0:
182,192,131520,1,0,0:0:0:0:
475,192,131579,128,0,131728:0:0:0:0:
329,192,131579,128,0,131817:0:0:0:0:
256,192,131579,128,0,131817:0:0:0:0:
36,192,131579,128,0,131817:0:0:0:0:
475,192,131817,128,0,132115:0:0:0:0:
182,192,131817,128,0,132115:0:0:0:0:
109,192,131817,128,0,132115:0:0:0:0:
36,192,132115,128,0,132293:0:0:0:0:
329,192,132115,128,0,132293:0:0:0:0:
402,192,132115,128,0,132293:0:0:0:0:
182,192,132293,1,0,0:0:0:0:
475,192,132293,1,0,0:0:0:0:
256,192,132293,1,0,0:0:0:0:
402,192,132353,1,0,0:0:0:0:
109,192,132412,1,0,0:0:0:0:
402,192,132472,1,0,0:0:0:0:
109,192,132531,1,0,0:0:0:0:
402,192,132591,1,0,0:0:0:0:
475,192,132650,128,0,132889:0:0:0:0:
36,192,132650,128,0,132889:0:0:0:0:
329,192,132650,128,0,132889:0:0:0:0:
256,192,132740,128,0,132889:0:0:0:0:
109,192,132889,128,0,133186:0:0:0:0:
402,192,132889,128,0,133186:0:0:0:0:
182,192,132889,128,0,133186:0:0:0:0:
475,192,133186,128,0,133365:0:0:0:0:
36,192,133186,128,0,133365:0:0:0:0:
256,192,133186,128,0,133365:0:0:0:0:
402,192,133365,128,0,133543:0:0:0:0:
182,192,133365,128,0,133543:0:0:0:0:
329,192,133365,128,0,133543:0:0:0:0:
475,192,133543,128,0,133722:0:0:0:0:
109,192,133543,128,0,133722:0:0:0:0:
256,192,133543,128,0,133722:0:0:0:0:
329,192,133722,1,0,0:0:0:0:
182,192,133722,1,0,0:0:0:0:
402,192,133722,1,0,0:0:0:0:
36,192,133900,5,0,0:0:0:0:
109,192,133945,1,0,0:0:0:0:
182,192,133990,1,0,0:0:0:0:
256,192,134034,1,0,0:0:0:0:
329,192,134079,1,0,0:0:0:0:
402,192,134139,1,0,0:0:0:0:
475,192,134198,1,0,0:0:0:0:
36,192,134258,1,0,0:0:0:0:
109,192,134347,1,0,0:0:0:0:
182,192,134436,5,0,0:0:0:0:
475,192,134436,1,0,0:0:0:0:
402,192,134496,1,0,0:0:0:0:
329,192,134555,1,0,0:0:0:0:
256,192,134615,1,0,0:0:0:0:
36,192,134674,1,0,0:0:0:0:
109,192,134734,1,0,0:0:0:0:
402,192,134793,1,0,0:0:0:0:
475,192,134853,1,0,0:0:0:0:
182,192,134912,1,0,0:0:0:0:
256,192,134972,1,0,0:0:0:0:
329,192,135061,1,0,0:0:0:0:
402,192,135150,1,0,0:0:0:0:
109,192,135240,1,0,0:0:0:0:
182,192,135329,1,0,0:0:0:0:
475,192,135418,1,0,0:0:0:0:
329,192,135508,1,0,0:0:0:0:
256,192,135597,1,0,0:0:0:0:
109,192,135686,1,0,0:0:0:0:
36,192,135746,1,0,0:0:0:0:
402,192,135805,1,0,0:0:0:0:
329,192,135865,1,0,0:0:0:0:
256,192,135924,1,0,0:0:0:0:
182,192,135984,1,0,0:0:0:0:
475,192,136043,1,0,0:0:0:0:
402,192,136103,1,0,0:0:0:0:
329,192,136162,1,0,0:0:0:0:
36,192,136222,1,0,0:0:0:0:
109,192,136281,1,0,0:0:0:0:
182,192,136341,1,0,0:0:0:0:
256,192,136400,1,0,0:0:0:0:
329,192,136460,1,0,0:0:0:0:
402,192,136520,1,0,0:0:0:0:
182,192,136579,128,0,136668:0:0:0:0:
475,192,136579,128,0,136668:0:0:0:0:
109,192,136579,128,0,136668:0:0:0:0:
36,192,136579,128,0,136668:0:0:0:0:
256,192,136698,1,0,0:0:0:0:
182,192,137115,128,0,137293:0:0:0:0:
256,192,137115,128,0,137293:0:0:0:0:
329,192,137293,5,0,0:0:0:0:
402,192,137293,1,0,0:0:0:0:
475,192,137472,128,0,138186:0:0:0:0:
36,192,137472,128,0,137561:0:0:0:0:
329,192,137650,1,0,0:0:0:0:
402,192,137650,1,0,0:0:0:0:
36,192,137650,128,0,137740:0:0:0:0:
36,192,137829,128,0,137918:0:0:0:0:
36,192,138008,128,0,138097:0:0:0:0:
329,192,138186,1,0,0:0:0:0:
402,192,138186,1,0,0:0:0:0:
109,192,138186,128,0,138900:0:0:0:0:
182,192,138186,128,0,138275:0:0:0:0:
182,192,138365,128,0,138454:0:0:0:0:
182,192,138543,128,0,138633:0:0:0:0:
182,192,138722,128,0,138811:0:0:0:0:
256,192,138900,128,0,139615:0:0:0:0:
475,192,138900,128,0,138990:0:0:0:0:
475,192,139079,128,0,139168:0:0:0:0:
475,192,139258,128,0,139347:0:0:0:0:
475,192,139436,128,0,139525:0:0:0:0:
182,192,139615,128,0,140329:0:0:0:0:
329,192,139615,128,0,139704:0:0:0:0:
329,192,139793,128,0,139883:0:0:0:0:
329,192,139972,128,0,140061:0:0:0:0:
329,192,140150,128,0,140240:0:0:0:0:
256,192,140329,128,0,141043:0:0:0:0:
36,192,140329,128,0,140418:0:0:0:0:
36,192,140508,128,0,140597:0:0:0:0:
36,192,140686,128,0,140775:0:0:0:0:
36,192,140865,128,0,140954:0:0:0:0:
475,192,141043,128,0,141758:0:0:0:0:
329,192,141043,128,0,141133:0:0:0:0:
329,192,141222,128,0,141311:0:0:0:0:
329,192,141400,128,0,141490:0:0:0:0:
329,192,141579,128,0,141668:0:0:0:0:
182,192,141758,128,0,142472:0:0:0:0:
109,192,141758,128,0,141847:0:0:0:0:
109,192,141936,128,0,142025:0:0:0:0:
109,192,142115,128,0,142204:0:0:0:0:
109,192,142293,128,0,142383:0:0:0:0:
256,192,142472,128,0,143186:0:0:0:0:
402,192,142472,128,0,142561:0:0:0:0:
402,192,142650,128,0,142740:0:0:0:0:
329,192,142740,128,0,142829:0:0:0:0:
182,192,142829,128,0,142918:0:0:0:0:
109,192,142918,128,0,143008:0:0:0:0:
329,192,143008,1,0,0:0:0:0:
402,192,143008,1,0,0:0:0:0:
475,192,143186,128,0,143900:0:0:0:0:
36,192,143186,128,0,143275:0:0:0:0:
329,192,143365,1,0,0:0:0:0:
256,192,143365,1,0,0:0:0:0:
36,192,143365,128,0,143454:0:0:0:0:
36,192,143543,128,0,143633:0:0:0:0:
36,192,143722,128,0,143811:0:0:0:0:
402,192,143900,1,0,0:0:0:0:
182,192,143900,128,0,144615:0:0:0:0:
329,192,143900,128,0,143990:0:0:0:0:
329,192,144079,128,0,144168:0:0:0:0:
329,192,144258,128,0,144347:0:0:0:0:
329,192,144436,128,0,144525:0:0:0:0:
256,192,144615,128,0,145329:0:0:0:0:
475,192,144615,128,0,144704:0:0:0:0:
475,192,144793,128,0,144883:0:0:0:0:
475,192,144972,128,0,145061:0:0:0:0:
475,192,145150,128,0,145240:0:0:0:0:
109,192,145329,128,0,146043:0:0:0:0:
329,192,145329,128,0,145418:0:0:0:0:
329,192,145508,128,0,145597:0:0:0:0:
329,192,145686,128,0,145775:0:0:0:0:
329,192,145865,128,0,145954:0:0:0:0:
36,192,146043,128,0,146758:0:0:0:0:
256,192,146043,128,0,146133:0:0:0:0:
256,192,146222,128,0,146311:0:0:0:0:
256,192,146400,128,0,146490:0:0:0:0:
256,192,146579,128,0,146668:0:0:0:0:
329,192,146758,128,0,147472:0:0:0:0:
109,192,146758,128,0,146847:0:0:0:0:
109,192,146936,128,0,147025:0:0:0:0:
109,192,147115,128,0,147204:0:0:0:0:
109,192,147293,128,0,147383:0:0:0:0:
182,192,147472,128,0,148008:0:0:0:0:
402,192,147472,128,0,147561:0:0:0:0:
402,192,147650,128,0,147740:0:0:0:0:
402,192,147829,128,0,147918:0:0:0:0:
475,192,148008,128,0,148246:0:0:0:0:
256,192,148246,1,0,0:0:0:0:
182,192,148305,1,0,0:0:0:0:
109,192,148365,1,0,0:0:0:0:
402,192,148424,1,0,0:0:0:0:
329,192,148484,1,0,0:0:0:0:
109,192,148543,1,0,0:0:0:0:
182,192,148588,1,0,0:0:0:0:
329,192,148633,1,0,0:0:0:0:
402,192,148677,1,0,0:0:0:0:
256,192,148722,1,0,0:0:0:0:
109,192,148722,1,0,0:0:0:0:
36,192,148722,1,0,0:0:0:0:
329,192,148841,1,0,0:0:0:0:
402,192,148960,1,0,0:0:0:0:
109,192,149079,1,0,0:0:0:0:
36,192,149079,1,0,0:0:0:0:
256,192,149079,1,0,0:0:0:0:
329,192,149198,1,0,0:0:0:0:
182,192,149317,1,0,0:0:0:0:
256,192,149436,1,0,0:0:0:0:
36,192,149436,1,0,0:0:0:0:
475,192,149436,1,0,0:0:0:0:
402,192,149615,1,0,0:0:0:0:
329,192,149615,1,0,0:0:0:0:
109,192,149615,1,0,0:0:0:0:
256,192,149793,1,0,0:0:0:0:
109,192,149972,1,0,0:0:0:0:
36,192,149972,1,0,0:0:0:0:
182,192,149972,1,0,0:0:0:0:
402,192,150150,1,0,0:0:0:0:
256,192,150329,1,0,0:0:0:0:
36,192,150329,1,0,0:0:0:0:
475,192,150329,1,0,0:0:0:0:
182,192,150508,1,0,0:0:0:0:
329,192,150686,1,0,0:0:0:0:
402,192,150686,1,0,0:0:0:0:
109,192,150686,1,0,0:0:0:0:
36,192,150865,1,0,0:0:0:0:
402,192,150984,1,0,0:0:0:0:
329,192,151103,1,0,0:0:0:0:
256,192,151222,1,0,0:0:0:0:
475,192,151222,1,0,0:0:0:0:
36,192,151222,1,0,0:0:0:0:
182,192,151341,1,0,0:0:0:0:
402,192,151460,1,0,0:0:0:0:
475,192,151579,1,0,0:0:0:0:
109,192,151579,1,0,0:0:0:0:
36,192,151579,1,0,0:0:0:0:
329,192,151698,1,0,0:0:0:0:
402,192,151817,1,0,0:0:0:0:
109,192,151936,1,0,0:0:0:0:
36,192,151936,1,0,0:0:0:0:
256,192,151936,1,0,0:0:0:0:
329,192,152055,1,0,0:0:0:0:
182,192,152174,1,0,0:0:0:0:
256,192,152293,1,0,0:0:0:0:
36,192,152293,1,0,0:0:0:0:
475,192,152293,1,0,0:0:0:0:
402,192,152472,1,0,0:0:0:0:
329,192,152472,1,0,0:0:0:0:
109,192,152472,1,0,0:0:0:0:
256,192,152650,1,0,0:0:0:0:
109,192,152829,1,0,0:0:0:0:
36,192,152829,1,0,0:0:0:0:
182,192,152829,1,0,0:0:0:0:
402,192,153008,1,0,0:0:0:0:
256,192,153186,1,0,0:0:0:0:
36,192,153186,1,0,0:0:0:0:
475,192,153186,1,0,0:0:0:0:
182,192,153365,1,0,0:0:0:0:
329,192,153543,1,0,0:0:0:0:
402,192,153543,1,0,0:0:0:0:
109,192,153543,1,0,0:0:0:0:
36,192,153722,1,0,0:0:0:0:
109,192,153781,1,0,0:0:0:0:
182,192,153841,1,0,0:0:0:0:
475,192,153900,1,0,0:0:0:0:
402,192,153960,1,0,0:0:0:0:
329,192,154020,1,0,0:0:0:0:
36,192,154079,1,0,0:0:0:0:
475,192,154079,1,0,0:0:0:0:
256,192,154079,1,0,0:0:0:0:
109,192,154139,1,0,0:0:0:0:
182,192,154198,1,0,0:0:0:0:
329,192,154258,1,0,0:0:0:0:
402,192,154317,1,0,0:0:0:0:
475,192,154377,1,0,0:0:0:0:
36,192,154436,1,0,0:0:0:0:
109,192,154436,1,0,0:0:0:0:
256,192,154436,1,0,0:0:0:0:
329,192,154555,1,0,0:0:0:0:
402,192,154674,1,0,0:0:0:0:
256,192,154793,1,0,0:0:0:0:
36,192,154793,1,0,0:0:0:0:
109,192,154793,1,0,0:0:0:0:
329,192,154912,1,0,0:0:0:0:
182,192,155031,1,0,0:0:0:0:
475,192,155150,1,0,0:0:0:0:
36,192,155150,1,0,0:0:0:0:
256,192,155150,1,0,0:0:0:0:
109,192,155329,1,0,0:0:0:0:
329,192,155329,1,0,0:0:0:0:
402,192,155329,1,0,0:0:0:0:
256,192,155508,1,0,0:0:0:0:
182,192,155686,1,0,0:0:0:0:
36,192,155686,1,0,0:0:0:0:
109,192,155686,1,0,0:0:0:0:
402,192,155865,1,0,0:0:0:0:
475,192,156043,1,0,0:0:0:0:
36,192,156043,1,0,0:0:0:0:
256,192,156043,1,0,0:0:0:0:
182,192,156222,1,0,0:0:0:0:
109,192,156400,1,0,0:0:0:0:
402,192,156400,1,0,0:0:0:0:
329,192,156400,1,0,0:0:0:0:
36,192,156579,1,0,0:0:0:0:
402,192,156698,1,0,0:0:0:0:
329,192,156817,1,0,0:0:0:0:
36,192,156936,1,0,0:0:0:0:
475,192,156936,1,0,0:0:0:0:
182,192,156936,1,0,0:0:0:0:
256,192,157055,1,0,0:0:0:0:
329,192,157174,1,0,0:0:0:0:
109,192,157293,1,0,0:0:0:0:
402,192,157293,1,0,0:0:0:0:
36,192,157293,1,0,0:0:0:0:
182,192,157353,1,0,0:0:0:0:
329,192,157412,1,0,0:0:0:0:
475,192,157472,1,0,0:0:0:0:
256,192,157531,1,0,0:0:0:0:
109,192,157650,1,0,0:0:0:0:
402,192,157650,1,0,0:0:0:0:
329,192,157770,1,0,0:0:0:0:
475,192,157889,1,0,0:0:0:0:
182,192,158008,1,0,0:0:0:0:
109,192,158008,1,0,0:0:0:0:
329,192,158087,1,0,0:0:0:0:
402,192,158166,1,0,0:0:0:0:
182,192,158246,1,0,0:0:0:0:
109,192,158246,1,0,0:0:0:0:
402,192,158325,1,0,0:0:0:0:
329,192,158404,1,0,0:0:0:0:
109,192,158484,1,0,0:0:0:0:
256,192,158484,1,0,0:0:0:0:
329,192,158563,1,0,0:0:0:0:
402,192,158643,1,0,0:0:0:0:
109,192,158722,1,0,0:0:0:0:
256,192,158722,1,0,0:0:0:0:
402,192,158781,1,0,0:0:0:0:
329,192,158841,1,0,0:0:0:0:
182,192,158900,1,0,0:0:0:0:
329,192,158960,1,0,0:0:0:0:
402,192,159020,1,0,0:0:0:0:
182,192,159079,1,0,0:0:0:0:
402,192,159139,1,0,0:0:0:0:
329,192,159198,1,0,0:0:0:0:
182,192,159258,1,0,0:0:0:0:
329,192,159317,1,0,0:0:0:0:
402,192,159377,1,0,0:0:0:0:
182,192,159436,1,0,0:0:0:0:
