osu file format v14

[General]
AudioFilename: audio.mp3
AudioLeadIn: 0
PreviewTime: 71778
Countdown: 0
SampleSet: Normal
StackLeniency: 0.7
Mode: 1
LetterboxInBreaks: 0
WidescreenStoryboard: 1

[Editor]
DistanceSpacing: 0.8
BeatDivisor: 4
GridSize: 32
TimelineZoom: 3.800004

[Metadata]
Title:19ZZ
TitleUnicode:19ZZ
Artist:Frums (unknown "lambda")
ArtistUnicode:Frums (unknown "λ")
Creator:Genjuro
Version:Muzukashii
Source:
Tags:I A aka Be-Music Source 偽名党 Dai 2 Kai Dai2Kai Dainikai BMS Shūgīnsen Shuginsen Shuugiinsen Gimei Tō To Tou Shuin Modern Midtempo Electronic Videogame Video Game Instrumental Shūgiin-sen a.k.a. 第二回BMS衆議院選 L
BeatmapID:2140175
BeatmapSetID:1021559

[Difficulty]
HPDrainRate:7
CircleSize:2
OverallDifficulty:4
ApproachRate:9
SliderMultiplier:1.4
SliderTickRate:1

[Events]
//Background and Video events
0,0,"bg.jpg",0,0
//Break Periods
//Storyboard Layer 0 (Background)
//Storyboard Layer 1 (Fail)
//Storyboard Layer 2 (Pass)
//Storyboard Layer 3 (Foreground)
//Storyboard Layer 4 (Overlay)
//Storyboard Sound Samples

[TimingPoints]
38,714.285714285714,4,1,0,20,1,0
38,-55.5555555555555,4,1,0,20,0,0
2895,714.285714285714,4,1,0,20,1,0
2895,-55.5555555555555,4,1,0,20,0,0
13609,-52.6315789473685,4,1,0,25,0,0
14323,-55.5555555555555,4,1,0,30,0,0
22894,-55.5555555555555,4,1,0,35,0,0
24323,-55.5555555555555,4,1,0,40,0,0
25573,-50,4,1,0,30,0,0
25752,-47.6190476190476,4,1,0,40,0,0
30752,-47.6190476190476,4,1,0,30,0,0
31466,-47.6190476190476,4,1,0,40,0,0
36466,-47.6190476190476,4,1,0,30,0,0
37180,-47.6190476190476,4,1,0,40,0,0
42180,-47.6190476190476,4,1,0,30,0,0
42894,-47.6190476190476,4,1,0,40,0,0
47180,-50,4,1,0,35,0,0
49323,-45.4545454545455,4,1,0,40,0,1
53609,-45.4545454545455,4,1,0,35,0,0
54323,-45.4545454545455,4,1,0,40,0,1
59323,-45.4545454545455,4,1,0,35,0,0
60037,-45.4545454545455,4,1,0,40,0,1
65037,-45.4545454545455,4,1,0,35,0,0
65752,-45.4545454545455,4,1,0,40,0,1
70037,-47.6190476190476,4,1,0,40,0,1
71466,-47.6190476190476,4,1,0,30,0,0
71823,-50,4,1,0,30,0,0
82894,-47.6190476190476,4,1,0,40,0,0
93252,-50,4,1,0,25,0,0
94323,-47.6190476190476,4,1,0,40,0,0
114144,-50,4,1,0,25,0,0
117180,-45.4545454545455,4,1,0,40,0,1
128073,-45.4545454545455,4,1,0,40,0,0
128609,-45.4545454545455,4,1,0,40,0,1
137180,-45.4545454545455,4,1,0,25,0,0
138609,-50,4,1,0,25,0,0
140037,-55.5555555555555,4,1,0,20,0,0
150752,-52.6315789473685,4,1,0,25,0,0
151466,-55.5555555555555,4,1,0,30,0,0
160037,-55.5555555555555,4,1,0,35,0,0
162180,-55.5555555555555,4,1,0,20,0,0

[HitObjects]
256,192,2895,5,0,0:0:0:0:
256,192,3252,1,0,0:0:0:0:
256,192,3787,1,0,0:0:0:0:
256,192,8609,1,0,0:0:0:0:
256,192,8966,1,0,0:0:0:0:
256,192,9502,1,0,0:0:0:0:
256,192,13609,12,0,14144,0:0:0:0:
256,192,14323,5,0,0:0:0:0:
256,192,14680,1,0,0:0:0:0:
256,192,15037,1,8,0:0:0:0:
256,192,15573,1,0,0:0:0:0:
256,192,15930,1,8,0:0:0:0:
256,192,16287,1,0,0:0:0:0:
256,192,16823,1,8,0:0:0:0:
256,192,17180,1,0,0:0:0:0:
256,192,17537,1,0,0:0:0:0:
256,192,17894,1,8,0:0:0:0:
256,192,18073,1,0,0:0:0:0:
256,192,18430,1,0,0:0:0:0:
256,192,18787,1,8,0:0:0:0:
256,192,19144,1,0,0:0:0:0:
256,192,19680,1,8,0:0:0:0:
256,192,20037,1,0,0:0:0:0:
256,192,20394,1,0,0:0:0:0:
256,192,20752,1,8,0:0:0:0:
256,192,20930,1,0,0:0:0:0:
256,192,21287,1,0,0:0:0:0:
256,192,21644,1,8,0:0:0:0:
256,192,22002,1,0,0:0:0:0:
256,192,22359,1,0,0:0:0:0:
256,192,22537,1,8,0:0:0:0:
256,192,22894,1,0,0:0:0:0:
256,192,23073,1,0,0:0:0:0:
256,192,23252,1,8,0:0:0:0:
256,192,23609,1,0,0:0:0:0:
256,192,23847,1,8,0:0:0:0:
256,192,24085,1,8,0:0:0:0:
256,192,24323,1,0,0:0:0:0:
256,192,24502,1,0,0:0:0:0:
256,192,24680,1,8,0:0:0:0:
256,192,24859,1,8,0:0:0:0:
256,192,25037,1,0,0:0:0:0:
256,192,25573,1,8,0:0:0:0:
256,192,25752,1,4,0:0:0:0:
256,192,27180,1,12,0:0:0:0:
256,192,30752,1,8,0:0:0:0:
256,192,30930,1,8,0:0:0:0:
256,192,31109,1,0,0:0:0:0:
256,192,31466,1,12,0:0:0:0:
256,192,32894,1,4,0:0:0:0:
256,192,36466,8,0,36823,0:0:0:0:
256,192,37180,5,4,0:0:0:0:
256,192,38609,1,12,0:0:0:0:
256,192,42180,2,0,L|320:192,4,36.749998878479,0|0|0|0|0,0:0|0:0|0:0|0:0|0:0,0:0:0:100:
256,192,42894,1,12,0:0:0:0:
256,192,44323,1,8,0:0:0:0:
256,192,45752,1,4,0:0:0:0:
256,192,47180,8,0,48252,0:0:0:0:
256,192,48609,5,0,0:0:0:0:
256,192,48966,1,8,0:0:0:0:
256,192,49323,1,12,0:0:0:0:
256,192,50037,1,0,0:0:0:0:
256,192,50752,1,12,0:0:0:0:
256,192,51466,1,0,0:0:0:0:
256,192,51823,1,8,0:0:0:0:
256,192,52002,1,8,0:0:0:0:
256,192,52180,1,4,0:0:0:0:
256,192,52537,1,0,0:0:0:0:
256,192,52716,1,0,0:0:0:0:
256,192,52894,1,12,0:0:0:0:
256,192,53252,1,8,0:0:0:0:
256,192,53430,1,8,0:0:0:0:
256,192,53609,1,0,0:0:0:0:
256,192,53966,1,0,0:0:0:0:
256,192,54323,1,12,0:0:0:0:
256,192,55037,1,4,0:0:0:0:
256,192,55394,1,8,0:0:0:0:
256,192,55752,1,0,0:0:0:0:
256,192,56466,1,12,0:0:0:0:
256,192,57180,1,0,0:0:0:0:
256,192,57537,1,0,0:0:0:0:
256,192,57716,1,0,0:0:0:0:
256,192,57894,1,12,0:0:0:0:
256,192,58252,1,0,0:0:0:0:
256,192,58430,1,8,0:0:0:0:
256,192,58609,1,4,0:0:0:0:
256,192,58966,1,8,0:0:0:0:
256,192,59323,1,0,0:0:0:0:
256,192,59502,1,0,0:0:0:0:
256,192,59680,1,8,0:0:0:0:
256,192,60037,1,4,0:0:0:0:
256,192,60752,1,4,0:0:0:0:
256,192,61109,1,8,0:0:0:0:
256,192,61466,1,0,0:0:0:0:
256,192,62180,1,12,0:0:0:0:
256,192,62894,1,0,0:0:0:0:
256,192,63252,1,8,0:0:0:0:
256,192,63430,1,0,0:0:0:0:
256,192,63609,1,12,0:0:0:0:
256,192,63966,1,0,0:0:0:0:
256,192,64144,1,8,0:0:0:0:
256,192,64323,1,4,0:0:0:0:
256,192,64680,1,8,0:0:0:0:
256,192,65037,1,0,0:0:0:0:
256,192,65752,1,4,0:0:0:0:
256,192,66466,1,12,0:0:0:0:
256,192,67180,1,0,0:0:0:0:
256,192,67894,1,12,0:0:0:0:
256,192,68609,1,0,0:0:0:0:
256,192,68847,1,8,0:0:0:0:
256,192,68966,1,8,0:0:0:0:
256,192,69323,1,8,0:0:0:0:
256,192,69561,1,0,0:0:0:0:
256,192,69680,1,0,0:0:0:0:
256,192,70037,6,0,L|320:192,6,36.749998878479,0|0|0|0|0|0|0,0:0|0:0|0:0|0:0|0:0|0:0|0:0,0:0:0:100:
256,192,70752,1,8,0:0:0:0:
256,192,70990,1,0,0:0:0:0:
256,192,71228,1,0,0:0:0:0:
256,192,71466,1,8,0:0:0:0:
256,192,71823,1,4,0:0:0:0:
256,192,72359,1,8,0:0:0:0:
256,192,72537,1,0,0:0:0:0:
256,192,72716,1,0,0:0:0:0:
256,192,72894,1,8,0:0:0:0:
256,192,73252,1,0,0:0:0:0:
256,192,73341,1,0,0:0:0:0:
256,192,73430,1,0,0:0:0:0:
256,192,73609,1,8,0:0:0:0:
256,192,73787,1,8,0:0:0:0:
256,192,73966,1,0,0:0:0:0:
256,192,74323,1,8,0:0:0:0:
256,192,74680,1,0,0:0:0:0:
256,192,74769,1,0,0:0:0:0:
256,192,74859,1,0,0:0:0:0:
256,192,75037,1,8,0:0:0:0:
256,192,75216,1,0,0:0:0:0:
256,192,75394,1,8,0:0:0:0:
256,192,75484,1,8,0:0:0:0:
256,192,75573,1,8,0:0:0:0:
256,192,75752,1,0,0:0:0:0:
256,192,76109,1,0,0:0:0:0:
256,192,76287,1,8,0:0:0:0:
256,192,76466,1,8,0:0:0:0:
256,192,76644,1,0,0:0:0:0:
256,192,76823,1,0,0:0:0:0:
256,192,76912,1,0,0:0:0:0:
256,192,77002,1,0,0:0:0:0:
256,192,77180,1,8,0:0:0:0:
256,192,77537,1,0,0:0:0:0:
256,192,77716,1,8,0:0:0:0:
256,192,77805,1,8,0:0:0:0:
256,192,77894,1,8,0:0:0:0:
256,192,78073,1,0,0:0:0:0:
256,192,78252,1,0,0:0:0:0:
256,192,78341,1,0,0:0:0:0:
256,192,78430,1,0,0:0:0:0:
256,192,78609,1,8,0:0:0:0:
256,192,78966,1,0,0:0:0:0:
256,192,79055,1,0,0:0:0:0:
256,192,79144,1,0,0:0:0:0:
256,192,79323,1,8,0:0:0:0:
256,192,79412,1,8,0:0:0:0:
256,192,79502,1,8,0:0:0:0:
256,192,79680,1,0,0:0:0:0:
256,192,80216,1,8,0:0:0:0:
256,192,80394,1,0,0:0:0:0:
256,192,80484,1,0,0:0:0:0:
256,192,80573,1,0,0:0:0:0:
256,192,80752,1,8,0:0:0:0:
256,192,80930,1,8,0:0:0:0:
256,192,81109,1,0,0:0:0:0:
256,192,81198,1,0,0:0:0:0:
256,192,81287,1,0,0:0:0:0:
256,192,81466,1,8,0:0:0:0:
256,192,81704,1,0,0:0:0:0:
256,192,81823,1,0,0:0:0:0:
256,192,81942,1,0,0:0:0:0:
256,192,82180,1,8,0:0:0:0:
256,192,82894,1,0,0:0:0:0:
256,192,83252,1,8,0:0:0:0:
256,192,83341,1,8,0:0:0:0:
256,192,83430,1,8,0:0:0:0:
256,192,83609,1,8,0:0:0:0:
256,192,83787,1,0,0:0:0:0:
256,192,83966,1,0,0:0:0:0:
256,192,84144,1,8,0:0:0:0:
256,192,84323,1,8,0:0:0:0:
256,192,84680,1,0,0:0:0:0:
256,192,85037,1,8,0:0:0:0:
256,192,85127,1,8,0:0:0:0:
256,192,85216,1,8,0:0:0:0:
256,192,85394,1,0,0:0:0:0:
256,192,85573,1,8,0:0:0:0:
256,192,85752,1,0,0:0:0:0:
256,192,86109,1,0,0:0:0:0:
256,192,86198,1,0,0:0:0:0:
256,192,86287,1,0,0:0:0:0:
256,192,86466,1,8,0:0:0:0:
256,192,86644,1,0,0:0:0:0:
256,192,86823,1,0,0:0:0:0:
256,192,87002,1,8,0:0:0:0:
256,192,87180,1,8,0:0:0:0:
256,192,87537,1,8,0:0:0:0:
256,192,87716,1,0,0:0:0:0:
256,192,87894,1,8,0:0:0:0:
256,192,87984,1,8,0:0:0:0:
256,192,88073,1,8,0:0:0:0:
256,192,88252,1,0,0:0:0:0:
256,192,88341,1,0,0:0:0:0:
256,192,88430,1,0,0:0:0:0:
256,192,88609,1,0,0:0:0:0:
256,192,89144,1,8,0:0:0:0:
256,192,89323,1,0,0:0:0:0:
256,192,89502,1,8,0:0:0:0:
256,192,89680,1,0,0:0:0:0:
256,192,89769,1,0,0:0:0:0:
256,192,89859,1,0,0:0:0:0:
256,192,90037,1,8,0:0:0:0:
256,192,90394,1,0,0:0:0:0:
256,192,90752,1,0,0:0:0:0:
256,192,90930,1,8,0:0:0:0:
256,192,91109,1,8,0:0:0:0:
256,192,91466,1,0,0:0:0:0:
256,192,91644,1,8,0:0:0:0:
256,192,91823,1,0,0:0:0:0:
256,192,91912,1,0,0:0:0:0:
256,192,92002,1,0,0:0:0:0:
256,192,92180,1,8,0:0:0:0:
256,192,92359,1,0,0:0:0:0:
256,192,92537,1,8,0:0:0:0:
256,192,92627,1,8,0:0:0:0:
256,192,92716,1,8,0:0:0:0:
256,192,92894,1,0,0:0:0:0:
256,192,93252,8,0,93966,0:0:0:0:
256,192,94323,5,12,0:0:0:0:
256,192,95037,1,4,0:0:0:0:
256,192,95394,1,4,0:0:0:0:
256,192,95662,1,12,0:0:0:0:
256,192,96109,1,12,0:0:0:0:
256,192,96466,1,4,0:0:0:0:
256,192,97180,1,12,0:0:0:0:
256,192,97894,1,4,0:0:0:0:
256,192,98252,1,4,0:0:0:0:
256,192,98519,1,12,0:0:0:0:
256,192,98966,1,12,0:0:0:0:
256,192,99323,1,4,0:0:0:0:
256,192,100037,1,4,0:0:0:0:
256,192,100752,1,12,0:0:0:0:
256,192,101109,1,12,0:0:0:0:
256,192,101377,1,4,0:0:0:0:
256,192,101823,1,4,0:0:0:0:
256,192,102180,1,12,0:0:0:0:
256,192,102894,1,4,0:0:0:0:
256,192,103162,1,8,0:0:0:0:
256,192,103430,1,4,0:0:0:0:
256,192,103966,1,12,0:0:0:0:
256,192,104234,1,0,0:0:0:0:
256,192,104502,1,12,0:0:0:0:
256,192,105037,1,0,0:0:0:0:
256,192,105216,1,12,0:0:0:0:
256,192,105752,1,4,0:0:0:0:
256,192,106466,1,12,0:0:0:0:
256,192,106823,1,12,0:0:0:0:
256,192,107091,1,4,0:0:0:0:
256,192,107537,1,4,0:0:0:0:
256,192,107894,1,12,0:0:0:0:
256,192,108609,1,4,0:0:0:0:
256,192,109323,1,12,0:0:0:0:
256,192,109680,1,12,0:0:0:0:
256,192,109948,1,4,0:0:0:0:
256,192,110394,1,12,0:0:0:0:
256,192,110752,1,4,0:0:0:0:
256,192,111466,1,12,0:0:0:0:
256,192,112180,1,4,0:0:0:0:
256,192,112537,1,4,0:0:0:0:
256,192,112805,1,12,0:0:0:0:
256,192,113252,1,12,0:0:0:0:
256,192,113609,1,4,0:0:0:0:
256,192,114323,8,0,116466,0:0:0:0:
256,192,117180,5,12,0:0:0:0:
256,192,117418,1,12,0:0:0:0:
256,192,117894,1,4,0:0:0:0:
256,192,118252,1,4,0:0:0:0:
256,192,118490,1,12,0:0:0:0:
256,192,118966,1,12,0:0:0:0:
256,192,119323,1,4,0:0:0:0:
256,192,119502,1,8,0:0:0:0:
256,192,119591,1,8,0:0:0:0:
256,192,119680,1,8,0:0:0:0:
256,192,119859,1,0,0:0:0:0:
256,192,120037,1,12,0:0:0:0:
256,192,120275,1,12,0:0:0:0:
256,192,120752,1,4,0:0:0:0:
256,192,121109,1,4,0:0:0:0:
256,192,121347,1,12,0:0:0:0:
256,192,121823,1,12,0:0:0:0:
256,192,122180,1,4,0:0:0:0:
256,192,122448,1,8,0:0:0:0:
256,192,122716,1,8,0:0:0:0:
256,192,122894,1,4,0:0:0:0:
256,192,123133,1,4,0:0:0:0:
256,192,123609,1,12,0:0:0:0:
256,192,123966,1,12,0:0:0:0:
256,192,124204,1,4,0:0:0:0:
256,192,124680,1,4,0:0:0:0:
256,192,125037,1,12,0:0:0:0:
256,192,125394,1,0,0:0:0:0:
256,192,125573,1,8,0:0:0:0:
256,192,125752,1,4,0:0:0:0:
256,192,125990,1,0,0:0:0:0:
256,192,126287,1,12,0:0:0:0:
256,192,126525,1,8,0:0:0:0:
256,192,126823,1,4,0:0:0:0:
256,192,127061,1,8,0:0:0:0:
256,192,127359,1,12,0:0:0:0:
256,192,127597,1,0,0:0:0:0:
256,192,127894,1,0,0:0:0:0:
256,192,128073,1,12,0:0:0:0:
256,192,128609,1,4,0:0:0:0:
256,192,128847,1,4,0:0:0:0:
256,192,129323,1,12,0:0:0:0:
256,192,129680,1,12,0:0:0:0:
256,192,129918,1,4,0:0:0:0:
256,192,130394,1,4,0:0:0:0:
256,192,130752,1,12,0:0:0:0:
256,192,131109,1,0,0:0:0:0:
256,192,131287,1,8,0:0:0:0:
256,192,131466,1,4,0:0:0:0:
256,192,131704,1,4,0:0:0:0:
256,192,132180,1,12,0:0:0:0:
256,192,132537,1,12,0:0:0:0:
256,192,132775,1,4,0:0:0:0:
256,192,133252,1,12,0:0:0:0:
256,192,133609,1,4,0:0:0:0:
256,192,133787,1,8,0:0:0:0:
256,192,133966,1,0,0:0:0:0:
256,192,134323,1,12,0:0:0:0:
256,192,134561,1,12,0:0:0:0:
256,192,135037,1,4,0:0:0:0:
256,192,135394,1,4,0:0:0:0:
256,192,135633,1,12,0:0:0:0:
256,192,136109,1,12,0:0:0:0:
256,192,136466,1,4,0:0:0:0:
256,192,136644,1,8,0:0:0:0:
256,192,137002,1,8,0:0:0:0:
256,192,137180,8,0,139323,0:0:0:0:
256,192,140037,5,0,0:0:0:0:
256,192,140394,1,0,0:0:0:0:
256,192,140930,1,0,0:0:0:0:
256,192,145752,1,0,0:0:0:0:
256,192,146109,1,0,0:0:0:0:
256,192,146644,1,0,0:0:0:0:
256,192,150752,12,0,151287,0:0:0:0:
256,192,151466,5,0,0:0:0:0:
256,192,151823,1,0,0:0:0:0:
256,192,152180,1,8,0:0:0:0:
256,192,152716,1,0,0:0:0:0:
256,192,153073,1,8,0:0:0:0:
256,192,153430,1,0,0:0:0:0:
256,192,153966,1,8,0:0:0:0:
256,192,154323,1,0,0:0:0:0:
256,192,154680,1,0,0:0:0:0:
256,192,155037,1,8,0:0:0:0:
256,192,155216,1,0,0:0:0:0:
256,192,155573,1,0,0:0:0:0:
256,192,155930,1,8,0:0:0:0:
256,192,156287,1,0,0:0:0:0:
256,192,156823,1,8,0:0:0:0:
256,192,157180,1,0,0:0:0:0:
256,192,157537,1,0,0:0:0:0:
256,192,157894,1,8,0:0:0:0:
256,192,158073,1,0,0:0:0:0:
256,192,158430,1,0,0:0:0:0:
256,192,158787,1,8,0:0:0:0:
256,192,159144,1,0,0:0:0:0:
256,192,159502,1,0,0:0:0:0:
256,192,159680,1,8,0:0:0:0:
256,192,160037,1,0,0:0:0:0:
256,192,160216,1,0,0:0:0:0:
256,192,160394,1,8,0:0:0:0:
256,192,160752,12,0,162180,0:0:0:0:
