osu file format v14

[General]
AudioFilename: audio.mp3
AudioLeadIn: 0
PreviewTime: 71778
Countdown: 0
SampleSet: Normal
StackLeniency: 0.7
Mode: 1
LetterboxInBreaks: 0
WidescreenStoryboard: 0

[Editor]
DistanceSpacing: 0.8
BeatDivisor: 6
GridSize: 32
TimelineZoom: 3.300004

[Metadata]
Title:19ZZ
TitleUnicode:19ZZ
Artist:Frums (unknown "lambda")
ArtistUnicode:Frums (unknown "λ")
Creator:Genjuro
Version:Inner Oni
Source:
Tags:I A aka Be-Music Source 偽名党 Dai 2 Kai Dai2Kai Dainikai BMS Shūgīnsen Shuginsen Shuugiinsen Gimei Tō To Tou Shuin Modern Midtempo Electronic Videogame Video Game Instrumental Shūgiin-sen a.k.a. 第二回BMS衆議院選 L
BeatmapID:2137398
BeatmapSetID:1021559

[Difficulty]
HPDrainRate:5
CircleSize:2
OverallDifficulty:6
ApproachRate:9
SliderMultiplier:1.4
SliderTickRate:1

[Events]
//Background and Video events
0,0,"bg.jpg",0,0
//Break Periods
//Storyboard Layer 0 (Background)
//Storyboard Layer 1 (Fail)
//Storyboard Layer 2 (Pass)
//Storyboard Layer 3 (Foreground)
//Storyboard Layer 4 (Overlay)
//Storyboard Sound Samples

[TimingPoints]
38,714.285714285714,4,1,0,20,1,0
38,-66.6666666666665,4,1,0,20,0,0
2895,714.285714285714,4,1,0,20,1,0
2895,-66.6666666666665,4,1,0,20,0,0
13609,-58.8235294117645,4,1,0,25,0,0
14323,-66.6666666666665,4,1,0,30,0,0
14680,-66.115702479339,4,1,0,30,0,0
15037,-65.5737704918035,4,1,0,30,0,0
15216,-65.3061224489795,4,1,0,30,0,0
15573,-64.7773279352225,4,1,0,30,0,0
15930,-64.25702811245,4,1,0,30,0,0
16287,-63.7450199203185,4,1,0,30,0,0
16644,-63.2411067193675,4,1,0,30,0,0
16823,-62.992125984252,4,1,0,30,0,0
17180,-62.5,4,1,0,30,0,0
17359,-62.015503875969,4,1,0,30,0,0
17537,-61.5384615384615,4,1,0,30,0,0
17894,-60.6060606060605,4,1,0,30,0,0
18073,-60.1503759398495,4,1,0,30,0,0
18430,-59.2592592592595,4,1,0,30,0,0
18787,-58.3941605839415,4,1,0,30,0,0
18966,-57.9710144927535,4,1,0,30,0,0
19144,-57.5539568345325,4,1,0,30,0,0
19323,-57.142857142857,4,1,0,30,0,0
19412,-56.9395017793595,4,1,0,30,0,0
19502,-56.7375886524825,4,1,0,30,0,0
19591,-56.537102473498,4,1,0,30,0,0
19680,-56.338028169014,4,1,0,30,0,0
20037,-55.5555555555555,4,1,0,30,0,0
20216,-54.982817869416,4,1,0,30,0,0
20394,-54.421768707483,4,1,0,30,0,0
20752,-53.3333333333335,4,1,0,30,0,0
20871,-52.980132450331,4,1,0,30,0,0
20990,-52.6315789473685,4,1,0,30,0,0
21109,-52.2875816993465,4,1,0,30,0,0
21228,-51.948051948052,4,1,0,30,0,0
21347,-51.6129032258065,4,1,0,30,0,0
21644,-50.793650793651,4,1,0,30,0,0
21823,-50.314465408805,4,1,0,30,0,0
22002,-49.8442367601246,4,1,0,30,0,0
22180,-49.3827160493827,4,1,0,30,0,0
22299,-49.079754601227,4,1,0,30,0,0
22418,-48.780487804878,4,1,0,30,0,0
22537,-48.4848484848485,4,1,0,30,0,0
22656,-48.1927710843374,4,1,0,30,0,0
22775,-47.9041916167664,4,1,0,30,0,0
22894,-47.6190476190476,4,1,0,35,0,0
22954,-47.4327498472666,4,1,0,35,0,0
23014,-47.2479487303059,4,1,0,35,0,0
23073,-47.0645377179912,4,1,0,35,0,0
23133,-46.8825451596116,4,1,0,35,0,0
23252,-46.5227933773873,4,1,0,35,0,0
23371,-46.168478009954,4,1,0,35,0,0
23490,-45.8195607370351,4,1,0,35,0,0
23609,-45.4758364143213,4,1,0,35,0,0
23688,-45.16711833785,4,1,0,35,0,0
23767,-44.8833034111311,4,1,0,35,0,0
23847,-44.6030330062444,4,1,0,35,0,0
23926,-44.3262411347518,4,1,0,35,0,0
24005,-44.0528634361234,4,1,0,35,0,0
24085,-43.7828371278459,4,1,0,35,0,0
24164,-43.5161009573542,4,1,0,35,0,0
24243,-43.2525951557094,4,1,0,35,0,0
24323,-43.010752688172,4,1,0,40,0,0
24383,-42.7046384924237,4,1,0,40,0,0
24442,-42.4028148684622,4,1,0,40,0,0
24502,-42.1052631578947,4,1,0,40,0,0
24561,-41.8118583447689,4,1,0,40,0,0
24621,-41.5224798553689,4,1,0,40,0,0
24680,-41.2371134020619,4,1,0,40,0,0
24740,-40.9556425817454,4,1,0,40,0,0
24799,-40.6779550703851,4,1,0,40,0,0
24859,-40.4040404040404,4,1,0,40,0,0
24918,-40.1337900023519,4,1,0,40,0,0
24978,-39.8670990386448,4,1,0,40,0,0
25037,-39.6039603960396,4,1,0,40,0,0
25573,-50,4,1,0,30,0,0
25618,-49.5049504950495,4,1,0,30,0,0
25662,-48.5436893203884,4,1,0,30,0,0
25752,-35.7142857142857,4,1,0,40,0,0
30752,-38.4615384615385,4,1,0,30,0,0
30930,-40.5405514974464,4,1,0,30,0,0
31109,-42.8571306122484,4,1,0,30,0,0
31287,-45.4545454545455,4,1,0,30,0,0
31466,-35.7142857142857,4,1,0,40,0,0
36466,-38.4615384615385,4,1,0,30,0,0
36600,-39.8773055064178,4,1,0,30,0,0
36912,-43.6241552182342,4,1,0,30,0,0
37046,-45.4545454545455,4,1,0,30,0,0
37180,-35.7142857142857,4,1,0,40,0,0
42180,-38.4615384615385,4,1,0,30,0,0
42389,-40.6504065040651,4,1,0,30,0,0
42597,-43.1034482758621,4,1,0,30,0,0
42656,-43.859649122807,4,1,0,30,0,0
42716,-44.6428571428572,4,1,0,30,0,0
42775,-45.4545454545455,4,1,0,30,0,0
42894,-35.7142857142857,4,1,0,40,0,0
47180,-40,4,1,0,35,0,0
48609,-40,4,1,0,30,0,0
48728,-41.095879151814,4,1,0,30,0,0
48847,-42.2535330291643,4,1,0,30,0,0
48966,-43.4782608695652,4,1,0,30,0,0
49323,-33.3333333333334,4,1,0,40,0,1
50037,-40,4,1,0,40,0,1
50752,-33.3333333333334,4,1,0,40,0,1
51466,-40,4,1,0,40,0,1
51912,-38.5015504574369,4,1,0,40,0,1
52002,-37.1113421910685,4,1,0,40,0,1
52091,-35.8180044213744,4,1,0,40,0,1
52180,-33.4236663622885,4,1,0,40,0,1
52537,-40,4,1,0,40,0,1
52627,-38.5015504574369,4,1,0,40,0,1
52716,-37.1113421910685,4,1,0,40,0,1
52805,-35.8180044213744,4,1,0,40,0,1
52894,-33.4236663622885,4,1,0,40,0,1
53252,-35.8180044213744,4,1,0,40,0,1
53430,-34.4827586206897,4,1,0,40,0,1
53609,-33.3333333333334,4,1,0,35,0,0
53787,-35.7142857142857,4,1,0,35,0,0
53966,-38.4615384615385,4,1,0,35,0,0
54055,-40,4,1,0,35,0,0
54144,-41.6666666666667,4,1,0,35,0,0
54323,-33.3333333333334,4,1,0,40,0,1
55394,-36.3295790346359,4,1,0,40,0,1
55752,-39.9177056580155,4,1,0,40,0,1
56466,-33.3333333333334,4,1,0,40,0,1
57180,-40,4,1,0,40,0,1
57537,-34.4827586206897,4,1,0,40,0,1
57597,-34.7826086956522,4,1,0,40,0,1
57656,-35.0877192982456,4,1,0,40,0,1
57716,-35.3982300884956,4,1,0,40,0,1
57775,-35.7142857142857,4,1,0,40,0,1
57894,-33.3333333333334,4,1,0,40,0,1
58252,-34.4827586206897,4,1,0,40,0,1
58296,-34.7826086956522,4,1,0,40,0,1
58341,-35.0877192982456,4,1,0,40,0,1
58386,-35.3982300884956,4,1,0,40,0,1
58430,-35.7142857142857,4,1,0,40,0,1
58609,-33.3333333333334,4,1,0,40,0,1
58966,-40,4,1,0,40,0,1
59323,-33.3333333333334,4,1,0,35,0,0
59502,-35.4609929078014,4,1,0,35,0,0
59680,-37.8787878787879,4,1,0,35,0,0
59740,-38.7596899224806,4,1,0,35,0,0
59799,-39.6825396825397,4,1,0,35,0,0
59859,-40.6504065040651,4,1,0,35,0,0
59918,-41.6666666666667,4,1,0,35,0,0
60037,-33.3333333333334,4,1,0,40,0,1
61109,-36.3295790346359,4,1,0,40,0,1
61466,-39.9177056580155,4,1,0,40,0,1
62180,-33.3333333333334,4,1,0,40,0,1
62894,-40,4,1,0,40,0,1
63252,-34.4827586206897,4,1,0,40,0,1
63323,-34.8837209302325,4,1,0,40,0,1
63394,-35.2941176470588,4,1,0,40,0,1
63466,-35.7142857142857,4,1,0,40,0,1
63609,-33.3333333333334,4,1,0,40,0,1
63966,-34.4827586206897,4,1,0,40,0,1
64025,-34.7826086956522,4,1,0,40,0,1
64085,-35.0877192982456,4,1,0,40,0,1
64144,-35.3982300884956,4,1,0,40,0,1
64204,-35.7142857142857,4,1,0,40,0,1
64323,-33.3333333333334,4,1,0,40,0,1
64680,-40,4,1,0,40,0,1
64725,-39.2464678178964,4,1,0,40,0,1
64769,-38.5208012326656,4,1,0,40,0,1
64859,-37.147102526003,4,1,0,40,0,1
65037,-33.3333333333334,4,1,0,35,0,0
65417,-38.0686987738072,4,1,0,35,0,0
65484,-39.0476130975065,4,1,0,35,0,0
65551,-40.0782005849814,4,1,0,35,0,0
65752,-33.3333333333334,4,1,0,40,0,1
67180,-40,4,1,0,40,0,1
67894,-33.3333333333334,4,1,0,40,0,1
68371,-37.593984962406,4,1,0,40,0,1
68430,-37.3134328358209,4,1,0,40,0,1
68490,-37.0370370370371,4,1,0,40,0,1
68609,-33.3333333333334,4,1,0,40,0,1
68728,-33.8028092838739,4,1,0,40,0,1
68847,-34.2857221224508,4,1,0,40,0,1
68966,-34.7826086956522,4,1,0,40,0,1
69085,-35.2941093425625,4,1,0,40,0,1
69204,-35.8209040766338,4,1,0,40,0,1
69323,-36.3636363636364,4,1,0,40,0,1
69442,-36.9230678343217,4,1,0,40,0,1
69561,-37.5000093750024,4,1,0,40,0,1
69680,-38.0952380952381,4,1,0,40,0,1
69799,-38.7096674297633,4,1,0,40,0,1
69918,-39.3442726148912,4,1,0,40,0,1
70037,-40,4,1,0,40,0,1
70097,-39.737825721023,4,1,0,40,0,1
70156,-39.4790346586446,4,1,0,40,0,1
70216,-39.2236232900461,4,1,0,40,0,1
70275,-38.9714650932587,4,1,0,40,0,1
70335,-38.7225582910032,4,1,0,40,0,1
70394,-38.476781186393,4,1,0,40,0,1
70454,-38.234133599239,4,1,0,40,0,1
70514,-37.9945272682923,4,1,0,40,0,1
70573,-37.7578768594811,4,1,0,40,0,1
70633,-37.5241843368051,4,1,0,40,0,1
70692,-37.2933389621413,4,1,0,40,0,1
70752,-37.0370370370371,4,1,0,40,0,1
70990,-39.4736738227174,4,1,0,40,0,1
71228,-42.2535330291643,4,1,0,40,0,1
71466,-45.4545454545455,4,1,0,30,0,0
71823,-50,4,1,0,40,0,0
81466,-50,4,1,0,40,0,0
81585,-49.5867932518325,4,1,0,40,0,0
81704,-49.1803117441601,4,1,0,40,0,0
81823,-48.780487804878,4,1,0,40,0,0
81942,-48.3871123829395,4,1,0,40,0,0
82061,-47.9999846400049,4,1,0,40,0,0
82180,-47.6190476190476,4,1,0,40,0,0
82240,-47.2441093682234,4,1,0,40,0,0
82299,-46.8749853515671,4,1,0,40,0,0
82359,-46.5116279069767,4,1,0,40,0,0
82418,-46.1538603550339,4,1,0,40,0,0
82478,-45.8015127323626,4,1,0,40,0,0
82537,-45.4545454545455,4,1,0,40,0,0
82597,-45.1127955226453,4,1,0,40,0,0
82656,-44.7761060369833,4,1,0,40,0,0
82716,-44.4444444444445,4,1,0,40,0,0
82775,-44.1176600346059,4,1,0,40,0,0
82835,-43.7956076509175,4,1,0,40,0,0
82894,-43.4782608695652,4,1,0,40,0,0
83014,-44.1109655449248,4,1,0,40,0,0
83133,-44.7623566485529,4,1,0,40,0,0
83252,-45.4332744215208,4,1,0,40,0,0
83341,-45.9498007616639,4,1,0,40,0,0
83430,-46.4782068335978,4,1,0,40,0,0
83519,-47.0189072429806,4,1,0,40,0,0
83609,-47.5723361156807,4,1,0,40,0,0
93252,-50,4,1,0,25,0,0
94323,-35.7142857142857,4,1,0,40,0,0
94591,-37.7358490566038,4,1,0,40,0,0
94859,-40,4,1,0,40,0,0
95037,-41.6666666666667,4,1,0,40,0,0
95394,-45.4545454545455,4,1,0,40,0,0
95662,-40,4,1,0,40,0,0
95930,-35.8180044213744,4,1,0,40,0,0
96109,-37.0182537008999,4,1,0,40,0,0
96287,-38.421048587258,4,1,0,40,0,0
96466,-39.9343479319998,4,1,0,40,0,0
97180,-35.7142857142857,4,1,0,40,0,0
97448,-37.7358490566038,4,1,0,40,0,0
97716,-40,4,1,0,40,0,0
97894,-41.6666666666667,4,1,0,40,0,0
98252,-45.4545454545455,4,1,0,40,0,0
98519,-40,4,1,0,40,0,0
98787,-35.7142857142857,4,1,0,40,0,0
98966,-37.0182537008999,4,1,0,40,0,0
99144,-38.421048587258,4,1,0,40,0,0
99323,-39.9343479319998,4,1,0,40,0,0
100037,-41.6666666666667,4,1,0,40,0,0
100305,-39.2156862745098,4,1,0,40,0,0
100573,-37.0370370370371,4,1,0,40,0,0
100752,-35.7142857142857,4,1,0,40,0,0
101109,-33.3333333333334,4,1,0,40,0,0
101377,-36.231884057971,4,1,0,40,0,0
101644,-40,4,1,0,40,0,0
101823,-38.4818154181242,4,1,0,40,0,0
102002,-37.0746609522256,4,1,0,40,0,0
102180,-35.7667862469553,4,1,0,40,0,0
102894,-45.4545454545455,4,1,0,40,0,0
103073,-43.4913082620439,4,1,0,40,0,0
103162,-42.5719231355413,4,1,0,40,0,0
103252,-41.6906387839675,4,1,0,40,0,0
103430,-40.0331153930532,4,1,0,40,0,0
103609,-38.5023806021927,4,1,0,40,0,0
103698,-37.7801016738096,4,1,0,40,0,0
103787,-37.0843951831821,4,1,0,40,0,0
103966,-35.7142857142857,4,1,0,40,0,0
104144,-37.0370370370371,4,1,0,40,0,0
104234,-37.7358490566038,4,1,0,40,0,0
104323,-38.4615384615385,4,1,0,40,0,0
104502,-40,4,1,0,40,0,0
104680,-41.6666666666667,4,1,0,40,0,0
104769,-42.5531914893617,4,1,0,40,0,0
104859,-43.4782608695652,4,1,0,40,0,0
105037,-45.4545454545455,4,1,0,40,0,0
105216,-29.4117647058824,4,1,0,40,0,0
105752,-41.6666666666667,4,1,0,40,0,0
106019,-39.2156862745098,4,1,0,40,0,0
106287,-37.0370370370371,4,1,0,40,0,0
106466,-35.7142857142857,4,1,0,40,0,0
106823,-33.3333333333334,4,1,0,40,0,0
107091,-36.3636363636364,4,1,0,40,0,0
107359,-40,4,1,0,40,0,0
107537,-38.4818154181242,4,1,0,40,0,0
107716,-37.0746609522256,4,1,0,40,0,0
107894,-35.7667862469553,4,1,0,40,0,0
108609,-45.4545454545455,4,1,0,40,0,0
108877,-42.5531914893617,4,1,0,40,0,0
109144,-40,4,1,0,40,0,0
109323,-38.4615384615385,4,1,0,40,0,0
109680,-35.7142857142857,4,1,0,40,0,0
109948,-37.593984962406,4,1,0,40,0,0
110216,-39.9309354540387,4,1,0,40,0,0
110394,-38.4818154181242,4,1,0,40,0,0
110573,-37.0746609522256,4,1,0,40,0,0
110752,-35.7667862469553,4,1,0,40,0,0
111466,-35.7142857142857,4,1,0,40,0,0
111734,-37.7358490566038,4,1,0,40,0,0
112002,-40,4,1,0,40,0,0
112180,-41.6666666666667,4,1,0,40,0,0
112537,-45.4545454545455,4,1,0,40,0,0
112805,-40,4,1,0,40,0,0
113073,-35.7142857142857,4,1,0,40,0,0
113252,-37.0182537008999,4,1,0,40,0,0
113430,-38.421048587258,4,1,0,40,0,0
113609,-39.9343479319998,4,1,0,40,0,0
114144,-50,4,1,0,25,0,0
116823,-51.2820512820515,4,1,0,25,0,0
117002,-52.6315789473685,4,1,0,25,0,0
117180,-33.3333333333334,4,1,0,40,0,1
117418,-34.8837290427277,4,1,0,40,0,1
117716,-37.0370370370371,4,1,0,40,0,1
117894,-38.4615384615385,4,1,0,40,0,1
118252,-41.6666666666667,4,1,0,40,0,1
118490,-37.593984962406,4,1,0,40,0,1
118787,-33.3333333333334,4,1,0,40,0,1
118966,-34.4664761819417,4,1,0,40,0,1
119144,-35.6793709013322,4,1,0,40,0,1
119323,-36.9807441265333,4,1,0,40,0,1
119502,-38.4615384615385,4,1,0,40,0,1
119591,-37.3831775700935,4,1,0,40,0,1
119680,-36.3636363636364,4,1,0,40,0,1
119769,-35.3982300884956,4,1,0,40,0,1
119859,-34.4827586206897,4,1,0,40,0,1
120037,-33.3333333333334,4,1,0,40,0,1
120275,-34.8837290427277,4,1,0,40,0,1
120573,-37.0370370370371,4,1,0,40,0,1
120752,-38.4615384615385,4,1,0,40,0,1
121109,-41.6666666666667,4,1,0,40,0,1
121347,-37.5000093750024,4,1,0,40,0,1
121644,-33.3333333333334,4,1,0,40,0,1
121823,-34.4664761819417,4,1,0,40,0,1
122002,-35.6793709013322,4,1,0,40,0,1
122180,-37.0370370370371,4,1,0,40,0,1
122448,-39.1841238469092,4,1,0,40,0,1
122716,-41.5954344851109,4,1,0,40,0,1
122894,-38.4615384615385,4,1,0,40,0,1
123133,-36.6037838063396,4,1,0,40,0,1
123430,-34.5195636174846,4,1,0,40,0,1
123609,-33.3792186325469,4,1,0,40,0,1
123966,-31.25,4,1,0,40,0,1
124204,-33.3333333333334,4,1,0,40,0,1
124502,-36.9369242918637,4,1,0,40,0,1
124680,-35.7142857142857,4,1,0,40,0,1
124859,-34.4827586206897,4,1,0,40,0,1
125037,-33.3333333333334,4,1,0,40,0,1
125394,-38.4615384615385,4,1,0,40,0,1
125573,-40,4,1,0,40,0,1
125752,-41.6666666666667,4,1,0,40,0,1
125990,-39.4736738227174,4,1,0,40,0,1
126109,-38.4615384615385,4,1,0,40,0,1
126287,-37.0370370370371,4,1,0,40,0,1
126525,-35.2941093425625,4,1,0,40,0,1
126644,-34.4827586206897,4,1,0,40,0,1
126823,-33.3333333333334,4,1,0,40,0,1
127061,-34.8837290427277,4,1,0,40,0,1
127180,-35.7142857142857,4,1,0,40,0,1
127359,-37.0370370370371,4,1,0,40,0,1
127597,-38.961049080792,4,1,0,40,0,1
127716,-40,4,1,0,40,0,1
127894,-41.6666666666667,4,1,0,40,0,1
128073,-27.7777777777778,4,1,0,40,0,0
128609,-38.4615384615385,4,1,0,40,0,1
128847,-36.6037838063396,4,1,0,40,0,1
129144,-34.5195636174846,4,1,0,40,0,1
129323,-33.3792186325469,4,1,0,40,0,1
129680,-31.25,4,1,0,40,0,1
129918,-33.3333333333334,4,1,0,40,0,1
130216,-37.0370370370371,4,1,0,40,0,1
130394,-35.7142857142857,4,1,0,40,0,1
130573,-34.4827586206897,4,1,0,40,0,1
130752,-33.3333333333334,4,1,0,40,0,1
131109,-38.4615384615385,4,1,0,40,0,1
131198,-39.2156862745098,4,1,0,40,0,1
131287,-40,4,1,0,40,0,1
131466,-41.6666666666667,4,1,0,40,0,1
131704,-39.4736738227174,4,1,0,40,0,1
132002,-37.0370370370371,4,1,0,40,0,1
132180,-35.7142857142857,4,1,0,40,0,1
132537,-33.3333333333334,4,1,0,40,0,1
132775,-34.965034965035,4,1,0,40,0,1
133073,-36.9835889022605,4,1,0,40,0,1
133252,-35.7142857142857,4,1,0,40,0,1
133430,-34.4827586206897,4,1,0,40,0,1
133609,-33.3333333333334,4,1,0,40,0,1
133787,-34.4827586206897,4,1,0,40,0,1
133877,-35.3982300884956,4,1,0,40,0,1
133966,-36.3636363636364,4,1,0,40,0,1
134055,-37.3831775700935,4,1,0,40,0,1
134144,-38.4615384615385,4,1,0,40,0,1
134323,-33.3333333333334,4,1,0,40,0,1
134561,-34.8837290427277,4,1,0,40,0,1
134859,-37.0370370370371,4,1,0,40,0,1
135037,-38.4615384615385,4,1,0,40,0,1
135394,-41.6666666666667,4,1,0,40,0,1
135633,-37.5000093750024,4,1,0,40,0,1
135930,-33.3333333333334,4,1,0,40,0,1
136109,-34.4664761819417,4,1,0,40,0,1
136287,-35.6793709013322,4,1,0,40,0,1
136466,-37.0370370370371,4,1,0,40,0,1
136644,-39.4381483631591,4,1,0,40,0,1
136823,-42.1721704160538,4,1,0,40,0,1
136912,-43.6863980652168,4,1,0,40,0,1
137002,-45.313455830709,4,1,0,40,0,1
137180,-33.3333333333334,4,1,0,40,0,0
138609,-50,4,1,0,40,0,0
139859,-83.3333333333335,4,1,0,40,0,0
140037,-66.6666666666665,4,1,0,20,0,0
150752,-58.8235294117645,4,1,0,25,0,0
151466,-66.6666666666665,4,1,0,30,0,0
151823,-66.115702479339,4,1,0,30,0,0
152180,-65.5737704918035,4,1,0,30,0,0
152359,-65.3061224489795,4,1,0,30,0,0
152716,-64.7773279352225,4,1,0,30,0,0
153073,-64.25702811245,4,1,0,30,0,0
153430,-63.7450199203185,4,1,0,30,0,0
153787,-63.2411067193675,4,1,0,30,0,0
153966,-62.992125984252,4,1,0,30,0,0
154323,-62.5,4,1,0,30,0,0
154502,-62.015503875969,4,1,0,30,0,0
154680,-61.5384615384615,4,1,0,30,0,0
155037,-60.6060606060605,4,1,0,30,0,0
155216,-60.1503759398495,4,1,0,30,0,0
155573,-59.2592592592595,4,1,0,30,0,0
155930,-58.3941605839415,4,1,0,30,0,0
156109,-57.9710144927535,4,1,0,30,0,0
156287,-57.5539568345325,4,1,0,30,0,0
156466,-57.142857142857,4,1,0,30,0,0
156555,-56.9395017793595,4,1,0,30,0,0
156644,-56.7375886524825,4,1,0,30,0,0
156823,-56.338028169014,4,1,0,30,0,0
157180,-55.5555555555555,4,1,0,30,0,0
157359,-54.982817869416,4,1,0,30,0,0
157537,-54.421768707483,4,1,0,30,0,0
157894,-53.3333333333335,4,1,0,30,0,0
158073,-52.805280528053,4,1,0,30,0,0
158252,-52.2875816993465,4,1,0,30,0,0
158430,-51.779935275081,4,1,0,30,0,0
158787,-50.793650793651,4,1,0,30,0,0
158966,-50.314465408805,4,1,0,30,0,0
159144,-49.8442367601246,4,1,0,30,0,0
159323,-49.3827160493827,4,1,0,30,0,0
159442,-49.079754601227,4,1,0,30,0,0
159561,-48.780487804878,4,1,0,30,0,0
159680,-48.4848484848485,4,1,0,30,0,0
159799,-48.1927710843374,4,1,0,30,0,0
159918,-47.9041916167664,4,1,0,30,0,0
160037,-47.6190476190476,4,1,0,35,0,0
160156,-47.2479487303059,4,1,0,35,0,0
160216,-47.0645377179912,4,1,0,35,0,0
160275,-46.8825451596116,4,1,0,35,0,0
160394,-46.5227933773873,4,1,0,35,0,0
160514,-46.168478009954,4,1,0,35,0,0
160633,-45.8195607370351,4,1,0,35,0,0
160752,-45.4758364143213,4,1,0,35,0,0
162180,-50,4,1,0,20,0,0

[HitObjects]
256,192,2895,5,0,0:0:0:0:
256,192,3252,1,0,0:0:0:0:
256,192,3787,1,0,0:0:0:0:
256,192,8609,1,0,0:0:0:0:
256,192,8966,1,0,0:0:0:0:
256,192,9502,1,0,0:0:0:0:
256,192,13609,8,0,14144,0:0:0:0:
256,192,14323,5,0,0:0:0:0:
256,192,14680,1,0,0:0:0:0:
256,192,15037,1,8,0:0:0:0:
256,192,15216,1,0,0:0:0:0:
256,192,15573,1,0,0:0:0:0:
256,192,15930,1,8,0:0:0:0:
256,192,16287,1,0,0:0:0:0:
256,192,16644,1,0,0:0:0:0:
256,192,16823,1,8,0:0:0:0:
256,192,17180,1,0,0:0:0:0:
256,192,17359,1,8,0:0:0:0:
256,192,17537,1,0,0:0:0:0:
256,192,17894,1,8,0:0:0:0:
256,192,18073,1,0,0:0:0:0:
256,192,18430,1,0,0:0:0:0:
256,192,18787,1,8,0:0:0:0:
256,192,18966,1,0,0:0:0:0:
256,192,19144,1,0,0:0:0:0:
256,192,19323,1,8,0:0:0:0:
256,192,19412,1,8,0:0:0:0:
256,192,19502,1,0,0:0:0:0:
256,192,19591,1,0,0:0:0:0:
256,192,19680,1,8,0:0:0:0:
256,192,20037,1,0,0:0:0:0:
256,192,20216,1,8,0:0:0:0:
256,192,20394,1,0,0:0:0:0:
256,192,20752,1,8,0:0:0:0:
256,192,20871,1,0,0:0:0:0:
256,192,20990,1,8,0:0:0:0:
256,192,21109,1,0,0:0:0:0:
256,192,21228,1,0,0:0:0:0:
256,192,21347,1,8,0:0:0:0:
256,192,21644,1,8,0:0:0:0:
256,192,21823,1,0,0:0:0:0:
256,192,22002,1,8,0:0:0:0:
256,192,22180,1,0,0:0:0:0:
256,192,22299,1,0,0:0:0:0:
256,192,22418,1,8,0:0:0:0:
256,192,22537,1,0,0:0:0:0:
256,192,22656,1,8,0:0:0:0:
256,192,22775,1,8,0:0:0:0:
256,192,22894,1,0,0:0:0:0:
256,192,22954,1,0,0:0:0:0:
256,192,23014,1,8,0:0:0:0:
256,192,23073,1,8,0:0:0:0:
256,192,23133,1,8,0:0:0:0:
256,192,23252,1,0,0:0:0:0:
256,192,23371,1,8,0:0:0:0:
256,192,23490,1,8,0:0:0:0:
256,192,23609,1,0,0:0:0:0:
256,192,23688,1,0,0:0:0:0:
256,192,23767,1,8,0:0:0:0:
256,192,23847,1,0,0:0:0:0:
256,192,23926,1,8,0:0:0:0:
256,192,24005,1,8,0:0:0:0:
256,192,24085,1,0,0:0:0:0:
256,192,24164,1,0,0:0:0:0:
256,192,24243,1,8,0:0:0:0:
256,192,24323,1,0,0:0:0:0:
256,192,24383,1,8,0:0:0:0:
256,192,24442,1,8,0:0:0:0:
256,192,24502,1,0,0:0:0:0:
256,192,24561,1,8,0:0:0:0:
256,192,24621,1,0,0:0:0:0:
256,192,24680,1,8,0:0:0:0:
256,192,24740,1,0,0:0:0:0:
256,192,24799,1,8,0:0:0:0:
256,192,24859,1,0,0:0:0:0:
256,192,24918,1,8,0:0:0:0:
256,192,24978,1,8,0:0:0:0:
256,192,25037,1,0,0:0:0:0:
256,192,25573,1,8,0:0:0:0:
256,192,25618,1,8,0:0:0:0:
256,192,25662,1,8,0:0:0:0:
256,192,25752,1,4,0:0:0:0:
256,192,27180,1,12,0:0:0:0:
256,192,30752,1,8,0:0:0:0:
256,192,30930,1,8,0:0:0:0:
256,192,31109,1,0,0:0:0:0:
256,192,31287,1,0,0:0:0:0:
256,192,31466,1,12,0:0:0:0:
256,192,32894,1,4,0:0:0:0:
256,192,36466,1,8,0:0:0:0:
256,192,36600,1,0,0:0:0:0:
256,192,36912,1,8,0:0:0:0:
256,192,37046,1,8,0:0:0:0:
256,192,37180,1,4,0:0:0:0:
256,192,38609,1,12,0:0:0:0:
256,192,42180,1,8,0:0:0:0:
256,192,42389,1,0,0:0:0:0:
256,192,42597,1,0,0:0:0:0:
256,192,42656,1,8,0:0:0:0:
256,192,42716,1,8,0:0:0:0:
256,192,42775,1,0,0:0:0:0:
256,192,42894,1,12,0:0:0:0:
256,192,44323,1,8,0:0:0:0:
256,192,45752,1,4,0:0:0:0:
256,192,47180,8,0,48252,0:0:0:0:
256,192,48609,5,0,0:0:0:0:
256,192,48728,1,0,0:0:0:0:
256,192,48847,1,0,0:0:0:0:
256,192,48966,1,8,0:0:0:0:
256,192,49323,1,12,0:0:0:0:
256,192,50037,1,0,0:0:0:0:
256,192,50752,1,12,0:0:0:0:
256,192,51466,1,0,0:0:0:0:
256,192,51823,1,8,0:0:0:0:
256,192,51912,1,8,0:0:0:0:
256,192,52002,1,8,0:0:0:0:
256,192,52091,1,8,0:0:0:0:
256,192,52180,1,4,0:0:0:0:
256,192,52537,1,0,0:0:0:0:
256,192,52627,1,0,0:0:0:0:
256,192,52716,1,0,0:0:0:0:
256,192,52805,1,0,0:0:0:0:
256,192,52894,1,12,0:0:0:0:
256,192,53252,1,8,0:0:0:0:
256,192,53296,1,8,0:0:0:0:
256,192,53430,1,8,0:0:0:0:
256,192,53475,1,8,0:0:0:0:
256,192,53609,1,0,0:0:0:0:
256,192,53787,1,8,0:0:0:0:
256,192,53966,1,8,0:0:0:0:
256,192,54055,1,8,0:0:0:0:
256,192,54144,1,0,0:0:0:0:
256,192,54323,1,12,0:0:0:0:
256,192,55037,1,4,0:0:0:0:
256,192,55394,1,8,0:0:0:0:
256,192,55752,1,0,0:0:0:0:
256,192,56466,1,12,0:0:0:0:
256,192,57180,1,0,0:0:0:0:
256,192,57537,1,0,0:0:0:0:
256,192,57597,1,8,0:0:0:0:
256,192,57656,1,0,0:0:0:0:
256,192,57716,1,8,0:0:0:0:
256,192,57775,1,0,0:0:0:0:
256,192,57894,1,12,0:0:0:0:
256,192,58252,1,0,0:0:0:0:
256,192,58296,1,8,0:0:0:0:
256,192,58341,1,0,0:0:0:0:
256,192,58386,1,8,0:0:0:0:
256,192,58430,1,8,0:0:0:0:
256,192,58609,1,4,0:0:0:0:
256,192,58966,1,8,0:0:0:0:
256,192,59323,1,0,0:0:0:0:
256,192,59502,1,0,0:0:0:0:
256,192,59680,1,8,0:0:0:0:
256,192,59740,1,8,0:0:0:0:
256,192,59799,1,8,0:0:0:0:
256,192,59859,1,8,0:0:0:0:
256,192,59918,1,8,0:0:0:0:
256,192,60037,1,4,0:0:0:0:
256,192,60752,1,4,0:0:0:0:
256,192,61109,1,8,0:0:0:0:
256,192,61466,1,0,0:0:0:0:
256,192,62180,1,12,0:0:0:0:
256,192,62894,1,0,0:0:0:0:
256,192,63252,1,0,0:0:0:0:
256,192,63323,1,8,0:0:0:0:
256,192,63394,1,8,0:0:0:0:
256,192,63466,1,0,0:0:0:0:
256,192,63609,1,12,0:0:0:0:
256,192,63966,1,8,0:0:0:0:
256,192,64025,1,0,0:0:0:0:
256,192,64085,1,0,0:0:0:0:
256,192,64144,1,8,0:0:0:0:
256,192,64204,1,8,0:0:0:0:
256,192,64323,1,4,0:0:0:0:
256,192,64680,1,8,0:0:0:0:
256,192,64725,1,8,0:0:0:0:
256,192,64769,1,8,0:0:0:0:
256,192,64859,1,8,0:0:0:0:
256,192,65037,1,0,0:0:0:0:
256,192,65417,1,8,0:0:0:0:
256,192,65484,1,0,0:0:0:0:
256,192,65551,1,8,0:0:0:0:
256,192,65752,1,4,0:0:0:0:
256,192,66466,1,12,0:0:0:0:
256,192,67180,1,0,0:0:0:0:
256,192,67894,1,12,0:0:0:0:
256,192,68371,1,0,0:0:0:0:
256,192,68430,1,0,0:0:0:0:
256,192,68490,1,0,0:0:0:0:
256,192,68609,1,8,0:0:0:0:
256,192,68728,1,0,0:0:0:0:
256,192,68847,1,8,0:0:0:0:
256,192,68966,1,0,0:0:0:0:
256,192,69085,1,0,0:0:0:0:
256,192,69204,1,8,0:0:0:0:
256,192,69323,1,0,0:0:0:0:
256,192,69442,1,8,0:0:0:0:
256,192,69561,1,8,0:0:0:0:
256,192,69680,1,0,0:0:0:0:
256,192,69799,1,0,0:0:0:0:
256,192,69918,1,8,0:0:0:0:
256,192,70037,1,0,0:0:0:0:
256,192,70097,1,0,0:0:0:0:
256,192,70156,1,8,0:0:0:0:
256,192,70216,1,8,0:0:0:0:
256,192,70275,1,8,0:0:0:0:
256,192,70335,1,8,0:0:0:0:
256,192,70394,1,0,0:0:0:0:
256,192,70454,1,0,0:0:0:0:
256,192,70514,1,8,0:0:0:0:
256,192,70573,1,0,0:0:0:0:
256,192,70633,1,0,0:0:0:0:
256,192,70692,1,0,0:0:0:0:
256,192,70752,1,8,0:0:0:0:
256,192,70990,1,0,0:0:0:0:
256,192,71228,1,0,0:0:0:0:
256,192,71466,1,8,0:0:0:0:
256,192,71823,1,4,0:0:0:0:
256,192,72002,1,8,0:0:0:0:
256,192,72091,1,8,0:0:0:0:
256,192,72180,1,8,0:0:0:0:
256,192,72359,1,0,0:0:0:0:
256,192,72537,1,0,0:0:0:0:
256,192,72627,1,0,0:0:0:0:
256,192,72716,1,8,0:0:0:0:
256,192,72894,1,0,0:0:0:0:
256,192,73014,1,8,0:0:0:0:
256,192,73133,1,8,0:0:0:0:
256,192,73252,1,0,0:0:0:0:
256,192,73341,1,8,0:0:0:0:
256,192,73430,1,0,0:0:0:0:
256,192,73609,1,8,0:0:0:0:
256,192,73668,1,8,0:0:0:0:
256,192,73728,1,8,0:0:0:0:
256,192,73787,1,0,0:0:0:0:
256,192,73966,1,0,0:0:0:0:
256,192,74055,1,0,0:0:0:0:
256,192,74144,1,0,0:0:0:0:
256,192,74323,1,8,0:0:0:0:
256,192,74502,1,8,0:0:0:0:
256,192,74680,1,0,0:0:0:0:
256,192,74769,1,0,0:0:0:0:
256,192,74859,1,8,0:0:0:0:
256,192,74948,1,0,0:0:0:0:
256,192,75037,1,8,0:0:0:0:
256,192,75216,1,0,0:0:0:0:
256,192,75394,1,0,0:0:0:0:
256,192,75484,1,8,0:0:0:0:
256,192,75573,1,8,0:0:0:0:
256,192,75752,1,8,0:0:0:0:
256,192,75871,1,0,0:0:0:0:
256,192,75990,1,0,0:0:0:0:
256,192,76109,1,8,0:0:0:0:
256,192,76198,1,0,0:0:0:0:
256,192,76287,1,8,0:0:0:0:
256,192,76466,1,8,0:0:0:0:
256,192,76525,1,8,0:0:0:0:
256,192,76585,1,8,0:0:0:0:
256,192,76644,1,0,0:0:0:0:
256,192,76823,1,0,0:0:0:0:
256,192,76883,1,8,0:0:0:0:
256,192,76942,1,8,0:0:0:0:
256,192,77002,1,0,0:0:0:0:
256,192,77180,1,0,0:0:0:0:
256,192,77359,1,8,0:0:0:0:
256,192,77537,1,0,0:0:0:0:
256,192,77627,1,8,0:0:0:0:
256,192,77716,1,0,0:0:0:0:
256,192,77805,1,0,0:0:0:0:
256,192,77894,1,8,0:0:0:0:
256,192,78073,1,0,0:0:0:0:
256,192,78252,1,0,0:0:0:0:
256,192,78341,1,0,0:0:0:0:
256,192,78430,1,8,0:0:0:0:
256,192,78609,1,0,0:0:0:0:
256,192,78728,1,8,0:0:0:0:
256,192,78847,1,8,0:0:0:0:
256,192,78966,1,0,0:0:0:0:
256,192,79055,1,8,0:0:0:0:
256,192,79144,1,0,0:0:0:0:
256,192,79323,1,8,0:0:0:0:
256,192,79383,1,8,0:0:0:0:
256,192,79442,1,8,0:0:0:0:
256,192,79502,1,0,0:0:0:0:
256,192,79680,1,0,0:0:0:0:
256,192,79769,1,0,0:0:0:0:
256,192,79859,1,8,0:0:0:0:
256,192,80037,1,8,0:0:0:0:
256,192,80216,1,8,0:0:0:0:
256,192,80394,1,0,0:0:0:0:
256,192,80484,1,0,0:0:0:0:
256,192,80573,1,8,0:0:0:0:
256,192,80662,1,8,0:0:0:0:
256,192,80752,1,0,0:0:0:0:
256,192,80930,1,8,0:0:0:0:
256,192,81109,1,0,0:0:0:0:
256,192,81198,1,0,0:0:0:0:
256,192,81287,1,8,0:0:0:0:
256,192,81466,1,8,0:0:0:0:
256,192,81585,1,8,0:0:0:0:
256,192,81704,1,0,0:0:0:0:
256,192,81823,1,8,0:0:0:0:
256,192,81942,1,0,0:0:0:0:
256,192,82061,1,0,0:0:0:0:
256,192,82180,1,8,0:0:0:0:
256,192,82240,1,8,0:0:0:0:
256,192,82299,1,0,0:0:0:0:
256,192,82359,1,0,0:0:0:0:
256,192,82418,1,0,0:0:0:0:
256,192,82478,1,0,0:0:0:0:
256,192,82537,1,8,0:0:0:0:
256,192,82597,1,8,0:0:0:0:
256,192,82656,1,8,0:0:0:0:
256,192,82716,1,8,0:0:0:0:
256,192,82775,1,0,0:0:0:0:
256,192,82835,1,8,0:0:0:0:
256,192,82894,1,0,0:0:0:0:
256,192,83014,1,8,0:0:0:0:
256,192,83133,1,8,0:0:0:0:
256,192,83252,1,0,0:0:0:0:
256,192,83341,1,8,0:0:0:0:
256,192,83430,1,0,0:0:0:0:
256,192,83519,1,0,0:0:0:0:
256,192,83609,1,8,0:0:0:0:
256,192,83787,1,0,0:0:0:0:
256,192,83966,1,8,0:0:0:0:
256,192,84055,1,0,0:0:0:0:
256,192,84144,1,8,0:0:0:0:
256,192,84323,1,8,0:0:0:0:
256,192,84442,1,8,0:0:0:0:
256,192,84561,1,8,0:0:0:0:
256,192,84680,1,0,0:0:0:0:
256,192,84769,1,0,0:0:0:0:
256,192,84859,1,8,0:0:0:0:
256,192,85037,1,8,0:0:0:0:
256,192,85097,1,8,0:0:0:0:
256,192,85156,1,0,0:0:0:0:
256,192,85216,1,8,0:0:0:0:
256,192,85394,1,0,0:0:0:0:
256,192,85484,1,8,0:0:0:0:
256,192,85573,1,0,0:0:0:0:
256,192,85752,1,8,0:0:0:0:
256,192,85930,1,8,0:0:0:0:
256,192,86109,1,0,0:0:0:0:
256,192,86198,1,8,0:0:0:0:
256,192,86287,1,8,0:0:0:0:
256,192,86377,1,0,0:0:0:0:
256,192,86466,1,8,0:0:0:0:
256,192,86644,1,0,0:0:0:0:
256,192,86823,1,0,0:0:0:0:
256,192,86912,1,8,0:0:0:0:
256,192,87002,1,0,0:0:0:0:
256,192,87180,1,8,0:0:0:0:
256,192,87299,1,0,0:0:0:0:
256,192,87418,1,8,0:0:0:0:
256,192,87537,1,0,0:0:0:0:
256,192,87627,1,0,0:0:0:0:
256,192,87716,1,8,0:0:0:0:
256,192,87894,1,8,0:0:0:0:
256,192,87954,1,8,0:0:0:0:
256,192,88014,1,8,0:0:0:0:
256,192,88073,1,0,0:0:0:0:
256,192,88162,1,8,0:0:0:0:
256,192,88252,1,0,0:0:0:0:
256,192,88311,1,0,0:0:0:0:
256,192,88371,1,0,0:0:0:0:
256,192,88430,1,8,0:0:0:0:
256,192,88609,1,0,0:0:0:0:
256,192,88787,1,8,0:0:0:0:
256,192,88966,1,0,0:0:0:0:
256,192,89055,1,8,0:0:0:0:
256,192,89144,1,0,0:0:0:0:
256,192,89234,1,0,0:0:0:0:
256,192,89323,1,8,0:0:0:0:
256,192,89502,1,0,0:0:0:0:
256,192,89680,1,8,0:0:0:0:
256,192,89769,1,0,0:0:0:0:
256,192,89859,1,8,0:0:0:0:
256,192,90037,1,8,0:0:0:0:
256,192,90156,1,8,0:0:0:0:
256,192,90275,1,8,0:0:0:0:
256,192,90394,1,0,0:0:0:0:
256,192,90484,1,0,0:0:0:0:
256,192,90573,1,8,0:0:0:0:
256,192,90752,1,8,0:0:0:0:
256,192,90811,1,8,0:0:0:0:
256,192,90871,1,0,0:0:0:0:
256,192,90930,1,8,0:0:0:0:
256,192,91109,1,8,0:0:0:0:
256,192,91287,1,8,0:0:0:0:
256,192,91466,1,0,0:0:0:0:
256,192,91823,1,0,0:0:0:0:
256,192,91912,1,8,0:0:0:0:
256,192,92002,1,8,0:0:0:0:
256,192,92091,1,8,0:0:0:0:
256,192,92180,1,0,0:0:0:0:
256,192,92359,1,8,0:0:0:0:
256,192,92537,1,0,0:0:0:0:
256,192,92627,1,8,0:0:0:0:
256,192,92716,1,0,0:0:0:0:
256,192,92775,1,0,0:0:0:0:
256,192,92835,1,0,0:0:0:0:
256,192,92894,1,8,0:0:0:0:
256,192,93252,8,0,93966,0:0:0:0:
256,192,94323,5,12,0:0:0:0:
256,192,94591,1,12,0:0:0:0:
256,192,94859,1,12,0:0:0:0:
256,192,95037,1,4,0:0:0:0:
256,192,95394,1,4,0:0:0:0:
256,192,95662,1,12,0:0:0:0:
256,192,95930,1,12,0:0:0:0:
256,192,96109,1,12,0:0:0:0:
256,192,96287,1,12,0:0:0:0:
256,192,96466,1,4,0:0:0:0:
256,192,97180,1,12,0:0:0:0:
256,192,97448,1,12,0:0:0:0:
256,192,97716,1,12,0:0:0:0:
256,192,97894,1,4,0:0:0:0:
256,192,98252,1,4,0:0:0:0:
256,192,98519,1,12,0:0:0:0:
256,192,98787,1,4,0:0:0:0:
256,192,98966,1,12,0:0:0:0:
256,192,99144,1,12,0:0:0:0:
256,192,99323,1,4,0:0:0:0:
256,192,100037,1,4,0:0:0:0:
256,192,100305,1,4,0:0:0:0:
256,192,100573,1,4,0:0:0:0:
256,192,100752,1,12,0:0:0:0:
256,192,101109,1,12,0:0:0:0:
256,192,101377,1,4,0:0:0:0:
256,192,101644,1,4,0:0:0:0:
256,192,101823,1,4,0:0:0:0:
256,192,102002,1,4,0:0:0:0:
256,192,102180,1,12,0:0:0:0:
256,192,102894,1,4,0:0:0:0:
256,192,103073,1,8,0:0:0:0:
256,192,103162,1,8,0:0:0:0:
256,192,103252,1,0,0:0:0:0:
256,192,103430,1,12,0:0:0:0:
256,192,103609,1,0,0:0:0:0:
256,192,103698,1,8,0:0:0:0:
256,192,103787,1,0,0:0:0:0:
256,192,103966,1,12,0:0:0:0:
256,192,104144,1,0,0:0:0:0:
256,192,104234,1,0,0:0:0:0:
256,192,104323,1,8,0:0:0:0:
256,192,104502,1,4,0:0:0:0:
256,192,104680,1,8,0:0:0:0:
256,192,104769,1,0,0:0:0:0:
256,192,104859,1,8,0:0:0:0:
256,192,105037,1,0,0:0:0:0:
256,192,105082,1,0,0:0:0:0:
256,192,105127,1,0,0:0:0:0:
256,192,105216,1,12,0:0:0:0:
256,192,105752,1,4,0:0:0:0:
256,192,106019,1,4,0:0:0:0:
256,192,106287,1,4,0:0:0:0:
256,192,106466,1,12,0:0:0:0:
256,192,106823,1,12,0:0:0:0:
256,192,107091,1,4,0:0:0:0:
256,192,107359,1,4,0:0:0:0:
256,192,107537,1,4,0:0:0:0:
256,192,107716,1,4,0:0:0:0:
256,192,107894,1,12,0:0:0:0:
256,192,108609,1,4,0:0:0:0:
256,192,108877,1,4,0:0:0:0:
256,192,109144,1,4,0:0:0:0:
256,192,109323,1,12,0:0:0:0:
256,192,109680,1,12,0:0:0:0:
256,192,109948,1,4,0:0:0:0:
256,192,110216,1,4,0:0:0:0:
256,192,110394,1,12,0:0:0:0:
256,192,110573,1,12,0:0:0:0:
256,192,110752,1,4,0:0:0:0:
256,192,111466,1,12,0:0:0:0:
256,192,111734,1,12,0:0:0:0:
256,192,112002,1,12,0:0:0:0:
256,192,112180,1,4,0:0:0:0:
256,192,112537,1,4,0:0:0:0:
256,192,112805,1,12,0:0:0:0:
256,192,113073,1,4,0:0:0:0:
256,192,113252,1,12,0:0:0:0:
256,192,113430,1,12,0:0:0:0:
256,192,113609,1,4,0:0:0:0:
256,192,114323,8,0,116466,0:0:0:0:
256,192,116644,5,0,0:0:0:0:
256,192,116823,1,8,0:0:0:0:
256,192,117002,1,0,0:0:0:0:
256,192,117180,1,12,0:0:0:0:
256,192,117418,1,12,0:0:0:0:
256,192,117716,1,12,0:0:0:0:
256,192,117894,1,4,0:0:0:0:
256,192,118252,1,4,0:0:0:0:
256,192,118490,1,12,0:0:0:0:
256,192,118787,1,12,0:0:0:0:
256,192,118966,1,12,0:0:0:0:
256,192,119144,1,12,0:0:0:0:
256,192,119323,1,4,0:0:0:0:
256,192,119502,1,8,0:0:0:0:
256,192,119591,1,8,0:0:0:0:
256,192,119680,1,0,0:0:0:0:
256,192,119769,1,8,0:0:0:0:
256,192,119859,1,0,0:0:0:0:
256,192,120037,1,12,0:0:0:0:
256,192,120275,1,12,0:0:0:0:
256,192,120573,1,12,0:0:0:0:
256,192,120752,1,4,0:0:0:0:
256,192,121109,1,4,0:0:0:0:
256,192,121347,1,12,0:0:0:0:
256,192,121644,1,4,0:0:0:0:
256,192,121823,1,12,0:0:0:0:
256,192,122002,1,12,0:0:0:0:
256,192,122180,1,4,0:0:0:0:
256,192,122448,1,8,0:0:0:0:
256,192,122716,1,8,0:0:0:0:
256,192,122894,1,4,0:0:0:0:
256,192,123133,1,4,0:0:0:0:
256,192,123430,1,4,0:0:0:0:
256,192,123609,1,12,0:0:0:0:
256,192,123966,1,12,0:0:0:0:
256,192,124204,1,4,0:0:0:0:
256,192,124502,1,4,0:0:0:0:
256,192,124680,1,4,0:0:0:0:
256,192,124859,1,4,0:0:0:0:
256,192,125037,1,12,0:0:0:0:
256,192,125394,1,0,0:0:0:0:
256,192,125573,1,8,0:0:0:0:
256,192,125752,1,4,0:0:0:0:
256,192,125990,1,8,0:0:0:0:
256,192,126109,1,0,0:0:0:0:
256,192,126287,1,12,0:0:0:0:
256,192,126525,1,8,0:0:0:0:
256,192,126644,1,0,0:0:0:0:
256,192,126823,1,12,0:0:0:0:
256,192,127061,1,0,0:0:0:0:
256,192,127180,1,8,0:0:0:0:
256,192,127359,1,4,0:0:0:0:
256,192,127597,1,0,0:0:0:0:
256,192,127716,1,8,0:0:0:0:
256,192,127894,1,0,0:0:0:0:
256,192,127939,1,0,0:0:0:0:
256,192,127984,1,0,0:0:0:0:
256,192,128073,1,12,0:0:0:0:
256,192,128609,1,4,0:0:0:0:
256,192,128847,1,4,0:0:0:0:
256,192,129144,1,4,0:0:0:0:
256,192,129323,1,12,0:0:0:0:
256,192,129680,1,12,0:0:0:0:
256,192,129918,1,4,0:0:0:0:
256,192,130216,1,4,0:0:0:0:
256,192,130394,1,4,0:0:0:0:
256,192,130573,1,4,0:0:0:0:
256,192,130752,1,12,0:0:0:0:
256,192,131109,1,0,0:0:0:0:
256,192,131198,1,0,0:0:0:0:
256,192,131287,1,8,0:0:0:0:
256,192,131466,1,4,0:0:0:0:
256,192,131704,1,4,0:0:0:0:
256,192,132002,1,4,0:0:0:0:
256,192,132180,1,12,0:0:0:0:
256,192,132537,1,12,0:0:0:0:
256,192,132775,1,4,0:0:0:0:
256,192,133073,1,4,0:0:0:0:
256,192,133252,1,12,0:0:0:0:
256,192,133430,1,12,0:0:0:0:
256,192,133609,1,4,0:0:0:0:
256,192,133787,1,8,0:0:0:0:
256,192,133877,1,0,0:0:0:0:
256,192,133966,1,0,0:0:0:0:
256,192,134055,1,8,0:0:0:0:
256,192,134144,1,0,0:0:0:0:
256,192,134323,1,12,0:0:0:0:
256,192,134561,1,12,0:0:0:0:
256,192,134859,1,12,0:0:0:0:
256,192,135037,1,4,0:0:0:0:
256,192,135394,1,4,0:0:0:0:
256,192,135633,1,12,0:0:0:0:
256,192,135930,1,4,0:0:0:0:
256,192,136109,1,12,0:0:0:0:
256,192,136287,1,12,0:0:0:0:
256,192,136466,1,4,0:0:0:0:
256,192,136644,1,8,0:0:0:0:
256,192,136823,1,0,0:0:0:0:
256,192,136912,1,0,0:0:0:0:
256,192,137002,1,8,0:0:0:0:
256,192,137180,8,0,139323,0:0:0:0:
256,192,139859,5,8,0:0:0:0:
256,192,140037,1,0,0:0:0:0:
256,192,140394,1,0,0:0:0:0:
256,192,140930,1,0,0:0:0:0:
256,192,145752,1,0,0:0:0:0:
256,192,146109,1,0,0:0:0:0:
256,192,146644,1,0,0:0:0:0:
256,192,150752,8,0,151287,0:0:0:0:
256,192,151466,5,0,0:0:0:0:
256,192,151823,1,0,0:0:0:0:
256,192,152180,1,8,0:0:0:0:
256,192,152359,1,0,0:0:0:0:
256,192,152716,1,0,0:0:0:0:
256,192,153073,1,8,0:0:0:0:
256,192,153430,1,0,0:0:0:0:
256,192,153787,1,0,0:0:0:0:
256,192,153966,1,8,0:0:0:0:
256,192,154323,1,0,0:0:0:0:
256,192,154502,1,8,0:0:0:0:
256,192,154680,1,0,0:0:0:0:
256,192,155037,1,8,0:0:0:0:
256,192,155216,1,0,0:0:0:0:
256,192,155573,1,0,0:0:0:0:
256,192,155930,1,8,0:0:0:0:
256,192,156109,1,0,0:0:0:0:
256,192,156287,1,0,0:0:0:0:
256,192,156466,1,8,0:0:0:0:
256,192,156555,1,8,0:0:0:0:
256,192,156644,1,0,0:0:0:0:
256,192,156823,1,8,0:0:0:0:
256,192,157180,1,0,0:0:0:0:
256,192,157359,1,8,0:0:0:0:
256,192,157537,1,0,0:0:0:0:
256,192,157894,1,8,0:0:0:0:
256,192,158073,1,0,0:0:0:0:
256,192,158252,1,0,0:0:0:0:
256,192,158430,1,8,0:0:0:0:
256,192,158787,1,8,0:0:0:0:
256,192,158966,1,0,0:0:0:0:
256,192,159144,1,8,0:0:0:0:
256,192,159323,1,0,0:0:0:0:
256,192,159442,1,0,0:0:0:0:
256,192,159561,1,8,0:0:0:0:
256,192,159680,1,0,0:0:0:0:
256,192,159799,1,8,0:0:0:0:
256,192,159918,1,8,0:0:0:0:
256,192,160037,1,0,0:0:0:0:
256,192,160156,1,8,0:0:0:0:
256,192,160216,1,8,0:0:0:0:
256,192,160275,1,8,0:0:0:0:
256,192,160394,1,0,0:0:0:0:
256,192,160514,1,0,0:0:0:0:
256,192,160633,1,8,0:0:0:0:
256,192,160752,8,0,162180,0:0:0:0:
