osu file format v14

[General]
AudioFilename: 19ZZ - Frums.mp3
AudioLeadIn: 0
PreviewTime: 48553
Countdown: 0
SampleSet: None
StackLeniency: 0.7
Mode: 3
LetterboxInBreaks: 0
SpecialStyle: 0
WidescreenStoryboard: 1

[Editor]
Bookmarks: 70571,93428,116300,139157
DistanceSpacing: 1
BeatDivisor: 8
GridSize: 32
TimelineZoom: 1.8

[Metadata]
Title:19ZZ
TitleUnicode:19ZZ
Artist:Frums (unknown "lambda")
ArtistUnicode:Frums (unknown "λ")
Creator:Dergo
Version:mint's nu
Source:
Tags:I A aka Be-Music Source 偽名党 Dai 2 Kai Dai2Kai Dainikai BMS Shūgīnsen Shuginsen Shuugiinsen Gimei Tō To Tou Shuin Modern Midtempo Electronic Videogame Video Game Instrumental -mint- qqqant Shūgiin-sen a.k.a. 第二回BMS衆議院選 L
BeatmapID:2201985
BeatmapSetID:1012337

[Difficulty]
HPDrainRate:7
CircleSize:4
OverallDifficulty:7
ApproachRate:5
SliderMultiplier:1.4
SliderTickRate:1

[Events]
//Background and Video events
0,0,"best 19ZZ bg.jpg",0,0
//Break Periods
//Storyboard Layer 0 (Background)
//Storyboard Layer 1 (Fail)
//Storyboard Layer 2 (Pass)
//Storyboard Layer 3 (Foreground)
//Storyboard Layer 4 (Overlay)
//Storyboard Sound Samples

[TimingPoints]
2839,714.285714285714,4,2,1,35,1,0
25696,-100,4,2,1,45,0,0
49267,-100,4,2,1,45,0,1
71410,-100,4,2,1,45,0,0
139981,-100,4,2,1,35,0,0

[HitObjects]
320,192,2839,5,0,0:0:0:70:Bass Kick.wav
320,192,3196,1,0,0:0:0:70:Bass Kick.wav
320,192,3731,1,0,0:0:0:70:Bass Kick.wav
64,192,4446,1,0,0:0:0:0:
320,192,5160,1,0,0:0:0:0:
448,192,5874,1,0,0:0:0:0:
192,192,6588,1,0,0:0:0:0:
320,192,7303,1,0,0:0:0:0:
64,192,8017,1,0,0:0:0:0:
320,192,8553,1,0,0:0:0:70:Bass Kick.wav
320,192,8910,1,0,0:0:0:70:Bass Kick.wav
320,192,9446,1,0,0:0:0:70:Bass Kick.wav
64,192,10160,1,0,0:0:0:0:
320,192,10874,1,0,0:0:0:0:
448,192,11588,1,0,0:0:0:0:
192,192,12303,1,0,0:0:0:0:
320,192,13017,1,0,0:0:0:0:
64,192,13553,128,0,14267:0:0:0:0:
448,192,13910,128,0,14267:0:0:0:0:
320,192,14267,1,0,0:0:0:70:Bass Kick.wav
192,192,14624,1,0,0:0:0:70:Bass Kick.wav
320,192,14981,1,0,0:0:0:70:Clap.wav
448,192,14981,1,0,0:0:0:0:
192,192,15160,1,0,0:0:0:70:Bass Kick.wav
320,192,15517,1,0,0:0:0:70:Bass Kick.wav
192,192,15874,1,0,0:0:0:70:Clap.wav
64,192,15874,1,0,0:0:0:0:
320,192,16231,1,0,0:0:0:70:Bass Kick.wav
320,192,16767,1,0,0:0:0:70:Clap.wav
448,192,16767,1,0,0:0:0:0:
192,192,17124,1,0,0:0:0:70:Bass Kick.wav
320,192,17481,1,0,0:0:0:70:Bass Kick.wav
192,192,17838,1,0,0:0:0:70:Clap.wav
64,192,17838,1,0,0:0:0:0:
320,192,18017,1,0,0:0:0:70:Bass Kick.wav
192,192,18374,1,0,0:0:0:70:Bass Kick.wav
320,192,18731,1,0,0:0:0:70:Clap.wav
448,192,18731,1,0,0:0:0:0:
192,192,19088,1,0,0:0:0:70:Bass Kick.wav
448,192,19267,128,0,19624:0:0:0:0:
192,192,19624,1,0,0:0:0:70:Clap.wav
64,192,19624,128,0,19981:0:0:0:0:
320,192,19981,1,0,0:0:0:70:Bass Kick.wav
192,192,20338,1,0,0:0:0:70:Bass Kick.wav
320,192,20696,1,0,0:0:0:70:Clap.wav
448,192,20696,1,0,0:0:0:0:
192,192,20874,1,0,0:0:0:70:Bass Kick.wav
320,192,21231,1,0,0:0:0:70:Bass Kick.wav
192,192,21588,1,0,0:0:0:70:Clap.wav
64,192,21588,1,0,0:0:0:0:
320,192,21946,1,0,0:0:0:70:Bass Kick.wav
320,192,22481,1,0,0:0:0:70:Clap.wav
448,192,22481,1,0,0:0:0:0:
192,192,22838,1,0,0:0:0:70:Bass Kick.wav
320,192,25696,128,0,27124:0:0:0:70:Bass Kick.wav
64,192,27124,128,0,30696:0:0:0:70:Bass Kick.wav
448,192,30696,1,0,0:0:0:70:Dart.wav
192,192,31410,128,0,32838:0:0:0:70:Bass Kick.wav
64,192,32838,128,0,36410:0:0:0:70:Bass Kick.wav
448,192,36410,1,0,0:0:0:0:
64,192,37124,128,0,38553:0:0:0:70:Bass Kick.wav
448,192,38553,128,0,42124:0:0:0:70:Bass Kick.wav
64,192,42124,1,0,0:0:0:0:
192,192,42481,1,0,0:0:0:0:
320,192,42838,128,0,44267:0:0:0:70:Bass Kick.wav
64,192,44267,128,0,45696:0:0:0:0:
192,192,45696,128,0,48196:0:0:0:70:Bass Kick.wav
448,192,48196,128,0,48553:0:0:0:0:
64,192,48553,1,0,0:0:0:70:Bass Kick.wav
320,192,49267,1,0,0:0:0:70:Heavy Snare.wav
448,192,49267,1,0,0:0:0:0:
192,192,49981,1,0,0:0:0:70:Bass Kick.wav
192,192,50696,1,0,0:0:0:70:Heavy Snare.wav
64,192,50696,1,0,0:0:0:0:
64,192,51410,1,0,0:0:0:70:Bass Kick.wav
64,192,51767,128,0,52124:0:0:0:0:
448,192,52124,1,0,0:0:0:70:Heavy Snare.wav
320,192,52124,1,0,0:0:0:0:
448,192,52481,128,0,52838:0:0:0:0:
192,192,52838,1,0,0:0:0:70:Bass Kick.wav
64,192,53196,128,0,53553:0:0:0:0:
320,192,53553,1,0,0:0:0:70:Heavy Snare.wav
448,192,53553,1,0,0:0:0:0:
192,192,54267,1,0,0:0:0:70:Bass Kick.wav
192,192,54981,1,0,0:0:0:70:Heavy Snare.wav
64,192,54981,1,0,0:0:0:0:
320,192,55696,1,0,0:0:0:70:Bass Kick.wav
320,192,56410,1,0,0:0:0:70:Heavy Snare.wav
448,192,56410,1,0,0:0:0:0:
448,192,57124,1,0,0:0:0:70:Bass Kick.wav
448,192,57481,128,0,57838:0:0:0:0:
192,192,57838,1,0,0:0:0:70:Heavy Snare.wav
64,192,57838,1,0,0:0:0:0:
64,192,58196,128,0,58553:0:0:0:0:
320,192,58553,1,0,0:0:0:70:Bass Kick.wav
448,192,58910,128,0,59267:0:0:0:0:
192,192,59267,1,0,0:0:0:70:Heavy Snare.wav
64,192,59267,1,0,0:0:0:0:
320,192,59981,1,0,0:0:0:70:Bass Kick.wav
320,192,60696,1,0,0:0:0:70:Heavy Snare.wav
448,192,60696,1,0,0:0:0:0:
192,192,61410,1,0,0:0:0:70:Bass Kick.wav
192,192,62124,1,0,0:0:0:70:Heavy Snare.wav
64,192,62124,1,0,0:0:0:0:
192,192,62838,1,0,0:0:0:70:Bass Kick.wav
64,192,63196,128,0,63553:0:0:0:0:
320,192,63553,1,0,0:0:0:70:Heavy Snare.wav
448,192,63553,1,0,0:0:0:0:
320,192,63910,128,0,64267:0:0:0:0:
192,192,64267,1,0,0:0:0:70:Bass Kick.wav
448,192,64624,128,0,64981:0:0:0:0:
192,192,64981,1,0,0:0:0:70:Heavy Snare.wav
64,192,64981,1,0,0:0:0:0:
320,192,65696,1,0,0:0:0:70:Bass Kick.wav
320,192,66410,1,0,0:0:0:70:Heavy Snare.wav
448,192,66410,1,0,0:0:0:0:
64,192,67124,1,0,0:0:0:70:Bass Kick.wav
64,192,67838,1,0,0:0:0:70:Heavy Snare.wav
192,192,67838,1,0,0:0:0:0:
320,192,68553,1,0,0:0:0:70:Bass Kick.wav
320,192,69267,1,0,0:0:0:70:Heavy Snare.wav
448,192,69267,1,0,0:0:0:0:
192,192,69981,1,0,0:0:0:70:Bass Kick.wav
320,192,70338,1,0,0:0:0:70:Bass Kick.wav
192,192,70696,1,0,0:0:0:70:Heavy Snare.wav
64,192,70696,1,0,0:0:0:0:
320,192,70934,1,0,0:0:0:70:Bass Kick.wav
192,192,71172,1,0,0:0:0:70:Bass Kick.wav
64,192,71172,1,0,0:0:0:0:
192,192,71767,1,0,0:0:0:70:Bass Kick.wav
448,192,72124,1,0,0:0:0:50:D_B Tamb 01.wav
64,192,72303,1,0,0:0:0:85:Hand Bongo 02.wav
448,192,73553,1,0,0:0:0:50:D_B Tamb 01.wav
64,192,74267,128,0,74624:0:0:0:50:Kiai Clap.wav
320,192,74446,1,0,0:0:0:50:Kiai Clap.wav
192,192,74624,1,0,0:0:0:50:80s Digital Tom 01.wav
448,192,74981,1,0,0:0:0:50:D_B Tamb 01.wav
64,192,75160,1,0,0:0:0:85:Hand Bongo 02.wav
448,192,76410,1,0,0:0:0:50:D_B Tamb 01.wav
64,192,77124,128,0,77481:0:0:0:0:
320,192,77481,1,0,0:0:0:50:Cowbell.wav
64,192,77838,1,0,0:0:0:50:D_B Tamb 01.wav
448,192,78017,1,0,0:0:0:85:Hand Bongo 02.wav
64,192,79267,1,0,0:0:0:50:D_B Tamb 01.wav
448,192,79981,128,0,80338:0:0:0:50:Kiai Clap.wav
192,192,80160,1,0,0:0:0:50:Kiai Clap.wav
320,192,80338,1,0,0:0:0:50:80s Digital Tom 01.wav
64,192,80696,1,0,0:0:0:50:D_B Tamb 01.wav
448,192,80874,1,0,0:0:0:85:Hand Bongo 02.wav
64,192,82124,128,0,82838:0:0:0:50:D_B Tamb 01.wav
192,192,82481,128,0,82838:0:0:0:50:Cowbell.wav
448,192,82838,128,0,83196:0:0:0:0:
192,192,83196,1,0,0:0:0:70:Bass Kick.wav
448,192,83553,1,0,0:0:0:50:D_B Tamb 01.wav
64,192,83731,1,0,0:0:0:85:Hand Bongo 02.wav
448,192,84981,1,0,0:0:0:50:D_B Tamb 01.wav
64,192,85696,128,0,86053:0:0:0:50:Kiai Clap.wav
448,192,85874,1,0,0:0:0:50:Kiai Clap.wav
192,192,86053,1,0,0:0:0:50:80s Digital Tom 01.wav
448,192,86410,1,0,0:0:0:50:D_B Tamb 01.wav
64,192,86588,1,0,0:0:0:85:Hand Bongo 02.wav
448,192,87838,1,0,0:0:0:50:D_B Tamb 01.wav
64,192,88553,128,0,88910:0:0:0:0:
320,192,88910,1,0,0:0:0:50:Cowbell.wav
64,192,89267,1,0,0:0:0:50:D_B Tamb 01.wav
448,192,89446,1,0,0:0:0:85:Hand Bongo 02.wav
64,192,90696,1,0,0:0:0:50:D_B Tamb 01.wav
448,192,91410,128,0,91767:0:0:0:50:Kiai Clap.wav
64,192,91588,1,0,0:0:0:50:Kiai Clap.wav
320,192,91767,1,0,0:0:0:50:80s Digital Tom 01.wav
64,192,92124,1,0,0:0:0:50:D_B Tamb 01.wav
448,192,92303,1,0,0:0:0:85:Hand Bongo 02.wav
64,192,92838,1,0,0:0:0:85:Hand Bongo 02.wav
320,192,94267,1,0,0:0:0:70:Bass Kick.wav
192,192,94535,1,0,0:0:0:70:Bass Kick.wav
320,192,94803,1,0,0:0:0:70:Bass Kick.wav
192,192,94981,1,0,0:0:0:70:Heavy Snare.wav
64,192,94981,1,0,0:0:0:0:
320,192,95338,1,0,0:0:0:70:Bass Kick.wav
192,192,95606,1,0,0:0:0:70:Bass Kick.wav
320,192,95874,1,0,0:0:0:70:Bass Kick.wav
64,192,96053,1,0,0:0:0:70:Bass Kick.wav
448,192,96231,1,0,0:0:0:70:Bass Kick.wav
192,192,96410,1,0,0:0:0:70:Heavy Snare.wav
64,192,96410,1,0,0:0:0:0:
320,192,97124,1,0,0:0:0:70:Bass Kick.wav
192,192,97392,1,0,0:0:0:70:Bass Kick.wav
320,192,97660,1,0,0:0:0:70:Bass Kick.wav
192,192,97838,1,0,0:0:0:70:Heavy Snare.wav
64,192,97838,1,0,0:0:0:0:
320,192,98196,1,0,0:0:0:70:Bass Kick.wav
192,192,98463,1,0,0:0:0:70:Bass Kick.wav
448,192,98731,1,0,0:0:0:70:Bass Kick.wav
64,192,98910,1,0,0:0:0:70:Bass Kick.wav
320,192,99088,1,0,0:0:0:70:Bass Kick.wav
192,192,99267,1,0,0:0:0:70:Heavy Snare.wav
64,192,99267,1,0,0:0:0:0:
64,192,99981,1,0,0:0:0:70:Bass Kick.wav
448,192,100249,1,0,0:0:0:70:Bass Kick.wav
64,192,100517,1,0,0:0:0:70:Bass Kick.wav
320,192,100696,1,0,0:0:0:70:Heavy Snare.wav
448,192,100696,1,0,0:0:0:0:
192,192,101053,1,0,0:0:0:70:Bass Kick.wav
320,192,101321,1,0,0:0:0:70:Bass Kick.wav
192,192,101588,1,0,0:0:0:70:Bass Kick.wav
448,192,101767,1,0,0:0:0:70:Bass Kick.wav
64,192,101946,1,0,0:0:0:70:Bass Kick.wav
320,192,102124,1,0,0:0:0:70:Heavy Snare.wav
448,192,102124,1,0,0:0:0:0:
320,192,102838,1,0,0:0:0:70:Bass Kick.wav
320,192,103196,1,0,0:0:0:70:Heavy Snare.wav
448,192,103196,1,0,0:0:0:0:
192,192,103374,1,0,0:0:0:70:Bass Kick.wav
64,192,103731,1,0,0:0:0:70:Heavy Snare.wav
192,192,103731,1,0,0:0:0:0:
448,192,103910,1,0,0:0:0:70:Bass Kick.wav
320,192,104267,1,0,0:0:0:70:Heavy Snare.wav
448,192,104267,1,0,0:0:0:0:
192,192,104446,1,0,0:0:0:70:Bass Kick.wav
448,192,104803,1,0,0:0:0:70:Heavy Snare.wav
320,192,104803,1,0,0:0:0:0:
64,192,104981,1,0,0:0:0:70:Bass Kick.wav
320,192,105160,1,0,0:0:0:70:Heavy Snare.wav
448,192,105160,128,0,105696:0:0:0:0:
64,192,105696,1,0,0:0:0:70:Bass Kick.wav
320,192,105963,1,0,0:0:0:70:Bass Kick.wav
64,192,106231,1,0,0:0:0:70:Bass Kick.wav
320,192,106410,1,0,0:0:0:70:Heavy Snare.wav
448,192,106410,1,0,0:0:0:0:
64,192,106767,1,0,0:0:0:70:Bass Kick.wav
320,192,107035,1,0,0:0:0:70:Bass Kick.wav
64,192,107303,1,0,0:0:0:70:Bass Kick.wav
448,192,107481,1,0,0:0:0:70:Bass Kick.wav
192,192,107660,1,0,0:0:0:70:Bass Kick.wav
320,192,107838,1,0,0:0:0:70:Heavy Snare.wav
448,192,107838,1,0,0:0:0:0:
448,192,108553,1,0,0:0:0:70:Bass Kick.wav
192,192,108821,1,0,0:0:0:70:Bass Kick.wav
448,192,109088,1,0,0:0:0:70:Bass Kick.wav
192,192,109267,1,0,0:0:0:70:Heavy Snare.wav
64,192,109267,1,0,0:0:0:0:
448,192,109624,1,0,0:0:0:70:Bass Kick.wav
192,192,109892,1,0,0:0:0:70:Bass Kick.wav
320,192,110160,1,0,0:0:0:70:Bass Kick.wav
64,192,110338,1,0,0:0:0:70:Bass Kick.wav
448,192,110517,1,0,0:0:0:70:Bass Kick.wav
192,192,110696,1,0,0:0:0:70:Heavy Snare.wav
64,192,110696,1,0,0:0:0:0:
448,192,111410,1,0,0:0:0:70:Bass Kick.wav
64,192,111678,1,0,0:0:0:70:Bass Kick.wav
448,192,111946,1,0,0:0:0:70:Bass Kick.wav
192,192,112124,1,0,0:0:0:70:Heavy Snare.wav
64,192,112124,1,0,0:0:0:0:
448,192,112481,1,0,0:0:0:70:Bass Kick.wav
64,192,112749,1,0,0:0:0:70:Bass Kick.wav
320,192,113017,1,0,0:0:0:70:Bass Kick.wav
192,192,113196,1,0,0:0:0:70:Bass Kick.wav
448,192,113374,1,0,0:0:0:70:Bass Kick.wav
192,192,113553,1,0,0:0:0:70:Heavy Snare.wav
64,192,113553,1,0,0:0:0:0:
320,192,114267,128,0,116410:0:0:0:70:Bass Kick.wav
192,192,116410,1,0,0:0:0:70:Heavy Snare.wav
64,192,116410,1,0,0:0:0:0:
448,192,116767,128,0,117124:0:0:0:0:
192,192,117124,1,0,0:0:0:70:Bass Kick.wav
320,192,117362,1,0,0:0:0:70:Bass Kick.wav
64,192,117660,128,0,118017:0:0:0:70:Bass Kick.wav
320,192,117838,1,0,0:0:0:70:Heavy Snare.wav
448,192,117838,1,0,0:0:0:0:
192,192,118017,1,0,0:0:0:0:
320,192,118196,1,0,0:0:0:70:Bass Kick.wav
64,192,118434,1,0,0:0:0:70:Bass Kick.wav
320,192,118731,1,0,0:0:0:70:Bass Kick.wav
192,192,118910,1,0,0:0:0:70:Bass Kick.wav
448,192,119088,1,0,0:0:0:70:Bass Kick.wav
192,192,119267,1,0,0:0:0:70:Heavy Snare.wav
64,192,119267,1,0,0:0:0:0:
320,192,119446,128,0,119981:0:0:0:0:
192,192,119981,1,0,0:0:0:70:Bass Kick.wav
320,192,120219,1,0,0:0:0:70:Bass Kick.wav
192,192,120517,1,0,0:0:0:70:Bass Kick.wav
320,192,120696,1,0,0:0:0:70:Heavy Snare.wav
448,192,120696,1,0,0:0:0:0:
448,192,121053,1,0,0:0:0:70:Bass Kick.wav
192,192,121291,1,0,0:0:0:70:Bass Kick.wav
320,192,121588,1,0,0:0:0:70:Bass Kick.wav
64,192,121767,1,0,0:0:0:70:Bass Kick.wav
448,192,121946,1,0,0:0:0:70:Bass Kick.wav
64,192,122124,1,0,0:0:0:70:Heavy Snare.wav
192,192,122124,1,0,0:0:0:0:
320,192,122303,128,0,122660:0:0:0:0:
64,192,122660,1,0,0:0:0:0:
448,192,122838,1,0,0:0:0:70:Bass Kick.wav
192,192,123077,1,0,0:0:0:70:Bass Kick.wav
448,192,123374,1,0,0:0:0:70:Bass Kick.wav
192,192,123553,1,0,0:0:0:70:Heavy Snare.wav
64,192,123553,1,0,0:0:0:0:
64,192,123910,1,0,0:0:0:70:Bass Kick.wav
320,192,124148,1,0,0:0:0:70:Bass Kick.wav
192,192,124446,1,0,0:0:0:70:Bass Kick.wav
448,192,124624,1,0,0:0:0:70:Bass Kick.wav
64,192,124803,1,0,0:0:0:70:Bass Kick.wav
320,192,124981,1,0,0:0:0:70:Heavy Snare.wav
448,192,124981,1,0,0:0:0:0:
192,192,125160,1,0,0:0:0:0:
448,192,125338,1,0,0:0:0:0:
192,192,125517,1,0,0:0:0:0:
320,192,125696,1,0,0:0:0:70:Bass Kick.wav
448,192,126053,1,0,0:0:0:70:Heavy Snare.wav
320,192,126053,1,0,0:0:0:0:
192,192,126231,1,0,0:0:0:70:Bass Kick.wav
192,192,126588,1,0,0:0:0:70:Heavy Snare.wav
64,192,126588,1,0,0:0:0:0:
448,192,126767,1,0,0:0:0:70:Bass Kick.wav
448,192,127124,1,0,0:0:0:70:Heavy Snare.wav
320,192,127124,1,0,0:0:0:0:
192,192,127303,1,0,0:0:0:70:Bass Kick.wav
320,192,127660,1,0,0:0:0:70:Heavy Snare.wav
448,192,127660,1,0,0:0:0:0:
64,192,127838,1,0,0:0:0:70:Bass Kick.wav
448,192,128017,128,0,128553:0:0:0:70:Heavy Snare.wav
320,192,128017,1,0,0:0:0:0:
64,192,128553,1,0,0:0:0:70:Bass Kick.wav
320,192,128791,1,0,0:0:0:70:Bass Kick.wav
64,192,129088,1,0,0:0:0:70:Bass Kick.wav
320,192,129267,1,0,0:0:0:70:Heavy Snare.wav
448,192,129267,1,0,0:0:0:0:
448,192,129624,1,0,0:0:0:70:Bass Kick.wav
64,192,129862,1,0,0:0:0:70:Bass Kick.wav
448,192,130160,1,0,0:0:0:70:Bass Kick.wav
192,192,130338,1,0,0:0:0:70:Bass Kick.wav
320,192,130517,1,0,0:0:0:70:Bass Kick.wav
192,192,130696,1,0,0:0:0:70:Heavy Snare.wav
64,192,130696,1,0,0:0:0:0:
192,192,131053,128,0,131410:0:0:0:0:
448,192,131410,1,0,0:0:0:70:Bass Kick.wav
64,192,131648,1,0,0:0:0:70:Bass Kick.wav
320,192,131946,128,0,132303:0:0:0:70:Bass Kick.wav
192,192,132124,1,0,0:0:0:70:Heavy Snare.wav
64,192,132124,1,0,0:0:0:0:
448,192,132303,1,0,0:0:0:0:
192,192,132481,1,0,0:0:0:70:Bass Kick.wav
64,192,132719,1,0,0:0:0:70:Bass Kick.wav
448,192,133017,1,0,0:0:0:70:Bass Kick.wav
192,192,133196,1,0,0:0:0:70:Bass Kick.wav
320,192,133374,1,0,0:0:0:70:Bass Kick.wav
192,192,133553,1,0,0:0:0:70:Heavy Snare.wav
64,192,133553,1,0,0:0:0:0:
448,192,133731,128,0,134267:0:0:0:0:
64,192,134267,1,0,0:0:0:70:Bass Kick.wav
320,192,134505,1,0,0:0:0:70:Bass Kick.wav
192,192,134803,1,0,0:0:0:70:Bass Kick.wav
320,192,134981,1,0,0:0:0:70:Heavy Snare.wav
448,192,134981,1,0,0:0:0:0:
448,192,135338,1,0,0:0:0:70:Bass Kick.wav
64,192,135577,1,0,0:0:0:70:Bass Kick.wav
448,192,135874,1,0,0:0:0:70:Bass Kick.wav
192,192,136053,1,0,0:0:0:70:Bass Kick.wav
320,192,136231,1,0,0:0:0:70:Bass Kick.wav
192,192,136410,1,0,0:0:0:70:Heavy Snare.wav
64,192,136410,1,0,0:0:0:0:
448,192,136588,128,0,137124:0:0:0:0:
192,192,137124,128,0,139267:0:0:0:50:Bass Kick.wav
320,192,139267,1,0,0:0:0:70:Heavy Snare.wav
448,192,139267,1,0,0:0:0:0:
320,192,139981,5,0,0:0:0:70:Bass Kick.wav
320,192,140338,1,0,0:0:0:70:Bass Kick.wav
320,192,140874,1,0,0:0:0:70:Bass Kick.wav
64,192,141588,1,0,0:0:0:0:
320,192,142303,1,0,0:0:0:0:
448,192,143017,1,0,0:0:0:0:
192,192,143731,1,0,0:0:0:0:
320,192,144446,1,0,0:0:0:0:
64,192,145160,1,0,0:0:0:0:
320,192,145696,1,0,0:0:0:70:Bass Kick.wav
320,192,146053,1,0,0:0:0:70:Bass Kick.wav
320,192,146588,1,0,0:0:0:70:Bass Kick.wav
64,192,147303,1,0,0:0:0:0:
320,192,148017,1,0,0:0:0:0:
448,192,148731,1,0,0:0:0:0:
192,192,149446,1,0,0:0:0:0:
320,192,150160,1,0,0:0:0:0:
64,192,150696,128,0,151410:0:0:0:0:
448,192,151053,128,0,151410:0:0:0:0:
320,192,151410,1,0,0:0:0:70:Bass Kick.wav
192,192,151767,1,0,0:0:0:70:Bass Kick.wav
320,192,152124,1,0,0:0:0:70:Clap.wav
448,192,152124,1,0,0:0:0:0:
192,192,152303,1,0,0:0:0:70:Bass Kick.wav
320,192,152660,1,0,0:0:0:70:Bass Kick.wav
192,192,153017,1,0,0:0:0:70:Clap.wav
64,192,153017,1,0,0:0:0:0:
320,192,153374,1,0,0:0:0:70:Bass Kick.wav
320,192,153910,1,0,0:0:0:70:Clap.wav
448,192,153910,1,0,0:0:0:0:
192,192,154267,1,0,0:0:0:70:Bass Kick.wav
320,192,154624,1,0,0:0:0:70:Bass Kick.wav
192,192,154981,1,0,0:0:0:70:Clap.wav
64,192,154981,1,0,0:0:0:0:
320,192,155160,1,0,0:0:0:70:Bass Kick.wav
192,192,155517,1,0,0:0:0:70:Bass Kick.wav
320,192,155874,1,0,0:0:0:70:Clap.wav
448,192,155874,1,0,0:0:0:0:
192,192,156231,1,0,0:0:0:70:Bass Kick.wav
448,192,156410,128,0,156767:0:0:0:0:
192,192,156767,1,0,0:0:0:70:Clap.wav
64,192,156767,128,0,157124:0:0:0:0:
320,192,157124,1,0,0:0:0:70:Bass Kick.wav
192,192,157481,1,0,0:0:0:70:Bass Kick.wav
320,192,157838,1,0,0:0:0:70:Clap.wav
448,192,157838,1,0,0:0:0:0:
192,192,158017,1,0,0:0:0:70:Bass Kick.wav
320,192,158374,1,0,0:0:0:70:Bass Kick.wav
192,192,158731,1,0,0:0:0:70:Clap.wav
64,192,158731,1,0,0:0:0:0:
320,192,159088,1,0,0:0:0:70:Bass Kick.wav
320,192,159624,1,0,0:0:0:70:Clap.wav
448,192,159624,1,0,0:0:0:0:
192,192,159981,1,0,0:0:0:70:Bass Kick.wav
192,192,162124,1,0,0:0:0:70:Bass Kick.wav
