osu file format v14

[General]
AudioFilename: 19ZZ - Frums.mp3
AudioLeadIn: 0
PreviewTime: 48553
Countdown: 0
SampleSet: Soft
StackLeniency: 0.7
Mode: 3
LetterboxInBreaks: 0
SpecialStyle: 0
WidescreenStoryboard: 1

[Editor]
Bookmarks: 70571,93428,116300,139157
DistanceSpacing: 1
BeatDivisor: 4
GridSize: 32
TimelineZoom: 1.800006

[Metadata]
Title:19ZZ
TitleUnicode:19ZZ
Artist:Frums (unknown "lambda")
ArtistUnicode:Frums (unknown "λ")
Creator:Dergo
Version:eta
Source:
Tags:I A aka Be-Music Source 偽名党 Dai 2 Kai Dai2Kai Dainikai BMS Shūgīnsen Shuginsen Shuugiinsen Gimei Tō To Tou Shuin Modern Midtempo Electronic Videogame Video Game Instrumental -mint- qqqant Shūgiin-sen a.k.a. 第二回BMS衆議院選 L
BeatmapID:2130409
BeatmapSetID:1012337

[Difficulty]
HPDrainRate:7.4
CircleSize:4
OverallDifficulty:7.4
ApproachRate:5
SliderMultiplier:1.4
SliderTickRate:1

[Events]
//Background and Video events
0,0,"19ZZ bg.jpg",0,0
//Break Periods
//Storyboard Layer 0 (Background)
//Storyboard Layer 1 (Fail)
//Storyboard Layer 2 (Pass)
//Storyboard Layer 3 (Foreground)
//Storyboard Layer 4 (Overlay)
//Storyboard Sound Samples

[TimingPoints]
2839,714.285714285714,4,2,1,35,1,0
25696,-100,4,2,1,45,0,0
49267,-100,4,2,1,45,0,1
71410,-100,4,2,1,45,0,0
139981,-100,4,2,1,35,0,0

[HitObjects]
192,192,2839,5,0,0:0:0:70:Bass Kick.wav
64,192,2839,1,0,0:0:0:0:
192,192,3196,1,0,0:0:0:70:Bass Kick.wav
64,192,3196,1,0,0:0:0:0:
192,192,3731,1,0,0:0:0:70:Bass Kick.wav
64,192,3731,1,0,0:0:0:0:
448,192,4446,1,0,0:0:0:0:
64,192,5160,1,0,0:0:0:0:
320,192,5874,1,0,0:0:0:0:
192,192,6588,1,0,0:0:0:0:
64,192,7303,1,0,0:0:0:0:
448,192,8017,1,0,0:0:0:0:
448,192,8196,128,0,8553:0:0:0:0:
192,192,8553,1,0,0:0:0:70:Bass Kick.wav
64,192,8553,1,0,0:0:0:0:
192,192,8910,1,0,0:0:0:70:Bass Kick.wav
64,192,8910,1,0,0:0:0:0:
192,192,9446,1,0,0:0:0:70:Bass Kick.wav
64,192,9446,1,0,0:0:0:0:
448,192,10160,1,0,0:0:0:0:
64,192,10874,1,0,0:0:0:0:
320,192,11588,1,0,0:0:0:0:
192,192,12303,1,0,0:0:0:0:
64,192,13017,1,0,0:0:0:0:
448,192,13553,128,0,14267:0:0:0:0:
64,192,13910,128,0,14267:0:0:0:0:
320,192,14267,1,0,0:0:0:70:Bass Kick.wav
192,192,14267,1,0,0:0:0:0:
320,192,14624,1,0,0:0:0:70:Bass Kick.wav
192,192,14624,1,0,0:0:0:0:
448,192,14981,1,0,0:0:0:70:Clap.wav
64,192,14981,1,0,0:0:0:0:
320,192,15160,1,0,0:0:0:70:Bass Kick.wav
192,192,15160,1,0,0:0:0:0:
320,192,15517,1,0,0:0:0:70:Bass Kick.wav
192,192,15517,1,0,0:0:0:0:
448,192,15874,1,0,0:0:0:70:Clap.wav
64,192,15874,1,0,0:0:0:0:
320,192,16231,1,0,0:0:0:70:Bass Kick.wav
192,192,16231,1,0,0:0:0:0:
448,192,16767,1,0,0:0:0:70:Clap.wav
64,192,16767,1,0,0:0:0:0:
320,192,17124,1,0,0:0:0:70:Bass Kick.wav
192,192,17124,1,0,0:0:0:0:
320,192,17481,1,0,0:0:0:70:Bass Kick.wav
192,192,17481,1,0,0:0:0:0:
64,192,17838,1,0,0:0:0:70:Clap.wav
448,192,17838,1,0,0:0:0:0:
320,192,18017,1,0,0:0:0:70:Bass Kick.wav
192,192,18017,1,0,0:0:0:0:
320,192,18374,1,0,0:0:0:70:Bass Kick.wav
192,192,18374,1,0,0:0:0:0:
64,192,18731,1,0,0:0:0:70:Clap.wav
448,192,18731,1,0,0:0:0:0:
320,192,19088,1,0,0:0:0:70:Bass Kick.wav
192,192,19088,1,0,0:0:0:0:
64,192,19624,1,0,0:0:0:70:Clap.wav
448,192,19624,1,0,0:0:0:0:
320,192,19981,1,0,0:0:0:70:Bass Kick.wav
192,192,19981,1,0,0:0:0:0:
320,192,20338,1,0,0:0:0:70:Bass Kick.wav
192,192,20338,1,0,0:0:0:0:
448,192,20696,1,0,0:0:0:70:Clap.wav
64,192,20696,1,0,0:0:0:0:
320,192,20874,1,0,0:0:0:70:Bass Kick.wav
192,192,20874,1,0,0:0:0:0:
320,192,21231,1,0,0:0:0:70:Bass Kick.wav
192,192,21231,1,0,0:0:0:0:
64,192,21588,1,0,0:0:0:70:Clap.wav
448,192,21588,1,0,0:0:0:0:
320,192,21946,1,0,0:0:0:70:Bass Kick.wav
192,192,21946,1,0,0:0:0:0:
448,192,22481,1,0,0:0:0:70:Clap.wav
64,192,22481,1,0,0:0:0:0:
320,192,22838,1,0,0:0:0:70:Bass Kick.wav
192,192,22838,1,0,0:0:0:0:
448,192,23196,1,0,0:0:0:0:
320,192,23553,1,0,0:0:0:0:
192,192,23910,1,0,0:0:0:0:
64,192,24267,1,0,0:0:0:0:
448,192,24624,1,0,0:0:0:0:
64,192,24743,1,0,0:0:0:0:
448,192,24862,1,0,0:0:0:0:
192,192,24981,1,0,0:0:0:0:
192,192,25696,128,0,27035:0:0:0:70:Bass Kick.wav
64,192,25696,128,0,27035:0:0:0:0:
320,192,27124,128,0,30696:0:0:0:70:Bass Kick.wav
64,192,27124,128,0,30696:0:0:0:0:
192,192,30696,1,0,0:0:0:70:Dart.wav
448,192,30874,1,0,0:0:0:70:Dart.wav
64,192,31053,1,0,0:0:0:70:Dart.wav
448,192,31231,1,0,0:0:0:70:Dart.wav
320,192,31410,128,0,32749:0:0:0:70:Bass Kick.wav
192,192,31410,128,0,32749:0:0:0:0:
320,192,32838,128,0,36410:0:0:0:70:Bass Kick.wav
64,192,32838,128,0,36410:0:0:0:0:
448,192,36410,128,0,36856:0:0:0:0:
192,192,36499,128,0,36856:0:0:0:0:
320,192,36856,128,0,37124:0:0:0:0:
64,192,36946,128,0,37124:0:0:0:0:
448,192,37124,128,0,38463:0:0:0:70:Bass Kick.wav
192,192,37124,128,0,38463:0:0:0:0:
320,192,38553,128,0,42124:0:0:0:70:Bass Kick.wav
192,192,38553,128,0,42124:0:0:0:0:
64,192,42124,128,0,42481:0:0:0:0:
448,192,42481,1,0,0:0:0:0:
320,192,42571,1,0,0:0:0:0:
64,192,42660,1,0,0:0:0:0:
192,192,42749,1,0,0:0:0:0:
448,192,42838,128,0,45606:0:0:0:70:Bass Kick.wav
320,192,42838,128,0,44267:0:0:0:0:
64,192,44267,128,0,45606:0:0:0:0:
320,192,45696,128,0,48196:0:0:0:70:Bass Kick.wav
64,192,45696,128,0,48196:0:0:0:0:
448,192,48196,128,0,48553:0:0:0:0:
192,192,48553,1,0,0:0:0:70:Bass Kick.wav
64,192,48553,1,0,0:0:0:0:
320,192,48672,1,0,0:0:0:70:Bass Kick.wav
448,192,48672,1,0,0:0:0:0:
192,192,48791,1,0,0:0:0:70:Bass Kick.wav
64,192,48791,1,0,0:0:0:0:
192,192,49267,1,0,0:0:0:70:Heavy Snare.wav
64,192,49267,1,0,0:0:0:0:
320,192,49267,128,0,49892:0:0:0:0:
320,192,49981,1,0,0:0:0:70:Bass Kick.wav
448,192,49981,128,0,50606:0:0:0:0:
64,192,50696,1,0,0:0:0:70:Heavy Snare.wav
192,192,50696,1,0,0:0:0:0:
448,192,50696,128,0,51321:0:0:0:0:
448,192,51410,1,0,0:0:0:70:Bass Kick.wav
64,192,51410,128,0,51767:0:0:0:0:
320,192,51767,1,0,0:0:0:0:
448,192,51856,1,0,0:0:0:0:
192,192,51946,1,0,0:0:0:0:
64,192,52035,1,0,0:0:0:0:
320,192,52124,1,0,0:0:0:70:Heavy Snare.wav
448,192,52124,128,0,52481:0:0:0:0:
192,192,52481,1,0,0:0:0:0:
64,192,52571,1,0,0:0:0:0:
320,192,52660,1,0,0:0:0:0:
448,192,52749,1,0,0:0:0:0:
64,192,52838,128,0,53196:0:0:0:70:Bass Kick.wav
192,192,52838,1,0,0:0:0:0:
448,192,53196,1,0,0:0:0:0:
320,192,53285,1,0,0:0:0:0:
192,192,53374,1,0,0:0:0:0:
64,192,53463,1,0,0:0:0:0:
320,192,53553,1,0,0:0:0:70:Heavy Snare.wav
448,192,53553,1,0,0:0:0:0:
320,192,54267,128,0,54892:0:0:0:70:Bass Kick.wav
192,192,54267,1,0,0:0:0:0:
320,192,54981,1,0,0:0:0:70:Heavy Snare.wav
192,192,54981,1,0,0:0:0:0:
64,192,54981,128,0,55338:0:0:0:0:
448,192,55338,128,0,55606:0:0:0:0:
448,192,55696,1,0,0:0:0:70:Bass Kick.wav
320,192,55696,128,0,56321:0:0:0:0:
64,192,56410,1,0,0:0:0:70:Heavy Snare.wav
192,192,56410,1,0,0:0:0:0:
320,192,56410,128,0,57035:0:0:0:0:
192,192,57124,1,0,0:0:0:70:Bass Kick.wav
64,192,57124,128,0,57481:0:0:0:0:
448,192,57481,128,0,57660:0:0:0:0:
64,192,57660,128,0,57838:0:0:0:0:
320,192,57838,1,0,0:0:0:70:Heavy Snare.wav
448,192,57838,128,0,58196:0:0:0:0:
64,192,58196,1,0,0:0:0:0:
192,192,58285,1,0,0:0:0:0:
320,192,58374,128,0,58553:0:0:0:0:
192,192,58553,1,0,0:0:0:70:Bass Kick.wav
64,192,58553,128,0,58910:0:0:0:0:
448,192,58910,128,0,59267:0:0:0:0:
320,192,59267,1,0,0:0:0:70:Heavy Snare.wav
192,192,59267,1,0,0:0:0:0:
64,192,59267,1,0,0:0:0:0:
448,192,59981,1,0,0:0:0:70:Bass Kick.wav
320,192,59981,128,0,60606:0:0:0:0:
320,192,60696,1,0,0:0:0:70:Heavy Snare.wav
448,192,60696,1,0,0:0:0:0:
192,192,60696,128,0,61053:0:0:0:0:
448,192,61053,128,0,61321:0:0:0:0:
448,192,61410,1,0,0:0:0:70:Bass Kick.wav
64,192,61410,128,0,62035:0:0:0:0:
192,192,62124,1,0,0:0:0:70:Heavy Snare.wav
320,192,62124,1,0,0:0:0:0:
64,192,62124,128,0,62749:0:0:0:0:
192,192,62838,1,0,0:0:0:70:Bass Kick.wav
64,192,62838,128,0,63196:0:0:0:0:
448,192,63196,1,0,0:0:0:0:
64,192,63404,1,0,0:0:0:0:
320,192,63553,1,0,0:0:0:70:Heavy Snare.wav
448,192,63553,128,0,63910:0:0:0:0:
64,192,63910,1,0,0:0:0:0:
320,192,64029,1,0,0:0:0:0:
448,192,64148,1,0,0:0:0:0:
192,192,64267,1,0,0:0:0:70:Bass Kick.wav
64,192,64267,128,0,64624:0:0:0:0:
320,192,64624,128,0,64981:0:0:0:0:
448,192,64981,1,0,0:0:0:70:Heavy Snare.wav
64,192,64981,1,0,0:0:0:0:
320,192,65696,1,0,0:0:0:70:Bass Kick.wav
192,192,65696,128,0,66321:0:0:0:0:
192,192,66410,1,0,0:0:0:70:Heavy Snare.wav
320,192,66410,1,0,0:0:0:0:
448,192,66410,128,0,67035:0:0:0:0:
448,192,67124,1,0,0:0:0:70:Bass Kick.wav
64,192,67124,128,0,67749:0:0:0:0:
192,192,67838,1,0,0:0:0:70:Heavy Snare.wav
64,192,67838,1,0,0:0:0:0:
320,192,67838,128,0,68553:0:0:0:0:
192,192,68553,1,0,0:0:0:70:Bass Kick.wav
64,192,68553,1,0,0:0:0:0:
448,192,68672,1,0,0:0:0:0:
64,192,68791,1,0,0:0:0:0:
448,192,68910,1,0,0:0:0:0:
64,192,69029,1,0,0:0:0:0:
448,192,69148,1,0,0:0:0:0:
320,192,69267,1,0,0:0:0:70:Heavy Snare.wav
64,192,69267,1,0,0:0:0:0:
192,192,69386,1,0,0:0:0:0:
320,192,69505,1,0,0:0:0:0:
192,192,69624,1,0,0:0:0:0:
320,192,69743,1,0,0:0:0:0:
448,192,69862,1,0,0:0:0:0:
192,192,69981,1,0,0:0:0:70:Bass Kick.wav
64,192,69981,1,0,0:0:0:0:
320,192,70338,1,0,0:0:0:70:Bass Kick.wav
448,192,70338,1,0,0:0:0:0:
320,192,70696,1,0,0:0:0:70:Heavy Snare.wav
192,192,70696,1,0,0:0:0:0:
64,192,70696,1,0,0:0:0:0:
192,192,70934,1,0,0:0:0:70:Bass Kick.wav
64,192,70934,1,0,0:0:0:0:
320,192,71172,1,0,0:0:0:70:Bass Kick.wav
448,192,71172,1,0,0:0:0:0:
64,192,71410,128,0,71767:0:0:0:0:
320,192,71767,1,0,0:0:0:0:
448,192,71767,1,0,0:0:0:70:Bass Kick.wav
64,192,72124,1,0,0:0:0:50:D_B Tamb 01.wav
320,192,72303,1,0,0:0:0:85:Hand Bongo 02.wav
192,192,72481,1,0,0:0:0:0:
320,192,72838,1,0,0:0:0:0:
192,192,72958,1,0,0:0:0:0:
320,192,73077,1,0,0:0:0:0:
192,192,73196,1,0,0:0:0:0:
64,192,73553,1,0,0:0:0:50:D_B Tamb 01.wav
64,192,73731,1,0,0:0:0:0:
320,192,73910,1,0,0:0:0:0:
320,192,74088,1,0,0:0:0:50:80s Digital Tom 01.wav
448,192,74267,1,0,0:0:0:50:80s Digital Tom 01.wav
64,192,74267,1,0,0:0:0:50:Kiai Clap.wav
64,192,74446,1,0,0:0:0:50:80s Digital Tom 01.wav
448,192,74446,1,0,0:0:0:50:Kiai Clap.wav
320,192,74624,1,0,0:0:0:50:80s Digital Tom 01.wav
192,192,74624,1,0,0:0:0:0:
64,192,74981,1,0,0:0:0:50:D_B Tamb 01.wav
320,192,75160,1,0,0:0:0:85:Hand Bongo 02.wav
192,192,75338,1,0,0:0:0:0:
320,192,75696,1,0,0:0:0:0:
192,192,75815,1,0,0:0:0:0:
320,192,75934,1,0,0:0:0:0:
192,192,76053,1,0,0:0:0:0:
64,192,76410,1,0,0:0:0:50:D_B Tamb 01.wav
64,192,76588,1,0,0:0:0:0:
192,192,76767,1,0,0:0:0:50:Cowbell.wav
192,192,76946,1,0,0:0:0:0:
448,192,77124,128,0,77481:0:0:0:0:
320,192,77124,1,0,0:0:0:0:
320,192,77481,1,0,0:0:0:50:Cowbell.wav
192,192,77481,1,0,0:0:0:0:
64,192,77838,1,0,0:0:0:50:D_B Tamb 01.wav
320,192,78017,1,0,0:0:0:85:Hand Bongo 02.wav
192,192,78196,1,0,0:0:0:0:
320,192,78553,1,0,0:0:0:0:
192,192,78672,1,0,0:0:0:0:
320,192,78791,1,0,0:0:0:0:
192,192,78910,1,0,0:0:0:0:
64,192,79267,1,0,0:0:0:50:D_B Tamb 01.wav
64,192,79446,1,0,0:0:0:0:
320,192,79624,1,0,0:0:0:0:
320,192,79803,1,0,0:0:0:50:80s Digital Tom 01.wav
64,192,79981,1,0,0:0:0:50:80s Digital Tom 01.wav
448,192,79981,1,0,0:0:0:50:Kiai Clap.wav
448,192,80160,1,0,0:0:0:50:80s Digital Tom 01.wav
64,192,80160,1,0,0:0:0:50:Kiai Clap.wav
320,192,80338,1,0,0:0:0:50:80s Digital Tom 01.wav
192,192,80338,1,0,0:0:0:0:
64,192,80696,1,0,0:0:0:50:D_B Tamb 01.wav
320,192,80874,1,0,0:0:0:85:Hand Bongo 02.wav
192,192,81053,1,0,0:0:0:0:
320,192,81410,1,0,0:0:0:0:
192,192,81529,1,0,0:0:0:0:
320,192,81648,1,0,0:0:0:0:
192,192,81767,1,0,0:0:0:0:
448,192,82124,128,0,82838:0:0:0:50:D_B Tamb 01.wav
320,192,82481,128,0,82838:0:0:0:50:Cowbell.wav
192,192,82838,1,0,0:0:0:0:
64,192,82838,1,0,0:0:0:0:
320,192,83017,1,0,0:0:0:0:
192,192,83196,1,0,0:0:0:50:Cowbell.wav
64,192,83196,1,0,0:0:0:70:Bass Kick.wav
448,192,83553,1,0,0:0:0:50:D_B Tamb 01.wav
192,192,83731,1,0,0:0:0:85:Hand Bongo 02.wav
320,192,83910,1,0,0:0:0:0:
64,192,84267,1,0,0:0:0:0:
448,192,84386,1,0,0:0:0:0:
64,192,84505,1,0,0:0:0:0:
448,192,84624,1,0,0:0:0:0:
448,192,84981,1,0,0:0:0:50:D_B Tamb 01.wav
448,192,85160,1,0,0:0:0:0:
192,192,85338,1,0,0:0:0:0:
192,192,85517,1,0,0:0:0:50:80s Digital Tom 01.wav
448,192,85696,1,0,0:0:0:50:80s Digital Tom 01.wav
64,192,85696,1,0,0:0:0:50:Kiai Clap.wav
448,192,85874,1,0,0:0:0:50:80s Digital Tom 01.wav
64,192,85874,1,0,0:0:0:50:Kiai Clap.wav
320,192,86053,1,0,0:0:0:50:80s Digital Tom 01.wav
192,192,86053,1,0,0:0:0:0:
448,192,86410,1,0,0:0:0:50:D_B Tamb 01.wav
192,192,86588,1,0,0:0:0:85:Hand Bongo 02.wav
320,192,86767,1,0,0:0:0:0:
64,192,87124,1,0,0:0:0:0:
448,192,87243,1,0,0:0:0:0:
64,192,87362,1,0,0:0:0:0:
448,192,87481,1,0,0:0:0:0:
448,192,87838,1,0,0:0:0:50:D_B Tamb 01.wav
448,192,88017,1,0,0:0:0:0:
320,192,88196,1,0,0:0:0:50:Cowbell.wav
320,192,88374,1,0,0:0:0:0:
64,192,88553,128,0,88910:0:0:0:0:
192,192,88553,1,0,0:0:0:0:
320,192,88910,1,0,0:0:0:50:Cowbell.wav
192,192,88910,1,0,0:0:0:0:
448,192,89267,1,0,0:0:0:50:D_B Tamb 01.wav
192,192,89446,1,0,0:0:0:85:Hand Bongo 02.wav
320,192,89624,1,0,0:0:0:0:
64,192,89981,1,0,0:0:0:0:
448,192,90100,1,0,0:0:0:0:
64,192,90219,1,0,0:0:0:0:
448,192,90338,1,0,0:0:0:0:
448,192,90696,1,0,0:0:0:50:D_B Tamb 01.wav
448,192,90874,1,0,0:0:0:0:
192,192,91053,1,0,0:0:0:0:
192,192,91231,1,0,0:0:0:50:80s Digital Tom 01.wav
448,192,91410,1,0,0:0:0:50:80s Digital Tom 01.wav
64,192,91410,1,0,0:0:0:50:Kiai Clap.wav
448,192,91588,1,0,0:0:0:50:80s Digital Tom 01.wav
64,192,91588,1,0,0:0:0:50:Kiai Clap.wav
320,192,91767,1,0,0:0:0:50:80s Digital Tom 01.wav
192,192,91767,1,0,0:0:0:0:
448,192,92124,1,0,0:0:0:50:D_B Tamb 01.wav
192,192,92303,1,0,0:0:0:85:Hand Bongo 02.wav
320,192,92481,1,0,0:0:0:0:
320,192,92838,1,0,0:0:0:85:Hand Bongo 02.wav
64,192,92838,1,0,0:0:0:0:
448,192,93196,128,0,93374:0:0:0:0:
64,192,93374,128,0,93553:0:0:0:0:
192,192,93553,128,0,93910:0:0:0:0:
448,192,93910,128,0,94267:0:0:0:0:
192,192,94267,1,0,0:0:0:70:Bass Kick.wav
64,192,94267,1,0,0:0:0:0:
64,192,94535,1,0,0:0:0:70:Bass Kick.wav
320,192,94535,1,0,0:0:0:0:
320,192,94803,1,0,0:0:0:70:Bass Kick.wav
192,192,94803,1,0,0:0:0:0:
64,192,94981,1,0,0:0:0:70:Heavy Snare.wav
448,192,94981,1,0,0:0:0:0:
320,192,95338,1,0,0:0:0:70:Bass Kick.wav
64,192,95338,1,0,0:0:0:0:
320,192,95606,1,0,0:0:0:70:Bass Kick.wav
192,192,95606,1,0,0:0:0:0:
192,192,95874,1,0,0:0:0:70:Bass Kick.wav
64,192,95874,1,0,0:0:0:0:
64,192,96053,1,0,0:0:0:70:Bass Kick.wav
320,192,96053,1,0,0:0:0:0:
192,192,96231,1,0,0:0:0:70:Bass Kick.wav
320,192,96231,1,0,0:0:0:0:
448,192,96410,1,0,0:0:0:70:Heavy Snare.wav
64,192,96410,1,0,0:0:0:0:
448,192,97124,1,0,0:0:0:70:Bass Kick.wav
192,192,97124,1,0,0:0:0:0:
320,192,97392,1,0,0:0:0:70:Bass Kick.wav
448,192,97392,1,0,0:0:0:0:
320,192,97660,1,0,0:0:0:70:Bass Kick.wav
192,192,97660,1,0,0:0:0:0:
448,192,97838,1,0,0:0:0:70:Heavy Snare.wav
64,192,97838,1,0,0:0:0:0:
320,192,98196,1,0,0:0:0:70:Bass Kick.wav
448,192,98196,1,0,0:0:0:0:
320,192,98463,1,0,0:0:0:70:Bass Kick.wav
192,192,98463,1,0,0:0:0:0:
448,192,98731,1,0,0:0:0:70:Bass Kick.wav
192,192,98731,1,0,0:0:0:0:
320,192,98910,1,0,0:0:0:70:Bass Kick.wav
448,192,98910,1,0,0:0:0:0:
320,192,99088,1,0,0:0:0:70:Bass Kick.wav
192,192,99088,1,0,0:0:0:0:
448,192,99267,1,0,0:0:0:70:Heavy Snare.wav
64,192,99267,1,0,0:0:0:0:
64,192,99981,1,0,0:0:0:70:Bass Kick.wav
320,192,99981,1,0,0:0:0:0:
192,192,100249,1,0,0:0:0:70:Bass Kick.wav
64,192,100249,1,0,0:0:0:0:
320,192,100517,1,0,0:0:0:70:Bass Kick.wav
192,192,100517,1,0,0:0:0:0:
448,192,100696,1,0,0:0:0:70:Heavy Snare.wav
64,192,100696,1,0,0:0:0:0:
192,192,101053,1,0,0:0:0:70:Bass Kick.wav
64,192,101053,1,0,0:0:0:0:
320,192,101321,1,0,0:0:0:70:Bass Kick.wav
192,192,101321,1,0,0:0:0:0:
64,192,101588,1,0,0:0:0:70:Bass Kick.wav
320,192,101588,1,0,0:0:0:0:
192,192,101767,1,0,0:0:0:70:Bass Kick.wav
64,192,101767,1,0,0:0:0:0:
320,192,101946,1,0,0:0:0:70:Bass Kick.wav
192,192,101946,1,0,0:0:0:0:
448,192,102124,1,0,0:0:0:70:Heavy Snare.wav
64,192,102124,1,0,0:0:0:0:
320,192,102838,1,0,0:0:0:70:Bass Kick.wav
192,192,102838,1,0,0:0:0:0:
320,192,103106,1,0,0:0:0:70:Bass Kick.wav
192,192,103106,1,0,0:0:0:0:
448,192,103196,1,0,0:0:0:70:Heavy Snare.wav
64,192,103196,1,0,0:0:0:0:
320,192,103374,1,0,0:0:0:70:Bass Kick.wav
192,192,103374,1,0,0:0:0:0:
320,192,103642,1,0,0:0:0:70:Bass Kick.wav
192,192,103642,1,0,0:0:0:0:
448,192,103731,1,0,0:0:0:70:Heavy Snare.wav
64,192,103731,1,0,0:0:0:0:
192,192,103910,1,0,0:0:0:70:Bass Kick.wav
320,192,103910,1,0,0:0:0:0:
320,192,104178,1,0,0:0:0:70:Bass Kick.wav
192,192,104178,1,0,0:0:0:0:
448,192,104267,1,0,0:0:0:70:Heavy Snare.wav
64,192,104267,1,0,0:0:0:0:
320,192,104446,1,0,0:0:0:70:Bass Kick.wav
192,192,104446,1,0,0:0:0:0:
320,192,104713,1,0,0:0:0:70:Bass Kick.wav
192,192,104713,1,0,0:0:0:0:
448,192,104803,1,0,0:0:0:70:Heavy Snare.wav
64,192,104803,1,0,0:0:0:0:
320,192,104981,1,0,0:0:0:70:Bass Kick.wav
192,192,104981,1,0,0:0:0:0:
64,192,105160,128,0,105517:0:0:0:70:Heavy Snare.wav
448,192,105160,128,0,105517:0:0:0:0:
320,192,105696,1,0,0:0:0:70:Bass Kick.wav
448,192,105696,1,0,0:0:0:0:
448,192,105963,1,0,0:0:0:70:Bass Kick.wav
192,192,105963,1,0,0:0:0:0:
192,192,106231,1,0,0:0:0:70:Bass Kick.wav
320,192,106231,1,0,0:0:0:0:
448,192,106410,1,0,0:0:0:70:Heavy Snare.wav
64,192,106410,1,0,0:0:0:0:
192,192,106767,1,0,0:0:0:70:Bass Kick.wav
448,192,106767,1,0,0:0:0:0:
192,192,107035,1,0,0:0:0:70:Bass Kick.wav
320,192,107035,1,0,0:0:0:0:
320,192,107303,1,0,0:0:0:70:Bass Kick.wav
448,192,107303,1,0,0:0:0:0:
448,192,107481,1,0,0:0:0:70:Bass Kick.wav
192,192,107481,1,0,0:0:0:0:
320,192,107660,1,0,0:0:0:70:Bass Kick.wav
192,192,107660,1,0,0:0:0:0:
64,192,107838,1,0,0:0:0:70:Heavy Snare.wav
448,192,107838,1,0,0:0:0:0:
64,192,108553,1,0,0:0:0:70:Bass Kick.wav
320,192,108553,1,0,0:0:0:0:
192,192,108821,1,0,0:0:0:70:Bass Kick.wav
64,192,108821,1,0,0:0:0:0:
192,192,109088,1,0,0:0:0:70:Bass Kick.wav
320,192,109088,1,0,0:0:0:0:
64,192,109267,1,0,0:0:0:70:Heavy Snare.wav
448,192,109267,1,0,0:0:0:0:
192,192,109624,1,0,0:0:0:70:Bass Kick.wav
64,192,109624,1,0,0:0:0:0:
192,192,109892,1,0,0:0:0:70:Bass Kick.wav
320,192,109892,1,0,0:0:0:0:
64,192,110160,1,0,0:0:0:70:Bass Kick.wav
320,192,110160,1,0,0:0:0:0:
192,192,110338,1,0,0:0:0:70:Bass Kick.wav
64,192,110338,1,0,0:0:0:0:
192,192,110517,1,0,0:0:0:70:Bass Kick.wav
320,192,110517,1,0,0:0:0:0:
64,192,110696,1,0,0:0:0:70:Heavy Snare.wav
448,192,110696,1,0,0:0:0:0:
448,192,111410,1,0,0:0:0:70:Bass Kick.wav
192,192,111410,1,0,0:0:0:0:
320,192,111678,1,0,0:0:0:70:Bass Kick.wav
448,192,111678,1,0,0:0:0:0:
192,192,111946,1,0,0:0:0:70:Bass Kick.wav
320,192,111946,1,0,0:0:0:0:
64,192,112124,1,0,0:0:0:70:Heavy Snare.wav
448,192,112124,1,0,0:0:0:0:
320,192,112481,1,0,0:0:0:70:Bass Kick.wav
448,192,112481,1,0,0:0:0:0:
192,192,112749,1,0,0:0:0:70:Bass Kick.wav
320,192,112749,1,0,0:0:0:0:
448,192,113017,1,0,0:0:0:70:Bass Kick.wav
192,192,113017,1,0,0:0:0:0:
320,192,113196,1,0,0:0:0:70:Bass Kick.wav
448,192,113196,1,0,0:0:0:0:
192,192,113374,1,0,0:0:0:70:Bass Kick.wav
320,192,113374,1,0,0:0:0:0:
64,192,113553,1,0,0:0:0:70:Heavy Snare.wav
448,192,113553,1,0,0:0:0:0:
192,192,114267,128,0,116410:0:0:0:70:Bass Kick.wav
320,192,114267,128,0,116410:0:0:0:0:
64,192,116410,1,0,0:0:0:70:Heavy Snare.wav
448,192,116410,1,0,0:0:0:0:
448,192,117124,1,0,0:0:0:70:Bass Kick.wav
320,192,117124,128,0,117362:0:0:0:0:
192,192,117362,1,0,0:0:0:70:Bass Kick.wav
448,192,117362,128,0,117660:0:0:0:0:
320,192,117660,1,0,0:0:0:70:Bass Kick.wav
192,192,117660,128,0,117838:0:0:0:0:
448,192,117838,1,0,0:0:0:70:Heavy Snare.wav
64,192,117838,1,0,0:0:0:0:
192,192,118196,1,0,0:0:0:70:Bass Kick.wav
448,192,118196,128,0,118434:0:0:0:0:
192,192,118434,128,0,118731:0:0:0:70:Bass Kick.wav
320,192,118434,1,0,0:0:0:0:
448,192,118731,1,0,0:0:0:70:Bass Kick.wav
320,192,118731,128,0,118910:0:0:0:0:
192,192,118910,1,0,0:0:0:70:Bass Kick.wav
448,192,118910,128,0,119088:0:0:0:0:
320,192,119088,1,0,0:0:0:70:Bass Kick.wav
192,192,119088,128,0,119267:0:0:0:0:
64,192,119267,1,0,0:0:0:70:Heavy Snare.wav
448,192,119267,1,0,0:0:0:0:
64,192,119981,1,0,0:0:0:70:Bass Kick.wav
320,192,119981,128,0,120219:0:0:0:0:
192,192,120219,1,0,0:0:0:70:Bass Kick.wav
64,192,120219,128,0,120517:0:0:0:0:
320,192,120517,1,0,0:0:0:70:Bass Kick.wav
192,192,120517,128,0,120696:0:0:0:0:
64,192,120696,1,0,0:0:0:70:Heavy Snare.wav
448,192,120696,1,0,0:0:0:0:
192,192,121053,1,0,0:0:0:70:Bass Kick.wav
64,192,121053,128,0,121291:0:0:0:0:
320,192,121291,1,0,0:0:0:70:Bass Kick.wav
192,192,121291,128,0,121588:0:0:0:0:
64,192,121588,1,0,0:0:0:70:Bass Kick.wav
320,192,121588,128,0,121767:0:0:0:0:
192,192,121767,1,0,0:0:0:70:Bass Kick.wav
64,192,121767,128,0,121946:0:0:0:0:
320,192,121946,1,0,0:0:0:70:Bass Kick.wav
192,192,121946,128,0,122124:0:0:0:0:
64,192,122124,1,0,0:0:0:70:Heavy Snare.wav
448,192,122124,1,0,0:0:0:0:
448,192,122838,1,0,0:0:0:70:Bass Kick.wav
192,192,122838,128,0,123077:0:0:0:0:
320,192,123077,1,0,0:0:0:70:Bass Kick.wav
448,192,123077,128,0,123374:0:0:0:0:
192,192,123374,1,0,0:0:0:70:Bass Kick.wav
320,192,123374,128,0,123553:0:0:0:0:
64,192,123553,1,0,0:0:0:70:Heavy Snare.wav
448,192,123553,1,0,0:0:0:0:
320,192,123910,1,0,0:0:0:70:Bass Kick.wav
448,192,123910,128,0,124148:0:0:0:0:
320,192,124148,128,0,124446:0:0:0:70:Bass Kick.wav
192,192,124148,1,0,0:0:0:0:
448,192,124446,1,0,0:0:0:70:Bass Kick.wav
192,192,124446,128,0,124624:0:0:0:0:
320,192,124624,1,0,0:0:0:70:Bass Kick.wav
448,192,124624,128,0,124803:0:0:0:0:
192,192,124803,1,0,0:0:0:70:Bass Kick.wav
320,192,124803,128,0,124981:0:0:0:0:
64,192,124981,1,0,0:0:0:70:Heavy Snare.wav
448,192,124981,1,0,0:0:0:0:
320,192,125696,128,0,125844:0:0:0:70:Bass Kick.wav
192,192,125696,128,0,125844:0:0:0:0:
320,192,125934,1,0,0:0:0:70:Bass Kick.wav
192,192,125934,1,0,0:0:0:0:
64,192,126053,1,0,0:0:0:70:Heavy Snare.wav
448,192,126053,1,0,0:0:0:0:
320,192,126231,128,0,126380:0:0:0:70:Bass Kick.wav
192,192,126231,128,0,126380:0:0:0:0:
320,192,126469,1,0,0:0:0:70:Bass Kick.wav
192,192,126469,1,0,0:0:0:0:
64,192,126588,1,0,0:0:0:70:Heavy Snare.wav
448,192,126588,1,0,0:0:0:0:
320,192,126767,128,0,126916:0:0:0:70:Bass Kick.wav
192,192,126767,128,0,126916:0:0:0:0:
320,192,127005,1,0,0:0:0:70:Bass Kick.wav
192,192,127005,1,0,0:0:0:0:
64,192,127124,1,0,0:0:0:70:Heavy Snare.wav
448,192,127124,1,0,0:0:0:0:
320,192,127303,128,0,127452:0:0:0:70:Bass Kick.wav
192,192,127303,128,0,127452:0:0:0:0:
320,192,127541,1,0,0:0:0:70:Bass Kick.wav
192,192,127541,1,0,0:0:0:0:
64,192,127660,1,0,0:0:0:70:Heavy Snare.wav
448,192,127660,1,0,0:0:0:0:
320,192,127838,1,0,0:0:0:70:Bass Kick.wav
192,192,127838,1,0,0:0:0:0:
448,192,128017,128,0,128374:0:0:0:70:Heavy Snare.wav
64,192,128017,128,0,128374:0:0:0:0:
64,192,128553,1,0,0:0:0:70:Bass Kick.wav
192,192,128553,128,0,128791:0:0:0:0:
320,192,128791,1,0,0:0:0:70:Bass Kick.wav
64,192,128791,128,0,129088:0:0:0:0:
192,192,129088,1,0,0:0:0:70:Bass Kick.wav
320,192,129088,128,0,129267:0:0:0:0:
64,192,129267,1,0,0:0:0:70:Heavy Snare.wav
448,192,129267,1,0,0:0:0:0:
320,192,129624,1,0,0:0:0:70:Bass Kick.wav
64,192,129624,128,0,129862:0:0:0:0:
192,192,129862,1,0,0:0:0:70:Bass Kick.wav
320,192,129862,128,0,130160:0:0:0:0:
64,192,130160,1,0,0:0:0:70:Bass Kick.wav
192,192,130160,128,0,130338:0:0:0:0:
320,192,130338,1,0,0:0:0:70:Bass Kick.wav
64,192,130338,128,0,130517:0:0:0:0:
192,192,130517,1,0,0:0:0:70:Bass Kick.wav
320,192,130517,128,0,130696:0:0:0:0:
448,192,130696,1,0,0:0:0:70:Heavy Snare.wav
64,192,130696,1,0,0:0:0:0:
448,192,131410,1,0,0:0:0:70:Bass Kick.wav
192,192,131410,128,0,131648:0:0:0:0:
320,192,131648,1,0,0:0:0:70:Bass Kick.wav
448,192,131648,128,0,131946:0:0:0:0:
192,192,131946,1,0,0:0:0:70:Bass Kick.wav
320,192,131946,128,0,132124:0:0:0:0:
448,192,132124,1,0,0:0:0:70:Heavy Snare.wav
64,192,132124,1,0,0:0:0:0:
320,192,132481,1,0,0:0:0:70:Bass Kick.wav
448,192,132481,128,0,132719:0:0:0:0:
320,192,132719,128,0,133017:0:0:0:70:Bass Kick.wav
192,192,132719,1,0,0:0:0:0:
448,192,133017,1,0,0:0:0:70:Bass Kick.wav
192,192,133017,128,0,133196:0:0:0:0:
320,192,133196,1,0,0:0:0:70:Bass Kick.wav
448,192,133196,128,0,133374:0:0:0:0:
192,192,133374,1,0,0:0:0:70:Bass Kick.wav
320,192,133374,128,0,133553:0:0:0:0:
448,192,133553,1,0,0:0:0:70:Heavy Snare.wav
64,192,133553,1,0,0:0:0:0:
64,192,134267,1,0,0:0:0:70:Bass Kick.wav
320,192,134267,128,0,134505:0:0:0:0:
192,192,134505,1,0,0:0:0:70:Bass Kick.wav
64,192,134505,128,0,134803:0:0:0:0:
320,192,134803,1,0,0:0:0:70:Bass Kick.wav
192,192,134803,128,0,134981:0:0:0:0:
448,192,134981,1,0,0:0:0:70:Heavy Snare.wav
64,192,134981,1,0,0:0:0:0:
192,192,135338,1,0,0:0:0:70:Bass Kick.wav
64,192,135338,128,0,135577:0:0:0:0:
320,192,135577,1,0,0:0:0:70:Bass Kick.wav
192,192,135577,128,0,135874:0:0:0:0:
64,192,135874,1,0,0:0:0:70:Bass Kick.wav
320,192,135874,128,0,136053:0:0:0:0:
192,192,136053,1,0,0:0:0:70:Bass Kick.wav
64,192,136053,128,0,136231:0:0:0:0:
320,192,136231,1,0,0:0:0:70:Bass Kick.wav
192,192,136231,128,0,136410:0:0:0:0:
448,192,136410,1,0,0:0:0:70:Heavy Snare.wav
64,192,136410,1,0,0:0:0:0:
320,192,137124,128,0,139267:0:0:0:50:Bass Kick.wav
192,192,137124,128,0,139267:0:0:0:0:
448,192,139267,5,0,0:0:0:70:Heavy Snare.wav
64,192,139267,1,0,0:0:0:0:
192,192,139981,5,0,0:0:0:70:Bass Kick.wav
64,192,139981,1,0,0:0:0:0:
192,192,140338,1,0,0:0:0:70:Bass Kick.wav
64,192,140338,1,0,0:0:0:0:
192,192,140874,1,0,0:0:0:70:Bass Kick.wav
64,192,140874,1,0,0:0:0:0:
448,192,141588,1,0,0:0:0:0:
64,192,142303,1,0,0:0:0:0:
320,192,143017,1,0,0:0:0:0:
192,192,143731,1,0,0:0:0:0:
64,192,144446,1,0,0:0:0:0:
448,192,145160,1,0,0:0:0:0:
448,192,145338,128,0,145696:0:0:0:0:
192,192,145696,1,0,0:0:0:70:Bass Kick.wav
64,192,145696,1,0,0:0:0:0:
192,192,146053,1,0,0:0:0:70:Bass Kick.wav
64,192,146053,1,0,0:0:0:0:
192,192,146588,1,0,0:0:0:70:Bass Kick.wav
64,192,146588,1,0,0:0:0:0:
448,192,147303,1,0,0:0:0:0:
64,192,148017,1,0,0:0:0:0:
320,192,148731,1,0,0:0:0:0:
192,192,149446,1,0,0:0:0:0:
64,192,150160,1,0,0:0:0:0:
64,192,150696,128,0,151410:0:0:0:0:
448,192,151053,128,0,151410:0:0:0:0:
320,192,151410,1,0,0:0:0:70:Bass Kick.wav
192,192,151410,1,0,0:0:0:0:
320,192,151767,1,0,0:0:0:70:Bass Kick.wav
192,192,151767,1,0,0:0:0:0:
448,192,152124,1,0,0:0:0:70:Clap.wav
64,192,152124,1,0,0:0:0:0:
320,192,152303,1,0,0:0:0:70:Bass Kick.wav
192,192,152303,1,0,0:0:0:0:
320,192,152660,1,0,0:0:0:70:Bass Kick.wav
192,192,152660,1,0,0:0:0:0:
448,192,153017,1,0,0:0:0:70:Clap.wav
64,192,153017,1,0,0:0:0:0:
320,192,153374,1,0,0:0:0:70:Bass Kick.wav
192,192,153374,1,0,0:0:0:0:
448,192,153910,1,0,0:0:0:70:Clap.wav
64,192,153910,1,0,0:0:0:0:
320,192,154267,1,0,0:0:0:70:Bass Kick.wav
192,192,154267,1,0,0:0:0:0:
320,192,154624,1,0,0:0:0:70:Bass Kick.wav
192,192,154624,1,0,0:0:0:0:
64,192,154981,1,0,0:0:0:70:Clap.wav
448,192,154981,1,0,0:0:0:0:
320,192,155160,1,0,0:0:0:70:Bass Kick.wav
192,192,155160,1,0,0:0:0:0:
320,192,155517,1,0,0:0:0:70:Bass Kick.wav
192,192,155517,1,0,0:0:0:0:
64,192,155874,1,0,0:0:0:70:Clap.wav
448,192,155874,1,0,0:0:0:0:
320,192,156231,1,0,0:0:0:70:Bass Kick.wav
192,192,156231,1,0,0:0:0:0:
64,192,156767,1,0,0:0:0:70:Clap.wav
448,192,156767,1,0,0:0:0:0:
320,192,157124,1,0,0:0:0:70:Bass Kick.wav
192,192,157124,1,0,0:0:0:0:
320,192,157481,1,0,0:0:0:70:Bass Kick.wav
192,192,157481,1,0,0:0:0:0:
448,192,157838,1,0,0:0:0:70:Clap.wav
64,192,157838,1,0,0:0:0:0:
320,192,158017,1,0,0:0:0:70:Bass Kick.wav
192,192,158017,1,0,0:0:0:0:
320,192,158374,1,0,0:0:0:70:Bass Kick.wav
192,192,158374,1,0,0:0:0:0:
64,192,158731,1,0,0:0:0:70:Clap.wav
448,192,158731,1,0,0:0:0:0:
320,192,159088,1,0,0:0:0:70:Bass Kick.wav
192,192,159088,1,0,0:0:0:0:
448,192,159624,1,0,0:0:0:70:Clap.wav
64,192,159624,1,0,0:0:0:0:
320,192,159981,1,0,0:0:0:70:Bass Kick.wav
192,192,159981,1,0,0:0:0:0:
448,192,160338,1,0,0:0:0:0:
320,192,160696,1,0,0:0:0:0:
64,192,161053,1,0,0:0:0:0:
192,192,161410,1,0,0:0:0:0:
448,192,161767,1,0,0:0:0:0:
448,192,161946,1,0,0:0:0:0:
64,192,162124,1,0,0:0:0:70:Bass Kick.wav
