osu file format v14

[General]
AudioFilename: 19ZZ - Frums.mp3
AudioLeadIn: 0
PreviewTime: 48553
Countdown: 0
SampleSet: Soft
StackLeniency: 0.7
Mode: 3
LetterboxInBreaks: 0
SpecialStyle: 0
WidescreenStoryboard: 0

[Editor]
Bookmarks: 70571,93428,116300,139157
DistanceSpacing: 1
BeatDivisor: 4
GridSize: 32
TimelineZoom: 2.000006

[Metadata]
Title:19ZZ
TitleUnicode:19ZZ
Artist:Frums (unknown "lambda")
ArtistUnicode:Frums (unknown "λ")
Creator:Dergo
Version:chi
Source:
Tags:I A aka Be-Music Source 偽名党 Dai 2 Kai Dai2Kai Dainikai BMS Shūgīnsen Shuginsen Shuugiinsen Gimei Tō To Tou Shuin Modern Midtempo Electronic Videogame Video Game Instrumental -mint- qqqant Shūgiin-sen a.k.a. 第二回BMS衆議院選 L
BeatmapID:2118952
BeatmapSetID:1012337

[Difficulty]
HPDrainRate:8
CircleSize:4
OverallDifficulty:7.8
ApproachRate:5
SliderMultiplier:1.4
SliderTickRate:1

[Events]
//Background and Video events
0,0,"19ZZ bg.jpg",0,0
//Break Periods
//Storyboard Layer 0 (Background)
//Storyboard Layer 1 (Fail)
//Storyboard Layer 2 (Pass)
//Storyboard Layer 3 (Foreground)
//Storyboard Layer 4 (Overlay)
//Storyboard Sound Samples

[TimingPoints]
2839,714.285714285714,4,2,1,35,1,0
25696,-100,4,2,1,45,0,0
49267,-100,4,2,1,45,0,1
71410,-100,4,2,1,45,0,0
139981,-100,4,2,1,35,0,0

[HitObjects]
192,192,2839,5,0,0:0:0:70:Bass Kick.wav
64,192,2839,1,0,0:0:0:0:
320,192,3017,1,0,0:0:0:0:
320,192,3196,1,0,0:0:0:70:Bass Kick.wav
448,192,3196,1,0,0:0:0:0:
320,192,3374,1,0,0:0:0:0:
320,192,3553,1,0,0:0:0:0:
192,192,3731,1,0,0:0:0:70:Bass Kick.wav
64,192,3731,1,0,0:0:0:0:
192,192,3910,1,0,0:0:0:0:
192,192,4088,1,0,0:0:0:0:
192,192,4267,1,0,0:0:0:0:
448,192,4446,1,0,0:0:0:0:
448,192,4624,1,0,0:0:0:0:
448,192,4803,1,0,0:0:0:0:
448,192,4981,1,0,0:0:0:0:
64,192,5160,1,0,0:0:0:0:
64,192,5338,1,0,0:0:0:0:
64,192,5517,1,0,0:0:0:0:
64,192,5696,1,0,0:0:0:0:
320,192,5874,1,0,0:0:0:0:
320,192,6053,1,0,0:0:0:0:
320,192,6231,1,0,0:0:0:0:
320,192,6410,1,0,0:0:0:0:
192,192,6588,1,0,0:0:0:0:
192,192,6767,1,0,0:0:0:0:
192,192,6946,1,0,0:0:0:0:
192,192,7124,1,0,0:0:0:0:
64,192,7303,1,0,0:0:0:0:
64,192,7481,1,0,0:0:0:0:
64,192,7660,1,0,0:0:0:0:
64,192,7838,1,0,0:0:0:0:
448,192,8017,1,0,0:0:0:0:
448,192,8196,1,0,0:0:0:0:
448,192,8285,1,0,0:0:0:0:
448,192,8374,1,0,0:0:0:0:
64,192,8463,1,0,0:0:0:0:
448,192,8553,1,0,0:0:0:70:Bass Kick.wav
320,192,8553,1,0,0:0:0:0:
192,192,8731,1,0,0:0:0:0:
192,192,8910,1,0,0:0:0:70:Bass Kick.wav
64,192,8910,1,0,0:0:0:0:
192,192,9088,1,0,0:0:0:0:
192,192,9267,1,0,0:0:0:0:
320,192,9446,1,0,0:0:0:70:Bass Kick.wav
448,192,9446,1,0,0:0:0:0:
320,192,9624,1,0,0:0:0:0:
320,192,9803,1,0,0:0:0:0:
320,192,9981,1,0,0:0:0:0:
448,192,10160,1,0,0:0:0:0:
448,192,10338,1,0,0:0:0:0:
448,192,10517,1,0,0:0:0:0:
448,192,10696,1,0,0:0:0:0:
64,192,10874,1,0,0:0:0:0:
64,192,11053,1,0,0:0:0:0:
64,192,11231,1,0,0:0:0:0:
64,192,11410,1,0,0:0:0:0:
320,192,11588,1,0,0:0:0:0:
320,192,11767,1,0,0:0:0:0:
320,192,11946,1,0,0:0:0:0:
320,192,12124,1,0,0:0:0:0:
192,192,12303,1,0,0:0:0:0:
192,192,12481,1,0,0:0:0:0:
192,192,12660,1,0,0:0:0:0:
192,192,12838,1,0,0:0:0:0:
64,192,13017,1,0,0:0:0:0:
64,192,13196,1,0,0:0:0:0:
64,192,13374,1,0,0:0:0:0:
448,192,13553,128,0,13910:0:0:0:0:
320,192,13731,128,0,13910:0:0:0:0:
192,192,13821,128,0,13910:0:0:0:0:
64,192,13910,1,0,0:0:0:0:
448,192,13955,1,0,0:0:0:0:
192,192,13999,1,0,0:0:0:0:
320,192,14044,1,0,0:0:0:0:
64,192,14088,1,0,0:0:0:0:
192,192,14133,1,0,0:0:0:0:
320,192,14178,1,0,0:0:0:0:
448,192,14222,1,0,0:0:0:0:
192,192,14267,1,0,0:0:0:70:Bass Kick.wav
64,192,14267,1,0,0:0:0:0:
320,192,14386,1,0,0:0:0:0:
448,192,14505,1,0,0:0:0:0:
64,192,14624,1,0,0:0:0:70:Bass Kick.wav
192,192,14624,1,0,0:0:0:0:
320,192,14743,1,0,0:0:0:0:
448,192,14862,1,0,0:0:0:0:
64,192,14981,1,0,0:0:0:70:Clap.wav
448,192,14981,1,0,0:0:0:0:
192,192,15100,1,0,0:0:0:0:
448,192,15160,1,0,0:0:0:70:Bass Kick.wav
320,192,15160,1,0,0:0:0:0:
64,192,15219,1,0,0:0:0:0:
448,192,15338,1,0,0:0:0:0:
192,192,15458,1,0,0:0:0:0:
320,192,15517,1,0,0:0:0:70:Bass Kick.wav
448,192,15517,1,0,0:0:0:0:
64,192,15577,1,0,0:0:0:0:
192,192,15696,1,0,0:0:0:0:
320,192,15815,1,0,0:0:0:0:
448,192,15874,1,0,0:0:0:70:Clap.wav
64,192,15874,1,0,0:0:0:0:
192,192,15934,1,0,0:0:0:0:
64,192,16053,1,0,0:0:0:0:
320,192,16172,1,0,0:0:0:0:
192,192,16231,1,0,0:0:0:70:Bass Kick.wav
64,192,16231,1,0,0:0:0:0:
448,192,16291,1,0,0:0:0:0:
192,192,16410,1,0,0:0:0:0:
64,192,16529,1,0,0:0:0:0:
448,192,16648,1,0,0:0:0:0:
448,192,16767,1,0,0:0:0:70:Clap.wav
64,192,16767,1,0,0:0:0:0:
320,192,16886,1,0,0:0:0:0:
448,192,17005,1,0,0:0:0:0:
64,192,17124,1,0,0:0:0:70:Bass Kick.wav
192,192,17124,1,0,0:0:0:0:
320,192,17243,1,0,0:0:0:0:
448,192,17362,1,0,0:0:0:0:
64,192,17481,1,0,0:0:0:70:Bass Kick.wav
192,192,17481,1,0,0:0:0:0:
320,192,17600,1,0,0:0:0:0:
448,192,17719,1,0,0:0:0:0:
448,192,17838,1,0,0:0:0:70:Clap.wav
64,192,17838,1,0,0:0:0:0:
192,192,17958,1,0,0:0:0:0:
448,192,18017,1,0,0:0:0:70:Bass Kick.wav
320,192,18017,1,0,0:0:0:0:
64,192,18077,1,0,0:0:0:0:
448,192,18196,1,0,0:0:0:0:
192,192,18315,1,0,0:0:0:0:
448,192,18374,1,0,0:0:0:70:Bass Kick.wav
320,192,18374,1,0,0:0:0:0:
64,192,18434,1,0,0:0:0:0:
192,192,18553,1,0,0:0:0:0:
320,192,18672,1,0,0:0:0:0:
448,192,18731,1,0,0:0:0:70:Clap.wav
64,192,18731,1,0,0:0:0:0:
192,192,18791,1,0,0:0:0:0:
64,192,18910,1,0,0:0:0:0:
320,192,19029,1,0,0:0:0:0:
192,192,19088,1,0,0:0:0:70:Bass Kick.wav
64,192,19088,1,0,0:0:0:0:
448,192,19148,1,0,0:0:0:0:
192,192,19267,1,0,0:0:0:0:
64,192,19327,1,0,0:0:0:0:
448,192,19386,1,0,0:0:0:0:
192,192,19446,1,0,0:0:0:0:
320,192,19505,1,0,0:0:0:0:
192,192,19565,1,0,0:0:0:0:
448,192,19624,1,0,0:0:0:70:Clap.wav
64,192,19624,1,0,0:0:0:0:
320,192,19684,1,0,0:0:0:0:
192,192,19743,1,0,0:0:0:0:
320,192,19803,1,0,0:0:0:0:
64,192,19862,1,0,0:0:0:0:
448,192,19922,1,0,0:0:0:0:
192,192,19981,1,0,0:0:0:70:Bass Kick.wav
64,192,19981,1,0,0:0:0:0:
320,192,20041,1,0,0:0:0:0:
192,192,20100,1,0,0:0:0:0:
320,192,20160,1,0,0:0:0:0:
448,192,20219,1,0,0:0:0:0:
64,192,20338,1,0,0:0:0:70:Bass Kick.wav
192,192,20338,1,0,0:0:0:0:
320,192,20458,1,0,0:0:0:0:
448,192,20577,1,0,0:0:0:0:
448,192,20696,1,0,0:0:0:70:Clap.wav
64,192,20696,1,0,0:0:0:0:
192,192,20815,1,0,0:0:0:0:
320,192,20874,1,0,0:0:0:70:Bass Kick.wav
448,192,20874,1,0,0:0:0:0:
64,192,20934,1,0,0:0:0:0:
448,192,21053,1,0,0:0:0:0:
64,192,21172,1,0,0:0:0:0:
320,192,21231,1,0,0:0:0:70:Bass Kick.wav
448,192,21231,1,0,0:0:0:0:
192,192,21291,1,0,0:0:0:0:
64,192,21410,1,0,0:0:0:0:
448,192,21469,1,0,0:0:0:0:
192,192,21529,1,0,0:0:0:0:
448,192,21588,1,0,0:0:0:70:Clap.wav
64,192,21588,1,0,0:0:0:0:
320,192,21648,1,0,0:0:0:0:
64,192,21708,1,0,0:0:0:0:
192,192,21767,1,0,0:0:0:0:
320,192,21886,1,0,0:0:0:0:
192,192,21946,1,0,0:0:0:70:Bass Kick.wav
64,192,21946,1,0,0:0:0:0:
448,192,22005,1,0,0:0:0:0:
192,192,22124,1,0,0:0:0:0:
64,192,22243,1,0,0:0:0:0:
320,192,22362,1,0,0:0:0:0:
448,192,22481,1,0,0:0:0:70:Clap.wav
64,192,22481,1,0,0:0:0:0:
192,192,22600,1,0,0:0:0:0:
448,192,22719,1,0,0:0:0:0:
64,192,22838,1,0,0:0:0:70:Bass Kick.wav
192,192,22838,1,0,0:0:0:0:
320,192,22898,1,0,0:0:0:0:
448,192,22958,1,0,0:0:0:0:
64,192,23017,1,0,0:0:0:0:
320,192,23077,1,0,0:0:0:0:
64,192,23196,1,0,0:0:0:0:
192,192,23315,1,0,0:0:0:0:
448,192,23434,1,0,0:0:0:0:
64,192,23553,1,0,0:0:0:0:
192,192,23632,1,0,0:0:0:0:
448,192,23712,1,0,0:0:0:0:
64,192,23791,1,0,0:0:0:0:
192,192,23870,1,0,0:0:0:0:
448,192,23950,1,0,0:0:0:0:
64,192,24029,1,0,0:0:0:0:
192,192,24108,1,0,0:0:0:0:
448,192,24188,1,0,0:0:0:0:
64,192,24267,1,0,0:0:0:0:
192,192,24327,1,0,0:0:0:0:
448,192,24386,1,0,0:0:0:0:
64,192,24446,1,0,0:0:0:0:
192,192,24505,1,0,0:0:0:0:
320,192,24565,1,0,0:0:0:0:
448,192,24624,1,0,0:0:0:0:
192,192,24624,1,0,0:0:0:0:
64,192,24684,1,0,0:0:0:0:
448,192,24743,1,0,0:0:0:0:
192,192,24743,1,0,0:0:0:0:
64,192,24803,1,0,0:0:0:0:
448,192,24862,1,0,0:0:0:0:
192,192,24862,1,0,0:0:0:0:
320,192,24922,1,0,0:0:0:0:
64,192,24981,1,0,0:0:0:0:
192,192,25517,1,0,0:0:0:0:
448,192,25562,1,0,0:0:0:0:
64,192,25606,1,0,0:0:0:0:
320,192,25636,1,0,0:0:0:0:
448,192,25666,1,0,0:0:0:0:
192,192,25696,128,0,27035:0:0:0:70:Bass Kick.wav
64,192,25696,128,0,28463:0:0:0:0:
192,192,27124,1,0,0:0:0:70:Bass Kick.wav
320,192,27124,128,0,30696:0:0:0:0:
64,192,28553,128,0,29178:0:0:0:0:
64,192,29267,128,0,29892:0:0:0:0:
64,192,29981,128,0,30696:0:0:0:0:
192,192,30696,128,0,30725:0:0:0:70:Dart.wav
448,192,30696,128,0,30725:0:0:0:0:
448,192,30874,128,0,30904:0:0:0:70:Dart.wav
64,192,30874,128,0,30904:0:0:0:0:
320,192,31053,128,0,31083:0:0:0:70:Dart.wav
64,192,31053,128,0,31083:0:0:0:0:
64,192,31231,128,0,31261:0:0:0:70:Dart.wav
448,192,31231,128,0,31261:0:0:0:0:
192,192,31410,128,0,32749:0:0:0:70:Bass Kick.wav
320,192,31410,128,0,34178:0:0:0:0:
192,192,32838,1,0,0:0:0:70:Bass Kick.wav
64,192,32838,128,0,36410:0:0:0:0:
320,192,34267,128,0,34892:0:0:0:0:
320,192,34981,128,0,35606:0:0:0:0:
320,192,35696,128,0,36410:0:0:0:0:
448,192,36410,128,0,36767:0:0:0:0:
192,192,36410,128,0,36827:0:0:0:0:
320,192,36499,128,0,36827:0:0:0:0:
64,192,36499,128,0,36827:0:0:0:0:
448,192,36827,128,0,37035:0:0:0:0:
64,192,36968,128,0,37035:0:0:0:0:
448,192,37124,128,0,38463:0:0:0:70:Bass Kick.wav
192,192,37124,128,0,39892:0:0:0:0:
448,192,38553,1,0,0:0:0:70:Bass Kick.wav
320,192,38553,128,0,42124:0:0:0:0:
192,192,39981,128,0,40606:0:0:0:0:
192,192,40696,128,0,41321:0:0:0:0:
192,192,41410,128,0,42124:0:0:0:0:
448,192,42124,128,0,42213:0:0:0:0:
64,192,42213,128,0,42273:0:0:0:0:
192,192,42273,128,0,42333:0:0:0:0:
64,192,42333,128,0,42392:0:0:0:0:
192,192,42392,128,0,42481:0:0:0:0:
448,192,42481,1,0,0:0:0:0:
320,192,42541,1,0,0:0:0:0:
64,192,42600,1,0,0:0:0:0:
448,192,42660,1,0,0:0:0:0:
320,192,42705,1,0,0:0:0:0:
192,192,42749,1,0,0:0:0:0:
64,192,42794,1,0,0:0:0:0:
320,192,42838,128,0,44267:0:0:0:70:Bass Kick.wav
448,192,42838,128,0,45606:0:0:0:0:
64,192,44267,128,0,46053:0:0:0:0:
448,192,45696,1,0,0:0:0:70:Bass Kick.wav
320,192,45696,128,0,46856:0:0:0:0:
64,192,46142,128,0,46321:0:0:0:0:
64,192,46410,128,0,46499:0:0:0:0:
64,192,46588,128,0,46678:0:0:0:0:
64,192,46767,128,0,46946:0:0:0:0:
320,192,46946,128,0,47035:0:0:0:0:
64,192,47035,128,0,47124:0:0:0:0:
320,192,47124,128,0,47243:0:0:0:0:
64,192,47243,128,0,47362:0:0:0:0:
320,192,47362,128,0,47481:0:0:0:0:
64,192,47481,128,0,47600:0:0:0:0:
192,192,47541,128,0,47660:0:0:0:0:
320,192,47600,128,0,47719:0:0:0:0:
448,192,47660,128,0,47779:0:0:0:0:
64,192,47719,128,0,47838:0:0:0:0:
192,192,47779,128,0,48196:0:0:0:0:
320,192,47838,128,0,48196:0:0:0:0:
448,192,47898,128,0,48196:0:0:0:0:
64,192,48196,1,0,0:0:0:0:
448,192,48240,1,0,0:0:0:0:
192,192,48285,1,0,0:0:0:0:
320,192,48330,1,0,0:0:0:0:
64,192,48374,1,0,0:0:0:0:
192,192,48419,1,0,0:0:0:0:
320,192,48463,1,0,0:0:0:0:
448,192,48508,1,0,0:0:0:0:
192,192,48553,1,0,0:0:0:70:Bass Kick.wav
64,192,48553,1,0,0:0:0:0:
192,192,48672,1,0,0:0:0:70:Bass Kick.wav
64,192,48672,1,0,0:0:0:0:
192,192,48791,1,0,0:0:0:70:Bass Kick.wav
64,192,48791,1,0,0:0:0:0:
320,192,48910,128,0,49088:0:0:0:0:
448,192,49088,128,0,49267:0:0:0:0:
64,192,49267,1,0,0:0:0:70:Heavy Snare.wav
320,192,49267,128,0,51410:0:0:0:0:
192,192,49267,128,0,49892:0:0:0:0:
192,192,49981,1,0,0:0:0:70:Bass Kick.wav
64,192,49981,128,0,50606:0:0:0:0:
64,192,50696,128,0,51321:0:0:0:70:Heavy Snare.wav
192,192,50696,1,0,0:0:0:0:
448,192,50696,1,0,0:0:0:0:
192,192,51410,128,0,51767:0:0:0:70:Bass Kick.wav
64,192,51410,128,0,51767:0:0:0:0:
320,192,51767,1,0,0:0:0:0:
192,192,51812,1,0,0:0:0:0:
448,192,51856,1,0,0:0:0:0:
64,192,51901,1,0,0:0:0:0:
320,192,51946,1,0,0:0:0:0:
192,192,51990,1,0,0:0:0:0:
448,192,52035,1,0,0:0:0:0:
64,192,52080,1,0,0:0:0:0:
192,192,52124,1,0,0:0:0:70:Heavy Snare.wav
320,192,52124,128,0,52481:0:0:0:0:
448,192,52124,128,0,52481:0:0:0:0:
192,192,52481,1,0,0:0:0:0:
320,192,52526,1,0,0:0:0:0:
64,192,52571,1,0,0:0:0:0:
448,192,52615,1,0,0:0:0:0:
192,192,52660,1,0,0:0:0:0:
320,192,52705,1,0,0:0:0:0:
64,192,52749,1,0,0:0:0:0:
448,192,52794,1,0,0:0:0:0:
192,192,52838,128,0,53196:0:0:0:70:Bass Kick.wav
64,192,52838,128,0,53196:0:0:0:0:
448,192,53196,1,0,0:0:0:0:
320,192,53240,1,0,0:0:0:0:
64,192,53285,1,0,0:0:0:0:
192,192,53330,1,0,0:0:0:0:
320,192,53374,1,0,0:0:0:0:
448,192,53419,1,0,0:0:0:0:
192,192,53463,1,0,0:0:0:0:
64,192,53508,1,0,0:0:0:0:
192,192,53553,1,0,0:0:0:70:Heavy Snare.wav
320,192,53553,1,0,0:0:0:0:
448,192,53553,1,0,0:0:0:0:
64,192,53731,128,0,53791:0:0:0:0:
64,192,53850,128,0,53910:0:0:0:0:
64,192,53969,128,0,54029:0:0:0:0:
448,192,54088,128,0,54148:0:0:0:0:
192,192,54267,128,0,54892:0:0:0:70:Bass Kick.wav
320,192,54267,128,0,55606:0:0:0:0:
192,192,54981,1,0,0:0:0:70:Heavy Snare.wav
64,192,54981,128,0,55338:0:0:0:0:
448,192,54981,1,0,0:0:0:0:
448,192,55338,128,0,56321:0:0:0:0:
320,192,55696,1,0,0:0:0:70:Bass Kick.wav
192,192,55696,128,0,57035:0:0:0:0:
64,192,56410,1,0,0:0:0:70:Heavy Snare.wav
448,192,56410,128,0,57124:0:0:0:0:
320,192,56410,1,0,0:0:0:0:
192,192,57124,128,0,57481:0:0:0:70:Bass Kick.wav
64,192,57124,128,0,57481:0:0:0:0:
448,192,57481,1,0,0:0:0:0:
320,192,57541,1,0,0:0:0:0:
64,192,57600,1,0,0:0:0:0:
448,192,57660,1,0,0:0:0:0:
320,192,57719,1,0,0:0:0:0:
64,192,57779,1,0,0:0:0:0:
192,192,57838,1,0,0:0:0:70:Heavy Snare.wav
320,192,57838,128,0,58196:0:0:0:0:
448,192,57838,128,0,58196:0:0:0:0:
64,192,58196,1,0,0:0:0:0:
192,192,58225,1,0,0:0:0:0:
320,192,58255,1,0,0:0:0:0:
64,192,58285,1,0,0:0:0:0:
192,192,58315,1,0,0:0:0:0:
320,192,58344,1,0,0:0:0:0:
448,192,58374,128,0,58553:0:0:0:0:
192,192,58553,128,0,58910:0:0:0:70:Bass Kick.wav
64,192,58553,128,0,58910:0:0:0:0:
320,192,58910,128,0,59267:0:0:0:0:
192,192,59267,1,0,0:0:0:70:Heavy Snare.wav
64,192,59267,1,0,0:0:0:0:
448,192,59267,1,0,0:0:0:0:
192,192,59374,1,0,0:0:0:0:
192,192,59481,1,0,0:0:0:0:
192,192,59589,1,0,0:0:0:0:
448,192,59660,128,0,59767:0:0:0:0:
64,192,59660,128,0,59839:0:0:0:0:
448,192,59839,128,0,59910:0:0:0:0:
64,192,59910,128,0,59981:0:0:0:0:
448,192,59981,128,0,60606:0:0:0:70:Bass Kick.wav
320,192,59981,128,0,61321:0:0:0:0:
64,192,60696,1,0,0:0:0:70:Heavy Snare.wav
448,192,60696,1,0,0:0:0:0:
192,192,60696,128,0,61053:0:0:0:0:
448,192,61053,128,0,62035:0:0:0:0:
320,192,61410,1,0,0:0:0:70:Bass Kick.wav
192,192,61410,128,0,62749:0:0:0:0:
64,192,62124,1,0,0:0:0:70:Heavy Snare.wav
448,192,62124,1,0,0:0:0:0:
320,192,62124,128,0,62838:0:0:0:0:
192,192,62838,128,0,63196:0:0:0:70:Bass Kick.wav
64,192,62838,128,0,63196:0:0:0:0:
448,192,63196,1,0,0:0:0:0:
192,192,63285,1,0,0:0:0:0:
448,192,63344,1,0,0:0:0:0:
192,192,63404,1,0,0:0:0:0:
320,192,63463,1,0,0:0:0:0:
64,192,63523,1,0,0:0:0:0:
192,192,63553,1,0,0:0:0:70:Heavy Snare.wav
320,192,63553,128,0,63910:0:0:0:0:
448,192,63553,128,0,63910:0:0:0:0:
64,192,63910,128,0,63969:0:0:0:0:
320,192,63969,128,0,64029:0:0:0:0:
64,192,64029,128,0,64088:0:0:0:0:
448,192,64088,128,0,64148:0:0:0:0:
192,192,64148,128,0,64208:0:0:0:0:
448,192,64208,128,0,64267:0:0:0:0:
192,192,64267,128,0,64624:0:0:0:70:Bass Kick.wav
64,192,64267,128,0,64624:0:0:0:0:
320,192,64624,1,0,0:0:0:0:
448,192,64669,1,0,0:0:0:0:
64,192,64713,1,0,0:0:0:0:
192,192,64758,1,0,0:0:0:0:
320,192,64803,1,0,0:0:0:0:
448,192,64847,1,0,0:0:0:0:
192,192,64892,1,0,0:0:0:0:
320,192,64937,1,0,0:0:0:0:
64,192,64981,128,0,65071:0:0:0:70:Heavy Snare.wav
448,192,64981,128,0,65071:0:0:0:0:
64,192,65249,1,0,0:0:0:0:
320,192,65294,1,0,0:0:0:0:
448,192,65368,1,0,0:0:0:0:
192,192,65428,1,0,0:0:0:0:
320,192,65487,1,0,0:0:0:0:
64,192,65606,1,0,0:0:0:0:
448,192,65673,1,0,0:0:0:0:
320,192,65696,128,0,66321:0:0:0:70:Bass Kick.wav
192,192,65696,128,0,67035:0:0:0:0:
320,192,66410,1,0,0:0:0:70:Heavy Snare.wav
64,192,66410,1,0,0:0:0:0:
448,192,66410,128,0,67749:0:0:0:0:
192,192,67124,1,0,0:0:0:70:Bass Kick.wav
64,192,67124,128,0,68463:0:0:0:0:
192,192,67838,1,0,0:0:0:70:Heavy Snare.wav
448,192,67838,1,0,0:0:0:0:
320,192,67838,128,0,68553:0:0:0:0:
192,192,68553,1,0,0:0:0:70:Bass Kick.wav
64,192,68553,1,0,0:0:0:0:
448,192,68672,1,0,0:0:0:0:
192,192,68791,1,0,0:0:0:0:
448,192,68910,1,0,0:0:0:0:
192,192,69029,1,0,0:0:0:0:
448,192,69148,1,0,0:0:0:0:
192,192,69267,1,0,0:0:0:70:Heavy Snare.wav
64,192,69267,1,0,0:0:0:0:
320,192,69267,1,0,0:0:0:0:
448,192,69386,1,0,0:0:0:0:
64,192,69505,1,0,0:0:0:0:
448,192,69624,1,0,0:0:0:0:
64,192,69743,1,0,0:0:0:0:
448,192,69862,1,0,0:0:0:0:
64,192,69981,1,0,0:0:0:70:Bass Kick.wav
192,192,69981,1,0,0:0:0:0:
448,192,70041,1,0,0:0:0:0:
192,192,70100,1,0,0:0:0:0:
64,192,70160,1,0,0:0:0:0:
320,192,70219,1,0,0:0:0:0:
448,192,70279,1,0,0:0:0:0:
192,192,70338,1,0,0:0:0:70:Bass Kick.wav
64,192,70338,1,0,0:0:0:0:
448,192,70398,1,0,0:0:0:0:
320,192,70458,1,0,0:0:0:0:
64,192,70517,1,0,0:0:0:0:
192,192,70577,1,0,0:0:0:0:
448,192,70636,1,0,0:0:0:0:
320,192,70696,1,0,0:0:0:70:Heavy Snare.wav
192,192,70696,1,0,0:0:0:0:
64,192,70696,1,0,0:0:0:0:
448,192,70740,1,0,0:0:0:0:
320,192,70785,1,0,0:0:0:0:
192,192,70830,1,0,0:0:0:0:
64,192,70874,1,0,0:0:0:0:
320,192,70934,1,0,0:0:0:70:Bass Kick.wav
448,192,70934,1,0,0:0:0:0:
320,192,71172,1,0,0:0:0:70:Bass Kick.wav
448,192,71172,1,0,0:0:0:0:
64,192,71276,1,0,0:0:0:0:
192,192,71321,1,0,0:0:0:0:
320,192,71365,1,0,0:0:0:0:
448,192,71410,1,0,0:0:0:0:
64,192,71469,1,0,0:0:0:0:
448,192,71529,1,0,0:0:0:0:
64,192,71588,1,0,0:0:0:0:
448,192,71648,1,0,0:0:0:0:
64,192,71708,1,0,0:0:0:0:
448,192,71767,1,0,0:0:0:70:Bass Kick.wav
320,192,71767,1,0,0:0:0:0:
320,192,71856,1,0,0:0:0:0:
192,192,71946,1,0,0:0:0:0:
192,192,72035,1,0,0:0:0:0:
192,192,72124,1,0,0:0:0:50:D_B Tamb 01.wav
448,192,72124,1,0,0:0:0:0:
320,192,72303,1,0,0:0:0:85:Hand Bongo 02.wav
192,192,72303,1,0,0:0:0:0:
320,192,72481,1,0,0:0:0:0:
320,192,72571,1,0,0:0:0:0:
320,192,72660,1,0,0:0:0:0:
192,192,72838,1,0,0:0:0:0:
192,192,72958,1,0,0:0:0:0:
64,192,73017,1,0,0:0:0:0:
192,192,73077,1,0,0:0:0:0:
320,192,73196,1,0,0:0:0:0:
320,192,73285,1,0,0:0:0:0:
320,192,73374,1,0,0:0:0:0:
448,192,73553,1,0,0:0:0:50:D_B Tamb 01.wav
192,192,73553,1,0,0:0:0:0:
192,192,73612,1,0,0:0:0:0:
448,192,73672,1,0,0:0:0:0:
192,192,73731,1,0,0:0:0:0:
320,192,73910,1,0,0:0:0:0:
320,192,74088,1,0,0:0:0:50:80s Digital Tom 01.wav
192,192,74088,1,0,0:0:0:0:
448,192,74267,1,0,0:0:0:50:80s Digital Tom 01.wav
64,192,74267,1,0,0:0:0:50:Kiai Clap.wav
448,192,74446,1,0,0:0:0:50:80s Digital Tom 01.wav
64,192,74446,1,0,0:0:0:50:Kiai Clap.wav
192,192,74624,1,0,0:0:0:50:80s Digital Tom 01.wav
64,192,74624,1,0,0:0:0:0:
192,192,74713,1,0,0:0:0:0:
320,192,74803,1,0,0:0:0:0:
320,192,74892,1,0,0:0:0:0:
320,192,74981,1,0,0:0:0:50:D_B Tamb 01.wav
64,192,74981,1,0,0:0:0:0:
320,192,75160,1,0,0:0:0:85:Hand Bongo 02.wav
192,192,75160,1,0,0:0:0:0:
192,192,75338,1,0,0:0:0:0:
192,192,75428,1,0,0:0:0:0:
192,192,75517,1,0,0:0:0:0:
320,192,75696,1,0,0:0:0:0:
320,192,75815,1,0,0:0:0:0:
448,192,75874,1,0,0:0:0:0:
320,192,75934,1,0,0:0:0:0:
192,192,76053,1,0,0:0:0:0:
192,192,76142,1,0,0:0:0:0:
192,192,76231,1,0,0:0:0:0:
64,192,76410,1,0,0:0:0:50:D_B Tamb 01.wav
320,192,76410,1,0,0:0:0:0:
320,192,76469,1,0,0:0:0:0:
64,192,76529,1,0,0:0:0:0:
320,192,76588,1,0,0:0:0:0:
192,192,76767,1,0,0:0:0:50:Cowbell.wav
192,192,76827,1,0,0:0:0:0:
448,192,76886,1,0,0:0:0:0:
192,192,76946,1,0,0:0:0:0:
192,192,77124,1,0,0:0:0:0:
64,192,77124,1,0,0:0:0:0:
320,192,77184,1,0,0:0:0:0:
64,192,77243,1,0,0:0:0:0:
192,192,77303,1,0,0:0:0:0:
448,192,77303,1,0,0:0:0:0:
320,192,77362,1,0,0:0:0:0:
64,192,77422,1,0,0:0:0:0:
320,192,77481,1,0,0:0:0:50:Cowbell.wav
192,192,77481,1,0,0:0:0:0:
320,192,77571,1,0,0:0:0:0:
192,192,77660,1,0,0:0:0:0:
192,192,77749,1,0,0:0:0:0:
192,192,77838,1,0,0:0:0:50:D_B Tamb 01.wav
448,192,77838,1,0,0:0:0:0:
320,192,78017,1,0,0:0:0:85:Hand Bongo 02.wav
192,192,78017,1,0,0:0:0:0:
320,192,78196,1,0,0:0:0:0:
320,192,78285,1,0,0:0:0:0:
320,192,78374,1,0,0:0:0:0:
192,192,78553,1,0,0:0:0:0:
192,192,78672,1,0,0:0:0:0:
64,192,78731,1,0,0:0:0:0:
192,192,78791,1,0,0:0:0:0:
320,192,78910,1,0,0:0:0:0:
320,192,78999,1,0,0:0:0:0:
320,192,79088,1,0,0:0:0:0:
448,192,79267,1,0,0:0:0:50:D_B Tamb 01.wav
192,192,79267,1,0,0:0:0:0:
192,192,79327,1,0,0:0:0:0:
448,192,79386,1,0,0:0:0:0:
192,192,79446,1,0,0:0:0:0:
320,192,79624,1,0,0:0:0:0:
320,192,79803,1,0,0:0:0:50:80s Digital Tom 01.wav
192,192,79803,1,0,0:0:0:0:
448,192,79981,5,0,0:0:0:50:80s Digital Tom 01.wav
64,192,79981,1,0,0:0:0:50:Kiai Clap.wav
448,192,80160,1,0,0:0:0:50:80s Digital Tom 01.wav
64,192,80160,1,0,0:0:0:50:Kiai Clap.wav
192,192,80338,1,0,0:0:0:50:80s Digital Tom 01.wav
64,192,80338,1,0,0:0:0:0:
192,192,80428,1,0,0:0:0:0:
320,192,80517,1,0,0:0:0:0:
320,192,80606,1,0,0:0:0:0:
320,192,80696,1,0,0:0:0:50:D_B Tamb 01.wav
64,192,80696,1,0,0:0:0:0:
320,192,80874,1,0,0:0:0:85:Hand Bongo 02.wav
192,192,80874,1,0,0:0:0:0:
192,192,81053,1,0,0:0:0:0:
192,192,81142,1,0,0:0:0:0:
192,192,81231,1,0,0:0:0:0:
320,192,81410,1,0,0:0:0:0:
320,192,81529,1,0,0:0:0:0:
448,192,81588,1,0,0:0:0:0:
320,192,81648,1,0,0:0:0:0:
192,192,81767,1,0,0:0:0:0:
192,192,81886,1,0,0:0:0:0:
64,192,81946,1,0,0:0:0:0:
192,192,82005,1,0,0:0:0:0:
320,192,82124,1,0,0:0:0:50:D_B Tamb 01.wav
64,192,82124,1,0,0:0:0:0:
448,192,82184,1,0,0:0:0:0:
64,192,82243,1,0,0:0:0:0:
448,192,82303,1,0,0:0:0:0:
64,192,82362,1,0,0:0:0:0:
448,192,82422,1,0,0:0:0:0:
192,192,82481,128,0,82541:0:0:0:50:Cowbell.wav
320,192,82541,1,0,0:0:0:0:
192,192,82600,128,0,82660:0:0:0:0:
320,192,82660,1,0,0:0:0:0:
192,192,82719,1,0,0:0:0:0:
320,192,82779,1,0,0:0:0:0:
448,192,82838,1,0,0:0:0:0:
192,192,82838,1,0,0:0:0:0:
448,192,82958,1,0,0:0:0:0:
320,192,83017,1,0,0:0:0:0:
192,192,83017,1,0,0:0:0:0:
64,192,83077,1,0,0:0:0:0:
192,192,83196,1,0,0:0:0:50:Cowbell.wav
448,192,83196,1,0,0:0:0:70:Bass Kick.wav
448,192,83285,1,0,0:0:0:0:
64,192,83374,1,0,0:0:0:0:
64,192,83463,1,0,0:0:0:0:
64,192,83553,1,0,0:0:0:50:D_B Tamb 01.wav
320,192,83553,1,0,0:0:0:0:
320,192,83731,1,0,0:0:0:85:Hand Bongo 02.wav
192,192,83731,1,0,0:0:0:0:
64,192,83910,1,0,0:0:0:0:
192,192,83910,1,0,0:0:0:0:
64,192,83999,1,0,0:0:0:0:
64,192,84088,1,0,0:0:0:0:
448,192,84267,1,0,0:0:0:0:
448,192,84386,1,0,0:0:0:0:
320,192,84446,1,0,0:0:0:0:
448,192,84505,1,0,0:0:0:0:
64,192,84624,1,0,0:0:0:0:
64,192,84713,1,0,0:0:0:0:
64,192,84803,1,0,0:0:0:0:
320,192,84803,1,0,0:0:0:0:
192,192,84981,1,0,0:0:0:50:D_B Tamb 01.wav
448,192,84981,1,0,0:0:0:0:
448,192,85041,1,0,0:0:0:0:
192,192,85100,1,0,0:0:0:0:
448,192,85160,1,0,0:0:0:0:
192,192,85338,1,0,0:0:0:0:
320,192,85517,1,0,0:0:0:50:80s Digital Tom 01.wav
192,192,85517,1,0,0:0:0:0:
448,192,85696,5,0,0:0:0:50:80s Digital Tom 01.wav
64,192,85696,1,0,0:0:0:50:Kiai Clap.wav
448,192,85874,1,0,0:0:0:50:80s Digital Tom 01.wav
64,192,85874,1,0,0:0:0:50:Kiai Clap.wav
448,192,86053,1,0,0:0:0:50:80s Digital Tom 01.wav
320,192,86053,1,0,0:0:0:0:
448,192,86142,1,0,0:0:0:0:
64,192,86231,1,0,0:0:0:0:
64,192,86321,1,0,0:0:0:0:
64,192,86410,1,0,0:0:0:50:D_B Tamb 01.wav
320,192,86410,1,0,0:0:0:0:
320,192,86588,1,0,0:0:0:85:Hand Bongo 02.wav
192,192,86588,1,0,0:0:0:0:
448,192,86767,1,0,0:0:0:0:
320,192,86767,1,0,0:0:0:0:
448,192,86856,1,0,0:0:0:0:
448,192,86946,1,0,0:0:0:0:
64,192,87124,1,0,0:0:0:0:
64,192,87243,1,0,0:0:0:0:
192,192,87303,1,0,0:0:0:0:
64,192,87362,1,0,0:0:0:0:
448,192,87481,1,0,0:0:0:0:
448,192,87571,1,0,0:0:0:0:
448,192,87660,1,0,0:0:0:0:
192,192,87660,1,0,0:0:0:0:
320,192,87838,1,0,0:0:0:50:D_B Tamb 01.wav
64,192,87838,1,0,0:0:0:0:
64,192,87898,1,0,0:0:0:0:
320,192,87958,1,0,0:0:0:0:
64,192,88017,1,0,0:0:0:0:
192,192,88196,1,0,0:0:0:50:Cowbell.wav
448,192,88240,1,0,0:0:0:0:
320,192,88285,1,0,0:0:0:0:
448,192,88330,1,0,0:0:0:0:
192,192,88374,1,0,0:0:0:0:
192,192,88553,1,0,0:0:0:0:
64,192,88553,1,0,0:0:0:0:
320,192,88612,1,0,0:0:0:0:
64,192,88672,1,0,0:0:0:0:
192,192,88731,1,0,0:0:0:0:
448,192,88731,1,0,0:0:0:0:
320,192,88791,1,0,0:0:0:0:
64,192,88850,1,0,0:0:0:0:
320,192,88910,1,0,0:0:0:50:Cowbell.wav
448,192,88910,1,0,0:0:0:0:
448,192,88999,1,0,0:0:0:0:
64,192,89088,1,0,0:0:0:0:
64,192,89178,1,0,0:0:0:0:
64,192,89267,1,0,0:0:0:50:D_B Tamb 01.wav
320,192,89267,1,0,0:0:0:0:
320,192,89446,1,0,0:0:0:85:Hand Bongo 02.wav
192,192,89446,1,0,0:0:0:0:
64,192,89624,1,0,0:0:0:0:
192,192,89624,1,0,0:0:0:0:
64,192,89713,1,0,0:0:0:0:
64,192,89803,1,0,0:0:0:0:
448,192,89981,1,0,0:0:0:0:
448,192,90100,1,0,0:0:0:0:
320,192,90160,1,0,0:0:0:0:
448,192,90219,5,0,0:0:0:0:
64,192,90338,1,0,0:0:0:0:
64,192,90428,1,0,0:0:0:0:
64,192,90517,1,0,0:0:0:0:
320,192,90517,1,0,0:0:0:0:
192,192,90696,1,0,0:0:0:50:D_B Tamb 01.wav
448,192,90696,1,0,0:0:0:0:
448,192,90755,1,0,0:0:0:0:
192,192,90815,1,0,0:0:0:0:
448,192,90874,1,0,0:0:0:0:
192,192,91053,1,0,0:0:0:0:
320,192,91231,1,0,0:0:0:50:80s Digital Tom 01.wav
192,192,91231,1,0,0:0:0:0:
448,192,91410,5,0,0:0:0:50:80s Digital Tom 01.wav
64,192,91410,1,0,0:0:0:50:Kiai Clap.wav
448,192,91588,1,0,0:0:0:50:80s Digital Tom 01.wav
64,192,91588,1,0,0:0:0:50:Kiai Clap.wav
320,192,91767,1,0,0:0:0:50:80s Digital Tom 01.wav
448,192,91767,1,0,0:0:0:0:
448,192,91856,1,0,0:0:0:0:
64,192,91946,1,0,0:0:0:0:
64,192,92035,1,0,0:0:0:0:
64,192,92124,1,0,0:0:0:50:D_B Tamb 01.wav
320,192,92124,1,0,0:0:0:0:
320,192,92303,1,0,0:0:0:85:Hand Bongo 02.wav
192,192,92303,1,0,0:0:0:0:
64,192,92481,1,0,0:0:0:0:
192,192,92481,1,0,0:0:0:0:
64,192,92571,1,0,0:0:0:0:
64,192,92660,1,0,0:0:0:0:
192,192,92705,1,0,0:0:0:0:
448,192,92749,1,0,0:0:0:0:
320,192,92794,1,0,0:0:0:0:
192,192,92838,128,0,92898:0:0:0:85:Hand Bongo 02.wav
448,192,92838,128,0,92898:0:0:0:0:
448,192,93196,128,0,93374:0:0:0:0:
64,192,93374,128,0,93553:0:0:0:0:
320,192,93553,128,0,93791:0:0:0:0:
192,192,93791,1,0,0:0:0:0:
64,192,93850,1,0,0:0:0:0:
448,192,93910,128,0,94267:0:0:0:0:
320,192,94267,128,0,94713:0:0:0:70:Bass Kick.wav
64,192,94267,128,0,94446:0:0:0:0:
192,192,94267,128,0,94446:0:0:0:0:
192,192,94535,128,0,94713:0:0:0:70:Bass Kick.wav
64,192,94535,128,0,94892:0:0:0:0:
320,192,94803,128,0,94981:0:0:0:70:Bass Kick.wav
192,192,94803,128,0,94981:0:0:0:0:
448,192,94981,1,0,0:0:0:70:Heavy Snare.wav
64,192,94981,1,0,0:0:0:0:
448,192,95160,1,0,0:0:0:0:
448,192,95249,1,0,0:0:0:0:
64,192,95338,128,0,95517:0:0:0:70:Bass Kick.wav
320,192,95338,128,0,95963:0:0:0:0:
192,192,95338,128,0,95517:0:0:0:0:
64,192,95606,128,0,95785:0:0:0:70:Bass Kick.wav
192,192,95606,128,0,95785:0:0:0:0:
64,192,95874,128,0,96321:0:0:0:70:Bass Kick.wav
192,192,95874,128,0,95963:0:0:0:0:
192,192,96053,128,0,96142:0:0:0:70:Bass Kick.wav
320,192,96053,128,0,96142:0:0:0:0:
320,192,96231,128,0,96410:0:0:0:70:Bass Kick.wav
192,192,96231,128,0,96410:0:0:0:0:
64,192,96410,1,0,0:0:0:70:Heavy Snare.wav
448,192,96410,1,0,0:0:0:0:
320,192,96588,128,0,96767:0:0:0:0:
448,192,96678,128,0,96767:0:0:0:0:
64,192,96767,128,0,96886:0:0:0:0:
192,192,96827,128,0,96946:0:0:0:0:
320,192,96886,128,0,97005:0:0:0:0:
448,192,96946,128,0,97065:0:0:0:0:
64,192,97005,128,0,97124:0:0:0:0:
448,192,97124,128,0,97303:0:0:0:70:Bass Kick.wav
192,192,97124,128,0,97571:0:0:0:0:
320,192,97124,128,0,97303:0:0:0:0:
448,192,97392,128,0,97749:0:0:0:70:Bass Kick.wav
320,192,97392,128,0,97571:0:0:0:0:
192,192,97660,128,0,97838:0:0:0:70:Bass Kick.wav
320,192,97660,128,0,97838:0:0:0:0:
448,192,97838,1,0,0:0:0:70:Heavy Snare.wav
64,192,97838,1,0,0:0:0:0:
64,192,97928,1,0,0:0:0:0:
64,192,98017,1,0,0:0:0:0:
64,192,98106,1,0,0:0:0:0:
192,192,98196,128,0,98821:0:0:0:70:Bass Kick.wav
448,192,98196,128,0,98374:0:0:0:0:
320,192,98196,128,0,98374:0:0:0:0:
320,192,98463,128,0,98642:0:0:0:70:Bass Kick.wav
448,192,98463,128,0,98642:0:0:0:0:
320,192,98731,128,0,98999:0:0:0:70:Bass Kick.wav
448,192,98731,128,0,98821:0:0:0:0:
192,192,98910,128,0,98999:0:0:0:70:Bass Kick.wav
448,192,98910,128,0,99178:0:0:0:0:
320,192,99088,128,0,99267:0:0:0:70:Bass Kick.wav
192,192,99088,128,0,99267:0:0:0:0:
448,192,99267,1,0,0:0:0:70:Heavy Snare.wav
64,192,99267,1,0,0:0:0:0:
64,192,99446,128,0,99892:0:0:0:0:
192,192,99505,128,0,99892:0:0:0:0:
320,192,99565,128,0,99892:0:0:0:0:
448,192,99624,128,0,99892:0:0:0:0:
192,192,99981,128,0,100160:0:0:0:70:Bass Kick.wav
64,192,99981,128,0,100160:0:0:0:0:
448,192,99981,128,0,100428:0:0:0:0:
64,192,100249,128,0,100606:0:0:0:70:Bass Kick.wav
192,192,100249,128,0,100428:0:0:0:0:
448,192,100517,128,0,100606:0:0:0:70:Bass Kick.wav
192,192,100517,128,0,100696:0:0:0:0:
448,192,100696,1,0,0:0:0:70:Heavy Snare.wav
64,192,100696,1,0,0:0:0:0:
320,192,100755,1,0,0:0:0:0:
192,192,100815,1,0,0:0:0:0:
320,192,100874,1,0,0:0:0:0:
192,192,100934,1,0,0:0:0:0:
320,192,100993,1,0,0:0:0:0:
192,192,101053,128,0,101231:0:0:0:70:Bass Kick.wav
448,192,101053,128,0,101499:0:0:0:0:
64,192,101053,128,0,101231:0:0:0:0:
192,192,101321,128,0,101678:0:0:0:70:Bass Kick.wav
64,192,101321,128,0,101499:0:0:0:0:
448,192,101588,128,0,101678:0:0:0:70:Bass Kick.wav
64,192,101588,128,0,102035:0:0:0:0:
192,192,101767,128,0,101856:0:0:0:70:Bass Kick.wav
448,192,101767,128,0,101856:0:0:0:0:
192,192,101946,128,0,102124:0:0:0:70:Bass Kick.wav
448,192,101946,128,0,102035:0:0:0:0:
448,192,102124,1,0,0:0:0:70:Heavy Snare.wav
64,192,102124,1,0,0:0:0:0:
320,192,102303,1,0,0:0:0:0:
192,192,102362,1,0,0:0:0:0:
64,192,102422,1,0,0:0:0:0:
448,192,102481,1,0,0:0:0:0:
192,192,102526,1,0,0:0:0:0:
320,192,102571,1,0,0:0:0:0:
448,192,102615,1,0,0:0:0:0:
192,192,102660,128,0,102749:0:0:0:0:
64,192,102719,128,0,103106:0:0:0:0:
320,192,102779,128,0,103017:0:0:0:0:
192,192,102838,128,0,103017:0:0:0:70:Bass Kick.wav
448,192,102838,128,0,103106:0:0:0:0:
192,192,103106,128,0,103196:0:0:0:70:Bass Kick.wav
320,192,103106,128,0,103196:0:0:0:0:
448,192,103196,1,0,0:0:0:70:Heavy Snare.wav
64,192,103196,1,0,0:0:0:0:
64,192,103374,128,0,103642:0:0:0:70:Bass Kick.wav
320,192,103374,128,0,103553:0:0:0:0:
448,192,103374,128,0,103642:0:0:0:0:
192,192,103642,128,0,103731:0:0:0:70:Bass Kick.wav
320,192,103642,128,0,103731:0:0:0:0:
64,192,103731,1,0,0:0:0:70:Heavy Snare.wav
448,192,103731,1,0,0:0:0:0:
192,192,103910,128,0,104088:0:0:0:70:Bass Kick.wav
320,192,103910,128,0,104088:0:0:0:0:
448,192,103910,128,0,104178:0:0:0:0:
320,192,104178,128,0,104267:0:0:0:70:Bass Kick.wav
192,192,104178,128,0,104267:0:0:0:0:
64,192,104267,1,0,0:0:0:70:Heavy Snare.wav
448,192,104267,1,0,0:0:0:0:
320,192,104446,128,0,104624:0:0:0:70:Bass Kick.wav
192,192,104446,128,0,104624:0:0:0:0:
64,192,104446,128,0,104713:0:0:0:0:
320,192,104713,128,0,104803:0:0:0:70:Bass Kick.wav
192,192,104713,128,0,104803:0:0:0:0:
64,192,104803,1,0,0:0:0:70:Heavy Snare.wav
448,192,104803,1,0,0:0:0:0:
448,192,104981,128,0,105026:0:0:0:70:Bass Kick.wav
64,192,105026,128,0,105071:0:0:0:0:
320,192,105071,1,0,0:0:0:0:
192,192,105115,1,0,0:0:0:0:
64,192,105160,128,0,105696:0:0:0:70:Heavy Snare.wav
448,192,105160,128,0,105428:0:0:0:0:
448,192,105517,128,0,105606:0:0:0:0:
448,192,105696,128,0,105874:0:0:0:70:Bass Kick.wav
320,192,105696,128,0,105874:0:0:0:0:
192,192,105696,128,0,106142:0:0:0:0:
320,192,105963,128,0,106142:0:0:0:70:Bass Kick.wav
448,192,105963,128,0,106321:0:0:0:0:
320,192,106231,128,0,106410:0:0:0:70:Bass Kick.wav
192,192,106231,128,0,106410:0:0:0:0:
448,192,106410,1,0,0:0:0:70:Heavy Snare.wav
64,192,106410,1,0,0:0:0:0:
64,192,106529,1,0,0:0:0:0:
64,192,106648,1,0,0:0:0:0:
448,192,106767,128,0,106946:0:0:0:70:Bass Kick.wav
192,192,106767,128,0,107213:0:0:0:0:
320,192,106767,128,0,106946:0:0:0:0:
448,192,107035,128,0,107213:0:0:0:70:Bass Kick.wav
320,192,107035,128,0,107392:0:0:0:0:
192,192,107303,128,0,107392:0:0:0:70:Bass Kick.wav
448,192,107303,128,0,107749:0:0:0:0:
320,192,107481,128,0,107571:0:0:0:70:Bass Kick.wav
192,192,107481,128,0,107571:0:0:0:0:
320,192,107660,128,0,107838:0:0:0:70:Bass Kick.wav
192,192,107660,128,0,107838:0:0:0:0:
448,192,107838,1,0,0:0:0:70:Heavy Snare.wav
64,192,107838,1,0,0:0:0:0:
448,192,108017,128,0,108077:0:0:0:0:
192,192,108077,128,0,108136:0:0:0:0:
320,192,108136,128,0,108196:0:0:0:0:
64,192,108196,128,0,108240:0:0:0:0:
448,192,108240,128,0,108285:0:0:0:0:
192,192,108285,128,0,108330:0:0:0:0:
320,192,108330,128,0,108374:0:0:0:0:
448,192,108374,128,0,108419:0:0:0:0:
192,192,108419,128,0,108463:0:0:0:0:
64,192,108463,128,0,108508:0:0:0:0:
320,192,108508,128,0,108553:0:0:0:0:
192,192,108553,128,0,108731:0:0:0:70:Bass Kick.wav
448,192,108553,128,0,108999:0:0:0:0:
64,192,108553,128,0,108731:0:0:0:0:
192,192,108821,128,0,108999:0:0:0:70:Bass Kick.wav
64,192,108821,128,0,109178:0:0:0:0:
192,192,109088,128,0,109267:0:0:0:70:Bass Kick.wav
448,192,109088,128,0,109178:0:0:0:0:
448,192,109267,1,0,0:0:0:70:Heavy Snare.wav
64,192,109267,1,0,0:0:0:0:
192,192,109327,1,0,0:0:0:0:
320,192,109386,1,0,0:0:0:0:
320,192,109505,1,0,0:0:0:0:
64,192,109624,128,0,109803:0:0:0:70:Bass Kick.wav
448,192,109624,128,0,110071:0:0:0:0:
192,192,109624,128,0,109803:0:0:0:0:
192,192,109892,128,0,110249:0:0:0:70:Bass Kick.wav
64,192,109892,128,0,110071:0:0:0:0:
448,192,110160,128,0,110249:0:0:0:70:Bass Kick.wav
64,192,110160,128,0,110606:0:0:0:0:
448,192,110338,128,0,110428:0:0:0:70:Bass Kick.wav
192,192,110338,128,0,110428:0:0:0:0:
192,192,110517,128,0,110696:0:0:0:70:Bass Kick.wav
448,192,110517,128,0,110606:0:0:0:0:
448,192,110696,1,0,0:0:0:70:Heavy Snare.wav
64,192,110696,1,0,0:0:0:0:
320,192,110874,1,0,0:0:0:0:
448,192,110934,1,0,0:0:0:0:
192,192,110993,1,0,0:0:0:0:
320,192,111053,1,0,0:0:0:0:
64,192,111097,1,0,0:0:0:0:
448,192,111142,1,0,0:0:0:0:
192,192,111187,1,0,0:0:0:0:
64,192,111231,1,0,0:0:0:0:
320,192,111276,1,0,0:0:0:0:
448,192,111321,1,0,0:0:0:0:
192,192,111365,1,0,0:0:0:0:
448,192,111410,128,0,111588:0:0:0:70:Bass Kick.wav
64,192,111410,128,0,111856:0:0:0:0:
320,192,111410,128,0,111588:0:0:0:0:
320,192,111678,128,0,111856:0:0:0:70:Bass Kick.wav
448,192,111678,128,0,112035:0:0:0:0:
320,192,111946,128,0,112124:0:0:0:70:Bass Kick.wav
64,192,111946,128,0,112035:0:0:0:0:
64,192,112124,1,0,0:0:0:70:Heavy Snare.wav
448,192,112124,1,0,0:0:0:0:
192,192,112184,1,0,0:0:0:0:
320,192,112243,1,0,0:0:0:0:
192,192,112303,1,0,0:0:0:0:
320,192,112362,1,0,0:0:0:0:
192,192,112422,1,0,0:0:0:0:
320,192,112481,128,0,112660:0:0:0:70:Bass Kick.wav
448,192,112481,128,0,112660:0:0:0:0:
64,192,112481,128,0,112928:0:0:0:0:
448,192,112749,128,0,112928:0:0:0:70:Bass Kick.wav
320,192,112749,128,0,113106:0:0:0:0:
64,192,113017,128,0,113106:0:0:0:70:Bass Kick.wav
448,192,113017,128,0,113463:0:0:0:0:
320,192,113196,128,0,113285:0:0:0:70:Bass Kick.wav
64,192,113196,128,0,113285:0:0:0:0:
320,192,113374,128,0,113553:0:0:0:70:Bass Kick.wav
64,192,113374,128,0,113463:0:0:0:0:
64,192,113553,1,0,0:0:0:70:Heavy Snare.wav
448,192,113553,1,0,0:0:0:0:
320,192,113731,1,0,0:0:0:0:
192,192,113821,1,0,0:0:0:0:
448,192,113910,1,0,0:0:0:0:
64,192,113955,1,0,0:0:0:0:
448,192,113999,1,0,0:0:0:0:
64,192,114044,1,0,0:0:0:0:
320,192,114088,1,0,0:0:0:0:
192,192,114133,1,0,0:0:0:0:
448,192,114178,1,0,0:0:0:0:
64,192,114222,1,0,0:0:0:0:
192,192,114267,128,0,115696:0:0:0:70:Bass Kick.wav
320,192,114267,128,0,115696:0:0:0:0:
64,192,114624,1,0,0:0:0:0:
448,192,114743,1,0,0:0:0:0:
64,192,114862,1,0,0:0:0:0:
448,192,114981,1,0,0:0:0:0:
64,192,115100,1,0,0:0:0:0:
448,192,115219,1,0,0:0:0:0:
64,192,115338,1,0,0:0:0:0:
448,192,115458,1,0,0:0:0:0:
64,192,115577,1,0,0:0:0:0:
448,192,115696,1,0,0:0:0:0:
64,192,115755,1,0,0:0:0:0:
320,192,115815,1,0,0:0:0:0:
192,192,115874,1,0,0:0:0:0:
448,192,115934,1,0,0:0:0:0:
64,192,115993,1,0,0:0:0:0:
320,192,116053,1,0,0:0:0:0:
192,192,116112,1,0,0:0:0:0:
448,192,116172,1,0,0:0:0:0:
64,192,116231,1,0,0:0:0:0:
320,192,116291,1,0,0:0:0:0:
192,192,116350,1,0,0:0:0:0:
448,192,116410,1,0,0:0:0:70:Heavy Snare.wav
64,192,116410,1,0,0:0:0:0:
320,192,116588,128,0,116767:0:0:0:0:
448,192,116767,128,0,116946:0:0:0:0:
64,192,116946,128,0,117124:0:0:0:0:
448,192,117124,128,0,117571:0:0:0:70:Bass Kick.wav
192,192,117124,128,0,117273:0:0:0:0:
320,192,117124,128,0,117273:0:0:0:0:
320,192,117362,128,0,117838:0:0:0:70:Bass Kick.wav
192,192,117362,128,0,117571:0:0:0:0:
64,192,117362,128,0,117571:0:0:0:0:
192,192,117660,128,0,117838:0:0:0:70:Bass Kick.wav
448,192,117660,128,0,117749:0:0:0:0:
64,192,117660,128,0,117749:0:0:0:0:
64,192,117838,1,0,0:0:0:70:Heavy Snare.wav
448,192,117838,1,0,0:0:0:0:
64,192,118017,1,0,0:0:0:0:
320,192,118017,128,0,118106:0:0:0:0:
64,192,118106,1,0,0:0:0:0:
448,192,118196,128,0,118344:0:0:0:70:Bass Kick.wav
192,192,118196,128,0,118642:0:0:0:0:
320,192,118196,128,0,118344:0:0:0:0:
320,192,118434,128,0,118821:0:0:0:70:Bass Kick.wav
448,192,118434,128,0,118642:0:0:0:0:
64,192,118434,128,0,118642:0:0:0:0:
448,192,118731,128,0,118999:0:0:0:70:Bass Kick.wav
192,192,118731,128,0,118821:0:0:0:0:
64,192,118731,128,0,118821:0:0:0:0:
192,192,118910,128,0,119267:0:0:0:70:Bass Kick.wav
320,192,118910,128,0,118999:0:0:0:0:
64,192,118910,128,0,118999:0:0:0:0:
320,192,119088,128,0,119267:0:0:0:70:Bass Kick.wav
448,192,119088,128,0,119178:0:0:0:0:
64,192,119088,128,0,119178:0:0:0:0:
64,192,119267,1,0,0:0:0:70:Heavy Snare.wav
448,192,119267,128,0,119446:0:0:0:0:
192,192,119446,128,0,119624:0:0:0:0:
64,192,119535,128,0,119624:0:0:0:0:
320,192,119624,128,0,119803:0:0:0:0:
192,192,119713,128,0,119803:0:0:0:0:
448,192,119803,128,0,119981:0:0:0:0:
64,192,119981,128,0,120428:0:0:0:70:Bass Kick.wav
320,192,119981,128,0,120130:0:0:0:0:
192,192,119981,128,0,120130:0:0:0:0:
192,192,120219,128,0,120696:0:0:0:70:Bass Kick.wav
320,192,120219,128,0,120428:0:0:0:0:
448,192,120219,128,0,120428:0:0:0:0:
320,192,120517,128,0,120696:0:0:0:70:Bass Kick.wav
64,192,120517,128,0,120606:0:0:0:0:
448,192,120517,128,0,120606:0:0:0:0:
64,192,120696,1,0,0:0:0:70:Heavy Snare.wav
448,192,120696,1,0,0:0:0:0:
448,192,120785,1,0,0:0:0:0:
448,192,120874,1,0,0:0:0:0:
448,192,120963,1,0,0:0:0:0:
320,192,121053,128,0,121499:0:0:0:70:Bass Kick.wav
64,192,121053,128,0,121202:0:0:0:0:
192,192,121053,128,0,121202:0:0:0:0:
192,192,121291,128,0,121678:0:0:0:70:Bass Kick.wav
64,192,121291,128,0,121499:0:0:0:0:
448,192,121291,128,0,121678:0:0:0:0:
64,192,121588,128,0,121856:0:0:0:70:Bass Kick.wav
320,192,121588,128,0,121678:0:0:0:0:
320,192,121767,128,0,122124:0:0:0:70:Bass Kick.wav
192,192,121767,128,0,121856:0:0:0:0:
448,192,121767,128,0,122035:0:0:0:0:
192,192,121946,128,0,122124:0:0:0:70:Bass Kick.wav
64,192,121946,128,0,122035:0:0:0:0:
64,192,122124,1,0,0:0:0:70:Heavy Snare.wav
448,192,122124,1,0,0:0:0:0:
448,192,122303,128,0,122749:0:0:0:0:
320,192,122362,128,0,122749:0:0:0:0:
192,192,122422,128,0,122571:0:0:0:0:
64,192,122481,128,0,122749:0:0:0:0:
192,192,122660,128,0,122749:0:0:0:0:
320,192,122838,128,0,122987:0:0:0:70:Bass Kick.wav
448,192,122838,128,0,122987:0:0:0:0:
64,192,122838,128,0,123285:0:0:0:0:
448,192,123077,128,0,123463:0:0:0:70:Bass Kick.wav
320,192,123077,128,0,123285:0:0:0:0:
192,192,123077,128,0,123285:0:0:0:0:
64,192,123374,128,0,123463:0:0:0:70:Bass Kick.wav
320,192,123374,128,0,123553:0:0:0:0:
192,192,123374,128,0,123463:0:0:0:0:
64,192,123553,1,0,0:0:0:70:Heavy Snare.wav
448,192,123553,1,0,0:0:0:0:
192,192,123612,1,0,0:0:0:0:
320,192,123672,1,0,0:0:0:0:
192,192,123731,1,0,0:0:0:0:
320,192,123791,1,0,0:0:0:0:
192,192,123850,1,0,0:0:0:0:
320,192,123910,128,0,124059:0:0:0:70:Bass Kick.wav
64,192,123910,128,0,124059:0:0:0:0:
448,192,123910,128,0,124356:0:0:0:0:
192,192,123999,128,0,124059:0:0:0:0:
320,192,124148,128,0,124535:0:0:0:70:Bass Kick.wav
192,192,124148,128,0,124981:0:0:0:0:
64,192,124148,128,0,124356:0:0:0:0:
64,192,124446,128,0,124713:0:0:0:70:Bass Kick.wav
448,192,124446,128,0,124535:0:0:0:0:
448,192,124624,128,0,124892:0:0:0:70:Bass Kick.wav
320,192,124624,128,0,124713:0:0:0:0:
320,192,124803,128,0,124981:0:0:0:70:Bass Kick.wav
64,192,124803,128,0,124892:0:0:0:0:
64,192,124981,1,0,0:0:0:70:Heavy Snare.wav
448,192,124981,1,0,0:0:0:0:
192,192,125160,1,0,0:0:0:0:
320,192,125219,1,0,0:0:0:0:
448,192,125279,1,0,0:0:0:0:
64,192,125338,1,0,0:0:0:0:
320,192,125383,1,0,0:0:0:0:
192,192,125428,1,0,0:0:0:0:
64,192,125472,1,0,0:0:0:0:
320,192,125517,128,0,125606:0:0:0:0:
448,192,125577,128,0,125934:0:0:0:0:
192,192,125636,128,0,125844:0:0:0:0:
320,192,125696,128,0,125844:0:0:0:70:Bass Kick.wav
64,192,125696,128,0,125755:0:0:0:0:
64,192,125844,128,0,125934:0:0:0:0:
320,192,125934,128,0,126053:0:0:0:70:Bass Kick.wav
192,192,125934,128,0,126053:0:0:0:0:
64,192,126053,128,0,126142:0:0:0:70:Heavy Snare.wav
448,192,126053,128,0,126142:0:0:0:0:
448,192,126231,128,0,126469:0:0:0:70:Bass Kick.wav
192,192,126231,128,0,126380:0:0:0:0:
64,192,126231,128,0,126469:0:0:0:0:
320,192,126469,128,0,126588:0:0:0:70:Bass Kick.wav
192,192,126469,128,0,126588:0:0:0:0:
448,192,126588,128,0,126678:0:0:0:70:Heavy Snare.wav
64,192,126588,128,0,126678:0:0:0:0:
320,192,126767,128,0,126916:0:0:0:70:Bass Kick.wav
192,192,126767,128,0,126916:0:0:0:0:
64,192,126767,128,0,127005:0:0:0:0:
448,192,126916,128,0,127005:0:0:0:0:
320,192,127005,128,0,127124:0:0:0:70:Bass Kick.wav
192,192,127005,128,0,127124:0:0:0:0:
64,192,127124,128,0,127213:0:0:0:70:Heavy Snare.wav
448,192,127124,128,0,127213:0:0:0:0:
192,192,127303,128,0,127452:0:0:0:70:Bass Kick.wav
320,192,127303,128,0,127452:0:0:0:0:
448,192,127303,128,0,127541:0:0:0:0:
64,192,127452,128,0,127541:0:0:0:0:
320,192,127541,128,0,127660:0:0:0:70:Bass Kick.wav
192,192,127541,128,0,127660:0:0:0:0:
448,192,127660,1,0,0:0:0:70:Heavy Snare.wav
64,192,127660,1,0,0:0:0:0:
64,192,127838,128,0,127883:0:0:0:70:Bass Kick.wav
448,192,127883,128,0,127928:0:0:0:0:
192,192,127928,1,0,0:0:0:0:
320,192,127972,1,0,0:0:0:0:
448,192,128017,128,0,128553:0:0:0:70:Heavy Snare.wav
64,192,128017,128,0,128285:0:0:0:0:
192,192,128196,128,0,128374:0:0:0:0:
64,192,128374,128,0,128463:0:0:0:0:
320,192,128374,128,0,128463:0:0:0:0:
64,192,128553,128,0,128999:0:0:0:70:Bass Kick.wav
192,192,128553,128,0,128702:0:0:0:0:
320,192,128553,128,0,128702:0:0:0:0:
320,192,128791,128,0,129267:0:0:0:70:Bass Kick.wav
192,192,128791,128,0,128999:0:0:0:0:
192,192,129088,128,0,129267:0:0:0:70:Bass Kick.wav
64,192,129088,128,0,129178:0:0:0:0:
64,192,129267,1,0,0:0:0:70:Heavy Snare.wav
448,192,129267,1,0,0:0:0:0:
448,192,129386,1,0,0:0:0:0:
448,192,129505,128,0,129624:0:0:0:0:
192,192,129624,128,0,130071:0:0:0:70:Bass Kick.wav
64,192,129624,128,0,129773:0:0:0:0:
320,192,129624,128,0,129773:0:0:0:0:
320,192,129862,128,0,130249:0:0:0:70:Bass Kick.wav
448,192,129862,128,0,130606:0:0:0:0:
64,192,129862,128,0,130071:0:0:0:0:
64,192,130160,128,0,130428:0:0:0:70:Bass Kick.wav
192,192,130160,128,0,130249:0:0:0:0:
192,192,130338,128,0,130696:0:0:0:70:Bass Kick.wav
320,192,130338,128,0,130428:0:0:0:0:
320,192,130517,128,0,130696:0:0:0:70:Bass Kick.wav
64,192,130517,128,0,130606:0:0:0:0:
64,192,130696,1,0,0:0:0:70:Heavy Snare.wav
448,192,130696,1,0,0:0:0:0:
64,192,130874,128,0,130934:0:0:0:0:
320,192,130934,128,0,130993:0:0:0:0:
192,192,130993,128,0,131053:0:0:0:0:
448,192,131053,128,0,131097:0:0:0:0:
64,192,131097,128,0,131142:0:0:0:0:
320,192,131142,128,0,131187:0:0:0:0:
192,192,131187,128,0,131231:0:0:0:0:
64,192,131231,128,0,131276:0:0:0:0:
320,192,131276,128,0,131321:0:0:0:0:
448,192,131321,128,0,131365:0:0:0:0:
192,192,131365,128,0,131410:0:0:0:0:
320,192,131410,128,0,131856:0:0:0:70:Bass Kick.wav
64,192,131410,128,0,131559:0:0:0:0:
448,192,131410,128,0,131559:0:0:0:0:
448,192,131648,128,0,131856:0:0:0:70:Bass Kick.wav
192,192,131648,128,0,131856:0:0:0:0:
64,192,131648,128,0,132035:0:0:0:0:
320,192,131946,128,0,132124:0:0:0:70:Bass Kick.wav
448,192,131946,128,0,132035:0:0:0:0:
192,192,131946,128,0,132035:0:0:0:0:
64,192,132124,1,0,0:0:0:70:Heavy Snare.wav
448,192,132124,1,0,0:0:0:0:
320,192,132184,1,0,0:0:0:0:
192,192,132243,1,0,0:0:0:0:
192,192,132362,128,0,132481:0:0:0:0:
448,192,132481,128,0,132928:0:0:0:70:Bass Kick.wav
64,192,132481,128,0,132630:0:0:0:0:
320,192,132481,128,0,132630:0:0:0:0:
320,192,132719,128,0,133106:0:0:0:70:Bass Kick.wav
192,192,132719,128,0,133553:0:0:0:0:
64,192,132719,128,0,132928:0:0:0:0:
64,192,133017,128,0,133285:0:0:0:70:Bass Kick.wav
448,192,133017,128,0,133106:0:0:0:0:
448,192,133196,128,0,133463:0:0:0:70:Bass Kick.wav
320,192,133196,128,0,133285:0:0:0:0:
320,192,133374,128,0,133553:0:0:0:70:Bass Kick.wav
64,192,133374,128,0,133463:0:0:0:0:
64,192,133553,1,0,0:0:0:70:Heavy Snare.wav
448,192,133553,1,0,0:0:0:0:
192,192,133731,1,0,0:0:0:0:
64,192,133791,1,0,0:0:0:0:
320,192,133850,1,0,0:0:0:0:
192,192,133910,1,0,0:0:0:0:
448,192,133955,1,0,0:0:0:0:
64,192,133999,1,0,0:0:0:0:
320,192,134044,1,0,0:0:0:0:
448,192,134088,1,0,0:0:0:0:
192,192,134133,1,0,0:0:0:0:
64,192,134178,1,0,0:0:0:0:
320,192,134222,1,0,0:0:0:0:
64,192,134267,128,0,134713:0:0:0:70:Bass Kick.wav
448,192,134267,128,0,134416:0:0:0:0:
192,192,134267,128,0,134416:0:0:0:0:
320,192,134356,128,0,134416:0:0:0:0:
448,192,134505,128,0,134892:0:0:0:70:Bass Kick.wav
320,192,134505,128,0,134892:0:0:0:0:
192,192,134505,128,0,134713:0:0:0:0:
192,192,134803,128,0,134981:0:0:0:70:Bass Kick.wav
64,192,134803,128,0,134892:0:0:0:0:
448,192,134981,1,0,0:0:0:70:Heavy Snare.wav
64,192,134981,1,0,0:0:0:0:
320,192,135041,1,0,0:0:0:0:
192,192,135100,1,0,0:0:0:0:
320,192,135160,1,0,0:0:0:0:
192,192,135219,1,0,0:0:0:0:
320,192,135279,1,0,0:0:0:0:
192,192,135338,128,0,135785:0:0:0:70:Bass Kick.wav
64,192,135338,128,0,135487:0:0:0:0:
448,192,135338,128,0,135487:0:0:0:0:
320,192,135577,128,0,135963:0:0:0:70:Bass Kick.wav
448,192,135577,128,0,135963:0:0:0:0:
64,192,135577,128,0,135785:0:0:0:0:
192,192,135874,128,0,135963:0:0:0:70:Bass Kick.wav
64,192,135874,128,0,136142:0:0:0:0:
192,192,136053,128,0,136410:0:0:0:70:Bass Kick.wav
320,192,136053,128,0,136410:0:0:0:0:
448,192,136053,128,0,136142:0:0:0:0:
64,192,136231,128,0,136321:0:0:0:70:Bass Kick.wav
448,192,136231,128,0,136321:0:0:0:0:
448,192,136410,1,0,0:0:0:70:Heavy Snare.wav
64,192,136410,128,0,136588:0:0:0:0:
320,192,136588,1,0,0:0:0:0:
192,192,136648,1,0,0:0:0:0:
448,192,136767,1,0,0:0:0:0:
64,192,136812,1,0,0:0:0:0:
448,192,136856,1,0,0:0:0:0:
64,192,136901,1,0,0:0:0:0:
320,192,136946,1,0,0:0:0:0:
192,192,136990,1,0,0:0:0:0:
448,192,137035,1,0,0:0:0:0:
64,192,137080,1,0,0:0:0:0:
320,192,137124,128,0,137838:0:0:0:70:Bass Kick.wav
192,192,137124,128,0,137838:0:0:0:0:
64,192,137838,1,0,0:0:0:50:Bass Kick.wav
448,192,137898,1,0,0:0:0:50:Bass Kick.wav
64,192,137958,1,0,0:0:0:50:Bass Kick.wav
192,192,138017,1,0,0:0:0:50:Bass Kick.wav
448,192,138077,1,0,0:0:0:50:Bass Kick.wav
320,192,138136,1,0,0:0:0:50:Bass Kick.wav
192,192,138196,1,0,0:0:0:50:Bass Kick.wav
448,192,138255,1,0,0:0:0:50:Bass Kick.wav
64,192,138315,1,0,0:0:0:50:Bass Kick.wav
192,192,138374,1,0,0:0:0:50:Bass Kick.wav
448,192,138434,1,0,0:0:0:50:Bass Kick.wav
64,192,138493,1,0,0:0:0:50:Bass Kick.wav
320,192,138553,1,0,0:0:0:50:Bass Kick.wav
192,192,138612,1,0,0:0:0:50:Bass Kick.wav
320,192,138672,1,0,0:0:0:50:Bass Kick.wav
64,192,138731,1,0,0:0:0:50:Bass Kick.wav
320,192,138791,5,0,0:0:0:50:Bass Kick.wav
192,192,138850,1,0,0:0:0:50:Bass Kick.wav
320,192,138910,1,0,0:0:0:50:Bass Kick.wav
64,192,138969,1,0,0:0:0:50:Bass Kick.wav
320,192,139029,1,0,0:0:0:50:Bass Kick.wav
448,192,139088,1,0,0:0:0:50:Bass Kick.wav
320,192,139148,1,0,0:0:0:50:Bass Kick.wav
192,192,139208,1,0,0:0:0:50:Bass Kick.wav
64,192,139267,1,0,0:0:0:70:Heavy Snare.wav
448,192,139267,1,0,0:0:0:0:
320,192,139386,1,0,0:0:0:0:
448,192,139803,128,0,139981:0:0:0:0:
192,192,139981,5,0,0:0:0:70:Bass Kick.wav
64,192,139981,1,0,0:0:0:0:
320,192,140160,1,0,0:0:0:0:
320,192,140338,1,0,0:0:0:70:Bass Kick.wav
448,192,140338,1,0,0:0:0:0:
320,192,140517,1,0,0:0:0:0:
320,192,140696,1,0,0:0:0:0:
64,192,140874,1,0,0:0:0:70:Bass Kick.wav
192,192,140874,1,0,0:0:0:0:
192,192,141053,1,0,0:0:0:0:
192,192,141231,1,0,0:0:0:0:
192,192,141410,1,0,0:0:0:0:
448,192,141588,1,0,0:0:0:0:
448,192,141767,1,0,0:0:0:0:
448,192,141946,1,0,0:0:0:0:
448,192,142124,1,0,0:0:0:0:
64,192,142303,1,0,0:0:0:0:
64,192,142481,1,0,0:0:0:0:
64,192,142660,1,0,0:0:0:0:
64,192,142838,1,0,0:0:0:0:
320,192,143017,1,0,0:0:0:0:
320,192,143196,1,0,0:0:0:0:
320,192,143374,1,0,0:0:0:0:
320,192,143553,1,0,0:0:0:0:
192,192,143731,1,0,0:0:0:0:
192,192,143910,1,0,0:0:0:0:
192,192,144088,1,0,0:0:0:0:
192,192,144267,1,0,0:0:0:0:
64,192,144446,1,0,0:0:0:0:
64,192,144624,1,0,0:0:0:0:
64,192,144803,1,0,0:0:0:0:
64,192,144981,1,0,0:0:0:0:
448,192,145160,1,0,0:0:0:0:
448,192,145338,1,0,0:0:0:0:
448,192,145428,1,0,0:0:0:0:
448,192,145517,1,0,0:0:0:0:
64,192,145606,1,0,0:0:0:0:
320,192,145696,1,0,0:0:0:70:Bass Kick.wav
448,192,145696,1,0,0:0:0:0:
192,192,145874,1,0,0:0:0:0:
64,192,146053,1,0,0:0:0:70:Bass Kick.wav
192,192,146053,1,0,0:0:0:0:
192,192,146231,1,0,0:0:0:0:
192,192,146410,1,0,0:0:0:0:
320,192,146588,1,0,0:0:0:70:Bass Kick.wav
448,192,146588,1,0,0:0:0:0:
320,192,146767,1,0,0:0:0:0:
320,192,146946,1,0,0:0:0:0:
320,192,147124,1,0,0:0:0:0:
448,192,147303,1,0,0:0:0:0:
448,192,147481,1,0,0:0:0:0:
448,192,147660,1,0,0:0:0:0:
448,192,147838,1,0,0:0:0:0:
64,192,148017,1,0,0:0:0:0:
64,192,148196,1,0,0:0:0:0:
64,192,148374,1,0,0:0:0:0:
64,192,148553,1,0,0:0:0:0:
320,192,148731,1,0,0:0:0:0:
320,192,148910,1,0,0:0:0:0:
320,192,149088,1,0,0:0:0:0:
320,192,149267,1,0,0:0:0:0:
192,192,149446,1,0,0:0:0:0:
192,192,149624,1,0,0:0:0:0:
192,192,149803,1,0,0:0:0:0:
192,192,149981,1,0,0:0:0:0:
64,192,150160,1,0,0:0:0:0:
64,192,150338,1,0,0:0:0:0:
64,192,150517,1,0,0:0:0:0:
448,192,150696,128,0,151053:0:0:0:0:
192,192,150874,128,0,151053:0:0:0:0:
320,192,150963,128,0,151053:0:0:0:0:
64,192,151053,1,0,0:0:0:0:
448,192,151142,1,0,0:0:0:0:
192,192,151187,1,0,0:0:0:0:
320,192,151231,1,0,0:0:0:0:
64,192,151276,1,0,0:0:0:0:
448,192,151321,1,0,0:0:0:0:
320,192,151365,1,0,0:0:0:0:
192,192,151410,1,0,0:0:0:70:Bass Kick.wav
64,192,151410,1,0,0:0:0:0:
320,192,151529,1,0,0:0:0:0:
448,192,151648,1,0,0:0:0:0:
64,192,151767,1,0,0:0:0:70:Bass Kick.wav
192,192,151767,1,0,0:0:0:0:
320,192,151886,1,0,0:0:0:0:
448,192,152005,1,0,0:0:0:0:
64,192,152124,1,0,0:0:0:70:Clap.wav
448,192,152124,1,0,0:0:0:0:
192,192,152243,1,0,0:0:0:0:
448,192,152303,1,0,0:0:0:70:Bass Kick.wav
320,192,152303,1,0,0:0:0:0:
64,192,152362,1,0,0:0:0:0:
448,192,152481,1,0,0:0:0:0:
192,192,152600,1,0,0:0:0:0:
320,192,152660,1,0,0:0:0:70:Bass Kick.wav
448,192,152660,1,0,0:0:0:0:
64,192,152719,1,0,0:0:0:0:
192,192,152838,1,0,0:0:0:0:
320,192,152958,1,0,0:0:0:0:
448,192,153017,1,0,0:0:0:70:Clap.wav
64,192,153017,1,0,0:0:0:0:
192,192,153077,1,0,0:0:0:0:
64,192,153196,1,0,0:0:0:0:
320,192,153315,1,0,0:0:0:0:
192,192,153374,1,0,0:0:0:70:Bass Kick.wav
64,192,153374,1,0,0:0:0:0:
448,192,153434,1,0,0:0:0:0:
192,192,153553,1,0,0:0:0:0:
64,192,153672,1,0,0:0:0:0:
448,192,153791,1,0,0:0:0:0:
448,192,153910,1,0,0:0:0:70:Clap.wav
64,192,153910,1,0,0:0:0:0:
320,192,154029,1,0,0:0:0:0:
448,192,154148,1,0,0:0:0:0:
64,192,154267,1,0,0:0:0:70:Bass Kick.wav
192,192,154267,1,0,0:0:0:0:
320,192,154386,1,0,0:0:0:0:
448,192,154505,1,0,0:0:0:0:
64,192,154624,1,0,0:0:0:70:Bass Kick.wav
192,192,154624,1,0,0:0:0:0:
320,192,154743,1,0,0:0:0:0:
448,192,154862,1,0,0:0:0:0:
448,192,154981,1,0,0:0:0:70:Clap.wav
64,192,154981,1,0,0:0:0:0:
192,192,155100,1,0,0:0:0:0:
448,192,155160,1,0,0:0:0:70:Bass Kick.wav
320,192,155160,1,0,0:0:0:0:
64,192,155219,1,0,0:0:0:0:
448,192,155338,1,0,0:0:0:0:
192,192,155458,1,0,0:0:0:0:
448,192,155517,1,0,0:0:0:70:Bass Kick.wav
320,192,155517,1,0,0:0:0:0:
64,192,155577,1,0,0:0:0:0:
192,192,155696,1,0,0:0:0:0:
320,192,155815,1,0,0:0:0:0:
448,192,155874,1,0,0:0:0:70:Clap.wav
64,192,155874,1,0,0:0:0:0:
192,192,155934,1,0,0:0:0:0:
64,192,156053,1,0,0:0:0:0:
320,192,156172,1,0,0:0:0:0:
192,192,156231,1,0,0:0:0:70:Bass Kick.wav
64,192,156231,1,0,0:0:0:0:
448,192,156291,1,0,0:0:0:0:
192,192,156410,1,0,0:0:0:0:
64,192,156469,1,0,0:0:0:0:
448,192,156529,1,0,0:0:0:0:
192,192,156588,1,0,0:0:0:0:
320,192,156648,1,0,0:0:0:0:
192,192,156708,1,0,0:0:0:0:
448,192,156767,1,0,0:0:0:70:Clap.wav
64,192,156767,1,0,0:0:0:0:
320,192,156827,1,0,0:0:0:0:
192,192,156886,1,0,0:0:0:0:
320,192,156946,1,0,0:0:0:0:
64,192,157005,1,0,0:0:0:0:
448,192,157065,1,0,0:0:0:0:
192,192,157124,1,0,0:0:0:70:Bass Kick.wav
64,192,157124,1,0,0:0:0:0:
320,192,157243,1,0,0:0:0:0:
448,192,157362,1,0,0:0:0:0:
64,192,157481,1,0,0:0:0:70:Bass Kick.wav
192,192,157481,1,0,0:0:0:0:
320,192,157600,1,0,0:0:0:0:
448,192,157719,1,0,0:0:0:0:
448,192,157838,1,0,0:0:0:70:Clap.wav
64,192,157838,1,0,0:0:0:0:
192,192,157958,1,0,0:0:0:0:
320,192,158017,1,0,0:0:0:70:Bass Kick.wav
448,192,158017,1,0,0:0:0:0:
64,192,158077,1,0,0:0:0:0:
448,192,158196,1,0,0:0:0:0:
64,192,158315,1,0,0:0:0:0:
320,192,158374,1,0,0:0:0:70:Bass Kick.wav
448,192,158374,1,0,0:0:0:0:
192,192,158434,1,0,0:0:0:0:
64,192,158553,1,0,0:0:0:0:
448,192,158612,1,0,0:0:0:0:
192,192,158672,1,0,0:0:0:0:
448,192,158731,1,0,0:0:0:70:Clap.wav
64,192,158731,1,0,0:0:0:0:
320,192,158791,1,0,0:0:0:0:
64,192,158850,1,0,0:0:0:0:
192,192,158910,1,0,0:0:0:0:
320,192,159029,1,0,0:0:0:0:
192,192,159088,1,0,0:0:0:70:Bass Kick.wav
64,192,159088,1,0,0:0:0:0:
448,192,159148,1,0,0:0:0:0:
192,192,159267,1,0,0:0:0:0:
64,192,159386,1,0,0:0:0:0:
320,192,159505,1,0,0:0:0:0:
448,192,159624,1,0,0:0:0:70:Clap.wav
64,192,159624,1,0,0:0:0:0:
192,192,159743,1,0,0:0:0:0:
448,192,159862,1,0,0:0:0:0:
192,192,159981,1,0,0:0:0:70:Bass Kick.wav
64,192,159981,1,0,0:0:0:0:
320,192,160041,1,0,0:0:0:0:
448,192,160100,1,0,0:0:0:0:
64,192,160160,1,0,0:0:0:0:
320,192,160219,1,0,0:0:0:0:
64,192,160338,1,0,0:0:0:0:
192,192,160458,1,0,0:0:0:0:
448,192,160577,1,0,0:0:0:0:
64,192,160696,1,0,0:0:0:0:
192,192,160775,1,0,0:0:0:0:
448,192,160854,1,0,0:0:0:0:
64,192,160934,1,0,0:0:0:0:
192,192,161013,1,0,0:0:0:0:
448,192,161092,1,0,0:0:0:0:
64,192,161172,1,0,0:0:0:0:
192,192,161251,1,0,0:0:0:0:
448,192,161331,1,0,0:0:0:0:
64,192,161410,1,0,0:0:0:0:
192,192,161469,1,0,0:0:0:0:
448,192,161529,1,0,0:0:0:0:
64,192,161588,1,0,0:0:0:0:
320,192,161648,1,0,0:0:0:0:
448,192,161708,1,0,0:0:0:0:
64,192,161767,1,0,0:0:0:0:
320,192,161827,1,0,0:0:0:0:
448,192,161886,1,0,0:0:0:0:
64,192,161946,1,0,0:0:0:0:
320,192,162005,1,0,0:0:0:0:
448,192,162065,1,0,0:0:0:0:
64,192,162124,1,0,0:0:0:70:Bass Kick.wav
