osu file format v14

[General]
AudioFilename: audio.mp3
AudioLeadIn: 0
PreviewTime: 182001
Countdown: 0
SampleSet: None
StackLeniency: 0.6
Mode: 0
LetterboxInBreaks: 0
WidescreenStoryboard: 1

[Editor]
Bookmarks: 17001,32001,47001,62001,77001,92001,107001,122001,137001,152001,167001,182001,197001,212001,227001,242001,257001,272001
DistanceSpacing: 1
BeatDivisor: 4
GridSize: 16
TimelineZoom: 1.7

[Metadata]
Title:Sunlight Diamonds (FS Remix feat. Muffin)
TitleUnicode:Sunlight Diamonds (FS Remix feat. Muffin)
Artist:Frozen Starfall
ArtistUnicode:Frozen Starfall
Creator:tokiko
Version:Normal Collab
Source:東方風神録 ~ Mountain of Faith.
Tags:-Light- touhou project th10 edm electro house electronic germany 稲田姫様に叱られるから Because Princess Inada Is Scolding Me Stage 1 Aki Minoriko 秋 穣子 Redditaisai 2016 Special Album Ocean of Blossoms ZUN
BeatmapID:1402823
BeatmapSetID:649612

[Difficulty]
HPDrainRate:3
CircleSize:3
OverallDifficulty:4
ApproachRate:5
SliderMultiplier:1.3
SliderTickRate:1

[Events]
//Background and Video events
0,0,"Frozen Starfall - Sunlight Diamonds.png",0,0
//Break Periods
//Storyboard Layer 0 (Background)
//Storyboard Layer 1 (Fail)
//Storyboard Layer 2 (Pass)
//Storyboard Layer 3 (Foreground)
//Storyboard Sound Samples

[TimingPoints]
2001,468.75,4,2,0,45,1,0
77001,-100,4,2,0,45,0,1
107001,-100,4,2,0,45,0,0
152001,-100,4,2,0,45,0,0
167001,-100,4,3,0,45,0,0
227001,-100,4,2,0,45,0,1
257001,-100,4,3,0,45,0,0

[Colours]
Combo1 : 255,68,21
Combo2 : 255,104,32
Combo3 : 170,0,0
Combo4 : 252,54,54

[HitObjects]
320,32,2001,6,0,L|320:176,1,130,6|0,0:3|0:0,0:0:0:0:
320,225,2704,1,0,0:0:0:0:
320,288,2939,1,2,0:0:0:0:
448,288,3407,1,0,0:0:0:0:
448,160,3876,6,0,L|448:96,1,65,4|0,3:0|0:0,0:0:0:0:
320,128,4579,2,0,L|320:193,1,65,8|0,3:0|0:0,0:0:0:0:
320,256,5048,1,0,1:0:0:0:
320,320,5282,1,2,0:0:0:0:
384,320,5517,1,0,1:0:0:0:
448,320,5751,6,0,L|448:176,1,130,12|0,3:1|0:0,0:0:0:0:
448,128,6454,1,0,0:0:0:0:
448,66,6689,1,2,0:0:0:0:
320,64,7157,1,0,0:0:0:0:
320,192,7626,6,0,L|320:272,1,65,8|0,3:0|0:0,0:0:0:0:
432,320,8329,2,0,L|432:255,1,65,8|0,3:0|0:0,0:0:0:0:
432,192,8798,1,0,1:0:0:0:
432,128,9032,1,2,0:0:0:0:
368,128,9267,1,0,1:0:0:0:
304,128,9501,6,0,L|304:272,1,130,12|0,3:1|0:0,0:0:0:0:
304,320,10204,1,0,0:0:0:0:
368,320,10439,1,2,0:0:0:0:
496,320,10907,1,0,0:0:0:0:
496,192,11376,6,0,L|496:128,1,65,12|0,3:0|0:0,0:0:0:0:
384,64,12079,2,0,L|384:129,1,65,12|0,3:0|0:0,0:0:0:0:
384,192,12548,1,0,1:0:0:0:
384,256,12782,1,2,0:0:0:0:
448,256,13017,1,0,1:0:0:0:
512,256,13251,6,0,L|512:112,1,130,12|0,3:1|0:0,0:0:0:0:
512,64,13954,1,0,0:0:0:0:
448,64,14189,1,2,0:0:0:0:
320,64,14657,1,0,0:0:0:0:
320,192,15126,6,0,L|320:256,1,65,8|0,3:0|0:0,0:0:0:0:
416,176,15829,2,0,L|416:111,1,65,0|0,3:0|0:0,0:0:0:0:
416,48,16298,1,0,1:0:0:0:
352,48,16532,1,2,0:0:0:0:
288,48,16767,1,0,1:0:0:0:
224,48,17001,6,0,L|144:48,1,65,4|0,1:3|0:0,0:0:0:0:
96,48,17470,1,0,1:0:0:0:
96,176,17939,1,0,1:0:0:0:
224,176,18407,1,0,1:0:0:0:
224,304,18876,6,0,L|144:304,1,65,12|0,3:0|0:0,0:0:0:0:
160,240,19345,1,8,3:0:0:0:
160,176,19579,2,0,L|95:176,1,65,0|8,0:0|3:0,0:0:0:0:
32,176,20048,1,0,0:0:0:0:
32,112,20282,1,8,3:0:0:0:
32,48,20517,1,0,0:0:0:0:
96,48,20751,6,0,L|176:48,1,65,4|0,1:2|0:0,0:0:0:0:
224,48,21220,1,0,1:0:0:0:
224,176,21689,1,0,1:0:0:0:
96,176,22157,1,0,1:0:0:0:
96,304,22626,6,0,L|160:304,1,65,4|0,1:2|0:0,0:0:0:0:
160,240,23095,1,0,1:0:0:0:
160,176,23329,2,0,L|96:176,1,65,0|0,0:0|1:0,0:0:0:0:
32,176,23798,1,0,0:0:0:0:
32,240,24032,1,0,1:0:0:0:
32,304,24267,1,0,1:0:0:0:
32,368,24501,6,0,L|96:368,1,65,4|0,1:2|0:0,0:0:0:0:
160,368,24970,1,0,1:0:0:0:
160,240,25439,1,0,1:0:0:0:
32,240,25907,1,0,1:0:0:0:
32,112,26376,6,0,L|96:112,1,65,4|0,1:2|0:0,0:0:0:0:
96,48,26845,1,0,1:0:0:0:
160,48,27079,2,0,L|240:48,1,65,0|0,0:0|1:0,0:0:0:0:
224,112,27548,1,0,0:0:0:0:
224,176,27782,1,0,1:0:0:0:
224,240,28017,1,0,1:0:0:0:
224,304,28251,6,0,L|144:304,1,65,4|0,1:2|0:0,0:0:0:0:
96,304,28720,1,0,1:0:0:0:
96,176,29189,1,0,1:0:0:0:
224,176,29657,1,0,1:0:0:0:
224,48,30126,6,0,L|160:48,1,65,4|0,1:2|0:0,0:0:0:0:
160,112,30595,1,0,1:0:0:0:
160,176,30829,2,0,L|80:176,1,65,0|0,0:0|1:0,0:0:0:0:
96,240,31298,1,0,0:0:0:0:
160,240,31532,1,0,1:0:0:0:
224,240,31767,1,0,1:0:0:0:
288,240,32001,6,0,L|288:80,1,130,4|0,1:2|0:0,0:0:0:0:
416,112,32939,1,2,1:2:0:0:
288,110,33407,1,2,1:2:0:0:
288,240,33876,6,0,L|288:384,1,130,4|0,1:2|1:0,0:0:0:0:
416,368,34814,1,0,0:0:0:0:
416,240,35282,1,0,1:0:0:0:
288,240,35751,6,0,L|288:96,1,130,4|0,1:2|0:0,0:0:0:0:
416,112,36689,1,2,1:2:0:0:
416,240,37157,1,2,1:2:0:0:
416,352,37626,5,4,1:2:0:0:
304,352,38095,1,0,0:0:0:0:
304,224,38564,1,0,0:0:0:0:
304,96,39032,1,0,1:0:0:0:
432,96,39501,6,0,L|432:256,1,130,4|0,1:2|0:0,0:0:0:0:
432,352,40439,1,2,1:2:0:0:
304,352,40907,1,2,1:2:0:0:
304,224,41376,6,0,L|304:64,1,130,4|0,1:2|1:0,0:0:0:0:
432,96,42314,1,0,0:0:0:0:
432,224,42782,1,0,1:0:0:0:
304,224,43251,6,0,L|304:354,1,130,4|0,1:2|0:0,0:0:0:0:
432,352,44189,1,0,1:0:0:0:
432,224,44657,1,0,1:0:0:0:
304,224,45126,6,0,L|304:80,1,130,4|0,1:2|0:0,0:0:0:0:
432,96,46064,1,0,0:0:0:0:
304,94,46532,1,0,1:0:0:0:
176,96,47001,6,0,L|32:96,1,130,4|0,1:2|1:0,0:0:0:0:
48,224,47939,1,2,1:2:0:0:
176,224,48407,1,2,1:2:0:0:
176,352,48876,6,0,L|32:352,1,130,4|0,1:2|1:0,0:0:0:0:
48,224,49814,1,0,1:0:0:0:
176,224,50282,1,0,1:0:0:0:
176,96,50751,6,0,L|32:96,1,130,4|0,1:2|1:0,0:0:0:0:
48,224,51689,1,0,1:0:0:0:
176,224,52157,1,0,1:0:0:0:
176,352,52626,5,4,1:2:0:0:
48,352,53095,1,0,0:0:0:0:
48,224,53564,1,0,0:0:0:0:
48,96,54032,1,0,1:0:0:0:
176,96,54501,6,0,L|32:96,1,130,4|0,1:2|1:0,0:0:0:0:
112,208,55439,1,0,1:0:0:0:
240,208,55907,1,0,1:0:0:0:
192,336,56376,6,0,L|48:336,1,130,4|0,1:2|1:0,0:0:0:0:
112,208,57314,1,0,1:0:0:0:
240,208,57782,1,0,1:0:0:0:
176,96,58251,6,0,L|32:96,1,130,2|2,1:2|1:2,0:0:0:0:
48,224,59189,1,0,1:0:0:0:
176,224,59657,1,0,1:0:0:0:
176,96,60126,1,4,1:2:0:0:
48,96,60595,1,2,1:2:0:0:
48,224,61064,1,2,1:2:0:0:
176,224,61532,1,0,1:0:0:0:
304,224,62001,6,0,L|304:144,1,65,12|0,3:0|0:0,0:0:0:0:
304,96,62470,1,8,3:0:0:0:
368,96,62704,1,0,0:0:0:0:
432,96,62939,2,0,L|432:192,1,65,8|0,3:0|0:0,0:0:0:0:
432,224,63407,1,0,0:0:0:0:
368,224,63642,1,2,0:2:0:0:
304,224,63876,5,12,3:0:0:0:
304,96,64345,1,10,3:0:0:0:
304,224,64814,1,12,3:0:0:0:
304,352,65282,1,10,3:0:0:0:
432,352,65751,6,0,L|432:272,1,65,12|0,3:0|0:0,0:0:0:0:
432,224,66220,1,8,3:0:0:0:
432,160,66454,1,0,0:0:0:0:
432,96,66689,2,0,L|432:32,1,65,8|0,3:0|0:0,0:0:0:0:
368,32,67157,1,0,0:0:0:0:
304,32,67392,1,2,0:0:0:0:
304,96,67626,5,12,3:0:0:0:
304,224,68095,1,8,3:0:0:0:
432,224,68564,1,12,3:0:0:0:
432,352,69032,1,8,3:0:0:0:
304,352,69501,6,0,L|304:288,1,65,12|0,0:0|0:0,0:0:0:0:
304,224,69970,2,0,L|304:160,1,65,8|0,0:0|0:0,0:0:0:0:
304,96,70439,1,12,0:0:0:0:
432,96,70907,1,8,0:0:0:0:
304,96,71376,6,0,L|304:161,1,65,12|0,0:0|0:0,0:0:0:0:
304,224,71845,2,0,L|304:289,1,65,8|0,0:0|0:0,0:0:0:0:
304,352,72314,1,12,0:0:0:0:
432,352,72782,1,0,0:0:0:0:
432,224,73251,1,12,0:0:0:0:
256,192,73368,12,12,76532,0:0:0:0:
176,32,77001,6,0,L|96:32,1,65,12|0,2:1|0:0,0:0:0:0:
48,32,77470,1,8,0:0:0:0:
48,96,77704,1,0,0:0:0:0:
48,160,77939,2,0,L|128:160,1,65,8|0,0:0|0:0,0:0:0:0:
112,224,78407,1,8,0:0:0:0:
112,288,78642,1,2,0:2:0:0:
112,352,78876,6,0,L|192:352,1,65,12|0,1:2|0:0,0:0:0:0:
240,352,79345,1,8,0:0:0:0:
240,288,79579,1,0,0:0:0:0:
240,224,79814,2,0,L|176:224,1,65,8|0,0:0|0:0,0:0:0:0:
112,224,80282,1,8,0:0:0:0:
48,112,80751,6,0,L|128:112,1,65,12|0,1:2|0:0,0:0:0:0:
176,112,81220,1,8,0:0:0:0:
176,176,81454,1,0,0:0:0:0:
176,240,81689,2,0,L|96:240,1,65,8|0,0:0|0:0,0:0:0:0:
48,240,82157,1,8,0:0:0:0:
48,304,82392,1,10,0:0:0:0:
48,368,82626,6,0,L|112:368,1,65,12|0,2:1|0:0,0:0:0:0:
176,368,83095,2,0,L|240:368,1,65,8|0,0:0|0:0,0:0:0:0:
240,304,83564,2,0,L|176:304,1,65,8|0,0:0|0:0,0:0:0:0:
112,304,84032,2,0,L|48:304,1,65,8|0,0:0|0:0,0:0:0:0:
48,240,84501,6,0,L|112:240,1,65,12|0,1:2|0:0,0:0:0:0:
176,240,84970,1,8,0:0:0:0:
176,176,85204,1,0,0:0:0:0:
176,112,85439,2,0,L|112:112,1,65,8|0,0:0|0:0,0:0:0:0:
48,112,85907,1,8,0:0:0:0:
48,48,86142,1,2,0:2:0:0:
112,48,86376,6,0,L|176:48,1,65,12|0,1:2|0:0,0:0:0:0:
240,48,86845,1,8,0:0:0:0:
240,112,87079,1,0,0:0:0:0:
240,176,87314,2,0,L|176:176,1,65,8|0,0:0|0:0,0:0:0:0:
112,176,87782,1,8,0:0:0:0:
144,304,88251,6,0,L|64:304,1,65,12|0,2:1|0:0,0:0:0:0:
80,240,88720,1,8,0:0:0:0:
80,176,88954,1,0,0:0:0:0:
80,112,89189,2,0,L|144:112,1,65,8|0,0:0|0:0,0:0:0:0:
208,112,89657,1,8,0:0:0:0:
208,176,89892,1,10,0:0:0:0:
208,240,90126,6,0,L|128:240,1,65,12|0,3:0|0:0,0:0:0:0:
80,240,90595,2,0,L|0:240,1,65,8|0,3:0|0:0,0:0:0:0:
16,304,91064,2,0,L|96:304,1,65,8|8,0:0|0:0,0:0:0:0:
144,304,91533,2,0,L|224:304,1,65,10|8,0:0|3:0,0:0:0:0:
272,304,92001,6,0,L|272:224,1,65,12|0,3:1|0:0,0:0:0:0:
272,176,92470,1,8,0:0:0:0:
272,112,92704,1,0,0:0:0:0:
336,112,92939,2,0,L|336:192,1,65,8|0,0:0|0:0,0:0:0:0:
336,240,93407,1,8,0:0:0:0:
336,304,93642,1,2,0:2:0:0:
400,304,93876,6,0,L|400:224,1,65,12|0,1:2|0:0,0:0:0:0:
400,176,94345,1,8,0:0:0:0:
400,112,94579,1,0,0:0:0:0:
336,112,94814,2,0,L|336:32,1,65,8|0,0:0|0:0,0:0:0:0:
384,0,95282,1,8,0:0:0:0:
480,80,95751,6,0,L|480:144,1,65,12|0,1:2|0:0,0:0:0:0:
480,208,96220,1,8,0:0:0:0:
480,272,96454,1,0,0:0:0:0:
416,272,96689,2,0,L|416:336,1,65,8|0,0:0|0:0,0:0:0:0:
352,336,97157,1,8,0:0:0:0:
288,336,97392,1,10,0:0:0:0:
288,272,97626,6,0,L|288:192,1,65,12|0,1:2|0:0,0:0:0:0:
288,144,98095,2,0,L|288:64,1,65,8|0,0:0|0:0,0:0:0:0:
352,64,98564,2,0,L|352:129,1,65,12|0,1:2|0:0,0:0:0:0:
352,192,99033,2,0,L|352:257,1,65,8|0,0:0|0:0,0:0:0:0:
400,288,99501,6,0,L|400:208,1,65,12|0,1:2|0:0,0:0:0:0:
400,160,99970,1,8,0:0:0:0:
400,96,100204,1,0,0:0:0:0:
464,96,100439,2,0,L|464:160,1,65,8|0,0:0|0:0,0:0:0:0:
464,224,100907,1,8,0:0:0:0:
464,288,101142,1,2,0:2:0:0:
400,288,101376,6,0,L|400:224,1,65,12|0,1:2|0:0,0:0:0:0:
336,224,101845,1,8,0:0:0:0:
336,160,102079,1,0,0:0:0:0:
400,160,102314,2,0,L|400:96,1,65,8|0,0:0|0:0,0:0:0:0:
400,32,102782,1,8,0:0:0:0:
496,128,103251,6,0,L|496:192,1,65,12|0,1:2|0:0,0:0:0:0:
496,256,103720,1,8,0:0:0:0:
432,256,103954,1,0,0:0:0:0:
368,256,104189,2,0,L|368:192,1,65,8|0,0:0|0:0,0:0:0:0:
368,128,104657,1,8,0:0:0:0:
368,64,104892,1,10,0:0:0:0:
432,64,105126,6,0,L|432:129,1,65,12|0,1:2|0:0,0:0:0:0:
384,176,105595,2,0,L|384:241,1,65,8|0,0:0|0:0,0:0:0:0:
336,288,106064,2,0,L|336:223,1,65,12|0,1:2|0:0,0:0:0:0:
288,176,106533,2,0,L|288:111,1,65,8|0,0:0|0:0,0:0:0:0:
224,112,107001,6,0,L|80:112,1,130,14|10,0:0|0:0,0:0:0:0:
48,240,107939,2,0,L|192:240,1,130,10|10,0:0|0:0,0:0:0:0:
224,112,108876,2,0,L|80:112,1,130,10|10,0:0|0:0,0:0:0:0:
48,240,109814,2,0,L|192:240,1,130,10|10,0:0|0:0,0:0:0:0:
224,368,110751,6,0,L|80:368,1,130,6|2,0:0|0:0,0:0:0:0:
48,240,111689,2,0,L|192:240,1,130,2|2,0:0|0:0,0:0:0:0:
224,368,112626,2,0,L|80:368,1,130,6|2,0:0|0:0,0:0:0:0:
48,240,113564,2,0,L|192:240,1,130,2|2,0:0|0:0,0:0:0:0:
224,112,114501,6,0,L|160:112,1,65,14|2,0:0|0:0,0:0:0:0:
96,112,114970,2,0,L|32:112,1,65,8|2,0:0|0:0,0:0:0:0:
32,176,115439,2,0,L|96:176,1,65,14|2,0:0|0:0,0:0:0:0:
160,176,115908,2,0,L|224:176,1,65,8|2,0:0|0:0,0:0:0:0:
224,240,116376,6,0,L|160:240,1,65,14|2,0:0|0:0,0:0:0:0:
96,240,116845,2,0,L|32:240,1,65,8|2,0:0|0:0,0:0:0:0:
32,304,117314,2,0,L|96:304,1,65,2|0,0:0|0:0,0:0:0:0:
160,304,117783,2,0,L|224:304,1,65,2|0,0:0|0:0,0:0:0:0:
224,368,118251,5,12,0:0:0:0:
96,368,118720,1,12,0:0:0:0:
96,240,119189,1,12,0:0:0:0:
224,240,119657,1,12,0:0:0:0:
224,112,120126,6,0,L|160:112,1,65,12|0,0:0|0:0,0:0:0:0:
96,112,120595,2,0,L|32:112,1,65,12|0,0:0|0:0,0:0:0:0:
32,48,121064,2,0,L|96:48,1,65,12|12,0:0|0:1,0:0:0:0:
160,48,121533,2,0,L|224:48,1,65,12|0,0:1|0:0,0:0:0:0:
288,48,122001,6,0,L|288:192,1,130,12|12,0:0|0:0,0:0:0:0:
288,304,122939,1,8,0:0:0:0:
416,304,123407,1,12,0:0:0:0:
416,176,123876,6,0,L|416:16,1,130,8|12,0:0|0:0,0:0:0:0:
288,48,124814,1,8,0:0:0:0:
416,46,125282,1,12,0:0:0:0:
288,48,125751,6,0,L|288:192,1,130,12|12,0:0|0:0,0:0:0:0:
416,176,126689,1,8,0:0:0:0:
416,304,127157,1,12,0:0:0:0:
288,304,127626,6,0,L|288:160,1,130,8|12,0:0|0:0,0:0:0:0:
288,48,128564,1,8,0:0:0:0:
288,112,128798,1,8,0:0:0:0:
288,176,129032,1,12,0:0:0:0:
416,176,129501,6,0,L|416:16,1,130,12|12,0:0|0:0,0:0:0:0:
288,48,130439,1,8,0:0:0:0:
288,176,130907,1,12,0:0:0:0:
416,176,131376,2,0,L|416:320,1,130,8|12,0:0|0:0,0:0:0:0:
288,304,132314,1,8,0:0:0:0:
288,240,132548,1,8,0:0:0:0:
288,176,132782,1,12,0:0:0:0:
400,112,133251,6,0,L|400:256,1,130,12|12,0:0|0:0,0:0:0:0:
288,240,134189,1,8,0:0:0:0:
288,112,134657,1,8,0:0:0:0:
416,112,135126,5,12,0:0:0:0:
416,240,135595,1,12,0:0:0:0:
416,368,136064,1,8,0:0:0:0:
352,368,136298,1,6,0:0:0:0:
288,368,136532,1,12,0:0:0:0:
160,368,137001,6,0,L|16:368,1,130,12|8,0:0|0:0,0:0:0:0:
32,240,137939,1,12,0:0:0:0:
160,240,138407,1,8,0:0:0:0:
160,112,138876,6,0,L|16:112,1,130,12|8,0:0|0:0,0:0:0:0:
32,240,139814,1,8,0:0:0:0:
160,240,140282,1,12,0:0:0:0:
160,368,140751,6,0,L|16:368,1,130,12|8,0:0|0:0,0:0:0:0:
32,240,141689,1,8,0:0:0:0:
32,112,142157,1,8,0:0:0:0:
32,240,142626,2,0,L|192:240,1,130,12|8,0:0|0:0,0:0:0:0:
240,144,143564,1,8,0:0:0:0:
176,144,143798,1,8,0:0:0:0:
112,144,144032,1,12,0:0:0:0:
48,32,144501,6,0,L|208:32,1,130,12|8,0:0|0:0,0:0:0:0:
240,144,145439,1,8,0:0:0:0:
112,144,145907,1,12,0:0:0:0:
48,256,146376,6,0,L|208:256,1,130,12|8,0:0|0:0,0:0:0:0:
224,384,147314,1,8,0:0:0:0:
160,384,147548,1,8,0:0:0:0:
96,384,147782,1,12,0:0:0:0:
48,256,148251,6,0,L|208:256,1,130,12|12,0:0|0:0,0:0:0:0:
240,144,149189,1,12,0:0:0:0:
112,144,149657,1,8,0:0:0:0:
112,16,150126,5,12,0:0:0:0:
240,16,150595,1,12,0:0:0:0:
240,144,151064,1,0,0:0:0:0:
240,208,151298,1,6,0:0:0:0:
240,272,151532,1,12,0:0:0:0:
368,272,152001,6,0,L|368:128,1,130,4|0,1:2|0:0,0:0:0:0:
368,80,152704,1,0,0:0:0:0:
368,16,152939,1,2,1:2:0:0:
496,16,153407,1,2,1:2:0:0:
496,144,153876,6,0,L|496:224,1,65,4|0,1:2|0:0,0:0:0:0:
384,288,154579,2,0,L|384:223,1,65,4|0,1:2|0:0,0:0:0:0:
384,160,155048,1,0,0:0:0:0:
384,96,155282,1,0,1:0:0:0:
384,32,155517,1,0,0:0:0:0:
320,32,155751,6,0,L|320:176,1,130,4|0,1:2|0:0,0:0:0:0:
320,224,156454,1,0,0:0:0:0:
320,288,156689,1,2,1:2:0:0:
448,288,157157,1,2,1:2:0:0:
448,160,157626,6,0,L|448:80,1,65,4|0,1:2|0:0,0:0:0:0:
320,48,158329,2,0,L|320:113,1,65,4|0,1:2|0:0,0:0:0:0:
320,176,158798,1,0,0:0:0:0:
320,240,159032,1,0,1:0:0:0:
384,240,159267,1,0,0:0:0:0:
448,240,159501,6,0,L|448:96,1,130,4|0,1:2|0:0,0:0:0:0:
448,48,160204,1,0,0:0:0:0:
384,48,160439,1,2,1:2:0:0:
384,176,160907,1,2,1:2:0:0:
384,304,161376,6,0,L|384:368,1,65,4|0,1:2|0:0,0:0:0:0:
496,304,162079,2,0,L|496:239,1,65,4|0,1:2|0:0,0:0:0:0:
496,176,162548,1,0,0:0:0:0:
496,112,162782,1,0,1:0:0:0:
432,112,163017,1,0,0:0:0:0:
368,112,163251,6,0,L|368:256,1,130,4|0,1:2|0:0,0:0:0:0:
368,304,163954,1,0,0:0:0:0:
368,368,164189,1,2,1:2:0:0:
496,368,164657,1,2,1:2:0:0:
496,240,165126,6,0,L|496:160,1,65,4|0,1:2|0:0,0:0:0:0:
384,112,165829,2,0,L|384:177,1,65,4|0,1:2|1:0,0:0:0:0:
384,240,166298,1,2,0:0:0:0:
384,304,166532,1,0,1:0:0:0:
320,304,166767,1,2,0:0:0:0:
256,304,167001,6,0,L|112:304,1,130,12|2,2:0|0:0,0:0:0:0:
64,304,167704,1,0,0:0:0:0:
64,240,167939,1,2,0:0:0:0:
192,192,168407,1,2,0:0:0:0:
192,64,168876,6,0,L|112:64,1,65,6|0,0:0|0:0,0:0:0:0:
127,192,169579,2,0,L|207:192,1,65,0|2,0:0|0:0,0:0:0:0:
192,256,170048,1,0,0:0:0:0:
128,256,170282,1,2,0:0:0:0:
64,256,170517,1,0,0:0:0:0:
64,320,170751,6,0,L|208:320,1,130,6|2,0:0|0:0,0:0:0:0:
192,256,171454,1,0,0:0:0:0:
192,192,171689,1,2,0:0:0:0:
64,192,172157,1,2,0:0:0:0:
64,64,172626,6,0,L|144:64,1,65,6|0,0:0|0:0,0:0:0:0:
129,192,173329,2,0,L|49:192,1,65,0|2,0:0|0:0,0:0:0:0:
64,256,173798,1,0,0:0:0:0:
128,256,174032,1,2,0:0:0:0:
192,256,174267,1,0,1:0:0:0:
192,320,174501,6,0,L|48:320,1,130,6|2,0:0|0:0,0:0:0:0:
64,256,175204,1,0,0:0:0:0:
64,192,175439,1,2,0:0:0:0:
64,64,175907,1,2,0:0:0:0:
176,128,176376,6,0,L|112:128,1,65,6|0,0:0|0:0,0:0:0:0:
64,256,177079,2,0,L|129:256,1,65,6|0,0:0|0:0,0:0:0:0:
144,320,177548,1,0,0:0:0:0:
208,320,177782,1,2,0:0:0:0:
208,256,178017,1,0,1:0:0:0:
208,192,178251,6,0,L|64:192,1,130,6|2,0:0|0:0,0:0:0:0:
80,128,178954,1,0,0:0:0:0:
80,64,179189,1,2,0:0:0:0:
208,64,179657,1,2,0:0:0:0:
208,192,180126,6,0,L|144:192,1,65,6|0,0:0|0:0,0:0:0:0:
160,320,180829,2,0,L|96:320,1,65,0|2,0:0|0:0,0:0:0:0:
96,256,181298,1,0,0:0:0:0:
160,256,181532,1,2,0:0:0:0:
224,256,181767,1,2,0:0:0:0:
288,256,182001,6,0,L|288:96,1,130,12|2,0:0|0:0,0:0:0:0:
416,128,182939,1,2,0:0:0:0:
288,126,183407,1,8,0:0:0:0:
416,128,183876,6,0,L|416:272,1,130,0|2,0:0|0:0,0:0:0:0:
416,384,184814,1,2,0:0:0:0:
416,258,185282,1,2,0:0:0:0:
288,256,185751,6,0,L|288:96,1,130,12|2,0:0|0:0,0:0:0:0:
416,128,186689,1,2,0:0:0:0:
416,256,187157,1,2,0:0:0:0:
288,256,187626,6,0,L|288:96,2,130,12|8|8,0:0|0:0|0:0,0:0:0:0:
416,256,189032,1,2,0:0:0:0:
416,128,189501,6,0,L|416:-16,1,130,12|2,0:0|0:0,0:0:0:0:
288,0,190439,1,2,0:0:0:0:
288,128,190907,1,0,0:0:0:0:
416,128,191376,6,0,L|416:272,1,130,12|2,0:0|0:0,0:0:0:0:
288,256,192314,1,2,0:0:0:0:
288,128,192782,1,2,0:0:0:0:
400,192,193251,6,0,L|400:48,1,130,12|2,0:0|0:0,0:0:0:0:
272,64,194189,1,2,0:0:0:0:
272,192,194657,1,2,0:0:0:0:
400,192,195126,6,0,L|400:336,1,130,12|8,0:0|0:0,0:0:0:0:
288,240,196064,2,0,L|288:110,1,130,8|8,0:0|0:0,0:0:0:0:
160,112,197001,6,0,L|80:112,1,65,6|0,0:0|0:0,0:0:0:0:
32,112,197470,1,2,0:0:0:0:
32,176,197704,1,0,0:0:0:0:
32,240,197939,1,2,0:0:0:0:
32,368,198407,5,2,0:0:0:0:
96,368,198642,1,2,0:2:0:0:
160,368,198876,2,0,L|240:368,1,65,6|0,0:0|0:0,0:0:0:0:
224,304,199345,1,2,0:0:0:0:
224,240,199579,1,0,0:0:0:0:
224,176,199814,2,0,L|144:176,1,65,2|0,0:0|0:0,0:0:0:0:
96,176,200282,2,0,L|16:176,1,65,2|0,0:0|0:0,0:0:0:0:
32,112,200751,5,6,0:0:0:0:
160,112,201220,1,2,0:0:0:0:
160,240,201689,1,2,0:0:0:0:
32,240,202157,1,2,0:0:0:0:
32,304,202392,1,2,0:0:0:0:
32,368,202626,6,0,L|96:368,1,65,6|0,0:0|0:0,0:0:0:0:
160,368,203095,2,0,L|224:368,1,65,2|0,0:0|0:0,0:0:0:0:
224,304,203564,2,0,L|160:304,1,65,6|0,0:0|0:0,0:0:0:0:
96,304,204033,2,0,L|32:304,1,65,2|0,0:0|1:0,0:0:0:0:
32,240,204501,5,6,0:0:0:0:
160,240,204970,1,2,0:0:0:0:
160,112,205439,1,2,0:0:0:0:
32,112,205907,1,2,0:0:0:0:
32,176,206142,1,2,0:2:0:0:
32,240,206376,6,0,L|112:240,1,65,6|0,0:0|0:0,0:0:0:0:
160,240,206845,2,0,L|240:240,1,65,2|0,0:0|0:0,0:0:0:0:
224,176,207314,2,0,L|144:176,1,65,2|0,0:0|0:0,0:0:0:0:
96,176,207783,2,0,L|16:176,1,65,2|0,0:0|0:0,0:0:0:0:
32,240,208251,5,6,0:0:0:0:
64,368,208720,1,2,0:0:0:0:
192,368,209189,1,2,0:0:0:0:
240,240,209657,1,2,0:0:0:0:
240,176,209892,1,2,0:0:0:0:
240,112,210126,6,0,L|160:112,1,65,6|0,0:0|0:0,0:0:0:0:
112,112,210595,2,0,L|32:112,1,65,0|0,0:0|0:0,0:0:0:0:
48,48,211064,2,0,L|128:48,1,65,6|0,0:0|0:0,0:0:0:0:
176,48,211533,2,0,L|256:48,1,65,2|0,0:0|1:0,0:0:0:0:
304,48,212001,6,0,L|304:144,1,65,12|0,0:0|0:0,0:0:0:0:
304,176,212470,1,8,0:0:0:0:
304,240,212704,1,0,0:0:0:0:
368,240,212939,2,0,L|368:320,1,65,8|0,0:0|0:0,0:0:0:0:
432,304,213407,1,8,0:0:0:0:
496,304,213642,1,2,0:2:0:0:
496,240,213876,5,12,0:0:0:0:
496,112,214345,1,8,0:0:0:0:
368,112,214814,1,8,0:0:0:0:
368,240,215282,1,8,0:0:0:0:
368,112,215751,6,0,L|368:48,1,65,12|0,0:0|0:0,0:0:0:0:
432,48,216220,1,8,0:0:0:0:
496,48,216454,1,0,0:0:0:0:
496,112,216689,2,0,L|496:176,1,65,8|0,0:0|0:0,0:0:0:0:
496,240,217157,1,8,0:0:0:0:
496,304,217392,1,2,0:0:0:0:
496,368,217626,5,12,0:0:0:0:
368,368,218095,1,8,0:0:0:0:
368,240,218564,1,12,0:0:0:0:
368,112,219032,1,8,0:0:0:0:
480,112,219501,6,0,L|480:208,1,65,12|0,0:0|0:0,0:0:0:0:
480,240,219970,2,0,L|480:336,1,65,8|0,0:0|0:0,0:0:0:0:
480,368,220439,1,12,0:0:0:0:
352,368,220907,1,8,0:0:0:0:
480,368,221376,6,0,L|480:303,1,65,12|0,0:0|0:0,0:0:0:0:
480,240,221845,2,0,L|480:174,1,65,8|0,0:0|0:0,0:0:0:0:
480,112,222314,1,12,0:0:0:0:
368,112,222782,1,8,0:0:0:0:
368,224,223251,1,12,0:0:0:0:
256,192,223368,12,8,226532,0:0:0:0:
240,288,227001,6,0,L|160:288,1,65,12|0,0:3|0:0,0:0:0:0:
112,288,227470,1,8,0:3:0:0:
48,288,227704,1,0,0:0:0:0:
48,224,227939,2,0,L|112:224,1,65,10|0,0:3|0:0,0:0:0:0:
176,224,228407,2,0,L|240:224,1,65,0|0,0:0|0:0,0:0:0:0:
240,160,228876,5,12,0:3:0:0:
240,96,229111,1,0,0:0:0:0:
240,32,229345,2,0,L|176:32,1,65,0|0,0:0|0:0,0:0:0:0:
112,32,229814,1,12,0:3:0:0:
112,160,230282,1,12,0:3:0:0:
112,288,230751,6,0,L|32:288,1,65,6|0,0:3|0:0,0:0:0:0:
48,352,231220,1,0,0:0:0:0:
112,352,231454,1,0,0:0:0:0:
176,352,231689,2,0,L|240:352,1,65,12|0,0:3|0:0,0:0:0:0:
240,288,232157,2,0,L|176:288,1,65,0|2,0:0|0:0,0:0:0:0:
112,288,232626,5,6,0:3:0:0:
112,160,233095,1,0,0:0:0:0:
240,160,233564,1,12,0:3:0:0:
240,32,234032,1,8,0:3:0:0:
112,32,234501,6,0,L|48:32,1,65,12|0,0:3|0:0,0:0:0:0:
48,96,234970,1,0,0:0:0:0:
48,160,235204,1,2,0:0:0:0:
112,160,235439,2,0,L|176:160,1,65,6|2,0:3|0:3,0:0:0:0:
176,224,235907,2,0,L|112:224,1,65,6|0,0:3|0:0,0:0:0:0:
48,224,236376,5,12,0:3:0:0:
48,288,236611,1,0,0:0:0:0:
48,352,236845,2,0,L|112:352,1,65,0|0,0:0|0:0,0:0:0:0:
176,352,237314,1,12,0:3:0:0:
176,224,237782,1,12,0:3:0:0:
176,96,238251,6,0,L|96:96,1,65,6|0,0:3|0:0,0:0:0:0:
48,96,238720,1,0,0:0:0:0:
48,32,238954,1,0,0:0:0:0:
112,32,239189,2,0,L|192:32,1,65,12|0,0:3|0:0,0:0:0:0:
176,96,239657,2,0,L|96:96,1,65,0|2,0:0|0:0,0:0:0:0:
112,160,240126,5,12,0:3:0:0:
112,288,240595,1,8,0:3:0:0:
240,288,241064,1,10,0:3:0:0:
240,160,241532,1,8,0:3:0:0:
368,160,242001,6,0,L|368:224,1,65,12|0,0:3|0:0,0:0:0:0:
368,288,242470,1,8,0:3:0:0:
368,352,242704,1,0,0:0:0:0:
432,352,242939,2,0,L|432:288,1,65,8|0,0:3|0:0,0:0:0:0:
432,224,243407,2,0,L|432:160,1,65,0|0,0:0|0:0,0:0:0:0:
368,160,243876,5,12,0:3:0:0:
304,160,244111,1,0,0:0:0:0:
304,224,244345,2,0,L|304:288,1,65,0|0,0:0|0:0,0:0:0:0:
304,352,244814,1,12,0:3:0:0:
432,352,245282,1,12,0:3:0:0:
432,224,245751,6,0,L|432:144,1,65,12|0,0:3|0:0,0:0:0:0:
432,96,246220,1,0,0:0:0:0:
432,32,246454,1,0,0:0:0:0:
368,32,246689,2,0,L|368:97,1,65,12|0,0:3|0:0,0:0:0:0:
304,96,247157,2,0,L|304:161,1,65,0|2,0:3|0:3,0:0:0:0:
304,224,247626,5,6,0:3:0:0:
304,352,248095,1,8,0:3:0:0:
432,352,248564,1,12,0:3:0:0:
432,224,249032,1,8,0:3:0:0:
432,96,249501,6,0,L|432:32,1,65,12|0,0:3|0:0,0:0:0:0:
368,32,249970,1,0,0:0:0:0:
304,32,250204,1,2,0:3:0:0:
304,96,250439,2,0,L|304:160,1,65,6|2,0:3|0:3,0:0:0:0:
304,224,250907,2,0,L|304:288,1,65,6|0,0:3|0:0,0:0:0:0:
304,352,251376,5,12,0:3:0:0:
368,352,251611,1,0,0:0:0:0:
432,352,251845,2,0,L|432:288,1,65,0|0,0:0|0:0,0:0:0:0:
432,224,252314,1,12,0:3:0:0:
432,96,252782,1,12,0:3:0:0:
304,96,253251,6,0,L|304:160,1,65,12|0,0:3|0:0,0:0:0:0:
304,224,253720,1,0,0:0:0:0:
368,224,253954,1,0,0:0:0:0:
432,224,254189,2,0,L|432:160,1,65,12|0,0:3|0:0,0:0:0:0:
432,96,254657,2,0,L|432:32,1,65,0|2,0:0|0:3,0:0:0:0:
496,32,255126,5,6,0:3:0:0:
496,160,255595,1,8,0:3:0:0:
496,272,256064,1,12,0:3:0:0:
368,272,256532,1,0,0:2:0:0:
240,272,257001,6,0,L|96:272,1,130,12|0,0:0|0:0,0:0:0:0:
112,144,257939,1,12,0:0:0:0:
240,368,258876,6,0,L|96:368,1,130,12|0,0:0|0:0,0:0:0:0:
112,304,259579,2,0,L|256:304,1,130,8|0,0:0|0:0,0:0:0:0:
240,240,260282,1,8,0:0:0:0:
240,112,260751,6,0,L|96:112,1,130,12|0,0:0|0:0,0:0:0:0:
112,240,261689,1,12,0:0:0:0:
240,16,262626,6,0,L|96:16,1,130,12|0,0:0|0:0,0:0:0:0:
112,80,263329,2,0,L|242:80,1,130,12|0,0:0|0:0,0:0:0:0:
240,144,264032,1,8,0:0:0:0:
240,272,264501,6,0,L|96:272,1,130,12|0,0:0|0:0,0:0:0:0:
112,144,265439,1,12,0:0:0:0:
240,368,266376,6,0,L|96:368,1,130,12|0,0:0|0:0,0:0:0:0:
112,304,267079,2,0,L|256:304,1,130,12|0,0:0|0:0,0:0:0:0:
240,240,267782,1,8,0:0:0:0:
240,112,268251,6,0,L|96:112,1,130,12|0,0:0|0:0,0:0:0:0:
112,240,269189,1,12,0:0:0:0:
240,16,270126,6,0,L|96:16,1,130,12|0,0:0|0:0,0:0:0:0:
112,80,270829,2,0,L|242:80,1,130,12|0,0:0|0:0,0:0:0:0:
240,144,271532,1,8,0:0:0:0:
368,144,272001,6,0,L|368:304,1,130,12|0,0:0|0:0,0:0:0:0:
496,272,272939,1,8,0:0:0:0:
288,128,273876,6,0,L|288:272,1,130,12|0,0:0|0:0,0:0:0:0:
352,256,274579,2,0,L|352:126,1,130,10|0,0:0|0:0,0:0:0:0:
416,128,275282,1,8,0:0:0:0:
464,240,275751,6,0,L|464:384,1,130,12|0,0:0|0:0,0:0:0:0:
336,368,276689,1,8,0:0:0:0:
512,192,277626,6,0,L|512:336,1,130,12|0,0:0|0:0,0:0:0:0:
448,320,278329,2,0,L|448:190,1,130,12|0,0:0|0:0,0:0:0:0:
448,128,279032,1,8,0:0:0:0:
320,128,279501,6,0,L|320:288,1,130,12|0,0:0|0:0,0:0:0:0:
384,368,280439,1,8,0:0:0:0:
512,144,281376,6,0,L|512:288,1,130,12|0,0:0|0:0,0:0:0:0:
448,272,282079,2,0,L|448:142,1,130,12|0,0:0|0:0,0:0:0:0:
448,80,282782,1,8,0:0:0:0:
320,80,283251,6,0,L|320:224,1,130,12|0,0:0|0:0,0:0:0:0:
448,208,284189,1,8,0:0:0:0:
320,0,285126,6,0,L|320:144,1,130,12|0,0:0|0:0,0:0:0:0:
320,192,285829,2,0,L|320:336,1,130,12|0,0:0|0:0,0:0:0:0:
256,320,286532,1,8,0:0:0:0:
256,192,287001,5,12,0:0:0:0:
