osu file format v14

[General]
AudioFilename: audio.mp3
AudioLeadIn: 0
PreviewTime: 182001
Countdown: 0
SampleSet: Soft
StackLeniency: 0.6
Mode: 0
LetterboxInBreaks: 0
WidescreenStoryboard: 0

[Editor]
Bookmarks: 17001,32001,47001,62001,77001,92001,107001,122001,137001,152001,167001,182001,197001,212001,227001,242001,257001,272001
DistanceSpacing: 0.5
BeatDivisor: 4
GridSize: 16
TimelineZoom: 1.7

[Metadata]
Title:Sunlight Diamonds (FS Remix feat. Muffin)
TitleUnicode:Sunlight Diamonds (FS Remix feat. Muffin)
Artist:Frozen Starfall
ArtistUnicode:Frozen Starfall
Creator:tokiko
Version:Autumn Collab
Source:東方風神録 ~ Mountain of Faith.
Tags:-Light- touhou project th10 edm electro house electronic germany 稲田姫様に叱られるから Because Princess Inada Is Scolding Me Stage 1 Aki Minoriko 秋 穣子 Redditaisai 2016 Special Album Ocean of Blossoms ZUN
BeatmapID:1376797
BeatmapSetID:649612

[Difficulty]
HPDrainRate:6
CircleSize:4
OverallDifficulty:7
ApproachRate:8
SliderMultiplier:1.6
SliderTickRate:1

[Events]
//Background and Video events
0,0,"Frozen Starfall - Sunlight Diamonds.png",0,0
//Break Periods
//Storyboard Layer 0 (Background)
//Storyboard Layer 1 (Fail)
//Storyboard Layer 2 (Pass)
//Storyboard Layer 3 (Foreground)
//Storyboard Sound Samples

[TimingPoints]
2001.73872319409,468.75,4,2,0,45,1,0
37626,-125,4,2,0,45,0,0
38798,-100,4,2,0,45,0,0
45009,-100,4,2,0,5,0,0
45126,-125,4,2,0,45,0,0
46298,-100,4,2,0,45,0,0
63642,-100,4,2,0,20,0,0
63876,-100,4,2,0,45,0,0
65282,-142.857142857143,4,2,0,45,0,0
65634,-142.857142857143,4,2,0,5,0,0
65751,-100,4,2,0,45,0,0
77001,-100,4,2,0,45,0,1
80282,-200,4,2,0,45,0,1
80634,-200,4,2,0,5,0,1
80751,-100,4,2,0,45,0,1
86142,-100,4,2,0,20,0,1
86376,-100,4,2,0,45,0,1
87782,-200,4,2,0,45,0,1
88134,-200,4,2,0,5,0,1
88251,-100,4,2,0,45,0,1
93642,-100,4,2,0,20,0,1
93876,-100,4,2,0,45,0,1
95282,-151.515151515152,4,2,0,45,0,1
95634,-151.515151515152,4,2,0,5,0,1
95751,-100,4,2,0,45,0,1
101142,-100,4,2,0,20,0,1
101376,-100,4,2,0,45,0,1
102782,-151.515151515152,4,2,0,45,0,1
103251,-100,4,2,0,45,0,1
107001,-133.333333333333,4,3,0,45,0,0
118251,-100,4,3,0,45,0,0
135126,-66.6666666666667,4,3,0,45,0,0
136532,-133.333333333333,4,3,0,45,0,0
136884,-133.333333333333,4,3,0,5,0,0
137001,-100,4,3,0,45,0,0
150126,-66.6666666666667,4,3,0,45,0,0
151532,-133.333333333333,4,3,0,45,0,0
151884,-133.333333333333,4,3,0,5,0,0
152001,-111.111111111111,4,2,0,45,0,0
167001,-133.333333333333,4,3,0,45,0,0
167001,-133.333333333333,4,3,0,45,0,0
185634,-133.333333333333,4,3,0,5,0,0
185751,-133.333333333333,4,3,0,45,0,0
191142,-133.333333333333,4,3,0,20,0,0
191376,-133.333333333333,4,3,0,45,0,0
193134,-133.333333333333,4,3,0,5,0,0
193251,-133.333333333333,4,3,0,45,0,0
198642,-133.333333333333,4,3,0,20,0,0
198876,-133.333333333333,4,3,0,45,0,0
200634,-133.333333333333,4,3,0,5,0,0
200751,-133.333333333333,4,3,0,45,0,0
206142,-133.333333333333,4,3,0,20,0,0
206376,-133.333333333333,4,3,0,45,0,0
208134,-133.333333333333,4,3,0,5,0,0
208251,-133.333333333333,4,3,0,45,0,0
227001,-100,4,2,0,45,0,1
230282,-133.333333333333,4,2,0,45,0,1
230634,-133.333333333333,4,2,0,5,0,1
230751,-100,4,2,0,45,0,1
231220,-80,4,2,0,45,0,1
232157,-133.333333333333,4,2,0,45,0,1
233095,-100,4,2,0,45,0,1
235439,-66.6666666666667,4,2,0,45,0,1
235907,-100,4,2,0,45,0,1
237782,-133.333333333333,4,2,0,45,0,1
238134,-133.333333333333,4,2,0,5,0,1
238251,-100,4,2,0,45,0,1
238720,-80,4,2,0,45,0,1
239657,-100,4,2,0,45,0,1
240126,-133.333333333333,4,2,0,45,0,1
242001,-100,4,2,0,45,0,1
245282,-133.333333333333,4,2,0,45,0,1
245634,-133.333333333333,4,2,0,5,0,1
245751,-100,4,2,0,45,0,1
246220,-80,4,2,0,45,0,1
247157,-133.333333333333,4,2,0,45,0,1
248095,-100,4,2,0,45,0,1
250439,-66.6666666666667,4,2,0,45,0,1
250907,-100,4,2,0,45,0,1
252782,-133.333333333333,4,2,0,45,0,1
253134,-133.333333333333,4,2,0,5,0,1
253251,-100,4,2,0,45,0,1
253720,-80,4,2,0,45,0,1
254657,-100,4,2,0,45,0,1
257001,-133.333333333333,4,2,0,45,0,0
257001,-133.333333333333,4,3,0,45,0,0

[Colours]
Combo1 : 255,68,21
Combo2 : 255,104,32
Combo3 : 170,0,0
Combo4 : 252,54,54

[HitObjects]
472,8,2001,54,0,L|472:88,1,80,6|0,0:3|0:0,0:0:0:0:
472,168,2470,1,0,0:0:0:0:
472,248,2704,1,0,0:0:0:0:
400,288,2939,2,0,L|400:208,1,80,2|0,0:0|0:0,0:0:0:0:
400,128,3407,1,0,0:0:0:0:
400,48,3642,1,0,1:0:0:0:
304,224,3876,22,0,L|304:144,1,80,4|0,3:0|0:0,0:0:0:0:
304,64,4345,1,0,1:0:0:0:
400,288,4579,22,0,L|400:208,1,80,8|0,3:0|0:0,0:0:0:0:
400,128,5048,1,0,1:0:0:0:
480,128,5282,1,2,0:0:0:0:
480,208,5517,1,0,1:0:0:0:
320,128,5751,22,0,L|320:208,1,80,12|0,3:1|0:0,0:0:0:0:
320,288,6220,1,0,0:0:0:0:
320,368,6454,1,0,0:0:0:0:
400,368,6689,2,0,L|400:280,1,80,2|0,0:0|0:0,0:0:0:0:
400,208,7157,1,0,0:0:0:0:
400,128,7392,1,0,1:0:0:0:
480,312,7626,22,0,L|480:224,1,80,8|0,3:0|0:0,0:0:0:0:
480,152,8095,1,0,1:0:0:0:
400,368,8329,6,0,L|400:280,1,80,8|0,3:0|0:0,0:0:0:0:
400,208,8798,1,0,1:0:0:0:
320,208,9032,1,2,0:0:0:0:
320,288,9267,1,0,1:0:0:0:
480,208,9501,6,0,L|480:112,1,80,12|0,3:1|0:0,0:0:0:0:
480,48,9970,1,0,0:0:0:0:
400,48,10204,1,0,0:0:0:0:
400,128,10439,2,0,L|400:216,1,80,2|0,0:0|0:0,0:0:0:0:
400,288,10907,1,0,0:0:0:0:
400,368,11142,1,0,1:0:0:0:
480,184,11376,22,0,L|480:96,1,80,12|0,3:0|0:0,0:0:0:0:
480,24,11845,1,0,1:0:0:0:
400,248,12079,6,0,L|400:160,1,80,12|0,3:0|0:0,0:0:0:0:
400,88,12548,1,0,1:0:0:0:
320,88,12782,1,2,0:0:0:0:
320,168,13017,1,0,1:0:0:0:
480,88,13251,6,0,L|480:168,1,80,12|0,3:1|0:0,0:0:0:0:
480,248,13720,1,0,0:0:0:0:
480,328,13954,1,0,0:0:0:0:
400,336,14189,2,0,L|400:248,1,80,2|0,0:0|0:0,0:0:0:0:
400,176,14657,1,0,0:0:0:0:
400,96,14892,1,0,1:0:0:0:
304,272,15126,22,0,L|304:184,1,80,8|0,3:0|0:0,0:0:0:0:
304,112,15595,1,0,1:0:0:0:
400,336,15829,22,0,L|400:248,1,80,0|0,3:0|0:0,0:0:0:0:
400,176,16298,1,0,1:0:0:0:
320,176,16532,1,2,0:0:0:0:
320,256,16767,1,0,1:0:0:0:
120,256,17001,6,0,L|208:256,1,80,4|0,1:3|0:0,0:0:0:0:
200,176,17470,1,0,1:0:0:0:
120,176,17704,1,0,0:0:0:0:
40,256,17939,22,0,L|128:256,1,80,0|0,1:0|0:0,0:0:0:0:
120,176,18408,1,0,1:0:0:0:
40,176,18642,1,0,0:0:0:0:
40,96,18876,22,0,L|120:96,1,80,12|0,3:0|0:0,0:0:0:0:
40,16,19345,2,0,L|128:16,1,80,8|0,3:0|0:0,0:0:0:0:
40,96,19814,2,0,L|120:96,1,80,8|0,3:0|0:0,0:0:0:0:
40,16,20282,2,0,L|128:16,1,80,8|0,3:0|0:0,0:0:0:0:
208,184,20751,21,4,1:2:0:0:
128,184,20986,1,0,0:0:0:0:
128,264,21220,1,0,1:0:0:0:
208,264,21455,1,0,0:0:0:0:
208,344,21689,22,0,L|128:344,1,80,0|0,1:0|0:0,0:0:0:0:
128,264,22157,2,0,L|208:264,1,80,0|0,1:0|1:0,0:0:0:0:
48,184,22626,21,4,1:2:0:0:
48,264,22861,1,0,0:0:0:0:
136,184,23095,1,0,1:0:0:0:
136,104,23330,1,0,0:0:0:0:
56,24,23564,1,0,1:0:0:0:
56,104,23798,1,0,0:0:0:0:
216,24,24032,2,0,L|136:24,1,80,0|0,1:0|1:0,0:0:0:0:
136,104,24501,22,0,L|216:104,1,80,4|0,1:2|0:0,0:0:0:0:
136,184,24970,2,0,L|216:184,1,80,0|0,1:0|0:0,0:0:0:0:
216,264,25439,1,0,1:0:0:0:
136,264,25673,1,0,0:0:0:0:
136,344,25907,1,0,1:0:0:0:
56,344,26141,1,0,0:0:0:0:
56,264,26376,22,0,L|144:264,1,80,4|0,1:2|0:0,0:0:0:0:
216,184,26845,2,0,L|136:184,1,80,0|0,1:0|0:0,0:0:0:0:
56,264,27314,2,0,L|144:264,1,80,0|0,1:0|0:0,0:0:0:0:
216,184,27782,2,0,L|136:184,1,80,0|0,1:0|1:0,0:0:0:0:
56,104,28251,22,0,L|136:104,1,80,4|0,1:2|0:0,0:0:0:0:
216,104,28720,1,0,1:0:0:0:
216,24,28954,1,0,0:0:0:0:
136,24,29189,2,0,L|56:24,1,80,0|0,1:0|0:0,0:0:0:0:
56,104,29657,1,0,1:0:0:0:
136,104,29892,1,0,0:0:0:0:
216,184,30126,21,4,1:2:0:0:
136,184,30360,1,0,0:0:0:0:
56,264,30595,1,0,1:0:0:0:
136,264,30829,1,0,0:0:0:0:
216,344,31064,1,0,1:0:0:0:
136,344,31298,1,0,0:0:0:0:
56,264,31532,2,0,L|136:264,1,80,0|0,1:0|1:0,0:0:0:0:
320,344,32001,6,0,L|320:80,1,240,4|0,1:2|0:0,0:0:0:0:
320,24,32939,2,0,L|320:112,1,80,2|0,1:2|0:0,0:0:0:0:
392,136,33407,2,0,L|392:224,1,80,2|0,1:2|1:0,0:0:0:0:
312,360,33876,21,4,1:2:0:0:
392,360,34111,1,0,0:0:0:0:
472,360,34345,2,0,L|472:120,1,240,0|0,1:0|0:0,0:0:0:0:
472,40,35282,1,0,1:0:0:0:
392,40,35517,1,0,0:0:0:0:
312,40,35751,22,0,L|312:288,1,240,4|0,1:2|0:0,0:0:0:0:
312,360,36689,2,0,L|312:272,1,80,2|0,1:2|0:0,0:0:0:0:
312,200,37157,2,0,L|312:112,1,80,2|0,1:2|1:0,0:0:0:0:
312,40,37626,22,0,L|312:360,1,320,4|0,1:2|0:0,0:0:0:0:
392,360,39032,1,0,1:0:0:0:
472,360,39267,1,0,0:0:0:0:
312,360,39501,38,0,L|312:120,1,240,4|0,1:2|0:0,0:0:0:0:
312,40,40439,2,0,L|312:128,1,80,2|0,1:2|0:0,0:0:0:0:
384,152,40907,2,0,L|384:240,1,80,2|0,1:2|1:0,0:0:0:0:
472,368,41376,5,4,1:2:0:0:
392,368,41611,1,0,0:0:0:0:
312,368,41845,2,0,L|312:128,1,240,0|0,1:0|0:0,0:0:0:0:
312,48,42782,1,0,1:0:0:0:
392,48,43017,1,0,0:0:0:0:
472,48,43251,38,0,L|472:296,1,240,4|0,1:2|0:0,0:0:0:0:
472,368,44189,1,0,1:0:0:0:
392,368,44423,1,0,0:0:0:0:
312,368,44657,2,0,L|312:216,1,120,0|0,1:0|0:0,0:0:0:0:
392,368,45126,6,0,L|392:48,1,320,4|0,1:2|0:0,0:0:0:0:
312,48,46532,1,0,1:0:0:0:
312,128,46767,1,0,0:0:0:0:
48,128,47001,6,0,L|136:128,1,80,4|0,1:2|0:0,0:0:0:0:
208,128,47470,1,0,1:0:0:0:
208,208,47704,1,0,0:0:0:0:
48,208,47939,2,0,L|136:208,1,80,2|0,1:2|0:0,0:0:0:0:
48,288,48407,2,0,L|144:288,1,80,2|0,1:2|1:0,0:0:0:0:
208,288,48876,22,0,L|128:288,1,80,4|0,1:2|0:0,0:0:0:0:
48,288,49345,1,0,1:0:0:0:
48,208,49579,1,0,0:0:0:0:
128,128,49814,1,0,1:0:0:0:
128,208,50048,1,0,0:0:0:0:
48,128,50282,2,0,L|128:128,1,80,0|0,1:0|1:0,0:0:0:0:
208,128,50751,21,4,1:2:0:0:
208,208,50986,1,0,0:0:0:0:
208,128,51220,1,0,1:0:0:0:
208,48,51454,1,0,0:0:0:0:
48,48,51689,2,0,L|144:48,1,80,0|0,1:0|0:0,0:0:0:0:
48,208,52157,1,0,1:0:0:0:
128,208,52391,1,0,1:0:0:0:
208,128,52626,22,0,L|48:128,1,160,4|0,1:2|0:0,0:0:0:0:
48,288,53329,2,0,L|208:288,1,160,4|0,1:2|0:0,0:0:0:0:
208,208,54032,1,0,1:0:0:0:
128,208,54267,1,0,1:0:0:0:
48,288,54501,22,0,L|208:288,1,160,4|0,1:2|1:0,0:0:0:0:
208,208,55204,1,0,0:0:0:0:
128,128,55439,1,0,1:0:0:0:
128,208,55673,1,0,0:0:0:0:
208,128,55907,1,0,1:0:0:0:
208,48,56141,1,0,1:0:0:0:
48,128,56376,22,0,L|144:128,1,80,4|0,1:2|0:0,0:0:0:0:
128,48,56845,1,0,1:0:0:0:
128,208,57079,1,0,0:0:0:0:
208,128,57314,2,0,L|112:128,1,80,0|0,1:0|0:0,0:0:0:0:
48,208,57782,1,0,1:0:0:0:
128,208,58017,1,0,1:0:0:0:
208,208,58251,22,0,L|112:208,1,80,2|0,1:2|0:0,0:0:0:0:
128,288,58720,2,0,L|224:288,1,80,2|0,1:2|0:0,0:0:0:0:
208,208,59189,1,0,1:0:0:0:
128,208,59423,1,0,0:0:0:0:
48,128,59657,1,0,1:0:0:0:
128,128,59891,1,0,1:0:0:0:
128,48,60126,22,0,L|48:48,1,80,4|0,1:2|0:0,0:0:0:0:
128,208,60595,2,0,L|48:208,1,80,2|0,1:2|0:0,0:0:0:0:
128,368,61064,2,0,L|48:368,1,80,2|0,1:2|0:0,0:0:0:0:
48,288,61532,1,0,1:0:0:0:
128,288,61767,1,0,0:0:0:0:
320,344,62001,6,0,L|320:264,1,80,12|0,3:0|0:0,0:0:0:0:
400,272,62470,1,8,3:0:0:0:
400,192,62704,1,0,0:0:0:0:
480,192,62939,2,0,L|480:24,1,160,8|0,3:0|0:0,0:0:0:0:
400,32,63642,2,2,L|400:0,3,20,2|2|2|2,0:2|0:2|0:2|0:2,0:2:0:0:
376,48,63876,22,0,L|376:136,1,80,12|0,3:0|0:0,0:0:0:0:
456,136,64345,2,0,L|456:224,1,80,10|0,3:0|0:0,0:0:0:0:
376,216,64814,22,0,L|376:304,1,80,12|0,3:0|0:0,0:0:0:0:
296,216,65282,2,0,L|296:320,1,83.9999974365235,10|0,3:0|0:0,0:0:0:0:
376,136,65751,22,0,L|376:48,1,80,12|0,3:0|0:0,0:0:0:0:
296,56,66220,1,8,3:0:0:0:
296,136,66454,1,0,0:0:0:0:
376,136,66689,2,0,L|376:312,1,160,8|0,3:0|0:0,0:0:0:0:
448,336,67392,1,2,0:0:0:0:
448,320,67509,1,2,0:0:0:0:
448,304,67626,22,0,L|448:208,1,80,12|0,3:0|0:0,0:0:0:0:
448,144,68095,2,0,L|448:48,1,80,8|0,3:0|0:0,0:0:0:0:
368,64,68564,22,0,L|368:144,1,80,12|0,3:0|0:0,0:0:0:0:
368,224,69033,2,0,L|368:304,1,80,8|0,3:0|0:0,0:0:0:0:
480,344,69501,21,12,0:0:0:0:
480,184,69736,1,0,0:0:0:0:
480,264,69970,1,8,0:0:0:0:
480,104,70204,1,0,0:0:0:0:
480,264,70439,5,12,0:0:0:0:
480,104,70674,1,0,0:0:0:0:
480,184,70908,1,8,0:0:0:0:
480,24,71142,2,0,L|480:0,2,20,0|0|8,0:0|0:0|0:0,0:0:0:0:
400,24,71376,5,12,0:0:0:0:
400,183,71611,1,0,0:0:0:0:
400,104,71845,1,8,0:0:0:0:
400,264,72079,1,0,0:0:0:0:
400,104,72314,21,12,0:0:0:0:
400,264,72549,1,0,0:0:0:0:
400,183,72783,1,0,0:0:0:0:
400,344,73017,2,0,L|400:384,1,40,0|8,0:0|0:0,0:0:0:0:
304,344,73251,21,12,0:0:0:0:
304,324,73368,1,0,0:0:0:0:
304,304,73485,1,0,0:0:0:0:
304,284,73602,1,0,0:0:0:0:
336,256,73720,21,12,0:0:0:0:
336,236,73837,1,0,0:0:0:0:
336,216,73954,1,0,0:0:0:0:
336,196,74071,1,0,0:0:0:0:
368,176,74189,5,12,0:0:0:0:
368,156,74306,1,0,0:0:0:0:
368,136,74423,1,0,0:0:0:0:
368,116,74540,1,0,0:0:0:0:
400,96,74657,5,12,0:0:0:0:
400,76,74774,1,0,0:0:0:0:
400,56,74891,1,8,0:0:0:0:
400,36,75008,1,8,0:0:0:0:
432,16,75126,22,0,L|432:64,3,40,12|0|0|0,0:0|0:0|0:0|0:0,0:0:0:0:
432,96,75595,2,0,L|432:144,3,40,12|0|0|0,0:0|0:0|0:0|0:0,0:0:0:0:
432,176,76064,2,0,L|432:224,3,40,12|0|0|0,0:0|0:0|0:0|0:0,0:0:0:0:
432,296,76532,1,12,0:0:0:0:
320,296,76767,1,2,0:0:0:0:
40,352,77001,6,0,L|128:352,1,80,12|0,2:1|0:0,0:0:0:0:
224,256,77470,1,8,0:0:0:0:
40,136,77704,1,0,0:0:0:0:
40,256,77939,1,8,0:0:0:0:
120,256,78173,1,0,0:0:0:0:
40,56,78407,1,8,0:0:0:0:
40,136,78642,2,2,L|72:136,2,20,2|2|2,0:2|0:2|0:2,0:2:0:0:
136,136,78876,21,12,1:2:0:0:
216,136,79111,1,0,0:0:0:0:
216,216,79345,2,0,L|128:216,1,80,8|0,0:0|0:0,0:0:0:0:
40,320,79814,2,0,L|120:320,1,80,8|0,0:0|0:0,0:0:0:0:
208,344,80282,2,2,L|136:344,1,60,8|0,0:0|0:0,0:2:0:0:
40,320,80751,22,0,L|128:320,1,80,12|0,1:2|0:0,0:0:0:0:
216,216,81220,2,0,L|128:216,1,80,8|0,0:0|0:0,0:0:0:0:
48,120,81689,1,8,0:0:0:0:
48,216,81923,1,0,0:0:0:0:
208,128,82157,1,8,0:0:0:0:
128,40,82392,1,10,0:0:0:0:
88,40,82509,1,2,0:0:0:0:
48,40,82626,22,0,L|136:40,1,80,12|0,2:1|0:0,0:0:0:0:
216,216,83095,2,0,L|128:216,1,80,8|0,0:0|0:0,0:0:0:0:
48,120,83564,2,0,L|136:120,1,80,8|0,0:0|0:0,0:0:0:0:
216,296,84033,2,0,L|128:296,1,80,8|0,0:0|0:0,0:0:0:0:
56,216,84501,22,0,L|152:216,1,80,12|0,1:2|0:0,0:0:0:0:
216,296,84970,1,8,0:0:0:0:
136,296,85204,1,0,0:0:0:0:
216,128,85439,1,8,0:0:0:0:
216,208,85673,1,0,0:0:0:0:
136,48,85907,1,8,0:0:0:0:
216,48,86142,2,2,L|248:48,2,20,2|2|2,0:2|0:2|0:2,0:2:0:0:
216,128,86376,22,0,L|136:128,1,80,12|0,1:2|0:0,0:0:0:0:
56,216,86845,2,0,L|136:216,1,80,8|0,0:0|0:0,0:0:0:0:
48,48,87314,1,8,0:0:0:0:
128,48,87548,1,0,0:0:0:0:
136,128,87782,2,2,L|64:128,1,60,8|0,0:0|0:0,0:2:0:0:
128,168,88251,22,0,L|208:168,1,80,12|0,2:1|0:0,0:0:0:0:
112,248,88720,2,0,L|16:248,1,80,8|0,0:0|0:0,0:0:0:0:
112,328,89189,1,8,0:0:0:0:
192,328,89423,1,0,0:0:0:0:
192,248,89657,1,8,0:0:0:0:
112,248,89892,1,10,0:0:0:0:
72,248,90009,1,2,0:0:0:0:
32,248,90126,22,0,L|128:248,1,80,12|0,3:0|0:0,0:0:0:0:
208,88,90595,2,0,L|112:88,1,80,8|0,3:0|0:0,0:0:0:0:
104,120,90947,1,0,0:0:0:0:
72,144,91064,21,8,0:0:0:0:
92,144,91181,1,0,0:0:0:0:
112,144,91298,1,8,0:0:0:0:
132,144,91415,1,0,0:0:0:0:
152,144,91532,1,10,0:0:0:0:
176,264,91767,1,8,3:0:0:0:
216,264,91884,1,8,3:0:0:0:
312,304,92001,6,0,L|312:208,1,80,12|0,3:1|0:0,0:0:0:0:
392,144,92470,2,0,L|392:224,1,80,8|0,0:0|0:0,0:0:0:0:
392,336,92939,1,8,0:0:0:0:
472,336,93173,1,0,0:0:0:0:
392,144,93407,1,8,0:0:0:0:
312,144,93642,2,2,L|312:112,2,20,2|2|2,0:2|0:2|0:2,0:2:0:0:
312,64,93876,22,0,L|312:152,1,80,12|0,1:2|0:0,0:0:0:0:
392,144,94345,2,0,L|392:232,1,80,8|0,0:0|0:0,0:0:0:0:
392,304,94814,1,8,0:0:0:0:
472,304,95048,1,0,0:0:0:0:
392,224,95282,2,2,L|392:136,1,79.1999997583008,8|0,0:0|0:0,0:2:0:0:
312,64,95751,22,0,L|312:160,1,80,12|0,1:2|0:0,0:0:0:0:
312,224,96220,2,0,L|312:320,1,80,8|0,0:0|0:0,0:0:0:0:
392,304,96689,1,8,0:0:0:0:
392,224,96923,1,0,0:0:0:0:
312,56,97157,1,8,0:0:0:0:
312,168,97391,1,10,0:0:0:0:
312,208,97509,1,2,0:0:0:0:
312,248,97626,22,0,L|312:328,1,80,12|0,1:2|0:0,0:0:0:0:
488,248,98095,2,0,L|488:328,1,80,8|0,0:0|0:0,0:0:0:0:
312,248,98564,22,0,L|312:328,1,80,12|0,1:2|0:0,0:0:0:0:
488,248,99032,2,0,L|488:328,1,80,8|0,0:0|0:0,0:0:0:0:
400,168,99501,22,0,L|400:88,1,80,12|0,1:2|0:0,0:0:0:0:
312,160,99970,2,0,L|312:240,1,80,8|0,0:0|0:0,0:0:0:0:
312,352,100439,1,8,0:0:0:0:
392,352,100673,1,0,0:0:0:0:
504,176,100907,1,8,0:0:0:0:
424,176,101142,2,2,L|424:144,2,20,2|2|2,0:2|0:2|0:2,0:2:0:0:
424,96,101376,22,0,L|424:184,1,80,12|0,1:2|0:0,0:0:0:0:
424,256,101845,2,0,L|424:344,1,80,8|0,0:0|0:0,0:0:0:0:
344,336,102314,1,8,0:0:0:0:
344,256,102548,1,0,0:0:0:0:
424,336,102782,2,2,L|424:256,1,79.1999997583008,8|0,0:0|0:0,0:2:0:0:
488,200,103251,22,0,L|488:104,1,80,12|0,1:2|0:0,0:0:0:0:
408,112,103720,2,0,L|408:16,1,80,8|0,0:0|0:0,0:0:0:0:
328,32,104189,1,8,0:0:0:0:
328,112,104423,1,0,0:0:0:0:
456,248,104657,1,8,0:0:0:0:
328,272,104892,1,10,0:0:0:0:
328,232,105009,1,2,0:0:0:0:
328,192,105126,22,0,L|328:112,1,80,12|0,1:2|0:0,0:0:0:0:
504,192,105595,2,0,L|504:104,1,80,8|0,0:0|0:0,0:0:0:0:
328,192,106064,22,0,L|328:104,1,80,12|0,1:2|0:0,0:0:0:0:
504,192,106532,2,0,L|504:112,1,80,8|0,0:0|0:0,0:0:0:0:
216,328,107001,6,0,L|72:328,1,120.000004577637,14|10,0:0|0:0,0:0:0:0:
96,240,107939,2,0,L|240:240,1,120.000004577637,10|10,0:0|0:0,0:0:0:0:
216,328,108876,2,0,L|72:328,1,120.000004577637,10|10,0:0|0:0,0:0:0:0:
96,240,109814,2,0,L|240:240,1,120.000004577637,10|10,0:0|0:0,0:0:0:0:
216,152,110751,22,0,L|144:152,1,60.0000022888184,6|0,0:0|0:0,0:0:0:0:
72,152,111220,2,0,L|0:152,1,60.0000022888184,2|0,0:0|0:0,0:0:0:0:
16,64,111689,2,0,L|88:64,1,60.0000022888184,2|0,0:0|0:0,0:0:0:0:
160,64,112158,2,0,L|232:64,1,60.0000022888184,2|0,0:0|0:0,0:0:0:0:
160,152,112626,22,0,L|232:152,1,60.0000022888184,6|0,0:0|0:0,0:0:0:0:
12,152,113095,2,0,L|84:152,1,60.0000022888184,2|0,0:0|0:0,0:0:0:0:
72,240,113564,2,0,L|0:240,1,60.0000022888184,2|0,0:0|0:0,0:0:0:0:
220,240,114033,2,0,L|148:240,1,60.0000022888184,2|0,0:0|0:0,0:0:0:0:
16,328,114501,21,14,0:0:0:0:
76,328,114735,1,2,0:0:0:0:
136,328,114969,1,8,0:0:0:0:
196,328,115204,1,2,0:0:0:0:
220,240,115439,21,14,0:0:0:0:
160,240,115673,1,2,0:0:0:0:
100,240,115907,1,8,0:0:0:0:
40,240,116142,1,2,0:0:0:0:
8,152,116376,21,14,0:0:0:0:
68,152,116610,1,2,0:0:0:0:
128,152,116844,1,8,0:0:0:0:
188,152,117079,1,2,0:0:0:0:
240,72,117314,2,0,L|176:72,1,60.0000022888184,2|0,0:0|0:0,0:0:0:0:
88,72,117782,2,0,L|24:72,1,60.0000022888184,2|0,0:0|0:0,0:0:0:0:
188,152,118251,22,0,L|236:152,3,40,12|0|0|0,0:0|0:0|0:0|0:0,0:0:0:0:
104,200,118720,2,0,L|56:200,3,40,12|0|0|0,0:0|0:0|0:0|0:0,0:0:0:0:
184,272,119189,2,0,L|232:272,3,40,12|0|0|0,0:0|0:0|0:0|0:0,0:0:0:0:
64,360,119657,1,12,0:0:0:0:
64,320,119774,1,0,0:0:0:0:
64,280,119891,1,0,0:0:0:0:
64,240,120008,1,0,0:0:0:0:
64,200,120126,22,0,L|112:200,3,40,12|0|0|0,0:0|0:0|0:0|0:0,0:0:0:0:
224,128,120595,2,0,L|176:128,3,40,12|0|0|0,0:0|0:0|0:0|0:0,0:0:0:0:
80,96,121064,1,12,0:0:0:0:
224,280,121298,21,12,0:1:0:0:
224,48,121532,2,0,L|128:48,1,80,12|0,0:1|0:0,0:0:0:0:
328,128,122001,5,12,0:0:0:0:
328,88,122118,1,2,0:0:0:0:
328,48,122236,1,8,0:0:0:0:
328,168,122470,6,0,L|328:256,1,80,12|0,0:0|0:0,0:0:0:0:
432,312,122939,2,0,L|432:232,1,80,8|0,0:0|0:0,0:0:0:0:
328,88,123407,6,0,L|328:176,1,80,12|0,0:0|0:0,0:0:0:0:
432,232,123876,2,0,L|432:152,1,80,8|0,0:0|0:0,0:0:0:0:
328,8,124345,22,0,L|328:96,1,80,12|0,0:0|0:0,0:0:0:0:
432,152,124814,1,8,0:0:0:0:
432,112,124931,1,2,0:0:0:0:
432,72,125048,1,8,0:0:0:0:
432,232,125282,1,12,0:0:0:0:
328,192,125751,21,12,0:0:0:0:
328,231,125868,1,2,0:0:0:0:
328,271,125986,1,8,0:0:0:0:
328,152,126220,22,0,L|327:63,1,80,12|0,0:0|0:0,0:0:0:0:
432,8,126689,2,0,L|432:87,1,80,8|0,0:0|0:0,0:0:0:0:
328,231,127157,22,0,L|328:143,1,80,12|0,0:0|0:0,0:0:0:0:
432,87,127626,2,0,L|432:167,1,80,8|0,0:0|0:0,0:0:0:0:
328,311,128095,22,0,L|328:223,1,80,12|0,0:0|0:0,0:0:0:0:
432,167,128564,1,8,0:0:0:0:
432,207,128681,1,2,0:0:0:0:
432,247,128798,1,8,0:0:0:0:
432,88,129032,1,12,0:0:0:0:
432,328,129267,1,12,0:0:0:0:
328,288,129501,21,12,0:0:0:0:
328,248,129618,1,2,0:0:0:0:
328,208,129736,1,8,0:0:0:0:
448,176,129970,22,0,L|448:256,1,80,12|0,0:0|0:0,0:0:0:0:
328,248,130439,2,0,L|328:168,1,80,8|0,0:0|0:0,0:0:0:0:
448,96,130907,22,0,L|448:176,1,80,12|0,0:0|0:0,0:0:0:0:
328,168,131376,2,0,L|328:88,1,80,8|0,0:0|0:0,0:0:0:0:
448,16,131845,22,0,L|448:96,1,80,12|0,0:0|0:0,0:0:0:0:
328,88,132314,1,8,0:0:0:0:
328,48,132431,1,2,0:0:0:0:
328,8,132548,1,8,0:0:0:0:
328,168,132782,1,12,0:0:0:0:
432,208,133251,21,12,0:0:0:0:
432,248,133368,1,2,0:0:0:0:
432,288,133485,1,8,0:0:0:0:
328,352,133720,22,0,L|328:272,1,80,12|0,0:0|0:0,0:0:0:0:
432,288,134189,2,0,L|432:208,1,80,8|0,0:0|0:0,0:0:0:0:
432,88,134657,2,0,L|432:168,1,80,8|0,0:0|0:0,0:0:0:0:
320,208,135126,22,0,L|320:16,1,180.000006866455,12|0,0:0|0:0,0:0:0:0:
432,88,135595,2,0,L|432:268,1,180.000006866455,12|0,0:0|0:0,0:0:0:0:
320,360,136064,6,0,L|320:280,1,60.0000022888184,8|0,0:0|0:0,0:0:0:0:
320,208,136299,1,6,0:0:0:0:
320,28,136532,2,0,L|320:124,1,90.0000034332277,12|0,0:0|0:0,0:0:0:0:
208,184,137001,22,0,L|120:184,1,80,12|0,0:0|0:0,0:0:0:0:
48,96,137470,2,0,L|136:96,1,80,8|0,0:0|0:0,0:0:0:0:
208,272,137939,22,0,L|120:272,1,80,12|0,0:0|0:0,0:0:0:0:
48,184,138408,2,0,L|136:184,1,80,8|0,0:0|0:0,0:0:0:0:
208,360,138876,22,0,L|120:360,1,80,12|0,0:0|0:0,0:0:0:0:
48,272,139345,2,0,L|136:272,1,80,8|0,0:0|0:0,0:0:0:0:
128,360,139814,1,8,0:0:0:0:
88,360,139931,1,2,0:0:0:0:
48,360,140048,1,8,0:0:0:0:
208,360,140282,1,12,0:0:0:0:
128,184,140751,21,12,0:0:0:0:
88,184,140868,1,2,0:0:0:0:
48,184,140985,1,8,0:0:0:0:
208,184,141220,2,0,L|128:184,1,80,8|0,0:0|0:0,0:0:0:0:
128,96,141689,2,0,L|48:96,1,80,8|0,0:0|0:0,0:0:0:0:
208,96,142157,1,8,0:0:0:0:
208,272,142392,1,12,0:0:0:0:
128,184,142626,22,0,L|208:184,1,80,12|0,0:0|0:0,0:0:0:0:
128,272,143095,2,0,L|48:272,1,80,8|0,0:0|0:0,0:0:0:0:
48,184,143564,1,8,0:0:0:0:
88,184,143681,1,2,0:0:0:0:
128,184,143798,1,8,0:0:0:0:
208,352,144032,1,12,0:0:0:0:
48,352,144267,1,12,0:0:0:0:
128,184,144501,21,12,0:0:0:0:
168,184,144618,1,2,0:0:0:0:
208,184,144735,1,8,0:0:0:0:
128,272,144970,2,0,L|48:272,1,80,8|0,0:0|0:0,0:0:0:0:
128,352,145439,2,0,L|208:352,1,80,8|0,0:0|0:0,0:0:0:0:
208,184,145907,1,12,0:0:0:0:
128,184,146142,1,8,0:0:0:0:
128,104,146376,22,0,L|216:104,1,80,12|0,0:0|0:0,0:0:0:0:
128,184,146845,2,0,L|40:184,1,80,8|0,0:0|0:0,0:0:0:0:
128,24,147314,1,8,0:0:0:0:
168,24,147431,1,2,0:0:0:0:
208,24,147548,1,8,0:0:0:0:
40,24,147782,1,12,0:0:0:0:
128,184,148251,21,12,0:0:0:0:
168,184,148368,1,2,0:0:0:0:
208,184,148485,1,8,0:0:0:0:
48,184,148720,1,12,0:0:0:0:
208,104,148954,1,12,0:0:0:0:
208,272,149189,22,0,L|128:272,1,80,12|0,0:0|0:0,0:0:0:0:
48,352,149657,2,0,L|128:352,1,80,8|0,0:0|0:0,0:0:0:0:
208,184,150126,22,0,L|16:184,1,180.000006866455,12|0,0:0|0:0,0:0:0:0:
28,104,150595,2,0,L|208:104,1,180.000006866455,12|0,0:0|0:0,0:0:0:0:
208,184,151064,22,0,L|136:184,1,60.0000022888184
28,184,151298,1,6,0:0:0:0:
208,104,151532,2,0,L|112:104,1,90.0000034332277,12|0,0:0|0:0,0:0:0:0:
312,104,152001,6,0,L|312:320,1,215.999993408203,4|0,1:2|0:0,0:0:0:0:
392,328,152939,2,0,L|392:248,1,71.9999978027344,2|0,1:2|0:0,0:0:0:0:
472,256,153407,2,0,L|472:176,1,71.9999978027344,2|0,1:2|1:0,0:0:0:0:
472,40,153876,21,4,1:2:0:0:
392,40,154111,1,0,0:0:0:0:
312,40,154345,1,0,1:0:0:0:
472,120,154579,2,0,L|472:264,1,143.999995605469,4|0,1:2|0:0,0:0:0:0:
472,344,155282,1,0,1:0:0:0:
392,344,155517,1,0,0:0:0:0:
312,344,155751,22,0,L|312:128,1,215.999993408203,4|0,1:2|0:0,0:0:0:0:
392,120,156689,2,0,L|392:208,1,71.9999978027344,2|0,1:2|0:0,0:0:0:0:
392,272,157157,2,0,L|392:360,1,71.9999978027344,2|0,1:2|1:0,0:0:0:0:
312,224,157626,21,4,1:2:0:0:
312,144,157861,1,0,0:0:0:0:
312,64,158095,1,2,1:0:0:0:
392,224,158329,2,0,L|392:72,1,143.999995605469,4|0,1:2|0:0,0:0:0:0:
472,72,159032,1,0,1:0:0:0:
472,152,159267,1,0,0:0:0:0:
392,152,159501,22,0,L|392:368,1,215.999993408203,4|0,1:2|0:0,0:0:0:0:
472,368,160439,2,0,L|472:280,1,71.9999978027344,2|0,1:2|0:0,0:0:0:0:
392,296,160907,2,0,L|392:208,1,71.9999978027344,2|0,1:2|1:0,0:0:0:0:
312,104,161376,21,4,1:2:0:0:
392,104,161611,1,0,0:0:0:0:
472,104,161845,1,0,1:0:0:0:
312,184,162079,2,0,L|312:336,1,143.999995605469,4|0,1:2|0:0,0:0:0:0:
392,328,162782,1,0,1:0:0:0:
472,328,163017,1,0,0:0:0:0:
472,248,163251,22,0,L|472:32,1,215.999993408203,4|0,1:2|0:0,0:0:0:0:
392,32,164189,2,0,L|392:104,1,71.9999978027344,2|0,1:2|0:0,0:0:0:0:
312,104,164657,2,0,L|312:176,1,71.9999978027344,2|0,1:2|1:0,0:0:0:0:
312,320,165126,21,4,1:2:0:0:
392,320,165361,1,0,0:0:0:0:
472,320,165595,1,0,1:0:0:0:
312,240,165829,1,4,1:2:0:0:
376,192,166064,5,0,1:0:0:0:
376,152,166298,1,2,0:0:0:0:
376,112,166532,1,0,1:0:0:0:
376,72,166767,1,2,0:0:0:0:
216,192,167001,22,0,L|144:192,1,60.0000022888184,12|0,2:0|0:0,0:0:0:0:
72,192,167470,2,0,L|12:192,1,60.0000022888184,2|0,0:0|0:0,0:0:0:0:
12,104,167939,2,0,L|72:104,1,60.0000022888184,2|0,0:0|0:0,0:0:0:0:
156,104,168408,2,0,L|216:104,1,60.0000022888184,2|0,0:0|1:0,0:0:0:0:
216,360,168876,22,0,L|144:360,1,60.0000022888184,6|0,0:0|0:0,0:0:0:0:
72,360,169345,2,0,L|12:360,1,60.0000022888184,2|0,0:0|0:0,0:0:0:0:
12,272,169814,2,0,L|72:272,1,60.0000022888184,2|0,0:0|0:0,0:0:0:0:
156,272,170283,1,2,0:0:0:0:
216,272,170517,1,0,0:0:0:0:
156,192,170751,22,0,L|216:192,1,60.0000022888184,6|0,0:0|0:0,0:0:0:0:
12,192,171220,2,0,L|72:192,1,60.0000022888184,2|0,0:0|0:0,0:0:0:0:
72,104,171689,2,0,L|12:104,1,60.0000022888184,2|0,0:0|0:0,0:0:0:0:
216,104,172158,2,0,L|156:104,1,60.0000022888184,2|0,0:0|1:0,0:0:0:0:
156,360,172626,22,0,L|216:360,1,60.0000022888184,6|0,0:0|0:0,0:0:0:0:
12,360,173095,2,0,L|72:360,1,60.0000022888184,2|0,0:0|0:0,0:0:0:0:
72,272,173564,2,0,L|12:272,1,60.0000022888184,2|0,0:0|0:0,0:0:0:0:
216,272,174033,1,2,0:0:0:0:
156,272,174267,1,0,1:0:0:0:
156,104,174501,22,0,L|216:104,1,60.0000022888184,6|0,0:0|0:0,0:0:0:0:
12,104,174970,2,0,L|72:104,1,60.0000022888184,2|0,0:0|0:0,0:0:0:0:
72,192,175439,2,0,L|12:192,1,60.0000022888184,2|0,0:0|0:0,0:0:0:0:
216,192,175908,2,0,L|156:192,1,60.0000022888184,2|0,0:0|1:0,0:0:0:0:
12,104,176376,22,0,L|152:104,1,120.000004577637,6|0,0:0|0:0,0:0:0:0:
216,192,177079,2,0,L|76:192,1,120.000004577637,6|0,0:0|0:0,0:0:0:0:
132,104,177782,2,0,L|212:104,1,60.0000022888184,2|0,0:0|1:0,0:0:0:0:
96,192,178251,22,0,L|16:192,1,60.0000022888184,6|0,0:0|0:0,0:0:0:0:
152,280,178720,2,0,L|212:280,1,60.0000022888184,2|0,0:0|0:0,0:0:0:0:
96,368,179189,2,0,L|36:368,1,60.0000022888184,2|0,0:0|0:0,0:0:0:0:
152,280,179657,1,2,0:0:0:0:
212,280,179891,1,0,1:0:0:0:
96,192,180126,22,0,L|36:192,1,60.0000022888184,6|0,0:0|0:0,0:0:0:0:
160,112,180595,2,0,L|240:112,1,60.0000022888184,2|0,0:0|0:0,0:0:0:0:
32,112,181064,1,2,0:0:0:0:
32,192,181298,1,0,0:0:0:0:
32,272,181532,2,0,L|72:272,1,30.0000011444092,2|0,0:0|0:0,0:0:0:0:
160,272,181767,2,0,L|200:272,1,30.0000011444092,2|0,0:0|0:0,0:0:0:0:
304,264,182001,6,0,L|304:136,1,120.000004577637,12|2,0:0|0:0,0:0:0:0:
304,64,182704,1,0,0:0:0:0:
304,144,182939,1,2,0:0:0:0:
384,144,183173,1,0,0:0:0:0:
384,64,183407,1,8,0:0:0:0:
472,64,183642,22,0,L|472:192,1,120.000004577637,12|2,0:0|0:0,0:0:0:0:
472,264,184345,1,2,0:0:0:0:
472,344,184579,1,0,0:0:0:0:
384,264,184814,1,2,0:0:0:0:
384,184,185048,1,0,0:0:0:0:
304,184,185282,2,0,L|304:296,1,90.0000034332277,2|0,0:0|0:0,0:0:0:0:
384,184,185751,22,0,L|384:64,1,120.000004577637,12|2,0:0|0:0,0:0:0:0:
304,64,186454,1,0,0:0:0:0:
384,63,186689,1,2,0:0:0:0:
304,64,186923,5,0,0:0:0:0:
304,144,187157,1,2,0:0:0:0:
304,224,187392,1,2,0:0:0:0:
304,264,187509,1,2,0:0:0:0:
304,304,187626,6,0,L|304:368,1,60.0000022888184,12|0,0:0|0:0,0:0:0:0:
392,304,188095,2,0,L|392:244,1,60.0000022888184,8|0,0:0|0:0,0:0:0:0:
472,312,188564,22,0,L|472:372,1,60.0000022888184,8|0,0:0|0:0,0:0:0:0:
392,304,189032,1,2,0:0:0:0:
392,224,189267,1,2,0:0:0:0:
392,80,189501,22,0,L|392:152,1,60.0000022888184,12|0,0:0|0:0,0:0:0:0:
392,224,189970,1,2,0:0:0:0:
472,224,190204,1,0,0:0:0:0:
472,144,190439,2,0,L|472:24,1,120.000004577637,2|0,0:0|0:0,0:0:0:0:
392,24,191142,2,0,L|392:0,2,15.0000005722046
368,48,191376,21,12,0:0:0:0:
336,168,191611,1,8,0:0:0:0:
416,168,191845,1,2,0:0:0:0:
496,168,192079,1,0,0:0:0:0:
496,248,192314,2,0,L|496:328,1,60.0000022888184,2|0,0:0|0:0,0:0:0:0:
416,168,192782,2,0,L|416:264,1,90.0000034332277,2|0,0:0|0:0,0:0:0:0:
336,168,193251,22,0,L|336:96,1,60.0000022888184,12|0,0:0|0:0,0:0:0:0:
336,27,193720,1,2,0:0:0:0:
416,24,193954,1,0,0:0:0:0:
496,24,194189,2,0,L|496:96,1,60.0000022888184,2|0,0:0|0:0,0:0:0:0:
496,164,194657,1,2,0:0:0:0:
496,248,194892,1,2,0:0:0:0:
456,248,195009,1,2,0:0:0:0:
416,248,195126,22,0,L|416:176,1,60.0000022888184,12|0,0:0|0:0,0:0:0:0:
344,152,195595,2,0,L|344:80,1,60.0000022888184,8|0,0:0|0:0,0:0:0:0:
416,56,196064,22,0,L|416:120,1,60.0000022888184,8|0,0:0|0:0,0:0:0:0:
344,152,196532,2,0,L|344:216,1,60.0000022888184,8|0,0:0|0:0,0:0:0:0:
208,344,197001,6,0,L|144:344,1,60.0000022888184,6|0,0:0|0:0,0:0:0:0:
152,248,197470,2,0,L|216:248,1,60.0000022888184,2|0,0:0|0:0,0:0:0:0:
68,296,197939,2,0,L|8:296,1,60.0000022888184,2|0,0:0|0:0,0:0:0:0:
8,192,198407,1,2,0:0:0:0:
88,192,198642,2,2,L|112:192,2,15.0000005722046,2|2|2,0:2|0:2|0:2,0:2:0:0:
152,160,198876,22,0,L|80:160,1,60.0000022888184,6|0,0:0|0:0,0:0:0:0:
24,72,199345,2,0,L|84:72,1,60.0000022888184,2|0,0:0|0:0,0:0:0:0:
216,16,199814,21,2,0:0:0:0:
216,104,200048,1,0,0:0:0:0:
216,192,200282,2,0,L|112:192,1,90.0000034332277,2|0,0:0|0:0,0:0:0:0:
48,272,200751,22,0,L|108:272,1,60.0000022888184,6|0,0:0|0:0,0:0:0:0:
204,272,201220,1,2,0:0:0:0:
204,360,201454,1,0,0:0:0:0:
108,360,201689,2,0,L|44:360,1,60.0000022888184,2|0,0:0|0:0,0:0:0:0:
48,272,202157,1,2,0:0:0:0:
48,176,202392,1,2,0:0:0:0:
48,146,202509,1,2,0:0:0:0:
48,116,202626,22,0,L|119:116,1,60.0000022888184,6|0,0:0|0:0,0:0:0:0:
200,200,203095,2,0,L|129:200,1,60.0000022888184,2|0,0:0|0:0,0:0:0:0:
48,116,203564,22,0,L|119:116,1,60.0000022888184,6|0,0:0|0:0,0:0:0:0:
200,200,204033,2,0,L|129:200,1,60.0000022888184,2|0,0:0|1:0,0:0:0:0:
32,32,204501,22,0,L|104:32,1,60.0000022888184,6|0,0:0|0:0,0:0:0:0:
152,116,204970,2,0,L|80:116,1,60.0000022888184,2|0,0:0|0:0,0:0:0:0:
168,32,205439,2,0,L|240:32,1,60.0000022888184,2|0,0:0|0:0,0:0:0:0:
232,120,205907,1,2,0:0:0:0:
136,120,206142,2,2,L|112:120,2,15.0000005722046,2|2|2,0:2|0:2|0:2,0:2:0:0:
72,160,206376,22,0,L|144:160,1,60.0000022888184,6|0,0:0|0:0,0:0:0:0:
224,240,206845,2,0,L|152:240,1,60.0000022888184,2|0,0:0|0:0,0:0:0:0:
40,240,207314,1,2,0:0:0:0:
40,328,207548,1,0,0:0:0:0:
128,328,207782,2,0,L|224:328,1,90.0000034332277,2|0,0:0|0:0,0:0:0:0:
224,240,208251,22,0,L|152:240,1,60.0000022888184,6|0,0:0|0:0,0:0:0:0:
168,152,208720,1,2,0:0:0:0:
168,64,208954,1,0,0:0:0:0:
80,64,209189,2,0,L|8:64,1,60.0000022888184,2|0,0:0|0:0,0:0:0:0:
16,152,209657,1,2,0:0:0:0:
108,152,209892,1,2,0:0:0:0:
138,152,210009,1,2,0:0:0:0:
168,152,210126,22,0,L|240:152,1,60.0000022888184,6|0,0:0|0:0,0:0:0:0:
104,240,210595,2,0,L|32:240,1,60.0000022888184
168,152,211064,22,0,L|240:152,1,60.0000022888184,6|0,0:0|0:0,0:0:0:0:
104,240,211533,2,0,L|32:240,1,60.0000022888184,2|0,0:0|1:0,0:0:0:0:
320,88,212001,6,0,L|320:160,1,60.0000022888184,12|0,0:0|0:0,0:0:0:0:
320,232,212470,1,8,0:0:0:0:
320,316,212704,1,0,0:0:0:0:
408,312,212939,2,0,L|408:248,1,60.0000022888184,8|0,0:0|0:0,0:0:0:0:
408,168,213407,1,8,0:0:0:0:
408,84,213642,2,2,L|408:60,2,15.0000005722046,2|2|2,0:2|0:2|0:2,0:2:0:0:
408,40,213876,21,12,0:0:0:0:
324,39,214111,1,2,0:0:0:0:
496,40,214345,1,8,0:0:0:0:
496,72,214462,1,0,0:0:0:0:
496,104,214579,1,2,0:0:0:0:
424,144,214814,2,0,L|424:208,1,60.0000022888184,8|0,0:0|0:0,0:0:0:0:
344,272,215282,2,0,L|344:176,1,90.0000034332277,8|0,0:0|0:0,0:0:0:0:
424,84,215751,22,0,L|424:156,1,60.0000022888184,12|0,0:0|0:0,0:0:0:0:
424,228,216220,1,8,0:0:0:0:
424,312,216454,1,0,0:0:0:0:
336,312,216689,2,0,L|336:240,1,60.0000022888184,8|0,0:0|0:0,0:0:0:0:
336,168,217157,1,8,0:0:0:0:
336,80,217392,1,2,0:0:0:0:
368,80,217509,1,2,0:0:0:0:
400,80,217626,22,0,L|400:8,1,60.0000022888184,12|0,0:0|0:0,0:0:0:0:
480,88,218095,2,0,L|480:148,1,60.0000022888184,8|0,0:0|0:0,0:0:0:0:
320,72,218564,22,0,L|320:0,1,60.0000022888184,12|0,0:0|0:0,0:0:0:0:
400,80,219032,2,0,L|400:140,1,60.0000022888184,8|0,0:0|1:0,0:0:0:0:
400,224,219501,21,12,0:0:0:0:
400,312,219736,1,0,0:0:0:0:
472,264,219970,1,8,0:0:0:0:
472,352,220205,1,0,0:0:0:0:
400,136,220439,21,12,0:0:0:0:
400,224,220674,1,0,0:0:0:0:
328,176,220907,1,8,0:0:0:0:
328,264,221142,2,2,L|328:284,2,20,2|2|2,0:2|0:2|0:2,0:2:0:0:
400,224,221376,21,12,0:0:0:0:
488,224,221611,1,0,0:0:0:0:
488,136,221845,2,0,L|488:96,1,30.0000011444092,8|0,0:0|0:0,0:0:0:0:
400,136,222080,1,0,0:0:0:0:
400,336,222314,21,12,0:0:0:0:
488,336,222549,1,0,0:0:0:0:
488,248,222782,1,8,0:0:0:0:
400,248,223017,2,0,L|400:208,1,30.0000011444092
312,248,223251,22,0,L|312:280,3,30.0000011444092,12|0|0|0,0:0|0:0|0:0|0:0,0:0:0:0:
400,328,223720,2,0,L|400:360,3,30.0000011444092,8|0|0|8,0:0|0:0|0:0|0:0,0:0:0:0:
488,144,224189,22,0,L|488:176,3,30.0000011444092,12|0|0|0,0:0|0:0|0:0|0:0,0:0:0:0:
400,224,224658,2,0,L|400:256,3,30.0000011444092,8|0|0|0,0:0|0:0|0:0|0:0,0:0:0:0:
320,160,225126,21,12,0:0:0:0:
320,145,225243,1,0,0:0:0:0:
320,130,225360,1,0,0:0:0:0:
320,115,225477,1,0,0:0:0:0:
360,88,225595,21,8,0:0:0:0:
360,73,225712,1,0,0:0:0:0:
360,58,225829,1,8,0:0:0:0:
360,43,225946,1,8,0:0:0:0:
393,8,226064,22,0,L|392:80,1,60.0000022888184,8|0,0:0|0:0,0:0:0:0:
392,248,226532,1,8,0:0:0:0:
312,248,226767,1,8,0:0:0:0:
200,136,227001,6,0,L|112:136,1,80,12|0,0:3|0:0,0:0:0:0:
32,232,227470,2,0,L|120:232,1,80,8|0,0:3|0:0,0:0:0:0:
136,264,227822,1,0,0:0:0:0:
136,264,227939,2,0,L|184:264,2,40,10|0|0,0:3|0:0|0:0,0:0:0:0:
216,352,228407,2,0,L|128:352,1,80
32,232,228876,21,12,0:3:0:0:
112,232,229110,1,0,0:0:0:0:
192,232,229345,2,0,L|240:232,2,40
192,192,229697,1,0,0:0:0:0:
192,192,229814,21,12,0:3:0:0:
102,192,230048,1,0,0:0:0:0:
104,96,230282,2,2,L|200:96,1,90.0000034332277,12|0,0:3|0:0,0:2:0:0:
88,64,230751,22,0,L|8:64,1,80,6|0,0:3|0:0,0:0:0:0:
32,192,231220,2,0,L|96:192,1,50
120,224,231454,1,0,0:0:0:0:
108,272,231571,1,0,0:0:0:0:
97,321,231689,22,0,L|197:321,1,100,12|0,0:3|0:0,0:0:0:0:
224,216,232157,1,0,0:0:0:0:
184,112,232392,1,2,0:0:0:0:
124,112,232509,1,2,0:0:0:0:
63,112,232626,22,0,L|0:112,1,60.0000022888184,6|0,0:3|0:0,0:0:0:0:
112,32,233095,2,0,L|160:32,2,40
64,32,233446,1,0,0:0:0:0:
64,32,233564,1,12,0:3:0:0:
63,112,233798,1,0,0:0:0:0:
64,192,234032,2,0,L|152:192,1,80,8|0,0:3|0:0,0:0:0:0:
232,280,234501,22,0,L|56:280,1,160,12|0,0:3|0:0,0:0:0:0:
72,368,235204,1,2,0:0:0:0:
112,368,235321,1,2,0:0:0:0:
152,368,235439,2,0,L|216:368,1,60.0000022888184,6|0,0:3|0:0,0:0:0:0:
232,280,235673,2,0,L|168:280,1,60.0000022888184,2|0,0:3|0:0,0:0:0:0:
152,192,235907,1,6,0:3:0:0:
192,64,236142,2,0,L|216:64,3,13.3333333333333
176,96,236376,21,12,0:3:0:0:
96,96,236610,1,0,0:0:0:0:
16,96,236845,2,0,L|-32:96,2,40,0|12|0,0:0|0:3|0:0,0:0:0:0:
16,136,237197,1,0,0:0:0:0:
16,136,237314,1,12,0:3:0:0:
16,216,237548,1,0,0:0:0:0:
16,296,237782,2,2,L|112:296,1,90.0000034332277,12|0,0:3|0:0,0:2:0:0:
208,264,238251,22,0,L|112:264,1,80,6|0,0:3|0:0,0:0:0:0:
80,176,238720,2,0,L|152:176,1,50
160,136,238954,1,0,0:0:0:0:
176,88,239071,1,0,0:0:0:0:
192,40,239189,2,0,L|80:40,1,100,12|0,0:3|0:0,0:0:0:0:
24,144,239657,1,0,0:0:0:0:
96,248,239892,1,2,0:0:0:0:
156,248,240009,1,2,0:0:0:0:
216,248,240126,22,0,L|144:248,1,60.0000022888184,12|0,0:3|0:0,0:0:0:0:
88,344,240595,2,0,L|152:344,1,60.0000022888184,8|0,0:3|0:0,0:0:0:0:
216,248,241064,1,10,0:3:0:0:
216,218,241181,1,2,0:3:0:0:
216,188,241298,1,2,0:3:0:0:
216,158,241415,1,8,0:3:0:0:
216,128,241532,1,8,0:3:0:0:
208,8,241767,1,8,0:3:0:0:
208,38,241884,1,8,0:3:0:0:
312,96,242001,6,0,L|312:192,1,80,12|0,0:3|0:0,0:0:0:0:
392,280,242470,2,0,L|392:200,1,80,8|0,0:3|0:0,0:0:0:0:
416,176,242822,1,0,0:0:0:0:
440,152,242939,2,0,L|440:112,2,40,8|0|0,0:3|0:0|0:0,0:0:0:0:
504,256,243407,2,0,L|504:344,1,80
392,280,243876,21,12,0:3:0:0:
312,280,244111,1,0,0:0:0:0:
312,200,244345,2,0,L|312:160,2,40,0|8|0,0:0|0:3|0:0,0:0:0:0:
360,200,244697,1,0,0:0:0:0:
360,200,244814,1,12,0:3:0:0:
440,200,245048,1,0,0:0:0:0:
360,293,245282,2,2,L|360:384,1,90.0000034332277,12|0,0:3|0:0,0:2:0:0:
440,280,245751,22,0,L|440:168,1,80,12|0,0:3|0:0,0:0:0:0:
368,72,246220,2,0,L|368:128,1,50
368,172,246454,1,0,0:0:0:0:
368,222,246572,1,0,0:0:0:0:
331,256,246689,2,0,L|331:368,1,100,12|0,0:3|0:0,0:0:0:0:
442,356,247157,1,0,0:3:0:0:
504,264,247392,1,2,0:3:0:0:
504,204,247509,1,2,0:3:0:0:
504,144,247626,22,0,L|504:80,1,60.0000022888184,6|0,0:3|0:0,0:0:0:0:
424,192,248095,2,0,L|424:240,2,40,8|8|0,0:3|0:3|0:0,0:0:0:0:
424,144,248447,1,0,0:0:0:0:
424,144,248564,1,12,0:3:0:0:
344,144,248798,1,0,0:0:0:0:
344,224,249032,2,0,L|344:312,1,80,8|0,0:3|0:0,0:0:0:0:
448,376,249501,22,0,L|448:208,1,160,12|0,0:3|0:0,0:0:0:0:
448,136,250204,1,2,0:3:0:0:
448,96,250322,1,2,0:3:0:0:
448,56,250439,2,0,L|448:-8,1,60.0000022888184,6|0,0:3|0:0,0:0:0:0:
368,40,250673,2,0,L|368:100,1,60.0000022888184,2|0,0:3|0:0,0:0:0:0:
368,192,250907,1,6,0:3:0:0:
448,296,251142,2,0,L|448:280,3,13.3333333333333
464,323,251376,21,12,0:3:0:0:
384,328,251611,1,0,0:0:0:0:
304,328,251845,2,0,L|304:368,2,40,0|8|0,0:0|0:3|0:0,0:0:0:0:
304,296,252197,1,0,0:0:0:0:
304,296,252314,1,12,0:3:0:0:
304,216,252548,1,0,0:0:0:0:
304,136,252782,2,2,L|304:32,1,90.0000034332277,12|0,0:3|0:0,0:2:0:0:
392,107,253251,22,0,L|392:195,1,80,12|0,0:3|0:0,0:0:0:0:
480,312,253720,2,0,L|480:256,1,50
480,212,253954,1,0,0:0:0:0:
439,241,254072,1,0,0:0:0:0:
400,272,254189,2,0,L|400:376,1,100,12|0,0:3|0:0,0:0:0:0:
320,272,254657,1,0,0:0:0:0:
320,192,254892,1,2,0:3:0:0:
320,152,255009,1,2,0:3:0:0:
320,112,255126,22,0,L|320:24,1,80,6|0,0:3|0:0,0:0:0:0:
408,114,255595,2,0,L|408:194,1,80,8|0,0:3|0:0,0:0:0:0:
320,272,256064,22,0,L|320:184,1,80,12|0,0:3|0:0,0:0:0:0:
408,274,256533,2,0,L|408:354,1,80,0|0,0:2|0:0,0:0:0:0:
200,352,257001,6,0,L|80:352,1,120.000004577637,12|0,0:0|0:0,0:0:0:0:
16,256,257704,1,2,0:0:0:0:
16,256,257822,1,2,0:0:0:0:
16,256,257939,2,0,L|88:256,1,60.0000022888184,12|0,0:0|0:0,0:0:0:0:
168,256,258407,1,8,0:0:0:0:
168,168,258642,1,2,0:0:0:0:
168,80,258876,22,0,L|40:80,1,120.000004577637,12|0,0:0|0:0,0:0:0:0:
48,168,259579,1,8,0:0:0:0:
144,168,259814,2,0,L|208:168,1,60.0000022888184,8|0,0:0|0:0,0:0:0:0:
224,264,260282,2,0,L|160:264,1,60.0000022888184,8|0,0:0|0:0,0:0:0:0:
64,352,260751,22,0,L|184:352,1,120.000004577637,12|0,0:0|0:0,0:0:0:0:
224,264,261454,1,2,0:0:0:0:
224,264,261572,1,2,0:0:0:0:
224,264,261689,2,0,L|160:264,1,60.0000022888184,12|0,0:0|0:0,0:0:0:0:
80,264,262157,2,0,L|16:264,1,60.0000022888184,8|0,0:0|0:0,0:0:0:0:
24,176,262626,22,0,L|144:176,1,120.000004577637,12|0,0:0|0:0,0:0:0:0:
224,88,263329,2,0,L|104:88,1,120.000004577637,12|0,0:0|0:0,0:0:0:0:
144,176,264032,2,0,L|216:176,1,60.0000022888184,8|0,0:0|0:0,0:0:0:0:
208,264,264501,22,0,L|72:264,1,120.000004577637,12|0,0:0|0:0,0:0:0:0:
16,352,265204,1,2,0:0:0:0:
16,352,265322,1,2,0:0:0:0:
16,352,265439,2,0,L|88:352,1,60.0000022888184,12|0,0:0|0:0,0:0:0:0:
160,352,265907,2,0,L|232:352,1,60.0000022888184,8|0,0:0|0:0,0:0:0:0:
208,264,266376,22,0,L|72:264,1,120.000004577637,12|0,0:0|0:0,0:0:0:0:
32,176,267079,2,0,L|168:176,1,120.000004577637,12|0,0:0|0:0,0:0:0:0:
208,88,267782,2,0,L|136:88,1,60.0000022888184,8|0,0:0|0:0,0:0:0:0:
16,56,268251,22,0,L|152:56,1,120.000004577637,12|0,0:0|0:0,0:0:0:0:
88,136,268954,1,2,0:0:0:0:
88,136,269072,1,2,0:0:0:0:
88,136,269189,2,0,L|24:136,1,60.0000022888184,12|0,0:0|0:0,0:0:0:0:
152,176,269657,2,0,L|216:176,1,60.0000022888184,8|0,0:0|0:0,0:0:0:0:
144,256,270126,22,0,L|16:256,1,120.000004577637,12|0,0:0|0:0,0:0:0:0:
96,344,270829,2,0,L|224:344,1,120.000004577637,12|0,0:0|0:0,0:0:0:0:
96,256,271532,1,8,0:0:0:0:
416,256,272001,6,0,L|416:112,1,120.000004577637,12|0,0:0|0:0,0:0:0:0:
416,48,272704,1,8,0:0:0:0:
328,48,272939,2,0,L|328:128,1,60.0000022888184,8|0,0:0|0:0,0:0:0:0:
328,200,273407,1,8,0:0:0:0:
328,288,273642,1,2,0:0:0:0:
416,288,273876,22,0,L|416:160,1,120.000004577637,12|0,0:0|0:0,0:0:0:0:
416,80,274579,1,10,0:0:0:0:
328,80,274814,2,0,L|328:160,1,60.0000022888184,8|0,0:0|0:0,0:0:0:0:
328,232,275282,2,0,L|328:312,1,60.0000022888184,8|0,0:0|0:0,0:0:0:0:
448,352,275751,22,0,L|448:224,1,120.000004577637,12|0,0:0|0:0,0:0:0:0:
448,111,276689,2,0,L|448:39,1,60.0000022888184,8|0,0:0|0:0,0:0:0:0:
448,232,277626,22,0,L|448:104,1,120.000004577637,12|0,0:0|0:0,0:0:0:0:
328,168,278329,2,0,L|328:288,1,120.000004577637,12|0,0:0|0:0,0:0:0:0:
328,376,279032,1,8,0:0:0:0:
448,111,279501,22,0,L|448:231,1,120.000004577637,12|0,0:0|0:0,0:0:0:0:
376,328,280439,2,0,L|376:268,1,60.0000022888184,8|0,0:0|0:0,0:0:0:0:
320,96,281376,22,0,L|320:216,1,120.000004577637,12|0,0:0|0:0,0:0:0:0:
440,160,282079,2,0,L|440:280,1,120.000004577637,12|0,0:0|0:0,0:0:0:0:
440,368,282782,1,8,0:0:0:0:
320,216,283251,22,0,L|320:80,1,120.000004577637,12|0,0:0|0:0,0:0:0:0:
320,296,284189,1,8,0:0:0:0:
472,32,285126,22,0,L|472:160,1,120.000004577637,12|0,0:0|0:0,0:0:0:0:
381,248,285829,2,0,L|381:128,1,120.000004577637,12|0,0:0|0:0,0:0:0:0:
382,40,286532,1,8,0:0:0:0:
256,192,287001,21,12,0:0:0:0:
