osu file format v14

[General]
AudioFilename: audio.mp3
AudioLeadIn: 0
PreviewTime: 158325
Countdown: 0
SampleSet: Soft
StackLeniency: 0.5
Mode: 0
LetterboxInBreaks: 0
WidescreenStoryboard: 0

[Editor]
Bookmarks: 208,22796,45384,67972,90560,113149,135737,158325,180913,203502,204207,226090,248502
DistanceSpacing: 0.9
BeatDivisor: 4
GridSize: 32
TimelineZoom: 1

[Metadata]
Title:Farewell (feat. Sasi)
TitleUnicode:Farewell (feat. Sasi)
Artist:Frozen Starfall
ArtistUnicode:Frozen Starfall
Creator:eiri-
Version:Easy
Source:東方紺珠伝 ~ Legacy of Lunatic Kingdom.
Tags:Ayyri BlastTheKidd -Sylvari fieryrage 東方Project Touhou Team Shanghai Alice LoLK Kanjuden Ultramarine Orb Tale TH15 FS Electronic English Video Game Drum and Bass DnB & Unforgettable, the Nostalgic Greenery 忘れがたき、よすがの緑 Stage Theme Another Day, Another Dream Comiket 96 C96
BeatmapID:2776138
BeatmapSetID:1306270

[Difficulty]
HPDrainRate:3
CircleSize:3.5
OverallDifficulty:4
ApproachRate:5
SliderMultiplier:1.79999990463257
SliderTickRate:1

[Events]
//Background and Video events
0,0,"Reimu 583.jpg",0,0
//Break Periods
2,90760,100655
2,158525,168419
//Storyboard Layer 0 (Background)
//Storyboard Layer 1 (Fail)
//Storyboard Layer 2 (Pass)
//Storyboard Layer 3 (Foreground)
//Storyboard Layer 4 (Overlay)
//Storyboard Sound Samples

[TimingPoints]
208,705.882352941176,4,2,1,50,1,0
22796,-100,4,2,1,60,0,0
45384,-100,4,2,1,70,0,0
67972,-100,4,2,1,80,0,0
90560,-100,4,2,1,50,0,0
101855,-100,4,2,1,60,0,0
113149,-100,4,2,1,80,0,0
135737,-100,4,2,1,80,0,0
158325,-100,4,2,1,50,0,0
169619,-100,4,2,1,60,0,0
180913,-90.9090909090909,4,2,1,90,0,1
203502,-90.9090909090909,4,2,1,90,0,0
204207,-90.9090909090909,4,2,1,90,0,1
226090,-90.9090909090909,4,2,1,90,0,0
226266,-90.9090909090909,4,2,1,50,0,0

[Colours]
Combo1 : 69,175,128
Combo2 : 255,170,172
Combo3 : 255,79,83
Combo4 : 164,219,194

[HitObjects]
32,64,22796,6,0,B|53:33|81:34|81:34|125:102|217:97,1,179.999990463257,6|10,1:2|0:0,0:0:0:0:
254,65,23855,1,2,1:2:0:0:
454,94,24737,2,0,L|446:20,2,44.9999976158143,2|10|2,1:2|0:0|1:2,0:0:0:0:
470,214,25619,6,0,P|443:269|322:276,1,179.999990463257,2|10,1:2|0:0,0:0:0:0:
286,218,26678,1,2,1:2:0:0:
96,370,27737,2,0,L|17:378,1,44.9999976158143,10|2,0:0|1:2,0:0:0:0:
11,259,28443,6,0,B|30:224|25:191|25:191|171:221,1,179.999990463257,2|10,1:2|0:0,0:0:0:0:
208,182,29502,1,2,1:2:0:0:
401,242,30384,2,0,L|409:316,2,44.9999976158143,2|10|2,1:2|0:0|1:2,0:0:0:0:
467,140,31266,6,0,B|360:144|407:63|285:73,1,179.999990463257,2|10,1:2|0:0,0:0:0:0:
233,104,32325,1,2,1:2:0:0:
5,17,33384,2,0,L|13:91,1,44.9999976158143,10|2,0:0|1:2,0:0:0:0:
24,182,34090,6,0,B|52:155|78:156|78:156|98:227|174:223,1,179.999990463257,2|10,1:2|0:0,0:0:0:0:
236,185,35149,1,2,1:2:0:0:
435,218,36031,2,0,L|427:144,2,44.9999976158143,2|10|2,1:2|0:0|1:2,0:0:0:0:
356,310,36913,6,0,B|321:250|321:250|333:203|348:111,1,179.999990463257,2|10,1:2|0:0,0:0:0:0:
328,61,37972,1,2,1:2:0:0:
91,6,39031,2,0,L|5:16,1,44.9999976158143,10|2,0:0|1:2,0:0:0:0:
9,127,39737,6,0,B|42:149|75:147|75:147|33:289,1,179.999990463257,2|10,1:2|0:0,0:0:0:0:
76,326,40796,1,2,1:2:0:0:
277,306,41678,2,0,L|285:380,2,44.9999976158143,2|10|2,1:2|0:0|1:2,0:0:0:0:
320,192,42560,6,0,B|302:151|302:151|219:148|184:216,1,179.999990463257,2|10,1:2|0:0,0:0:0:0:
151,281,43619,1,2,1:2:0:0:
13,80,44678,2,0,L|18:3,1,44.9999976158143,10|2,0:0|1:2,0:0:0:0:
130,74,45384,6,0,P|220:66|287:7,1,179.999990463257,6|10,1:2|0:0,0:0:0:0:
401,47,46619,2,0,L|519:37,2,89.9999952316285,2|2|2,0:0|0:0|1:2,0:0:0:0:
299,114,47855,1,2,0:0:0:0:
367,156,48207,6,0,L|355:359,1,179.999990463257,2|10,1:2|0:0,0:0:0:0:
250,275,49443,2,0,P|194:259|135:256,1,89.9999952316285,2|2,0:0|0:0,0:0:0:0:
88,288,50149,1,2,0:0:0:0:
17,189,50678,1,2,0:0:0:0:
65,124,51031,6,0,B|142:101|142:101|160:161|228:178,1,179.999990463257,2|10,1:2|0:0,0:0:0:0:
304,98,52266,2,0,P|283:60|283:-2,2,89.9999952316285,2|2|2,0:0|0:0|1:2,0:0:0:0:
408,159,53502,1,2,0:0:0:0:
466,102,53855,6,0,L|454:313,1,179.999990463257,2|10,1:2|0:0,0:0:0:0:
488,355,54913,1,2,1:2:0:0:
327,375,55619,1,2,0:0:0:0:
264,323,55972,2,0,B|232:306|232:306|161:327,1,89.9999952316285,10|2,0:0|0:0,0:0:0:0:
103,347,56678,6,0,B|44:260|148:239|76:155,1,179.999990463257,2|10,1:2|0:0,0:0:0:0:
39,66,57913,2,0,P|90:46|151:44,2,89.9999952316285,2|2|2,0:0|0:0|1:2,0:0:0:0:
13,185,59149,1,2,0:0:0:0:
84,224,59502,6,0,L|282:207,1,179.999990463257,2|10,1:2|0:0,0:0:0:0:
368,148,60737,2,0,P|352:92|349:33,1,89.9999952316285,2|2,0:0|0:0,0:0:0:0:
408,5,61443,1,2,0:0:0:0:
494,89,61972,1,2,0:0:0:0:
457,161,62325,6,0,B|379:143|379:143|378:204|359:249,1,179.999990463257,2|10,1:2|0:0,0:0:0:0:
408,353,63560,2,0,P|446:332|508:332,2,89.9999952316285,2|2|2,0:0|0:0|1:2,0:0:0:0:
287,333,64796,1,2,0:0:0:0:
217,374,65149,6,0,L|12:354,1,179.999990463257,2|10,1:2|0:0,0:0:0:0:
13,279,66207,1,2,1:2:0:0:
170,239,66913,1,2,0:0:0:0:
228,182,67266,2,0,B|245:150|245:150|229:98,1,89.9999952316285,10|2,0:0|0:0,0:0:0:0:
165,47,67972,6,0,B|228:51|275:15|275:15|314:29|308:72,1,179.999990463257,6|10,1:2|0:0,0:0:0:0:
283,139,69031,2,0,P|296:182|347:183,1,89.9999952316285,2|2,1:2|0:0,0:0:0:0:
492,144,70090,1,10,0:0:0:0:
394,71,70619,6,0,B|329:34|247:56|247:56|260:113|204:136,1,224.999988079071,2|10,0:0|0:0,0:0:0:0:
147,112,71855,1,2,1:2:0:0:
120,271,72560,1,2,0:0:0:0:
39,263,72913,2,0,P|8:205|23:158,1,89.9999952316285,10|2,0:0|0:0,0:0:0:0:
55,115,73619,6,0,P|138:97|166:7,1,179.999990463257,2|10,1:2|0:0,0:0:0:0:
247,0,74678,1,2,1:2:0:0:
298,62,75031,2,0,B|365:41|365:41|396:102|468:98,1,179.999990463257,2|10,0:0|0:0,0:0:0:0:
503,208,76266,6,0,P|463:287|306:281,1,224.999988079071,2|10,0:0|0:0,0:0:0:0:
274,251,77502,2,0,P|280:206|297:136,2,89.9999952316285,2|2|2,1:2|0:0|0:0,0:0:0:0:
212,304,78560,1,10,0:0:0:0:
53,270,79266,6,0,B|19:222|19:222|48:64,1,179.999990463257,2|10,1:2|0:0,0:0:0:0:
119,81,80325,2,0,P|149:36|128:-9,2,89.9999952316285,2|2|2,1:2|0:0|0:0,0:0:0:0:
153,154,81384,1,10,0:0:0:0:
270,125,81913,6,0,P|380:106|493:100,1,224.999988079071,2|10,0:0|0:0,0:0:0:0:
508,179,83149,1,2,1:2:0:0:
440,224,83502,2,0,P|404:195|409:149,1,89.9999952316285,2|2,0:0|0:0,0:0:0:0:
449,86,84207,1,10,0:0:0:0:
301,18,84913,6,0,P|228:55|210:168,1,179.999990463257,2|10,1:2|0:0,0:0:0:0:
266,195,85972,2,0,P|305:212|314:260,1,89.9999952316285,2|2,1:2|0:0,0:0:0:0:
284,330,86678,1,2,0:0:0:0:
205,348,87031,1,10,0:0:0:0:
95,295,87560,6,0,P|130:239|148:67,1,224.999988079071,2|10,0:0|0:0,0:0:0:0:
204,22,88796,2,0,P|253:4|307:5,1,89.9999952316285,2|2,1:2|0:0,0:0:0:0:
367,28,89502,1,2,0:0:0:0:
322,95,89855,2,0,P|304:144|305:198,1,89.9999952316285,10|2,0:0|0:0,0:0:0:0:
337,254,90560,5,6,1:2:0:0:
337,254,101855,5,2,1:2:0:0:
462,355,102560,2,0,P|491:291|498:205,2,134.999992847443,2|2|2,0:0|0:0|0:0,0:0:0:0:
384,332,103972,1,2,0:0:0:0:
269,373,104502,1,2,0:0:0:0:
178,239,105207,6,0,P|90:227|-20:223,1,179.999990463257,2|2,0:0|0:0,0:0:0:0:
81,133,106443,1,2,0:0:0:0:
49,58,106796,2,0,B|83:27|83:27|127:73|206:55,1,134.999992847443,2|2,0:0|0:0,0:0:0:0:
300,208,108207,6,0,P|252:270|169:260,1,134.999992847443,2|2,0:0|0:0,0:0:0:0:
90,221,109266,2,0,P|97:175|104:109,1,89.9999952316285,2|2,0:0|0:0,0:0:0:0:
166,81,109972,1,2,0:0:0:0:
243,103,110325,6,0,P|309:86|390:79,1,134.999992847443,2|2,0:0|0:0,0:0:0:0:
374,200,111384,2,0,P|440:217|521:224,2,134.999992847443,2|2|2,0:0|0:0|0:0,0:0:0:0:
243,103,113149,6,0,B|296:76|296:76|247:3|166:47,1,179.999990463257,6|10,1:2|0:0,0:0:0:0:
79,79,114384,2,0,L|90:178,2,89.9999952316285,2|2|2,0:0|0:0|1:2,0:0:0:0:
178,8,115619,1,2,0:0:0:0:
253,37,115972,6,0,L|453:15,1,179.999990463257,2|10,1:2|0:0,0:0:0:0:
502,116,117207,2,0,P|482:157|414:165,1,89.9999952316285,2|2,0:0|0:0,0:0:0:0:
365,146,117913,1,2,0:0:0:0:
383,266,118443,1,2,0:0:0:0:
310,302,118796,6,0,B|233:279|233:279|213:353|147:356,1,179.999990463257,2|10,1:2|0:0,0:0:0:0:
75,278,120031,2,0,P|88:228|134:216,2,89.9999952316285,2|2|2,0:0|0:0|1:2,0:0:0:0:
172,352,121266,1,2,0:0:0:0:
211,281,121619,6,0,L|181:78,1,179.999990463257,2|10,1:2|0:0,0:0:0:0:
171,22,122678,1,2,1:2:0:0:
330,47,123384,1,2,0:0:0:0:
311,125,123737,2,0,B|343:142|343:142|414:121,1,89.9999952316285,10|2,0:0|0:0,0:0:0:0:
473,106,124443,6,0,B|532:193|428:214|500:298,1,179.999990463257,2|10,1:2|0:0,0:0:0:0:
378,335,125678,2,0,P|327:315|266:313,2,89.9999952316285,2|2|2,0:0|0:0|1:2,0:0:0:0:
496,360,126913,1,2,0:0:0:0:
509,280,127266,6,0,L|477:69,1,179.999990463257,2|10,1:2|0:0,0:0:0:0:
383,30,128502,2,0,P|327:14|268:11,1,89.9999952316285,2|2,0:0|0:0,0:0:0:0:
218,36,129207,1,2,0:0:0:0:
99,10,129737,1,2,0:0:0:0:
108,90,130090,6,0,B|30:72|30:72|29:133|10:178,1,179.999990463257,2|10,1:2|0:0,0:0:0:0:
122,222,131325,2,0,P|160:201|222:201,2,89.9999952316285,2|2|2,0:0|0:0|1:2,0:0:0:0:
40,312,132560,1,2,0:0:0:0:
107,356,132913,6,0,P|190:324|201:239,1,179.999990463257,2|10,1:2|0:0,0:0:0:0:
164,170,133972,1,2,1:2:0:0:
323,142,134678,1,2,0:0:0:0:
307,62,135031,2,0,B|339:45|339:45|391:61,1,89.9999952316285,10|2,0:0|0:0,0:0:0:0:
466,89,135737,5,2,1:2:0:0:
385,229,136443,1,14,0:0:0:0:
495,278,136972,2,0,L|504:183,2,89.9999952316285,2|2|2,0:0|0:0|1:2,0:0:0:0:
411,366,138207,1,2,0:0:0:0:
340,326,138560,6,0,L|140:341,1,179.999990463257,2|10,1:2|0:0,0:0:0:0:
154,217,139796,2,0,P|207:221|240:264,1,89.9999952316285,2|2,0:0|0:0,0:0:0:0:
274,314,140502,1,2,0:0:0:0:
383,261,141031,1,2,0:0:0:0:
356,184,141384,6,0,B|367:141|367:141|322:62|322:62|337:4,1,179.999990463257,2|10,1:2|0:0,0:0:0:0:
216,53,142619,2,0,L|104:41,2,89.9999952316285,2|2|2,0:0|0:0|1:2,0:0:0:0:
285,153,143855,1,2,0:0:0:0:
361,127,144207,6,0,P|428:165|435:289,1,179.999990463257,2|10,1:2|0:0,0:0:0:0:
410,332,145266,1,2,1:2:0:0:
258,273,145972,1,2,0:0:0:0:
269,192,146325,2,0,B|237:175|237:175|191:203,1,89.9999952316285,10|2,0:0|0:0,0:0:0:0:
120,243,147031,6,0,P|33:205|46:121,1,179.999990463257,2|10,1:2|0:0,0:0:0:0:
31,10,148266,2,0,P|82:30|143:32,2,89.9999952316285,2|2|2,0:0|0:0|1:2,0:0:0:0:
38,132,149502,1,2,0:0:0:0:
106,89,149855,6,0,L|322:70,1,179.999990463257,2|10,1:2|0:0,0:0:0:0:
397,25,151090,2,0,P|413:81|416:140,1,89.9999952316285,2|2,0:0|0:0,0:0:0:0:
393,190,151796,1,2,0:0:0:0:
278,149,152325,1,2,0:0:0:0:
286,229,152678,6,0,B|208:211|208:211|207:272|188:317,1,179.999990463257,2|10,1:2|0:0,0:0:0:0:
112,216,153913,2,0,P|74:195|12:195,2,89.9999952316285,2|2|2,0:0|0:0|1:2,0:0:0:0:
224,167,155149,1,2,0:0:0:0:
293,208,155502,6,0,P|368:194|480:188,1,179.999990463257,2|10,1:2|0:0,0:0:0:0:
511,117,156560,1,2,1:2:0:0:
357,169,157266,1,2,0:0:0:0:
292,120,157619,2,0,B|274:94|274:94|287:15,1,89.9999952316285,10|2,0:0|0:0,0:0:0:0:
359,5,158325,5,6,1:2:0:0:
359,5,169619,6,0,L|347:205,1,179.999990463257,2|2,1:2|1:2,0:0:0:0:
381,258,170678,1,2,0:0:0:0:
318,309,171031,2,0,P|246:327|192:328,1,89.9999952316285,2|2,1:2|0:0,0:0:0:0:
150,313,171737,1,2,1:2:0:0:
199,158,172443,6,0,P|263:142|394:132,1,179.999990463257,2|2,1:2|1:2,0:0:0:0:
448,94,173502,1,2,0:0:0:0:
494,160,173855,2,0,L|481:275,1,89.9999952316285,2|2,1:2|0:0,0:0:0:0:
468,328,174560,1,2,1:2:0:0:
311,284,175266,6,0,L|127:299,1,179.999990463257,2|2,1:2|1:2,0:0:0:0:
57,331,176325,1,2,0:0:0:0:
19,259,176678,2,0,P|44:210|31:143,1,89.9999952316285,2|2,1:2|0:0,0:0:0:0:
19,98,177384,1,2,1:2:0:0:
124,37,177913,6,0,B|164:23|164:23|213:143|121:227,1,224.999988079071,2|2,0:0|1:2,0:0:0:0:
80,240,179149,1,2,0:0:0:0:
141,293,179502,2,0,L|232:280,2,89.9999952316285,2|2|2,1:2|0:0|1:2,0:0:0:0:
24,158,180913,6,0,B|7:120|7:120|48:97|39:34,1,98.9999977760315,6|2,1:2|0:0,0:0:0:0:
104,14,181619,2,0,P|165:42|168:131,1,148.499996664047,10|2,0:0|0:0,0:0:0:0:
295,175,182678,1,2,0:0:0:0:
377,208,183031,2,0,P|426:202|473:189,1,98.9999977760315,10|2,0:0|0:0,0:0:0:0:
510,108,183737,5,2,1:2:0:0:
377,91,184266,2,0,L|234:72,1,98.9999977760315,2|2,0:0|0:0,0:0:0:0:
160,15,185149,2,0,B|127:50|127:50|164:223,1,197.999995552063,2|10,0:0|0:0,0:0:0:0:
320,271,186560,6,0,P|365:262|435:258,1,98.9999977760315,2|2,1:2|0:0,0:0:0:0:
491,207,187266,2,0,P|470:121|391:145,1,148.499996664047,10|2,0:0|0:0,0:0:0:0:
298,166,188325,1,2,0:0:0:0:
219,124,188678,2,0,P|156:108|99:106,1,98.9999977760315,10|2,0:0|0:0,0:0:0:0:
37,133,189384,5,2,1:2:0:0:
85,207,189737,2,0,L|70:353,1,98.9999977760315,2|10,0:0|0:0,0:0:0:0:
194,364,190619,2,0,P|309:338|311:214,1,247.499994440079,2|10,0:0|0:0,0:0:0:0:
247,61,192207,6,0,P|298:51|370:13,1,98.9999977760315,2|0,1:2|0:0,0:0:0:0:
423,65,192913,2,0,P|443:116|444:223,1,148.499996664047,10|2,0:0|0:0,0:0:0:0:
397,333,193972,1,2,0:0:0:0:
321,285,194325,2,0,P|258:269|201:267,1,98.9999977760315,10|2,0:0|0:0,0:0:0:0:
141,300,195031,5,2,1:2:0:0:
4,185,195737,2,0,L|20:8,1,148.499996664047,10|2,0:0|0:0,0:0:0:0:
150,22,196796,1,2,0:0:0:0:
99,95,197149,1,10,0:0:0:0:
276,113,197855,6,0,P|321:104|391:100,1,98.9999977760315,2|0,1:2|0:0,0:0:0:0:
448,51,198560,2,0,P|490:108|466:191,1,148.499996664047,10|2,0:0|0:0,0:0:0:0:
392,282,199619,1,2,0:0:0:0:
314,238,199972,2,0,B|272:219|272:219|221:292,1,98.9999977760315,10|2,0:0|0:0,0:0:0:0:
164,307,200678,6,0,P|107:256|132:107,1,197.999995552063,2|10,1:2|0:0,0:0:0:0:
223,7,202090,2,0,P|303:41|434:41,1,197.999995552063,2|10,0:0|0:0,0:0:0:0:
496,15,203149,1,2,0:0:0:0:
507,103,203502,1,2,1:2:0:0:
332,70,204207,5,14,0:0:0:0:
223,147,204737,2,0,P|149:118|61:122,1,148.499996664047,2|2,0:0|0:0,0:0:0:0:
32,192,205619,2,0,P|50:244|48:320,1,98.9999977760315,10|2,0:0|0:0,0:0:0:0:
110,355,206325,5,2,1:2:0:0:
203,259,206855,2,0,L|347:246,1,98.9999977760315,2|2,0:0|0:0,0:0:0:0:
412,325,207737,2,0,P|482:263|464:147,1,197.999995552063,2|10,0:0|0:0,0:0:0:0:
341,49,209149,2,0,L|332:159,1,98.9999977760315,2|2,1:2|0:0,0:0:0:0:
273,214,209855,2,0,P|210:197|102:184,1,148.499996664047,10|2,0:0|0:0,0:0:0:0:
27,96,210913,1,2,0:0:0:0:
82,26,211266,2,0,P|145:42|202:44,1,98.9999977760315,10|2,0:0|0:0,0:0:0:0:
266,27,211972,5,2,1:2:0:0:
293,111,212325,2,0,L|283:255,1,98.9999977760315,2|10,0:0|0:0,0:0:0:0:
273,342,213207,2,0,P|377:258|514:293,1,247.499994440079,2|10,0:0|0:0,0:0:0:0:
508,94,214796,6,0,P|498:43|460:-29,1,98.9999977760315,2|0,1:2|0:0,0:0:0:0:
423,70,215502,2,0,P|373:111|261:72,1,148.499996664047,10|2,0:0|0:0,0:0:0:0:
184,25,216560,1,2,0:0:0:0:
113,79,216913,2,0,L|127:216,1,98.9999977760315,10|2,0:0|0:0,0:0:0:0:
133,266,217619,5,2,1:2:0:0:
310,281,218325,2,0,B|340:247|340:247|488:266,1,148.499996664047,10|2,0:0|0:0,0:0:0:0:
504,141,219384,1,2,0:0:0:0:
437,81,219737,2,0,P|374:117|370:154,1,98.9999977760315,10|2,0:0|0:0,0:0:0:0:
287,173,220443,6,0,P|242:164|172:160,1,98.9999977760315,2|0,1:2|0:0,0:0:0:0:
114,208,221149,2,0,P|146:267|147:368,1,148.499996664047,10|2,0:0|0:0,0:0:0:0:
282,374,222207,1,2,0:0:0:0:
366,346,222560,2,0,P|436:336|478:336,1,98.9999977760315,10|2,0:0|0:0,0:0:0:0:
500,253,223266,6,0,P|443:202|468:53,1,197.999995552063,2|10,1:2|0:0,0:0:0:0:
277,15,224678,2,0,P|197:49|66:49,1,197.999995552063,2|10,0:0|0:0,0:0:0:0:
4,23,225737,1,2,0:0:0:0:
1,111,226090,5,6,1:2:0:0:
256,192,226266,12,0,228913,1:0:0:0:
