osu file format v14

[General]
AudioFilename: audio.mp3
AudioLeadIn: 0
PreviewTime: -1
Countdown: 1
SampleSet: Normal
StackLeniency: 0.7
Mode: 3
LetterboxInBreaks: 0
SpecialStyle: 0
WidescreenStoryboard: 0

[Editor]
DistanceSpacing: 1.6
BeatDivisor: 8
GridSize: 8
TimelineZoom: 1.4

[Metadata]
Title:Colors [Short]
TitleUnicode:Colors [Short]
Artist:Frozen Qualia
ArtistUnicode:Frozen Qualia
Creator:PremiumShiny
Version:Valpha
Source:
Tags:
BeatmapID:1533213
BeatmapSetID:726202

[Difficulty]
HPDrainRate:5
CircleSize:4
OverallDifficulty:5
ApproachRate:5
SliderMultiplier:1.4
SliderTickRate:1

[Events]
//Background and Video events
0,0,"cute girl.jpg",0,0
//Break Periods
2,42155,56043
//Storyboard Layer 0 (Background)
//Storyboard Layer 1 (Fail)
//Storyboard Layer 2 (Pass)
//Storyboard Layer 3 (Foreground)
//Storyboard Sound Samples

[TimingPoints]
705,576.923076923077,4,1,0,100,1,0

[HitObjects]
448,192,705,128,0,993:0:0:0:0:
320,192,1137,1,0,0:0:0:0:
192,192,1281,1,0,0:0:0:0:
64,192,1570,128,0,1714:0:0:0:0:
64,192,1858,1,0,0:0:0:0:
192,192,2147,128,0,2580:0:0:0:0:
320,192,2435,128,0,2868:0:0:0:0:
64,192,2580,1,0,0:0:0:0:
448,192,2724,128,0,3156:0:0:0:0:
192,192,3012,1,0,0:0:0:0:
320,192,3301,1,0,0:0:0:0:
192,192,3445,1,0,0:0:0:0:
64,192,3733,1,0,0:0:0:0:
64,192,3878,1,0,0:0:0:0:
448,192,4166,128,0,4599:0:0:0:0:
320,192,4599,128,0,5031:0:0:0:0:
64,192,5031,128,0,5176:0:0:0:0:
192,192,5320,128,0,5753:0:0:0:0:
320,192,5320,128,0,5753:0:0:0:0:
64,192,5753,128,0,6185:0:0:0:0:
448,192,5753,128,0,6185:0:0:0:0:
192,192,6185,128,0,6618:0:0:0:0:
320,192,6185,128,0,6618:0:0:0:0:
64,192,6762,128,0,7051:0:0:0:0:
192,192,7051,128,0,7339:0:0:0:0:
320,192,7339,128,0,7628:0:0:0:0:
448,192,7628,128,0,7916:0:0:0:0:
320,192,8060,128,0,8781:0:0:0:0:
64,192,8493,1,0,0:0:0:0:
448,192,8781,1,0,0:0:0:0:
320,192,8926,1,0,0:0:0:0:
192,192,9070,1,0,0:0:0:0:
64,192,9214,1,0,0:0:0:0:
192,192,9358,1,0,0:0:0:0:
320,192,9503,1,0,0:0:0:0:
192,192,9647,1,0,0:0:0:0:
320,192,9791,1,0,0:0:0:0:
192,192,9935,1,0,0:0:0:0:
448,192,9935,1,0,0:0:0:0:
64,192,9935,1,0,0:0:0:0:
64,192,10080,1,0,0:0:0:0:
192,192,10224,1,0,0:0:0:0:
64,192,10368,1,0,0:0:0:0:
320,192,10368,1,0,0:0:0:0:
448,192,10368,1,0,0:0:0:0:
448,192,10512,1,0,0:0:0:0:
320,192,10656,1,0,0:0:0:0:
64,192,10801,1,0,0:0:0:0:
192,192,10801,1,0,0:0:0:0:
448,192,10801,1,0,0:0:0:0:
64,192,10945,1,0,0:0:0:0:
192,192,11089,1,0,0:0:0:0:
64,192,11233,1,0,0:0:0:0:
192,192,11233,1,0,0:0:0:0:
448,192,11233,1,0,0:0:0:0:
320,192,11233,1,0,0:0:0:0:
64,192,11378,1,0,0:0:0:0:
192,192,11378,1,0,0:0:0:0:
320,192,11378,1,0,0:0:0:0:
448,192,11378,1,0,0:0:0:0:
448,192,11522,1,0,0:0:0:0:
320,192,11522,1,0,0:0:0:0:
192,192,11522,1,0,0:0:0:0:
64,192,11522,1,0,0:0:0:0:
64,192,11666,1,0,0:0:0:0:
320,192,11666,1,0,0:0:0:0:
192,192,11666,1,0,0:0:0:0:
448,192,11666,1,0,0:0:0:0:
320,192,11810,1,0,0:0:0:0:
448,192,11810,1,0,0:0:0:0:
64,192,11955,1,0,0:0:0:0:
192,192,11955,1,0,0:0:0:0:
320,192,12099,1,0,0:0:0:0:
64,192,12243,1,0,0:0:0:0:
192,192,12315,1,0,0:0:0:0:
320,192,12387,1,0,0:0:0:0:
192,192,12531,1,0,0:0:0:0:
320,192,12676,128,0,12964:0:0:0:0:
192,192,12964,1,0,0:0:0:0:
448,192,13108,1,0,0:0:0:0:
64,192,13108,1,0,0:0:0:0:
320,192,13397,1,0,0:0:0:0:
192,192,13685,1,0,0:0:0:0:
64,192,13974,128,0,14262:0:0:0:0:
192,192,13974,128,0,14262:0:0:0:0:
320,192,13974,128,0,14262:0:0:0:0:
448,192,13974,128,0,14262:0:0:0:0:
192,192,14551,1,0,0:0:0:0:
320,192,14551,1,0,0:0:0:0:
448,192,14551,1,0,0:0:0:0:
64,192,14551,1,0,0:0:0:0:
448,192,14695,1,0,0:0:0:0:
192,192,14839,1,0,0:0:0:0:
64,192,14983,1,0,0:0:0:0:
320,192,14983,1,0,0:0:0:0:
448,192,14983,1,0,0:0:0:0:
192,192,15128,1,0,0:0:0:0:
448,192,15272,1,0,0:0:0:0:
64,192,15416,1,0,0:0:0:0:
192,192,15416,1,0,0:0:0:0:
320,192,15416,1,0,0:0:0:0:
320,192,15560,1,0,0:0:0:0:
448,192,15705,1,0,0:0:0:0:
64,192,15849,1,0,0:0:0:0:
192,192,15849,1,0,0:0:0:0:
448,192,15849,1,0,0:0:0:0:
320,192,15849,1,0,0:0:0:0:
64,192,15993,1,0,0:0:0:0:
192,192,15993,1,0,0:0:0:0:
320,192,15993,1,0,0:0:0:0:
448,192,15993,1,0,0:0:0:0:
448,192,16137,1,0,0:0:0:0:
320,192,16137,1,0,0:0:0:0:
192,192,16137,1,0,0:0:0:0:
64,192,16137,1,0,0:0:0:0:
64,192,16281,1,0,0:0:0:0:
320,192,16281,1,0,0:0:0:0:
192,192,16281,1,0,0:0:0:0:
448,192,16281,1,0,0:0:0:0:
448,192,16426,1,0,0:0:0:0:
64,192,16426,1,0,0:0:0:0:
192,192,16570,1,0,0:0:0:0:
320,192,16570,1,0,0:0:0:0:
64,192,16714,1,0,0:0:0:0:
448,192,16714,1,0,0:0:0:0:
448,192,16858,1,0,0:0:0:0:
320,192,16930,1,0,0:0:0:0:
192,192,17003,1,0,0:0:0:0:
64,192,17147,1,0,0:0:0:0:
192,192,17291,1,0,0:0:0:0:
320,192,17435,1,0,0:0:0:0:
448,192,17580,1,0,0:0:0:0:
64,192,17724,1,0,0:0:0:0:
448,192,17868,1,0,0:0:0:0:
320,192,18012,1,0,0:0:0:0:
192,192,18156,1,0,0:0:0:0:
64,192,18301,1,0,0:0:0:0:
192,192,18445,1,0,0:0:0:0:
64,192,18589,1,0,0:0:0:0:
448,192,18589,1,0,0:0:0:0:
320,192,18589,1,0,0:0:0:0:
192,192,18589,1,0,0:0:0:0:
64,192,18733,1,0,0:0:0:0:
192,192,18733,1,0,0:0:0:0:
448,192,18733,1,0,0:0:0:0:
320,192,18733,1,0,0:0:0:0:
192,192,19166,1,0,0:0:0:0:
192,192,19455,1,0,0:0:0:0:
320,192,19743,1,0,0:0:0:0:
448,192,20031,1,0,0:0:0:0:
64,192,20320,1,0,0:0:0:0:
192,192,20392,1,0,0:0:0:0:
448,192,20753,1,0,0:0:0:0:
320,192,20897,1,0,0:0:0:0:
64,192,21185,1,0,0:0:0:0:
320,192,21330,1,0,0:0:0:0:
448,192,21474,1,0,0:0:0:0:
192,192,21762,1,0,0:0:0:0:
320,192,21906,1,0,0:0:0:0:
448,192,22195,1,0,0:0:0:0:
64,192,22339,1,0,0:0:0:0:
192,192,22916,128,0,23060:0:0:0:0:
320,192,23060,1,0,0:0:0:0:
448,192,23205,1,0,0:0:0:0:
64,192,23493,1,0,0:0:0:0:
64,192,23781,1,0,0:0:0:0:
64,192,24070,1,0,0:0:0:0:
192,192,24358,1,0,0:0:0:0:
320,192,24647,1,0,0:0:0:0:
320,192,24935,128,0,25368:0:0:0:0:
192,192,25080,1,0,0:0:0:0:
448,192,25368,1,0,0:0:0:0:
320,192,25801,1,0,0:0:0:0:
192,192,26089,1,0,0:0:0:0:
64,192,26378,1,0,0:0:0:0:
320,192,26522,128,0,26955:0:0:0:0:
64,192,27676,1,0,0:0:0:0:
448,192,27820,1,0,0:0:0:0:
64,192,28108,1,0,0:0:0:0:
64,192,28397,1,0,0:0:0:0:
192,192,28685,128,0,28830:0:0:0:0:
320,192,28974,128,0,29118:0:0:0:0:
192,192,29262,1,0,0:0:0:0:
192,192,29551,128,0,29695:0:0:0:0:
192,192,29839,1,0,0:0:0:0:
192,192,29983,1,0,0:0:0:0:
192,192,30416,1,0,0:0:0:0:
192,192,30560,1,0,0:0:0:0:
192,192,30705,128,0,30849:0:0:0:0:
192,192,30993,1,0,0:0:0:0:
192,192,31137,128,0,31281:0:0:0:0:
192,192,31426,1,0,0:0:0:0:
192,192,31570,1,0,0:0:0:0:
192,192,32724,128,0,33012:0:0:0:0:
64,192,33012,128,0,33301:0:0:0:0:
64,192,33445,128,0,33589:0:0:0:0:
64,192,33878,1,0,0:0:0:0:
192,192,34166,128,0,34455:0:0:0:0:
64,192,34455,1,0,0:0:0:0:
64,192,34599,1,0,0:0:0:0:
448,192,37628,1,0,0:0:0:0:
448,192,38060,1,0,0:0:0:0:
448,192,38493,1,0,0:0:0:0:
448,192,39070,1,0,0:0:0:0:
448,192,39358,1,0,0:0:0:0:
448,192,39647,1,0,0:0:0:0:
448,192,39935,1,0,0:0:0:0:
448,192,40368,1,0,0:0:0:0:
192,192,40368,128,0,40656:0:0:0:0:
448,192,40801,1,0,0:0:0:0:
64,192,40801,1,0,0:0:0:0:
64,192,40945,1,0,0:0:0:0:
64,192,41089,1,0,0:0:0:0:
64,192,41378,1,0,0:0:0:0:
64,192,41522,1,0,0:0:0:0:
64,192,41810,1,0,0:0:0:0:
64,192,41955,1,0,0:0:0:0:
64,192,57243,132,0,57676:0:0:0:0:
192,192,57820,128,0,58253:0:0:0:0:
64,192,58397,128,0,58685:0:0:0:0:
448,192,58397,128,0,58685:0:0:0:0:
192,192,58685,1,0,0:0:0:0:
320,192,58685,1,0,0:0:0:0:
64,192,58830,1,0,0:0:0:0:
448,192,58830,1,0,0:0:0:0:
192,192,59118,1,0,0:0:0:0:
192,192,59262,1,0,0:0:0:0:
192,192,59406,1,0,0:0:0:0:
64,192,59551,128,0,59839:0:0:0:0:
448,192,59551,128,0,59839:0:0:0:0:
320,192,59839,1,0,0:0:0:0:
192,192,59839,1,0,0:0:0:0:
64,192,59983,1,0,0:0:0:0:
448,192,59983,1,0,0:0:0:0:
64,192,60416,1,0,0:0:0:0:
64,192,60560,1,0,0:0:0:0:
64,192,60705,128,0,60993:0:0:0:0:
192,192,61137,128,0,61426:0:0:0:0:
64,192,61570,1,0,0:0:0:0:
64,192,61714,1,0,0:0:0:0:
64,192,61858,1,0,0:0:0:0:
64,192,62147,1,0,0:0:0:0:
64,192,62291,1,0,0:0:0:0:
64,192,62580,1,0,0:0:0:0:
192,192,62580,128,0,62724:0:0:0:0:
64,192,62724,1,0,0:0:0:0:
