osu file format v14

[General]
AudioFilename: audio.mp3
AudioLeadIn: 0
PreviewTime: 654529
Countdown: 1
SampleSet: Soft
StackLeniency: 0.7
Mode: 0
LetterboxInBreaks: 0
WidescreenStoryboard: 0

[Editor]
Bookmarks: 343387,453100,573100
DistanceSpacing: 1.5
BeatDivisor: 2
GridSize: 4
TimelineZoom: 0.1999999

[Metadata]
Title:Murdered By Grief
TitleUnicode:Murdered By Grief
Artist:Frowning
ArtistUnicode:Frowning
Creator:Platnuu
Version:I Am Death Incarnate
Source:
Tags:Funeral Doom Metal
BeatmapID:1978181
BeatmapSetID:947117

[Difficulty]
HPDrainRate:10
CircleSize:7
OverallDifficulty:10
ApproachRate:0
SliderMultiplier:1
SliderTickRate:1

[Events]
//Background and Video events
0,0,"31aabe515bcd40242ab16f0983ad3d93dc207184_s2_n1.png",0,0
//Break Periods
2,463586,516443
//Storyboard Layer 0 (Background)
//Storyboard Layer 1 (Fail)
//Storyboard Layer 2 (Pass)
//Storyboard Layer 3 (Foreground)
//Storyboard Sound Samples

[TimingPoints]
530.707145501666,857.142857142857,4,2,1,100,1,0
2237,857.142857142857,4,2,1,100,1,0
3954,857.142857142857,4,2,1,100,1,0
5674,857.142857142857,4,2,1,100,1,0
6265,857.142857142857,4,2,1,100,1,0
6509,857.142857142857,4,2,1,100,1,0
7384,857.142857142857,4,2,1,100,1,0
9101,857.142857142857,4,2,1,100,1,0
10818,857.142857142857,4,2,1,100,1,0
14256,857.142857142857,4,2,1,100,1,0
15952,857.142857142857,4,2,1,100,1,0
27084,857.142857142857,4,2,1,100,1,0
27491,857.142857142857,4,2,1,100,1,0
27953,857.142857142857,4,2,1,100,1,0
33715,857.142857142857,4,2,1,100,1,0
33933,857.142857142857,4,2,1,100,1,0
36524,857.142857142857,4,2,1,100,1,0
55388,857.142857142857,4,2,1,100,1,0
58818,857.142857142857,4,2,1,100,1,0
61392,857.142857142857,4,2,1,100,1,0
65675,857.142857142857,4,2,1,100,1,0
68242,857.142857142857,4,2,1,100,1,0
69099,857.142857142857,4,2,1,100,1,0
101650,857.142857142857,4,2,1,100,1,0
123038,857.142857142857,4,2,1,100,1,0
123975,857.142857142857,4,2,1,100,1,0
125679,857.142857142857,4,2,1,100,1,0
129092,857.142857142857,4,2,1,100,1,0
130826,857.142857142857,4,2,1,100,1,0
132528,857.142857142857,4,2,1,100,1,0
134253,857.142857142857,4,2,1,100,1,0
137693,857.142857142857,4,2,1,100,1,0
139387,857.142857142857,4,2,1,100,1,0
233672,857.142857142857,4,2,1,100,1,1
233672,-100,4,2,1,100,0,1
288529,-100,4,2,1,100,0,0
398243,-100,4,2,1,100,0,1
453100,-133.333333333333,4,2,1,100,0,0
655386,-100,4,2,1,100,0,1
682814,-100,4,2,1,100,0,0

[Colours]
Combo1 : 140,0,3
Combo2 : 64,64,64
Combo3 : 89,0,0
Combo4 : 39,39,39

[HitObjects]
11,372,529,5,2,0:0:0:0:
55,177,2237,1,8,0:0:0:0:
141,357,3955,1,2,0:0:0:0:
169,315,4383,1,2,0:0:0:0:
221,230,5240,1,2,0:0:0:0:
242,275,5674,1,8,0:0:0:0:
295,310,6265,1,0,0:0:0:0:
324,322,6509,2,8,B|353:330|378:343,1,50,2|0,0:0|0:0,0:0:0:0:
411,368,7384,21,2,0:0:0:0:
488,183,9101,1,8,0:0:0:0:
505,382,10818,1,8,0:0:0:0:
488,334,11247,1,2,0:0:0:0:
445,190,12533,1,2,0:0:0:0:
500,106,13390,2,0,P|457:112|417:127,1,75,2|0,0:0|0:0,0:0:0:0:
394,141,14256,21,2,0:0:0:0:
325,260,15953,1,8,0:0:0:0:
508,180,17667,1,2,0:0:0:0:
508,29,18953,1,2,0:0:0:0:
461,10,19382,1,8,0:0:0:0:
361,17,20239,2,0,P|328:33|287:25,1,75,2|0,0:0|0:0,0:0:0:0:
256,13,21096,21,2,0:0:0:0:
77,15,22810,1,8,0:0:0:0:
6,202,24524,1,2,0:0:0:0:
6,1,26239,1,8,0:0:0:0:
80,67,27086,1,0,0:0:0:0:
107,108,27493,1,0,0:0:0:0:
8,80,27956,21,2,0:0:0:0:
122,243,29670,1,8,0:0:0:0:
209,62,31385,1,2,0:0:0:0:
189,107,31813,1,2,0:0:0:0:
148,198,32667,1,2,0:0:0:0:
125,245,33095,1,8,0:0:0:0:
218,173,33715,1,0,0:0:0:0:
242,180,33933,2,0,P|279:184|325:178,1,75,2|0,0:0|0:0,0:0:0:0:
350,164,34790,21,2,0:0:0:0:
321,357,36524,1,8,0:0:0:0:
134,284,38238,1,2,0:0:0:0:
85,296,38667,1,2,0:0:0:0:
230,258,39953,1,8,0:0:0:0:
193,164,40810,2,0,P|167:124|136:96,1,75,2|0,0:0|0:0,0:0:0:0:
116,83,41667,21,2,0:0:0:0:
326,80,43381,1,8,0:0:0:0:
393,268,45095,1,8,0:0:0:0:
375,119,46381,1,2,0:0:0:0:
386,70,46810,1,8,0:0:0:0:
294,42,47667,2,0,P|353:21|383:22,1,75,2|0,0:0|0:0,0:0:0:0:
400,19,48524,21,2,0:0:0:0:
460,124,50238,1,10,0:0:0:0:
429,321,51953,1,2,0:0:0:0:
262,209,53667,1,8,0:0:0:0:
62,114,55388,22,0,B|56:131|40:141|40:141|72:144|106:165,1,100,2|0,0:0|0:0,0:0:0:0:
244,202,56674,1,2,0:0:0:0:
401,251,57102,1,8,0:0:0:0:
353,266,57317,1,2,0:0:0:0:
305,279,57531,1,2,0:0:0:0:
162,325,57960,1,2,0:0:0:0:
302,378,58388,1,2,0:0:0:0:
451,363,58819,22,0,B|468:364|482:377|482:377|477:346|489:307,1,100,2|0,0:0|0:0,0:0:0:0:
511,166,60104,1,2,0:0:0:0:
496,5,60533,1,8,0:0:0:0:
481,53,60748,1,2,0:0:0:0:
468,101,60962,1,2,0:0:0:0:
320,127,61393,1,2,0:0:0:0:
226,9,61822,1,2,0:0:0:0:
76,13,62249,22,0,B|58:11|44:-1|44:-1|49:29|37:68,1,100,2|0,0:0|0:0,0:0:0:0:
1,207,63536,1,2,0:0:0:0:
28,358,63965,1,8,0:0:0:0:
41,310,64179,1,2,0:0:0:0:
56,262,64394,1,2,0:0:0:0:
95,117,64822,1,2,0:0:0:0:
176,242,65250,1,2,0:0:0:0:
353,201,65677,22,0,B|335:199|321:186|321:186|326:217|314:256,1,100,2|0,0:0|0:0,0:0:0:0:
238,378,66963,1,2,0:0:0:0:
176,242,67391,1,8,0:0:0:0:
189,194,67605,1,2,0:0:0:0:
204,146,67820,1,2,0:0:0:0:
252,4,68244,1,2,0:0:0:0:
354,113,68673,1,2,0:0:0:0:
503,103,69099,22,0,B|485:101|471:88|471:88|476:119|464:158,1,100,2|0,0:0|0:0,0:0:0:0:
415,294,70387,1,2,0:0:0:0:
323,174,70816,1,8,0:0:0:0:
310,126,71030,1,2,0:0:0:0:
295,78,71245,1,2,0:0:0:0:
269,225,71673,1,2,0:0:0:0:
273,374,72101,1,2,0:0:0:0:
122,380,72530,22,0,B|140:382|154:395|154:395|149:364|161:325,1,100,2|0,0:0|0:0,0:0:0:0:
269,225,73816,1,2,0:0:0:0:
180,104,74244,1,8,0:0:0:0:
195,54,74458,1,2,0:0:0:0:
210,6,74673,1,2,0:0:0:0:
329,95,75101,1,2,0:0:0:0:
431,204,75530,1,2,0:0:0:0:
370,341,75959,22,0,B|388:343|402:356|402:356|397:325|409:286,1,100,2|0,0:0|0:0,0:0:0:0:
269,225,77244,1,2,0:0:0:0:
387,133,77673,1,8,0:0:0:0:
337,148,77887,1,2,0:0:0:0:
289,163,78102,1,2,0:0:0:0:
145,204,78530,1,2,0:0:0:0:
254,306,78959,1,2,0:0:0:0:
111,352,79387,22,0,B|93:354|79:367|79:367|84:336|72:297,1,100,2|0,0:0|0:0,0:0:0:0:
14,165,80673,1,2,0:0:0:0:
13,15,81101,1,8,0:0:0:0:
28,63,81316,1,2,0:0:0:0:
43,113,81530,1,2,0:0:0:0:
189,81,81959,1,2,0:0:0:0:
146,224,82387,1,2,0:0:0:0:
179,370,82813,22,0,B|228:361|228:361|286:372,1,100,2|0,0:0|0:0,0:0:0:0:
426,378,84101,1,2,0:0:0:0:
302,292,84530,1,8,0:0:0:0:
351,307,84744,1,2,0:0:0:0:
399,322,84959,1,2,0:0:0:0:
280,230,85387,1,2,0:0:0:0:
142,169,85816,1,2,0:0:0:0:
256,72,86244,22,0,B|305:81|305:81|363:70,1,100,2|0,0:0|0:0,0:0:0:0:
495,19,87530,1,2,0:0:0:0:
475,167,87959,1,8,0:0:0:0:
490,216,88173,1,2,0:0:0:0:
505,264,88388,1,2,0:0:0:0:
412,381,88816,1,2,0:0:0:0:
348,245,89244,1,2,0:0:0:0:
208,200,89673,22,0,B|195:248|195:248|206:306,1,100,2|0,0:0|0:0,0:0:0:0:
78,379,90959,1,2,0:0:0:0:
5,247,91387,1,8,0:0:0:0:
20,198,91601,1,2,0:0:0:0:
35,150,91816,1,2,0:0:0:0:
81,7,92244,1,2,0:0:0:0:
195,104,92673,1,2,0:0:0:0:
333,161,93101,22,0,B|346:113|346:113|335:55,1,100,2|0,0:0|0:0,0:0:0:0:
476,10,94387,1,2,0:0:0:0:
445,117,94816,1,2,0:0:0:0:
441,134,95030,1,2,0:0:0:0:
437,152,95244,1,2,0:0:0:0:
418,224,95673,1,2,0:0:0:0:
400,296,96101,1,2,0:0:0:0:
382,374,96530,22,0,B|345:364|345:364|342:355|327:356|327:356|329:348|329:348|327:356|327:356|311:360|311:360|309:370|309:370|305:363|305:363|297:365|297:365|296:365|296:365|279:359|279:359|280:353|280:353|279:359|279:359|242:361|234:368|234:368,1,175
204,361,98244,2,0,B|209:336|209:336|211:331|211:331|208:312|208:312|225:316|225:316|234:317|234:317|237:313|237:313|237:306|237:306|249:296|249:296|262:293|262:293|255:285|255:285|266:276|266:276|273:264|273:264|268:251|268:251|272:244,1,175
211,257,99958,2,0,B|179:261|179:261|180:269|180:269|168:272|168:272|150:273|155:304|155:304|142:310|142:310|156:318|156:318|152:323|152:323|157:337|157:337|148:348|148:348|134:355|134:355,1,175
84,373,101653,2,0,B|82:341|82:341|94:330|94:330|82:322|82:322|90:318|90:318|82:288|82:288|94:275|94:275|98:272|98:272|108:278|108:278|109:261|109:261|116:253|116:253|125:235,1,175
74,224,103367,22,0,B|84:202|84:202|101:198|101:198|103:191|103:191|108:179|108:179|133:173|123:193|148:181|148:181|142:198|142:198|160:202|160:202|168:217|168:217|173:244,1,175
170,285,105081,2,0,B|186:282|186:282|195:277|195:277|194:284|194:284|199:283|199:283|211:280|216:260|216:260|234:261|234:261|224:241|224:241|234:222|234:222|218:214|218:214|224:188|224:188|209:177,1,175
217,134,106796,2,0,B|239:143|239:143|244:130|244:130|251:142|251:142|264:149|264:149|276:159|271:170|271:170|288:183|288:183|275:203|275:203|289:217|289:217|285:242|285:242|300:245|300:245|287:250|287:250|282:257|282:257|272:259|297:276|297:276|298:281|298:281|297:297|297:297|282:305|282:305|301:315|300:330|300:330|320:319|320:319|331:355,1,375
376,372,110221,22,0,B|388:342|388:342|378:336|378:336|371:328|371:328|380:324|374:306|378:300|363:279|363:279|354:275|361:264|361:264|370:257|349:254|342:246|342:233|342:233|338:233|342:216|342:216|338:223,1,175
280,238,111935,2,0,B|287:208|295:208|295:208|292:195|303:188|294:174|294:174|311:175|311:175|318:170|323:171|319:176|333:180|333:180|342:169|342:169|349:179|353:179|367:184|367:184|376:192|376:192|381:201|384:200|384:200|392:205,1,175
340,234,113650,2,0,B|354:236|354:236|364:242|364:242|361:255|361:255|374:250|374:250|390:246|390:246|399:253|404:244|404:244|416:231|416:231|432:230|432:230|428:199|428:199|428:185|428:185|427:177|427:177|416:167|416:167|418:160,1,175
480,156,115364,2,0,B|472:138|472:138|459:140|459:140|452:129|452:129|438:130|438:130|430:120|430:120|417:125|417:125|402:121|402:121|399:129|399:129|400:138|400:138|389:149|389:149|383:151|383:151|381:155|372:172|372:172|377:188,1,175
319,179,117078,22,0,B|311:141|311:141|321:128|321:128|342:132|342:132|346:117|344:113|344:113|346:98|346:98|363:96|363:96|366:89|366:89|383:72|383:72|390:79|390:79|412:70|412:70,1,175
449,71,118792,2,0,B|441:43|441:43|429:48|429:48|424:32|424:32|406:22|392:26|392:26|387:11|387:11|375:22|375:22|351:33|351:33|329:14|329:22|318:33,1,175
280,19,120507,2,0,B|264:52|264:52|254:47|254:47|231:66|231:66|230:80|230:80|228:84|201:79|201:79|190:75|190:75|180:83|180:83|165:68|165:68|149:67|149:67|137:54|137:54|133:42|133:42|104:35|104:35|96:21|96:21,1,250
204,15,123038,1,2,0:0:0:0:
170,161,123466,1,2,0:0:0:0:
4,308,123975,5,2,0:0:0:0:
508,230,125679,1,8,0:0:0:0:
3,10,127393,1,2,0:0:0:0:
346,378,129092,1,8,0:0:0:0:
165,2,130826,21,2,0:0:0:0:
468,378,132528,1,8,0:0:0:0:
1,283,134253,1,2,0:0:0:0:
1,283,135967,1,8,0:0:0:0:
335,384,137693,21,2,0:0:0:0:
430,4,139387,1,8,0:0:0:0:
1,342,141101,1,2,0:0:0:0:
511,163,142815,1,8,0:0:0:0:
216,382,144529,21,2,0:0:0:0:
310,4,146244,1,8,0:0:0:0:
161,381,147958,1,2,0:0:0:0:
161,381,149672,1,8,0:0:0:0:
256,0,151387,21,2,0:0:0:0:
2,382,153101,1,8,0:0:0:0:
511,0,154815,1,2,0:0:0:0:
0,330,156529,1,8,0:0:0:0:
512,137,158244,21,2,0:0:0:0:
120,0,159958,1,8,0:0:0:0:
512,315,161672,1,2,0:0:0:0:
256,192,163387,1,8,0:0:0:0:
256,192,165101,21,8,0:0:0:0:
509,159,166815,1,2,0:0:0:0:
138,8,168529,1,8,0:0:0:0:
1,260,170244,1,2,0:0:0:0:
382,379,171958,21,2,0:0:0:0:
369,4,173672,1,8,0:0:0:0:
508,193,175387,1,2,0:0:0:0:
508,193,177101,1,8,0:0:0:0:
1,53,178815,21,2,0:0:0:0:
508,193,180529,1,8,0:0:0:0:
212,3,182244,1,2,0:0:0:0:
231,382,183958,1,8,0:0:0:0:
2,131,185672,21,2,0:0:0:0:
404,3,187387,1,8,0:0:0:0:
510,250,189101,1,2,0:0:0:0:
510,250,190815,1,8,0:0:0:0:
4,380,192529,21,2,0:0:0:0:
510,250,194244,1,8,0:0:0:0:
512,0,195958,1,2,0:0:0:0:
6,130,197673,1,8,0:0:0:0:
510,381,199387,21,2,0:0:0:0:
319,0,201101,1,8,0:0:0:0:
0,258,202815,1,2,0:0:0:0:
0,258,204529,1,8,0:0:0:0:
256,192,206244,5,2,0:0:0:0:
362,325,207958,1,8,0:0:0:0:
376,104,209672,1,2,0:0:0:0:
138,277,211387,1,8,0:0:0:0:
130,25,213101,21,2,0:0:0:0:
438,6,214815,1,8,0:0:0:0:
304,277,216529,1,2,0:0:0:0:
304,277,218244,1,8,0:0:0:0:
142,24,219958,21,2,0:0:0:0:
69,235,221672,1,8,0:0:0:0:
303,185,223387,1,2,0:0:0:0:
236,381,225101,1,8,0:0:0:0:
496,331,226815,21,2,0:0:0:0:
501,13,228529,1,8,0:0:0:0:
505,377,230244,1,2,0:0:0:0:
505,377,231958,1,8,0:0:0:0:
10,12,233672,6,0,L|14:62,1,50,2|0,0:0|0:0,0:0:0:0:
103,147,234529,2,0,L|108:97,1,50
78,364,235387,1,8,0:0:0:0:
78,364,236244,1,0,0:0:0:0:
309,360,237101,1,2,0:0:0:0:
375,343,237529,1,0,0:0:0:0:
439,347,237958,2,0,P|434:319|420:298,1,50
292,201,238814,1,8,0:0:0:0:
261,101,239672,2,0,P|234:110|215:127,1,50
111,357,240529,22,0,B|127:331|127:331|114:294|132:260,1,100,2|0,0:0|0:0,0:0:0:0:
426,107,242243,1,8,0:0:0:0:
401,357,243957,2,0,B|385:331|385:331|398:294|380:260,1,100,2|0,0:0|0:0,0:0:0:0:
86,107,245672,1,8,0:0:0:0:
105,286,246529,1,2,0:0:0:0:
99,225,246957,1,2,0:0:0:0:
82,347,247386,22,0,B|111:358|111:358|143:333|184:356,1,100,2|0,0:0|0:0,0:0:0:0:
373,384,249100,1,8,0:0:0:0:
474,260,249957,1,0,0:0:0:0:
499,103,250386,1,2,0:0:0:0:
474,260,250814,1,2,0:0:0:0:
499,103,251243,1,2,0:0:0:0:
499,103,251672,1,2,0:0:0:0:
344,11,252529,2,0,L|284:16,1,50,8|0,0:0|0:0,0:0:0:0:
329,117,253386,2,0,L|323:57,1,50
347,217,254243,22,0,L|358:294,1,75,2|0,0:0|0:0,0:0:0:0:
376,299,255100,2,0,L|371:348,1,50
216,331,255957,1,8,0:0:0:0:
43,225,257243,1,2,0:0:0:0:
140,141,257672,2,0,L|189:136,1,50,2|0,0:0|0:0,0:0:0:0:
285,42,258529,2,0,L|235:46,1,50
48,5,259386,1,8,0:0:0:0:
30,118,259814,1,2,0:0:0:0:
62,243,260243,1,2,0:0:0:0:
68,296,260457,1,2,0:0:0:0:
75,352,260672,1,2,0:0:0:0:
272,342,261100,22,0,L|330:336,1,50,2|0,0:0|0:0,0:0:0:0:
453,279,261957,2,0,L|403:283,1,50
124,315,262814,1,8,0:0:0:0:
124,315,263672,1,0,0:0:0:0:
263,212,264529,1,2,0:0:0:0:
348,199,264957,1,2,0:0:0:0:
430,206,265386,2,0,P|429:181|418:158,1,50
346,20,266243,2,0,P|324:33|310:53,1,50,8|0,0:0|0:0,0:0:0:0:
295,131,267100,1,0,0:0:0:0:
318,277,267529,1,2,0:0:0:0:
168,66,267957,22,0,B|142:73|142:73|109:55|69:72,1,100,2|0,0:0|0:0,0:0:0:0:
37,279,269672,1,8,0:0:0:0:
472,227,271386,1,2,0:0:0:0:
485,126,272243,1,0,0:0:0:0:
456,330,273100,1,8,0:0:0:0:
453,346,273957,1,0,0:0:0:0:
97,193,274814,22,0,B|126:198|126:198|156:232|203:205,1,100,2|0,0:0|0:0,0:0:0:0:
416,28,276529,1,8,0:0:0:0:
381,277,277386,1,0,0:0:0:0:
402,153,277814,1,2,0:0:0:0:
381,277,278243,1,2,0:0:0:0:
402,153,278671,1,0,0:0:0:0:
402,153,279100,1,2,0:0:0:0:
250,297,279957,1,8,0:0:0:0:
188,180,280814,1,0,0:0:0:0:
284,85,281243,1,0,0:0:0:0:
12,373,281672,22,0,B|29:335|29:335|13:304|31:276,1,100,2|0,0:0|0:0,0:0:0:0:
80,176,283386,1,8,0:0:0:0:
132,61,284672,1,2,0:0:0:0:
151,49,285100,2,0,P|199:33|249:58,1,100,2|0,0:0|0:0,0:0:0:0:
352,183,286814,1,8,0:0:0:0:
507,70,288529,5,4,0:0:0:0:
78,88,290243,1,0,0:0:0:0:
127,112,291100,1,0,0:0:0:0:
83,142,291957,1,0,0:0:0:0:
0,53,293672,1,0,0:0:0:0:
3,17,294529,1,0,0:0:0:0:
0,186,295386,21,0,0:0:0:0:
92,267,297100,1,0,0:0:0:0:
141,291,297957,1,0,0:0:0:0:
97,321,298814,1,0,0:0:0:0:
225,384,300529,1,0,0:0:0:0:
344,316,302243,21,0,0:0:0:0:
386,121,303957,1,0,0:0:0:0:
435,145,304814,1,0,0:0:0:0:
391,175,305671,1,0,0:0:0:0:
499,373,309100,21,0,0:0:0:0:
295,292,310814,1,0,0:0:0:0:
344,316,311671,1,0,0:0:0:0:
300,346,312528,1,0,0:0:0:0:
216,327,315100,1,0,0:0:0:0:
191,330,315529,1,0,0:0:0:0:
166,332,315957,21,0,0:0:0:0:
15,315,317672,1,0,0:0:0:0:
64,339,318529,1,0,0:0:0:0:
20,369,319386,1,0,0:0:0:0:
96,191,322814,21,0,0:0:0:0:
214,193,324529,1,0,0:0:0:0:
263,217,325386,1,0,0:0:0:0:
219,247,326243,1,0,0:0:0:0:
160,5,329672,21,0,0:0:0:0:
236,55,331386,1,0,0:0:0:0:
285,79,332243,1,0,0:0:0:0:
241,109,333100,1,0,0:0:0:0:
296,0,334814,1,0,0:0:0:0:
393,43,335672,1,0,0:0:0:0:
487,83,336529,21,0,0:0:0:0:
447,223,338243,1,0,0:0:0:0:
496,247,339100,1,0,0:0:0:0:
452,277,339957,1,0,0:0:0:0:
234,292,342529,21,0,0:0:0:0:
346,252,342957,1,0,0:0:0:0:
506,19,343386,5,0,0:0:0:0:
480,135,344243,2,0,L|486:195,1,50
495,285,345100,1,0,0:0:0:0:
415,194,345957,1,0,0:0:0:0:
318,78,346814,1,0,0:0:0:0:
280,31,347243,1,0,0:0:0:0:
55,10,348529,1,0,0:0:0:0:
142,167,349814,1,0,0:0:0:0:
138,242,350243,21,0,0:0:0:0:
405,377,351957,1,0,0:0:0:0:
296,325,352814,1,0,0:0:0:0:
153,372,353672,1,0,0:0:0:0:
1,117,355386,1,0,0:0:0:0:
12,236,356243,1,0,0:0:0:0:
20,295,356672,1,0,0:0:0:0:
31,368,357100,21,0,0:0:0:0:
314,271,358814,1,0,0:0:0:0:
425,227,359672,1,0,0:0:0:0:
480,203,360100,1,0,0:0:0:0:
422,154,360529,1,0,0:0:0:0:
370,45,361386,1,0,0:0:0:0:
271,157,362243,1,0,0:0:0:0:
163,209,363100,1,0,0:0:0:0:
155,59,363957,21,0,0:0:0:0:
155,59,364814,1,0,0:0:0:0:
224,192,365672,1,0,0:0:0:0:
280,297,366529,1,0,0:0:0:0:
310,348,366957,1,0,0:0:0:0:
355,288,367386,1,0,0:0:0:0:
355,288,368243,1,0,0:0:0:0:
223,360,369100,1,0,0:0:0:0:
165,376,369529,1,0,0:0:0:0:
175,301,369957,1,0,0:0:0:0:
167,264,370172,1,0,0:0:0:0:
159,227,370386,1,0,0:0:0:0:
118,55,370814,21,0,0:0:0:0:
214,126,371672,1,0,0:0:0:0:
67,159,372529,1,0,0:0:0:0:
37,275,373386,1,0,0:0:0:0:
182,239,374243,1,0,0:0:0:0:
241,249,374672,1,0,0:0:0:0:
299,260,375100,1,0,0:0:0:0:
462,289,375957,1,0,0:0:0:0:
462,289,377243,1,0,0:0:0:0:
493,84,377672,21,0,0:0:0:0:
393,17,378529,1,0,0:0:0:0:
363,163,379386,1,0,0:0:0:0:
293,260,380243,1,0,0:0:0:0:
440,284,381100,1,0,0:0:0:0:
501,319,381957,1,0,0:0:0:0:
371,243,382814,1,0,0:0:0:0:
109,103,384529,21,0,0:0:0:0:
4,142,385386,1,0,0:0:0:0:
40,14,386243,1,0,0:0:0:0:
167,9,387100,1,0,0:0:0:0:
226,18,387529,1,0,0:0:0:0:
299,30,387957,1,0,0:0:0:0:
447,49,388814,1,0,0:0:0:0:
352,165,389672,1,0,0:0:0:0:
329,282,390529,1,0,0:0:0:0:
201,203,391386,21,0,0:0:0:0:
427,6,393100,1,0,0:0:0:0:
308,23,393957,1,0,0:0:0:0:
249,36,394386,1,0,0:0:0:0:
190,47,394814,1,0,0:0:0:0:
272,134,395672,1,0,0:0:0:0:
309,279,396529,1,0,0:0:0:0:
376,179,397386,1,0,0:0:0:0:
319,198,397814,1,0,0:0:0:0:
121,264,398243,21,0,0:0:0:0:
186,129,399100,1,0,0:0:0:0:
37,147,399957,1,0,0:0:0:0:
101,11,400814,1,0,0:0:0:0:
250,1,401672,1,0,0:0:0:0:
324,1,402100,1,0,0:0:0:0:
399,3,402529,1,0,0:0:0:0:
507,106,403386,1,0,0:0:0:0:
359,133,404243,1,0,0:0:0:0:
412,185,404672,1,0,0:0:0:0:
464,242,405100,5,0,0:0:0:0:
316,269,405957,1,0,0:0:0:0:
359,133,406814,1,0,0:0:0:0:
506,106,407672,1,0,0:0:0:0:
405,0,408529,1,0,0:0:0:0:
255,2,409386,1,0,0:0:0:0:
336,127,410243,1,0,0:0:0:0:
186,133,411100,1,0,0:0:0:0:
261,262,411957,21,0,0:0:0:0:
111,256,412814,1,0,0:0:0:0:
32,128,413672,1,0,0:0:0:0:
181,124,414529,1,0,0:0:0:0:
135,62,414957,1,0,0:0:0:0:
90,2,415386,1,0,0:0:0:0:
239,5,416243,1,0,0:0:0:0:
332,122,417100,1,0,0:0:0:0:
181,124,417957,1,0,0:0:0:0:
258,252,418814,21,0,0:0:0:0:
407,239,419672,1,0,0:0:0:0:
321,115,420529,1,0,0:0:0:0:
470,115,421386,1,0,0:0:0:0:
434,55,421814,1,0,0:0:0:0:
396,0,422243,1,0,0:0:0:0:
248,0,423100,1,0,0:0:0:0:
22,4,423957,1,0,0:0:0:0:
38,147,424814,1,0,0:0:0:0:
47,203,425243,1,0,0:0:0:0:
55,256,425672,21,0,0:0:0:0:
204,260,426529,1,0,0:0:0:0:
121,126,427386,1,0,0:0:0:0:
270,131,428243,1,0,0:0:0:0:
187,0,429100,1,0,0:0:0:0:
265,2,429529,1,0,0:0:0:0:
348,0,429957,1,0,0:0:0:0:
435,125,430814,1,0,0:0:0:0:
270,131,431672,1,0,0:0:0:0:
311,193,432100,1,0,0:0:0:0:
356,253,432529,21,0,0:0:0:0:
206,265,433386,1,0,0:0:0:0:
270,131,434243,1,0,0:0:0:0:
419,129,435100,1,0,0:0:0:0:
338,2,435957,1,0,0:0:0:0:
488,2,436814,1,0,0:0:0:0:
419,129,437672,1,0,0:0:0:0:
269,133,438529,1,0,0:0:0:0:
347,260,439386,21,0,0:0:0:0:
197,262,440243,1,0,0:0:0:0:
125,130,441100,1,0,0:0:0:0:
269,133,441957,1,0,0:0:0:0:
230,67,442386,1,0,0:0:0:0:
193,3,442814,1,0,0:0:0:0:
43,10,443672,1,0,0:0:0:0:
122,139,444529,1,0,0:0:0:0:
19,248,445386,1,0,0:0:0:0:
165,279,446243,21,0,0:0:0:0:
314,272,447100,1,0,0:0:0:0:
235,144,447957,1,0,0:0:0:0:
178,345,448814,1,0,0:0:0:0:
280,285,449243,1,0,0:0:0:0:
377,217,449671,1,0,0:0:0:0:
167,103,450528,1,0,0:0:0:0:
334,373,451386,1,0,0:0:0:0:
53,140,452243,5,0,0:0:0:0:
417,4,452672,1,0,0:0:0:0:
334,373,453100,1,0,0:0:0:0:
256,192,453529,12,0,462957,0:0:0:0:
255,191,463386,5,0,0:0:0:0:
48,68,518243,22,0,B|107:62|107:62|102:6|102:6|134:4|134:4|139:59|139:59|215:53,1,262.500010013581
203,98,521672,2,0,B|147:102|147:102|166:326,1,262.500010013581
120,312,525101,2,0,B|102:107|102:107|47:112,1,262.500010013581
28,67,528529,2,0,B|8:72|-27:120|11:156|41:161|41:161|76:304,1,262.500010013581
213,281,531957,22,0,B|219:145|219:145|248:135|278:92|234:52|214:50,1,262.500010013581
202,99,535386,2,0,P|144:96|84:79,2,112.500004291535
256,192,538814,12,0,541814,0:0:0:0:
464,68,542243,22,0,B|404:62|404:62|409:6|409:6|377:4|377:4|372:59|372:59|296:53,1,262.500010013581
309,98,545672,2,0,B|364:102|364:102|345:326,1,262.500010013581
391,312,549101,2,0,B|409:107|409:107|465:112,1,262.500010013581
