osu file format v14

[General]
AudioFilename: audio.mp3
AudioLeadIn: 0
PreviewTime: 64828
Countdown: 1
SampleSet: None
StackLeniency: 0.7
Mode: 3
LetterboxInBreaks: 0
SpecialStyle: 0
WidescreenStoryboard: 0

[Editor]
DistanceSpacing: 1
BeatDivisor: 4
GridSize: 8
TimelineZoom: 2.499999

[Metadata]
Title:Boutokuteki Sentaku no Areguria
TitleUnicode:冒涜的選択のアレグリア
Artist:Frost Fragment
ArtistUnicode:Frost Fragment
Creator:17VA
Version:
Source:東方Project
Tags:senya ラクトガール~少女密室 SDVX
BeatmapID:1393702
BeatmapSetID:658001

[Difficulty]
HPDrainRate:7
CircleSize:7
OverallDifficulty:9
ApproachRate:5
SliderMultiplier:1.4
SliderTickRate:1

[Events]
//Background and Video events
0,0,"yande.re 343855 sample cleavage dress masaru patchouli_knowledge scanning_dust touhou.jpg",0,0
//Break Periods
//Storyboard Layer 0 (Background)
//Storyboard Layer 1 (Fail)
//Storyboard Layer 2 (Pass)
//Storyboard Layer 3 (Foreground)
//Storyboard Sound Samples

[TimingPoints]
309,384.615384615385,4,2,0,0,1,0

[HitObjects]
36,192,309,5,0,0:0:0:0:
182,192,309,128,0,885:0:0:0:0:
256,192,309,1,0,0:0:0:0:
475,192,309,1,0,0:0:0:0:
109,192,501,1,0,0:0:0:0:
329,192,693,1,0,0:0:0:0:
475,192,693,1,0,0:0:0:0:
256,192,885,1,0,0:0:0:0:
402,192,1078,128,0,1655:0:0:0:0:
109,192,1078,1,0,0:0:0:0:
36,192,1462,1,0,0:0:0:0:
182,192,1462,1,0,0:0:0:0:
256,192,1655,1,0,0:0:0:0:
109,192,1847,128,0,2424:0:0:0:0:
36,192,1847,1,0,0:0:0:0:
329,192,1847,1,0,0:0:0:0:
402,192,1847,1,0,0:0:0:0:
182,192,2039,1,0,0:0:0:0:
329,192,2232,1,0,0:0:0:0:
475,192,2232,1,0,0:0:0:0:
256,192,2424,1,0,0:0:0:0:
475,192,2616,128,0,3770:0:0:0:0:
402,192,2616,1,0,0:0:0:0:
182,192,2616,1,0,0:0:0:0:
329,192,2809,1,0,0:0:0:0:
109,192,2809,1,0,0:0:0:0:
256,192,3001,1,0,0:0:0:0:
36,192,3001,1,0,0:0:0:0:
182,192,3193,1,0,0:0:0:0:
36,192,3385,128,0,3962:0:0:0:0:
109,192,3385,1,0,0:0:0:0:
256,192,3385,1,0,0:0:0:0:
402,192,3385,1,0,0:0:0:0:
182,192,3578,128,0,4155:0:0:0:0:
329,192,3770,128,0,4347:0:0:0:0:
475,192,3962,128,0,4539:0:0:0:0:
36,192,4155,1,0,0:0:0:0:
182,192,4347,1,0,0:0:0:0:
329,192,4539,1,0,0:0:0:0:
475,192,4732,1,0,0:0:0:0:
36,192,4924,1,0,0:0:0:0:
256,192,4924,1,0,0:0:0:0:
109,192,4924,128,0,5501:0:0:0:0:
475,192,5116,128,0,5501:0:0:0:0:
402,192,5116,1,0,0:0:0:0:
182,192,5309,128,0,5885:0:0:0:0:
36,192,5309,1,0,0:0:0:0:
256,192,5501,1,0,0:0:0:0:
329,192,5501,128,0,5693:0:0:0:0:
36,192,5693,128,0,6078:0:0:0:0:
475,192,5693,1,0,0:0:0:0:
329,192,5885,1,0,0:0:0:0:
182,192,6078,1,0,0:0:0:0:
475,192,6078,128,0,6462:0:0:0:0:
36,192,6270,1,0,0:0:0:0:
329,192,6270,128,0,6462:0:0:0:0:
256,192,6462,128,0,7039:0:0:0:0:
182,192,6462,1,0,0:0:0:0:
109,192,6462,1,0,0:0:0:0:
329,192,6655,1,0,0:0:0:0:
475,192,6655,1,0,0:0:0:0:
36,192,6847,1,0,0:0:0:0:
182,192,6847,1,0,0:0:0:0:
329,192,7039,1,0,0:0:0:0:
402,192,7039,1,0,0:0:0:0:
182,192,7232,128,0,7809:0:0:0:0:
475,192,7232,1,0,0:0:0:0:
109,192,7424,1,0,0:0:0:0:
256,192,7616,1,0,0:0:0:0:
402,192,7616,1,0,0:0:0:0:
329,192,7809,1,0,0:0:0:0:
36,192,7809,1,0,0:0:0:0:
109,192,8001,128,0,8962:0:0:0:0:
475,192,8001,1,0,0:0:0:0:
182,192,8001,1,0,0:0:0:0:
329,192,8193,1,0,0:0:0:0:
182,192,8385,1,0,0:0:0:0:
402,192,8578,128,0,8962:0:0:0:0:
256,192,8578,128,0,8962:0:0:0:0:
36,192,8962,1,0,0:0:0:0:
329,192,8962,1,0,0:0:0:0:
182,192,9155,128,0,9539:0:0:0:0:
475,192,9155,128,0,9539:0:0:0:0:
256,192,9539,1,0,0:0:0:0:
36,192,9539,128,0,10885:0:0:0:0:
182,192,9732,128,0,10693:0:0:0:0:
329,192,9924,128,0,10501:0:0:0:0:
475,192,10116,128,0,10309:0:0:0:0:
475,192,10501,1,0,0:0:0:0:
329,192,10693,1,0,0:0:0:0:
182,192,10885,1,0,0:0:0:0:
36,192,11078,1,0,0:0:0:0:
256,192,11078,1,0,0:0:0:0:
475,192,11078,1,0,0:0:0:0:
109,192,11078,128,0,12039:0:0:0:0:
402,192,11078,128,0,12039:0:0:0:0:
36,192,11462,128,0,12039:0:0:0:0:
475,192,11655,128,0,12039:0:0:0:0:
256,192,11655,128,0,11847:0:0:0:0:
329,192,11847,1,0,0:0:0:0:
256,192,11943,1,0,0:0:0:0:
182,192,12039,1,0,0:0:0:0:
256,192,12135,1,0,0:0:0:0:
36,192,12232,128,0,12568:0:0:0:0:
329,192,12232,128,0,12376:0:0:0:0:
402,192,12232,128,0,12328:0:0:0:0:
475,192,12232,128,0,12280:0:0:0:0:
109,192,12280,128,0,12520:0:0:0:0:
475,192,12328,1,0,0:0:0:0:
182,192,12328,128,0,12472:0:0:0:0:
402,192,12376,1,0,0:0:0:0:
256,192,12376,128,0,12424:0:0:0:0:
475,192,12376,128,0,12568:0:0:0:0:
329,192,12424,1,0,0:0:0:0:
402,192,12424,128,0,12568:0:0:0:0:
256,192,12472,1,0,0:0:0:0:
329,192,12472,128,0,12568:0:0:0:0:
182,192,12520,1,0,0:0:0:0:
109,192,12568,1,0,0:0:0:0:
36,192,12616,1,0,0:0:0:0:
402,192,12616,1,0,0:0:0:0:
475,192,12616,1,0,0:0:0:0:
256,192,12616,128,0,13337:0:0:0:0:
329,192,12616,1,0,0:0:0:0:
182,192,12712,1,0,0:0:0:0:
36,192,12809,1,0,0:0:0:0:
329,192,12809,1,0,0:0:0:0:
475,192,12809,1,0,0:0:0:0:
109,192,12905,1,0,0:0:0:0:
182,192,12905,1,0,0:0:0:0:
36,192,13001,1,0,0:0:0:0:
475,192,13001,1,0,0:0:0:0:
402,192,13001,1,0,0:0:0:0:
329,192,13001,1,0,0:0:0:0:
109,192,13097,1,0,0:0:0:0:
182,192,13193,1,0,0:0:0:0:
329,192,13193,128,0,13337:0:0:0:0:
402,192,13193,1,0,0:0:0:0:
109,192,13289,1,0,0:0:0:0:
475,192,13289,1,0,0:0:0:0:
182,192,13385,128,0,14107:0:0:0:0:
36,192,13385,1,0,0:0:0:0:
256,192,13385,1,0,0:0:0:0:
329,192,13385,1,0,0:0:0:0:
402,192,13482,1,0,0:0:0:0:
475,192,13578,1,0,0:0:0:0:
109,192,13578,1,0,0:0:0:0:
36,192,13578,1,0,0:0:0:0:
329,192,13674,1,0,0:0:0:0:
256,192,13674,1,0,0:0:0:0:
402,192,13770,1,0,0:0:0:0:
36,192,13770,1,0,0:0:0:0:
109,192,13770,1,0,0:0:0:0:
475,192,13770,1,0,0:0:0:0:
256,192,13866,1,0,0:0:0:0:
36,192,13962,128,0,14107:0:0:0:0:
329,192,13962,1,0,0:0:0:0:
109,192,13962,1,0,0:0:0:0:
402,192,14059,1,0,0:0:0:0:
256,192,14059,1,0,0:0:0:0:
36,192,14155,1,0,0:0:0:0:
329,192,14155,128,0,14876:0:0:0:0:
475,192,14155,1,0,0:0:0:0:
182,192,14155,1,0,0:0:0:0:
402,192,14251,1,0,0:0:0:0:
256,192,14347,1,0,0:0:0:0:
36,192,14347,1,0,0:0:0:0:
402,192,14443,1,0,0:0:0:0:
182,192,14443,1,0,0:0:0:0:
109,192,14539,1,0,0:0:0:0:
256,192,14539,1,0,0:0:0:0:
36,192,14539,1,0,0:0:0:0:
475,192,14539,1,0,0:0:0:0:
182,192,14635,1,0,0:0:0:0:
256,192,14732,1,0,0:0:0:0:
475,192,14732,128,0,14876:0:0:0:0:
36,192,14732,1,0,0:0:0:0:
182,192,14828,1,0,0:0:0:0:
109,192,14924,1,0,0:0:0:0:
36,192,14924,128,0,15597:0:0:0:0:
329,192,14924,1,0,0:0:0:0:
475,192,14924,128,0,15597:0:0:0:0:
402,192,14924,1,0,0:0:0:0:
182,192,14924,1,0,0:0:0:0:
329,192,15020,128,0,15212:0:0:0:0:
182,192,15116,1,0,0:0:0:0:
109,192,15116,1,0,0:0:0:0:
256,192,15116,128,0,15212:0:0:0:0:
182,192,15212,128,0,15405:0:0:0:0:
402,192,15309,1,0,0:0:0:0:
256,192,15309,128,0,15405:0:0:0:0:
329,192,15309,1,0,0:0:0:0:
329,192,15405,128,0,15693:0:0:0:0:
256,192,15501,128,0,15789:0:0:0:0:
109,192,15501,1,0,0:0:0:0:
182,192,15501,1,0,0:0:0:0:
182,192,15597,128,0,15885:0:0:0:0:
475,192,15693,128,0,16847:0:0:0:0:
402,192,15693,128,0,15982:0:0:0:0:
36,192,15693,128,0,16847:0:0:0:0:
109,192,15693,128,0,15982:0:0:0:0:
329,192,15789,128,0,16270:0:0:0:0:
256,192,15885,128,0,16174:0:0:0:0:
182,192,15982,128,0,16078:0:0:0:0:
109,192,16078,128,0,16366:0:0:0:0:
402,192,16078,128,0,16366:0:0:0:0:
182,192,16174,128,0,16366:0:0:0:0:
256,192,16270,128,0,16366:0:0:0:0:
329,192,16366,1,0,0:0:0:0:
182,192,16462,128,0,16559:0:0:0:0:
329,192,16462,128,0,16751:0:0:0:0:
109,192,16462,1,0,0:0:0:0:
402,192,16462,1,0,0:0:0:0:
256,192,16462,1,0,0:0:0:0:
182,192,16655,128,0,16847:0:0:0:0:
256,192,16751,128,0,16943:0:0:0:0:
329,192,16847,128,0,17039:0:0:0:0:
109,192,16847,1,0,0:0:0:0:
402,192,16847,1,0,0:0:0:0:
36,192,16943,128,0,17135:0:0:0:0:
475,192,16943,128,0,17135:0:0:0:0:
182,192,16943,128,0,17135:0:0:0:0:
256,192,17039,128,0,17135:0:0:0:0:
329,192,17135,1,0,0:0:0:0:
182,192,17232,1,0,0:0:0:0:
402,192,17232,1,0,0:0:0:0:
36,192,17232,1,0,0:0:0:0:
475,192,17232,1,0,0:0:0:0:
256,192,17232,128,0,18530:0:0:0:0:
109,192,17232,1,0,0:0:0:0:
329,192,17328,1,0,0:0:0:0:
475,192,17424,128,0,17760:0:0:0:0:
182,192,17424,1,0,0:0:0:0:
36,192,17424,1,0,0:0:0:0:
402,192,17520,1,0,0:0:0:0:
36,192,17616,128,0,17953:0:0:0:0:
109,192,17616,1,0,0:0:0:0:
329,192,17712,1,0,0:0:0:0:
475,192,17809,128,0,17953:0:0:0:0:
182,192,17809,1,0,0:0:0:0:
402,192,17905,1,0,0:0:0:0:
109,192,18001,128,0,18337:0:0:0:0:
182,192,18001,1,0,0:0:0:0:
329,192,18001,1,0,0:0:0:0:
36,192,18001,1,0,0:0:0:0:
475,192,18001,1,0,0:0:0:0:
402,192,18097,1,0,0:0:0:0:
402,192,18193,128,0,18722:0:0:0:0:
36,192,18193,1,0,0:0:0:0:
182,192,18193,1,0,0:0:0:0:
475,192,18289,128,0,18385:0:0:0:0:
109,192,18385,128,0,18722:0:0:0:0:
329,192,18385,128,0,18482:0:0:0:0:
475,192,18434,1,0,0:0:0:0:
182,192,18482,128,0,18578:0:0:0:0:
329,192,18530,1,0,0:0:0:0:
256,192,18578,1,0,0:0:0:0:
36,192,18578,128,0,18674:0:0:0:0:
182,192,18626,1,0,0:0:0:0:
256,192,18674,128,0,18722:0:0:0:0:
36,192,18722,1,0,0:0:0:0:
402,192,18770,1,0,0:0:0:0:
109,192,18770,1,0,0:0:0:0:
36,192,18770,1,0,0:0:0:0:
475,192,18770,128,0,19251:0:0:0:0:
256,192,18770,1,0,0:0:0:0:
182,192,18770,128,0,19491:0:0:0:0:
402,192,18866,128,0,19155:0:0:0:0:
329,192,18962,128,0,19059:0:0:0:0:
109,192,18962,1,0,0:0:0:0:
36,192,18962,1,0,0:0:0:0:
256,192,19059,1,0,0:0:0:0:
329,192,19155,1,0,0:0:0:0:
109,192,19155,1,0,0:0:0:0:
36,192,19155,1,0,0:0:0:0:
402,192,19251,1,0,0:0:0:0:
36,192,19347,128,0,19491:0:0:0:0:
475,192,19347,1,0,0:0:0:0:
256,192,19347,128,0,19491:0:0:0:0:
329,192,19539,128,0,20260:0:0:0:0:
36,192,19539,128,0,20020:0:0:0:0:
109,192,19539,1,0,0:0:0:0:
475,192,19539,1,0,0:0:0:0:
256,192,19539,1,0,0:0:0:0:
402,192,19539,1,0,0:0:0:0:
109,192,19635,128,0,19924:0:0:0:0:
182,192,19732,128,0,19828:0:0:0:0:
475,192,19732,1,0,0:0:0:0:
402,192,19732,1,0,0:0:0:0:
256,192,19828,1,0,0:0:0:0:
182,192,19924,1,0,0:0:0:0:
475,192,19924,1,0,0:0:0:0:
402,192,19924,1,0,0:0:0:0:
109,192,20020,1,0,0:0:0:0:
475,192,20116,128,0,20260:0:0:0:0:
36,192,20116,1,0,0:0:0:0:
256,192,20116,128,0,20260:0:0:0:0:
475,192,20309,128,0,20789:0:0:0:0:
256,192,20309,1,0,0:0:0:0:
109,192,20309,128,0,21030:0:0:0:0:
402,192,20309,1,0,0:0:0:0:
182,192,20309,1,0,0:0:0:0:
36,192,20309,1,0,0:0:0:0:
402,192,20405,128,0,20693:0:0:0:0:
36,192,20501,1,0,0:0:0:0:
182,192,20501,1,0,0:0:0:0:
329,192,20501,128,0,20597:0:0:0:0:
256,192,20597,1,0,0:0:0:0:
36,192,20693,1,0,0:0:0:0:
182,192,20693,1,0,0:0:0:0:
329,192,20693,1,0,0:0:0:0:
402,192,20789,1,0,0:0:0:0:
329,192,20885,128,0,21366:0:0:0:0:
475,192,20885,1,0,0:0:0:0:
256,192,20885,128,0,21030:0:0:0:0:
256,192,21078,1,0,0:0:0:0:
36,192,21078,128,0,21559:0:0:0:0:
109,192,21078,1,0,0:0:0:0:
475,192,21078,128,0,21174:0:0:0:0:
402,192,21078,128,0,21174:0:0:0:0:
109,192,21174,128,0,21462:0:0:0:0:
182,192,21270,128,0,21366:0:0:0:0:
475,192,21270,128,0,21799:0:0:0:0:
402,192,21270,128,0,21366:0:0:0:0:
256,192,21366,1,0,0:0:0:0:
182,192,21462,1,0,0:0:0:0:
329,192,21462,128,0,21799:0:0:0:0:
109,192,21559,1,0,0:0:0:0:
402,192,21655,128,0,21799:0:0:0:0:
36,192,21655,1,0,0:0:0:0:
256,192,21655,1,0,0:0:0:0:
182,192,21751,1,0,0:0:0:0:
329,192,21847,1,0,0:0:0:0:
402,192,21847,1,0,0:0:0:0:
36,192,21847,128,0,23289:0:0:0:0:
109,192,21847,1,0,0:0:0:0:
475,192,21847,128,0,23289:0:0:0:0:
109,192,21943,128,0,22135:0:0:0:0:
182,192,21943,1,0,0:0:0:0:
182,192,22039,128,0,22232:0:0:0:0:
256,192,22039,1,0,0:0:0:0:
256,192,22135,128,0,22328:0:0:0:0:
329,192,22135,1,0,0:0:0:0:
402,192,22232,128,0,22424:0:0:0:0:
109,192,22232,1,0,0:0:0:0:
329,192,22328,128,0,22520:0:0:0:0:
182,192,22328,1,0,0:0:0:0:
256,192,22424,128,0,22616:0:0:0:0:
109,192,22424,1,0,0:0:0:0:
182,192,22520,128,0,22712:0:0:0:0:
402,192,22520,1,0,0:0:0:0:
109,192,22616,128,0,22809:0:0:0:0:
329,192,22616,1,0,0:0:0:0:
256,192,22712,1,0,0:0:0:0:
402,192,22712,128,0,22905:0:0:0:0:
182,192,22809,1,0,0:0:0:0:
329,192,22809,128,0,23001:0:0:0:0:
109,192,22905,1,0,0:0:0:0:
256,192,22905,128,0,23097:0:0:0:0:
402,192,23001,1,0,0:0:0:0:
182,192,23001,128,0,23193:0:0:0:0:
109,192,23097,128,0,23289:0:0:0:0:
329,192,23097,1,0,0:0:0:0:
256,192,23193,1,0,0:0:0:0:
182,192,23289,1,0,0:0:0:0:
402,192,23385,128,0,23482:0:0:0:0:
475,192,23385,128,0,23482:0:0:0:0:
329,192,23385,128,0,23578:0:0:0:0:
109,192,23385,128,0,23482:0:0:0:0:
36,192,23385,128,0,23482:0:0:0:0:
256,192,23482,128,0,23674:0:0:0:0:
182,192,23578,128,0,23770:0:0:0:0:
36,192,23578,128,0,23674:0:0:0:0:
109,192,23578,128,0,23674:0:0:0:0:
402,192,23578,128,0,23674:0:0:0:0:
475,192,23578,128,0,23674:0:0:0:0:
329,192,23674,128,0,23914:0:0:0:0:
256,192,23770,128,0,23962:0:0:0:0:
109,192,23770,128,0,23866:0:0:0:0:
36,192,23770,128,0,23866:0:0:0:0:
402,192,23770,128,0,23866:0:0:0:0:
475,192,23770,128,0,23866:0:0:0:0:
182,192,23866,128,0,24010:0:0:0:0:
475,192,23914,128,0,24347:0:0:0:0:
36,192,23962,128,0,24059:0:0:0:0:
109,192,23962,128,0,24059:0:0:0:0:
402,192,23962,1,0,0:0:0:0:
329,192,24010,128,0,24251:0:0:0:0:
256,192,24059,128,0,24203:0:0:0:0:
182,192,24107,128,0,24155:0:0:0:0:
36,192,24107,1,0,0:0:0:0:
109,192,24155,1,0,0:0:0:0:
182,192,24203,1,0,0:0:0:0:
36,192,24203,128,0,24395:0:0:0:0:
256,192,24251,128,0,24876:0:0:0:0:
109,192,24251,128,0,24443:0:0:0:0:
329,192,24299,1,0,0:0:0:0:
182,192,24299,128,0,24491:0:0:0:0:
402,192,24347,1,0,0:0:0:0:
475,192,24395,1,0,0:0:0:0:
329,192,24395,128,0,24587:0:0:0:0:
36,192,24443,1,0,0:0:0:0:
402,192,24443,128,0,24635:0:0:0:0:
109,192,24491,1,0,0:0:0:0:
475,192,24491,128,0,24684:0:0:0:0:
182,192,24539,1,0,0:0:0:0:
36,192,24539,128,0,24876:0:0:0:0:
109,192,24587,128,0,24876:0:0:0:0:
329,192,24635,1,0,0:0:0:0:
182,192,24635,128,0,24876:0:0:0:0:
402,192,24684,1,0,0:0:0:0:
475,192,24732,1,0,0:0:0:0:
329,192,24732,128,0,24876:0:0:0:0:
402,192,24780,128,0,24876:0:0:0:0:
475,192,24828,128,0,24876:0:0:0:0:
329,192,24924,128,0,25549:0:0:0:0:
36,192,24924,128,0,24972:0:0:0:0:
109,192,24924,128,0,24972:0:0:0:0:
182,192,24924,128,0,24972:0:0:0:0:
256,192,24924,128,0,24972:0:0:0:0:
402,192,24924,128,0,24972:0:0:0:0:
475,192,24924,128,0,24972:0:0:0:0:
256,192,25092,128,0,25140:0:0:0:0:
36,192,25116,128,0,25164:0:0:0:0:
109,192,25116,128,0,25164:0:0:0:0:
182,192,25116,128,0,25164:0:0:0:0:
402,192,25116,128,0,25164:0:0:0:0:
475,192,25116,128,0,25164:0:0:0:0:
256,192,25284,128,0,25333:0:0:0:0:
182,192,25309,128,0,25357:0:0:0:0:
36,192,25309,128,0,25357:0:0:0:0:
402,192,25309,128,0,25357:0:0:0:0:
475,192,25309,128,0,25357:0:0:0:0:
109,192,25333,128,0,25381:0:0:0:0:
256,192,25477,128,0,25525:0:0:0:0:
182,192,25501,128,0,25741:0:0:0:0:
402,192,25501,128,0,25549:0:0:0:0:
36,192,25501,128,0,25549:0:0:0:0:
475,192,25525,128,0,25573:0:0:0:0:
109,192,25525,128,0,25573:0:0:0:0:
329,192,25645,128,0,25693:0:0:0:0:
256,192,25669,128,0,25717:0:0:0:0:
402,192,25693,128,0,26510:0:0:0:0:
36,192,25693,128,0,25741:0:0:0:0:
475,192,25717,128,0,25765:0:0:0:0:
109,192,25717,128,0,25765:0:0:0:0:
256,192,25861,128,0,25909:0:0:0:0:
36,192,25885,128,0,25934:0:0:0:0:
182,192,25885,128,0,25934:0:0:0:0:
329,192,25885,128,0,25934:0:0:0:0:
475,192,25909,128,0,25958:0:0:0:0:
109,192,25909,128,0,25958:0:0:0:0:
256,192,26054,128,0,26102:0:0:0:0:
182,192,26078,128,0,26126:0:0:0:0:
329,192,26078,128,0,26126:0:0:0:0:
36,192,26078,128,0,26126:0:0:0:0:
475,192,26102,128,0,26150:0:0:0:0:
109,192,26102,128,0,26150:0:0:0:0:
256,192,26246,128,0,26294:0:0:0:0:
182,192,26270,128,0,26318:0:0:0:0:
36,192,26270,128,0,26318:0:0:0:0:
329,192,26270,128,0,26318:0:0:0:0:
475,192,26270,128,0,26318:0:0:0:0:
109,192,26294,128,0,26342:0:0:0:0:
256,192,26438,128,0,26486:0:0:0:0:
109,192,26462,128,0,26510:0:0:0:0:
36,192,26462,128,0,26510:0:0:0:0:
329,192,26462,128,0,26510:0:0:0:0:
182,192,26462,128,0,27087:0:0:0:0:
475,192,26462,128,0,26510:0:0:0:0:
256,192,26631,128,0,26679:0:0:0:0:
109,192,26655,128,0,26703:0:0:0:0:
36,192,26655,128,0,26703:0:0:0:0:
329,192,26655,128,0,26703:0:0:0:0:
475,192,26655,128,0,26703:0:0:0:0:
402,192,26679,128,0,26727:0:0:0:0:
256,192,26823,128,0,26871:0:0:0:0:
109,192,26847,128,0,26895:0:0:0:0:
329,192,26847,128,0,26895:0:0:0:0:
475,192,26847,128,0,26895:0:0:0:0:
36,192,26871,128,0,26919:0:0:0:0:
402,192,26871,128,0,26919:0:0:0:0:
256,192,27015,128,0,27063:0:0:0:0:
475,192,27039,128,0,27087:0:0:0:0:
109,192,27039,128,0,27087:0:0:0:0:
329,192,27039,128,0,27280:0:0:0:0:
402,192,27063,128,0,27111:0:0:0:0:
36,192,27063,128,0,27111:0:0:0:0:
182,192,27184,128,0,27232:0:0:0:0:
256,192,27208,128,0,27256:0:0:0:0:
475,192,27232,128,0,27280:0:0:0:0:
109,192,27232,128,0,28049:0:0:0:0:
402,192,27256,128,0,27304:0:0:0:0:
36,192,27256,128,0,27304:0:0:0:0:
256,192,27400,128,0,27448:0:0:0:0:
182,192,27424,128,0,27472:0:0:0:0:
329,192,27424,128,0,27472:0:0:0:0:
475,192,27424,128,0,27472:0:0:0:0:
402,192,27448,128,0,27496:0:0:0:0:
36,192,27448,128,0,27496:0:0:0:0:
256,192,27592,128,0,27640:0:0:0:0:
475,192,27616,128,0,27664:0:0:0:0:
182,192,27616,128,0,27664:0:0:0:0:
329,192,27616,128,0,27664:0:0:0:0:
402,192,27640,128,0,27688:0:0:0:0:
36,192,27640,128,0,27688:0:0:0:0:
256,192,27784,128,0,27833:0:0:0:0:
182,192,27809,128,0,27857:0:0:0:0:
36,192,27809,128,0,27857:0:0:0:0:
329,192,27809,128,0,27857:0:0:0:0:
475,192,27809,128,0,27857:0:0:0:0:
402,192,27833,128,0,27881:0:0:0:0:
256,192,27977,128,0,28025:0:0:0:0:
402,192,28001,128,0,28049:0:0:0:0:
475,192,28001,128,0,28049:0:0:0:0:
182,192,28001,128,0,28049:0:0:0:0:
329,192,28001,128,0,28626:0:0:0:0:
36,192,28001,128,0,28049:0:0:0:0:
256,192,28169,128,0,28217:0:0:0:0:
402,192,28193,128,0,28241:0:0:0:0:
475,192,28193,128,0,28241:0:0:0:0:
182,192,28193,128,0,28241:0:0:0:0:
36,192,28193,128,0,28241:0:0:0:0:
109,192,28217,128,0,28265:0:0:0:0:
256,192,28361,128,0,28409:0:0:0:0:
402,192,28385,128,0,28434:0:0:0:0:
182,192,28385,128,0,28434:0:0:0:0:
36,192,28385,128,0,28434:0:0:0:0:
475,192,28409,128,0,28458:0:0:0:0:
109,192,28409,128,0,28458:0:0:0:0:
256,192,28554,128,0,28602:0:0:0:0:
36,192,28578,128,0,28626:0:0:0:0:
402,192,28578,128,0,28626:0:0:0:0:
182,192,28578,128,0,28818:0:0:0:0:
109,192,28602,128,0,28650:0:0:0:0:
475,192,28602,128,0,28650:0:0:0:0:
329,192,28722,128,0,28770:0:0:0:0:
256,192,28746,128,0,28794:0:0:0:0:
402,192,28770,128,0,29587:0:0:0:0:
36,192,28770,128,0,28818:0:0:0:0:
475,192,28794,128,0,28842:0:0:0:0:
109,192,28794,128,0,28842:0:0:0:0:
256,192,28938,128,0,28986:0:0:0:0:
329,192,28962,128,0,29010:0:0:0:0:
36,192,28962,128,0,29010:0:0:0:0:
182,192,28962,128,0,29010:0:0:0:0:
109,192,28986,128,0,29034:0:0:0:0:
475,192,28986,128,0,29034:0:0:0:0:
256,192,29131,128,0,29179:0:0:0:0:
329,192,29155,128,0,29203:0:0:0:0:
36,192,29155,128,0,29203:0:0:0:0:
182,192,29155,128,0,29203:0:0:0:0:
475,192,29179,128,0,29227:0:0:0:0:
109,192,29179,128,0,29227:0:0:0:0:
256,192,29323,128,0,29371:0:0:0:0:
475,192,29347,128,0,29395:0:0:0:0:
182,192,29347,128,0,29395:0:0:0:0:
36,192,29347,128,0,29395:0:0:0:0:
329,192,29347,128,0,29395:0:0:0:0:
109,192,29371,128,0,29419:0:0:0:0:
256,192,29515,128,0,29563:0:0:0:0:
182,192,29539,128,0,30164:0:0:0:0:
475,192,29539,128,0,29587:0:0:0:0:
329,192,29539,128,0,29587:0:0:0:0:
109,192,29539,128,0,29587:0:0:0:0:
36,192,29539,128,0,29587:0:0:0:0:
256,192,29708,128,0,29756:0:0:0:0:
329,192,29732,128,0,29780:0:0:0:0:
475,192,29732,128,0,29780:0:0:0:0:
109,192,29732,128,0,29780:0:0:0:0:
36,192,29732,128,0,29780:0:0:0:0:
402,192,29756,128,0,29804:0:0:0:0:
256,192,29900,128,0,29948:0:0:0:0:
475,192,29924,128,0,29972:0:0:0:0:
329,192,29924,128,0,29972:0:0:0:0:
109,192,29924,128,0,29972:0:0:0:0:
402,192,29948,128,0,29996:0:0:0:0:
36,192,29948,128,0,29996:0:0:0:0:
256,192,30092,128,0,30140:0:0:0:0:
329,192,30116,128,0,30357:0:0:0:0:
109,192,30116,128,0,30164:0:0:0:0:
475,192,30116,128,0,30164:0:0:0:0:
36,192,30140,128,0,30188:0:0:0:0:
402,192,30140,128,0,30188:0:0:0:0:
182,192,30260,128,0,30309:0:0:0:0:
256,192,30284,128,0,30333:0:0:0:0:
475,192,30309,128,0,30357:0:0:0:0:
109,192,30309,128,0,31198:0:0:0:0:
402,192,30333,128,0,30381:0:0:0:0:
36,192,30333,128,0,30381:0:0:0:0:
256,192,30477,128,0,30525:0:0:0:0:
329,192,30501,128,0,30549:0:0:0:0:
475,192,30501,128,0,30549:0:0:0:0:
182,192,30501,128,0,30549:0:0:0:0:
36,192,30525,128,0,30573:0:0:0:0:
402,192,30525,128,0,30573:0:0:0:0:
256,192,30669,128,0,30717:0:0:0:0:
329,192,30693,128,0,30741:0:0:0:0:
475,192,30693,128,0,30741:0:0:0:0:
182,192,30693,128,0,30741:0:0:0:0:
402,192,30717,128,0,30765:0:0:0:0:
36,192,30717,128,0,30765:0:0:0:0:
256,192,30861,128,0,30909:0:0:0:0:
475,192,30885,128,0,30934:0:0:0:0:
182,192,30885,128,0,30934:0:0:0:0:
36,192,30885,128,0,30934:0:0:0:0:
329,192,30885,128,0,30934:0:0:0:0:
402,192,30909,128,0,30958:0:0:0:0:
475,192,31030,128,0,31078:0:0:0:0:
402,192,31054,128,0,31102:0:0:0:0:
329,192,31078,128,0,31655:0:0:0:0:
256,192,31102,128,0,31150:0:0:0:0:
182,192,31126,128,0,31174:0:0:0:0:
36,192,31174,128,0,31222:0:0:0:0:
402,192,31246,128,0,31294:0:0:0:0:
475,192,31270,128,0,31318:0:0:0:0:
182,192,31270,128,0,31318:0:0:0:0:
256,192,31294,128,0,31342:0:0:0:0:
109,192,31294,128,0,31342:0:0:0:0:
36,192,31318,128,0,31366:0:0:0:0:
109,192,31438,128,0,31486:0:0:0:0:
475,192,31438,128,0,31486:0:0:0:0:
182,192,31462,128,0,31510:0:0:0:0:
402,192,31462,128,0,31510:0:0:0:0:
256,192,31486,128,0,31534:0:0:0:0:
36,192,31486,128,0,31534:0:0:0:0:
475,192,31583,128,0,31631:0:0:0:0:
402,192,31607,128,0,31655:0:0:0:0:
256,192,31631,128,0,31679:0:0:0:0:
182,192,31655,128,0,31895:0:0:0:0:
109,192,31679,128,0,31727:0:0:0:0:
36,192,31703,128,0,31751:0:0:0:0:
329,192,31799,128,0,31847:0:0:0:0:
256,192,31823,128,0,31871:0:0:0:0:
36,192,31847,128,0,31895:0:0:0:0:
402,192,31847,128,0,32664:0:0:0:0:
109,192,31871,128,0,31919:0:0:0:0:
475,192,31871,128,0,31919:0:0:0:0:
256,192,32015,128,0,32063:0:0:0:0:
329,192,32039,128,0,32087:0:0:0:0:
182,192,32039,128,0,32087:0:0:0:0:
36,192,32039,128,0,32087:0:0:0:0:
475,192,32063,128,0,32111:0:0:0:0:
109,192,32063,128,0,32111:0:0:0:0:
256,192,32208,128,0,32256:0:0:0:0:
36,192,32232,128,0,32280:0:0:0:0:
182,192,32232,128,0,32280:0:0:0:0:
329,192,32232,128,0,32280:0:0:0:0:
109,192,32256,128,0,32304:0:0:0:0:
475,192,32256,128,0,32304:0:0:0:0:
256,192,32400,128,0,32448:0:0:0:0:
475,192,32424,128,0,32472:0:0:0:0:
329,192,32424,128,0,32472:0:0:0:0:
36,192,32424,128,0,32472:0:0:0:0:
182,192,32424,128,0,32472:0:0:0:0:
109,192,32448,128,0,32496:0:0:0:0:
256,192,32592,128,0,32640:0:0:0:0:
182,192,32616,128,0,33289:0:0:0:0:
475,192,32616,128,0,32664:0:0:0:0:
329,192,32616,128,0,32664:0:0:0:0:
109,192,32616,128,0,32664:0:0:0:0:
36,192,32640,128,0,32688:0:0:0:0:
256,192,32784,128,0,32833:0:0:0:0:
329,192,32809,128,0,32857:0:0:0:0:
475,192,32809,128,0,32857:0:0:0:0:
109,192,32809,128,0,32857:0:0:0:0:
36,192,32833,128,0,32881:0:0:0:0:
402,192,32833,128,0,32881:0:0:0:0:
329,192,32977,128,0,33025:0:0:0:0:
256,192,33001,128,0,33049:0:0:0:0:
109,192,33001,128,0,33049:0:0:0:0:
402,192,33001,128,0,33049:0:0:0:0:
475,192,33025,128,0,33073:0:0:0:0:
36,192,33025,128,0,33073:0:0:0:0:
402,192,33169,128,0,33217:0:0:0:0:
36,192,33193,128,0,33241:0:0:0:0:
329,192,33193,128,0,33506:0:0:0:0:
475,192,33193,128,0,33241:0:0:0:0:
109,192,33217,128,0,33265:0:0:0:0:
256,192,33217,128,0,33265:0:0:0:0:
36,192,33361,128,0,33409:0:0:0:0:
109,192,33385,128,0,34010:0:0:0:0:
475,192,33409,128,0,33458:0:0:0:0:
182,192,33409,128,0,33458:0:0:0:0:
402,192,33434,128,0,33482:0:0:0:0:
256,192,33434,128,0,33482:0:0:0:0:
475,192,33554,128,0,33602:0:0:0:0:
36,192,33578,128,0,33626:0:0:0:0:
402,192,33578,128,0,33626:0:0:0:0:
329,192,33602,128,0,33650:0:0:0:0:
182,192,33602,128,0,33650:0:0:0:0:
256,192,33626,128,0,33674:0:0:0:0:
329,192,33746,128,0,33794:0:0:0:0:
36,192,33770,128,0,33818:0:0:0:0:
256,192,33770,128,0,33818:0:0:0:0:
402,192,33770,128,0,33818:0:0:0:0:
475,192,33794,128,0,33842:0:0:0:0:
182,192,33794,128,0,33842:0:0:0:0:
256,192,33914,128,0,33962:0:0:0:0:
182,192,33938,128,0,33986:0:0:0:0:
329,192,33938,128,0,33986:0:0:0:0:
475,192,33962,128,0,34010:0:0:0:0:
36,192,33986,128,0,34034:0:0:0:0:
402,192,33986,128,0,34034:0:0:0:0:
256,192,34155,128,0,34443:0:0:0:0:
36,192,34155,128,0,34275:0:0:0:0:
109,192,34155,128,0,34251:0:0:0:0:
182,192,34155,128,0,34227:0:0:0:0:
329,192,34155,128,0,34275:0:0:0:0:
402,192,34155,128,0,34251:0:0:0:0:
475,192,34155,128,0,34227:0:0:0:0:
182,192,34323,128,0,34443:0:0:0:0:
475,192,34323,128,0,34443:0:0:0:0:
109,192,34347,128,0,34443:0:0:0:0:
402,192,34347,128,0,34443:0:0:0:0:
329,192,34371,128,0,34443:0:0:0:0:
36,192,34371,128,0,34443:0:0:0:0:
36,192,34539,128,0,34828:0:0:0:0:
109,192,34539,128,0,34635:0:0:0:0:
329,192,34539,128,0,34659:0:0:0:0:
402,192,34539,128,0,34635:0:0:0:0:
475,192,34539,128,0,34828:0:0:0:0:
182,192,34539,128,0,34611:0:0:0:0:
256,192,34539,128,0,34587:0:0:0:0:
256,192,34684,128,0,34828:0:0:0:0:
182,192,34708,128,0,34828:0:0:0:0:
402,192,34732,128,0,34828:0:0:0:0:
109,192,34732,128,0,34828:0:0:0:0:
329,192,34756,128,0,34828:0:0:0:0:
475,192,34924,128,0,35044:0:0:0:0:
402,192,34924,128,0,35020:0:0:0:0:
182,192,34924,128,0,35044:0:0:0:0:
109,192,34924,128,0,35020:0:0:0:0:
36,192,34924,128,0,34996:0:0:0:0:
329,192,34924,128,0,35212:0:0:0:0:
256,192,34924,128,0,34996:0:0:0:0:
256,192,35092,128,0,35212:0:0:0:0:
36,192,35092,128,0,35212:0:0:0:0:
109,192,35116,128,0,35212:0:0:0:0:
402,192,35116,128,0,35212:0:0:0:0:
182,192,35140,128,0,35212:0:0:0:0:
475,192,35140,128,0,35212:0:0:0:0:
329,192,35309,128,0,35429:0:0:0:0:
36,192,35309,128,0,35429:0:0:0:0:
402,192,35309,128,0,35405:0:0:0:0:
475,192,35309,128,0,35381:0:0:0:0:
256,192,35309,128,0,35381:0:0:0:0:
109,192,35309,128,0,35405:0:0:0:0:
182,192,35309,128,0,35597:0:0:0:0:
256,192,35477,128,0,35597:0:0:0:0:
475,192,35477,128,0,35597:0:0:0:0:
109,192,35501,128,0,35597:0:0:0:0:
402,192,35501,128,0,35597:0:0:0:0:
36,192,35525,128,0,35597:0:0:0:0:
329,192,35525,128,0,35597:0:0:0:0:
36,192,35693,1,0,0:0:0:0:
109,192,35741,1,0,0:0:0:0:
36,192,35789,128,0,35934:0:0:0:0:
182,192,35789,1,0,0:0:0:0:
256,192,35837,1,0,0:0:0:0:
109,192,35837,128,0,35982:0:0:0:0:
329,192,35885,1,0,0:0:0:0:
182,192,35885,128,0,36030:0:0:0:0:
402,192,35934,1,0,0:0:0:0:
256,192,35934,128,0,36078:0:0:0:0:
475,192,35982,1,0,0:0:0:0:
329,192,35982,128,0,36126:0:0:0:0:
402,192,36030,128,0,36174:0:0:0:0:
36,192,36030,1,0,0:0:0:0:
475,192,36078,128,0,36222:0:0:0:0:
109,192,36078,1,0,0:0:0:0:
182,192,36126,1,0,0:0:0:0:
36,192,36126,128,0,36366:0:0:0:0:
256,192,36174,1,0,0:0:0:0:
109,192,36174,128,0,36318:0:0:0:0:
329,192,36222,1,0,0:0:0:0:
182,192,36222,128,0,36270:0:0:0:0:
402,192,36270,1,0,0:0:0:0:
256,192,36270,128,0,36847:0:0:0:0:
475,192,36318,1,0,0:0:0:0:
329,192,36318,128,0,36559:0:0:0:0:
182,192,36366,1,0,0:0:0:0:
402,192,36366,128,0,36510:0:0:0:0:
109,192,36414,1,0,0:0:0:0:
475,192,36414,128,0,36462:0:0:0:0:
182,192,36462,128,0,36703:0:0:0:0:
36,192,36462,1,0,0:0:0:0:
109,192,36510,128,0,36655:0:0:0:0:
475,192,36510,1,0,0:0:0:0:
36,192,36559,128,0,36607:0:0:0:0:
402,192,36559,1,0,0:0:0:0:
475,192,36607,128,0,36703:0:0:0:0:
329,192,36607,1,0,0:0:0:0:
36,192,36655,1,0,0:0:0:0:
402,192,36655,128,0,36751:0:0:0:0:
109,192,36703,1,0,0:0:0:0:
329,192,36703,128,0,36799:0:0:0:0:
182,192,36751,1,0,0:0:0:0:
36,192,36751,128,0,36991:0:0:0:0:
475,192,36751,1,0,0:0:0:0:
109,192,36799,128,0,36943:0:0:0:0:
402,192,36799,1,0,0:0:0:0:
182,192,36847,128,0,36895:0:0:0:0:
475,192,36847,128,0,37184:0:0:0:0:
329,192,36847,1,0,0:0:0:0:
402,192,36895,128,0,37184:0:0:0:0:
256,192,36895,1,0,0:0:0:0:
329,192,36943,128,0,37184:0:0:0:0:
182,192,36943,1,0,0:0:0:0:
256,192,36991,128,0,37184:0:0:0:0:
109,192,36991,1,0,0:0:0:0:
182,192,37039,128,0,37184:0:0:0:0:
36,192,37039,1,0,0:0:0:0:
109,192,37087,128,0,37184:0:0:0:0:
36,192,37135,128,0,37184:0:0:0:0:
36,192,37232,1,0,0:0:0:0:
109,192,37232,1,0,0:0:0:0:
182,192,37232,1,0,0:0:0:0:
256,192,37232,1,0,0:0:0:0:
329,192,37232,1,0,0:0:0:0:
402,192,37232,1,0,0:0:0:0:
475,192,37232,1,0,0:0:0:0:
36,192,37424,1,0,0:0:0:0:
329,192,37424,1,0,0:0:0:0:
475,192,37424,1,0,0:0:0:0:
182,192,37424,1,0,0:0:0:0:
109,192,37520,1,0,0:0:0:0:
256,192,37520,1,0,0:0:0:0:
182,192,37616,1,0,0:0:0:0:
402,192,37616,1,0,0:0:0:0:
475,192,37616,1,0,0:0:0:0:
329,192,37616,1,0,0:0:0:0:
109,192,37712,1,0,0:0:0:0:
36,192,37809,1,0,0:0:0:0:
256,192,37809,1,0,0:0:0:0:
475,192,37809,1,0,0:0:0:0:
109,192,37905,1,0,0:0:0:0:
329,192,37905,1,0,0:0:0:0:
182,192,38001,1,0,0:0:0:0:
256,192,38001,1,0,0:0:0:0:
402,192,38001,1,0,0:0:0:0:
475,192,38001,1,0,0:0:0:0:
109,192,38097,1,0,0:0:0:0:
36,192,38193,1,0,0:0:0:0:
329,192,38193,1,0,0:0:0:0:
475,192,38193,1,0,0:0:0:0:
256,192,38289,1,0,0:0:0:0:
109,192,38289,1,0,0:0:0:0:
329,192,38385,1,0,0:0:0:0:
402,192,38385,1,0,0:0:0:0:
475,192,38385,1,0,0:0:0:0:
182,192,38385,1,0,0:0:0:0:
109,192,38482,1,0,0:0:0:0:
36,192,38578,1,0,0:0:0:0:
256,192,38578,1,0,0:0:0:0:
475,192,38578,1,0,0:0:0:0:
402,192,38674,1,0,0:0:0:0:
182,192,38674,1,0,0:0:0:0:
109,192,38770,1,0,0:0:0:0:
329,192,38770,1,0,0:0:0:0:
475,192,38770,1,0,0:0:0:0:
36,192,38770,1,0,0:0:0:0:
256,192,38866,1,0,0:0:0:0:
182,192,38962,1,0,0:0:0:0:
475,192,38962,1,0,0:0:0:0:
36,192,38962,1,0,0:0:0:0:
256,192,39059,1,0,0:0:0:0:
402,192,39059,1,0,0:0:0:0:
329,192,39155,1,0,0:0:0:0:
36,192,39155,1,0,0:0:0:0:
109,192,39155,1,0,0:0:0:0:
475,192,39155,1,0,0:0:0:0:
182,192,39251,1,0,0:0:0:0:
256,192,39347,1,0,0:0:0:0:
36,192,39347,1,0,0:0:0:0:
475,192,39347,1,0,0:0:0:0:
182,192,39443,1,0,0:0:0:0:
329,192,39539,1,0,0:0:0:0:
475,192,39539,1,0,0:0:0:0:
36,192,39539,1,0,0:0:0:0:
109,192,39539,1,0,0:0:0:0:
256,192,39635,1,0,0:0:0:0:
182,192,39732,1,0,0:0:0:0:
36,192,39732,1,0,0:0:0:0:
475,192,39732,1,0,0:0:0:0:
402,192,39828,1,0,0:0:0:0:
256,192,39828,1,0,0:0:0:0:
329,192,39924,1,0,0:0:0:0:
475,192,39924,1,0,0:0:0:0:
36,192,39924,1,0,0:0:0:0:
109,192,39924,1,0,0:0:0:0:
182,192,40020,1,0,0:0:0:0:
475,192,40116,1,0,0:0:0:0:
36,192,40116,1,0,0:0:0:0:
256,192,40116,1,0,0:0:0:0:
182,192,40212,1,0,0:0:0:0:
109,192,40309,1,0,0:0:0:0:
475,192,40309,1,0,0:0:0:0:
36,192,40309,1,0,0:0:0:0:
329,192,40309,1,0,0:0:0:0:
256,192,40405,1,0,0:0:0:0:
182,192,40501,1,0,0:0:0:0:
402,192,40501,1,0,0:0:0:0:
36,192,40501,1,0,0:0:0:0:
329,192,40597,1,0,0:0:0:0:
475,192,40597,1,0,0:0:0:0:
256,192,40693,1,0,0:0:0:0:
36,192,40693,1,0,0:0:0:0:
109,192,40693,1,0,0:0:0:0:
402,192,40693,1,0,0:0:0:0:
182,192,40789,1,0,0:0:0:0:
329,192,40885,1,0,0:0:0:0:
36,192,40885,1,0,0:0:0:0:
475,192,40885,1,0,0:0:0:0:
182,192,40982,1,0,0:0:0:0:
329,192,41078,1,0,0:0:0:0:
475,192,41078,1,0,0:0:0:0:
36,192,41078,1,0,0:0:0:0:
109,192,41078,1,0,0:0:0:0:
256,192,41174,1,0,0:0:0:0:
182,192,41270,1,0,0:0:0:0:
36,192,41270,1,0,0:0:0:0:
402,192,41270,1,0,0:0:0:0:
475,192,41366,1,0,0:0:0:0:
329,192,41366,1,0,0:0:0:0:
256,192,41462,1,0,0:0:0:0:
402,192,41462,1,0,0:0:0:0:
36,192,41462,1,0,0:0:0:0:
109,192,41462,1,0,0:0:0:0:
182,192,41559,1,0,0:0:0:0:
475,192,41655,1,0,0:0:0:0:
36,192,41655,1,0,0:0:0:0:
329,192,41655,1,0,0:0:0:0:
182,192,41751,1,0,0:0:0:0:
109,192,41847,1,0,0:0:0:0:
475,192,41847,1,0,0:0:0:0:
36,192,41847,1,0,0:0:0:0:
329,192,41847,1,0,0:0:0:0:
256,192,41943,1,0,0:0:0:0:
182,192,42039,1,0,0:0:0:0:
329,192,42039,1,0,0:0:0:0:
36,192,42039,1,0,0:0:0:0:
256,192,42135,1,0,0:0:0:0:
36,192,42232,1,0,0:0:0:0:
109,192,42232,1,0,0:0:0:0:
329,192,42232,1,0,0:0:0:0:
475,192,42232,1,0,0:0:0:0:
182,192,42328,1,0,0:0:0:0:
256,192,42424,1,0,0:0:0:0:
402,192,42424,1,0,0:0:0:0:
109,192,42424,1,0,0:0:0:0:
329,192,42520,1,0,0:0:0:0:
36,192,42616,1,0,0:0:0:0:
182,192,42616,1,0,0:0:0:0:
402,192,42616,1,0,0:0:0:0:
475,192,42616,1,0,0:0:0:0:
109,192,42712,1,0,0:0:0:0:
256,192,42712,1,0,0:0:0:0:
182,192,42809,1,0,0:0:0:0:
329,192,42809,1,0,0:0:0:0:
256,192,42905,1,0,0:0:0:0:
402,192,42905,1,0,0:0:0:0:
329,192,43001,1,0,0:0:0:0:
475,192,43001,1,0,0:0:0:0:
36,192,43001,1,0,0:0:0:0:
109,192,43001,1,0,0:0:0:0:
256,192,43097,1,0,0:0:0:0:
182,192,43193,1,0,0:0:0:0:
402,192,43193,1,0,0:0:0:0:
36,192,43193,1,0,0:0:0:0:
256,192,43289,1,0,0:0:0:0:
329,192,43385,1,0,0:0:0:0:
36,192,43385,1,0,0:0:0:0:
109,192,43385,1,0,0:0:0:0:
475,192,43385,1,0,0:0:0:0:
182,192,43482,1,0,0:0:0:0:
402,192,43482,1,0,0:0:0:0:
36,192,43578,1,0,0:0:0:0:
109,192,43578,1,0,0:0:0:0:
329,192,43578,1,0,0:0:0:0:
475,192,43578,1,0,0:0:0:0:
182,192,43674,1,0,0:0:0:0:
402,192,43674,1,0,0:0:0:0:
109,192,43770,1,0,0:0:0:0:
329,192,43770,1,0,0:0:0:0:
36,192,43770,1,0,0:0:0:0:
475,192,43770,1,0,0:0:0:0:
182,192,43866,1,0,0:0:0:0:
402,192,43866,1,0,0:0:0:0:
329,192,43962,1,0,0:0:0:0:
475,192,43962,1,0,0:0:0:0:
109,192,43962,1,0,0:0:0:0:
36,192,43962,1,0,0:0:0:0:
402,192,44059,1,0,0:0:0:0:
182,192,44059,1,0,0:0:0:0:
36,192,44155,1,0,0:0:0:0:
256,192,44155,1,0,0:0:0:0:
475,192,44155,1,0,0:0:0:0:
329,192,44155,1,0,0:0:0:0:
182,192,44251,1,0,0:0:0:0:
402,192,44251,1,0,0:0:0:0:
36,192,44347,1,0,0:0:0:0:
256,192,44347,1,0,0:0:0:0:
329,192,44347,1,0,0:0:0:0:
475,192,44347,1,0,0:0:0:0:
182,192,44443,1,0,0:0:0:0:
402,192,44443,1,0,0:0:0:0:
475,192,44539,1,0,0:0:0:0:
36,192,44539,1,0,0:0:0:0:
256,192,44539,1,0,0:0:0:0:
329,192,44539,1,0,0:0:0:0:
182,192,44635,1,0,0:0:0:0:
402,192,44635,1,0,0:0:0:0:
329,192,44732,1,0,0:0:0:0:
475,192,44732,1,0,0:0:0:0:
256,192,44732,1,0,0:0:0:0:
36,192,44732,1,0,0:0:0:0:
402,192,44828,1,0,0:0:0:0:
109,192,44828,1,0,0:0:0:0:
182,192,44924,1,0,0:0:0:0:
475,192,44924,1,0,0:0:0:0:
256,192,44924,1,0,0:0:0:0:
36,192,44924,1,0,0:0:0:0:
329,192,45020,1,0,0:0:0:0:
109,192,45020,1,0,0:0:0:0:
475,192,45116,1,0,0:0:0:0:
402,192,45116,1,0,0:0:0:0:
182,192,45116,1,0,0:0:0:0:
36,192,45116,1,0,0:0:0:0:
329,192,45212,1,0,0:0:0:0:
109,192,45212,1,0,0:0:0:0:
256,192,45309,1,0,0:0:0:0:
182,192,45309,1,0,0:0:0:0:
475,192,45309,1,0,0:0:0:0:
36,192,45309,1,0,0:0:0:0:
329,192,45405,1,0,0:0:0:0:
109,192,45405,1,0,0:0:0:0:
182,192,45501,1,0,0:0:0:0:
36,192,45501,1,0,0:0:0:0:
402,192,45501,1,0,0:0:0:0:
475,192,45501,1,0,0:0:0:0:
109,192,45597,1,0,0:0:0:0:
329,192,45597,1,0,0:0:0:0:
475,192,45693,1,0,0:0:0:0:
256,192,45693,1,0,0:0:0:0:
36,192,45693,1,0,0:0:0:0:
182,192,45693,1,0,0:0:0:0:
329,192,45789,1,0,0:0:0:0:
109,192,45789,1,0,0:0:0:0:
475,192,45885,1,0,0:0:0:0:
402,192,45885,1,0,0:0:0:0:
182,192,45885,1,0,0:0:0:0:
36,192,45885,1,0,0:0:0:0:
329,192,45982,1,0,0:0:0:0:
109,192,45982,1,0,0:0:0:0:
36,192,46078,1,0,0:0:0:0:
475,192,46078,1,0,0:0:0:0:
256,192,46078,1,0,0:0:0:0:
182,192,46078,1,0,0:0:0:0:
329,192,46174,1,0,0:0:0:0:
109,192,46174,1,0,0:0:0:0:
182,192,46270,1,0,0:0:0:0:
36,192,46270,1,0,0:0:0:0:
402,192,46270,1,0,0:0:0:0:
475,192,46270,1,0,0:0:0:0:
109,192,46366,1,0,0:0:0:0:
329,192,46366,1,0,0:0:0:0:
182,192,46462,1,0,0:0:0:0:
475,192,46462,1,0,0:0:0:0:
256,192,46462,1,0,0:0:0:0:
36,192,46462,1,0,0:0:0:0:
329,192,46559,1,0,0:0:0:0:
109,192,46559,1,0,0:0:0:0:
475,192,46655,1,0,0:0:0:0:
402,192,46655,1,0,0:0:0:0:
182,192,46655,1,0,0:0:0:0:
36,192,46655,1,0,0:0:0:0:
329,192,46751,1,0,0:0:0:0:
109,192,46751,1,0,0:0:0:0:
256,192,46847,1,0,0:0:0:0:
182,192,46847,1,0,0:0:0:0:
475,192,46847,1,0,0:0:0:0:
36,192,46847,1,0,0:0:0:0:
329,192,46943,1,0,0:0:0:0:
109,192,46943,1,0,0:0:0:0:
182,192,47039,1,0,0:0:0:0:
36,192,47039,1,0,0:0:0:0:
402,192,47039,1,0,0:0:0:0:
475,192,47039,1,0,0:0:0:0:
109,192,47135,1,0,0:0:0:0:
329,192,47135,1,0,0:0:0:0:
475,192,47232,1,0,0:0:0:0:
256,192,47232,1,0,0:0:0:0:
36,192,47232,1,0,0:0:0:0:
182,192,47232,1,0,0:0:0:0:
329,192,47328,1,0,0:0:0:0:
109,192,47328,1,0,0:0:0:0:
475,192,47424,1,0,0:0:0:0:
402,192,47424,1,0,0:0:0:0:
182,192,47424,1,0,0:0:0:0:
36,192,47424,1,0,0:0:0:0:
329,192,47520,1,0,0:0:0:0:
109,192,47520,1,0,0:0:0:0:
36,192,47616,1,0,0:0:0:0:
475,192,47616,1,0,0:0:0:0:
256,192,47616,1,0,0:0:0:0:
182,192,47616,1,0,0:0:0:0:
329,192,47712,1,0,0:0:0:0:
109,192,47712,1,0,0:0:0:0:
182,192,47809,1,0,0:0:0:0:
36,192,47809,1,0,0:0:0:0:
402,192,47809,1,0,0:0:0:0:
475,192,47809,1,0,0:0:0:0:
109,192,47905,1,0,0:0:0:0:
329,192,47905,1,0,0:0:0:0:
36,192,48001,1,0,0:0:0:0:
256,192,48001,128,0,48289:0:0:0:0:
475,192,48001,1,0,0:0:0:0:
402,192,48001,1,0,0:0:0:0:
182,192,48097,1,0,0:0:0:0:
329,192,48097,128,0,48385:0:0:0:0:
36,192,48193,1,0,0:0:0:0:
402,192,48193,128,0,48482:0:0:0:0:
182,192,48289,1,0,0:0:0:0:
475,192,48289,128,0,48578:0:0:0:0:
36,192,48385,1,0,0:0:0:0:
256,192,48385,1,0,0:0:0:0:
109,192,48385,128,0,48674:0:0:0:0:
182,192,48482,1,0,0:0:0:0:
329,192,48482,1,0,0:0:0:0:
36,192,48578,1,0,0:0:0:0:
402,192,48578,1,0,0:0:0:0:
182,192,48674,1,0,0:0:0:0:
475,192,48674,1,0,0:0:0:0:
36,192,48770,128,0,49059:0:0:0:0:
329,192,48770,1,0,0:0:0:0:
256,192,48770,1,0,0:0:0:0:
109,192,48770,1,0,0:0:0:0:
402,192,48770,128,0,49059:0:0:0:0:
109,192,48866,128,0,49155:0:0:0:0:
475,192,48866,1,0,0:0:0:0:
182,192,48962,128,0,49251:0:0:0:0:
329,192,48962,1,0,0:0:0:0:
256,192,49059,128,0,49347:0:0:0:0:
475,192,49059,1,0,0:0:0:0:
36,192,49155,1,0,0:0:0:0:
475,192,49155,128,0,49299:0:0:0:0:
402,192,49155,128,0,49299:0:0:0:0:
329,192,49155,128,0,49443:0:0:0:0:
109,192,49251,1,0,0:0:0:0:
182,192,49347,1,0,0:0:0:0:
36,192,49347,128,0,49491:0:0:0:0:
475,192,49347,1,0,0:0:0:0:
402,192,49347,1,0,0:0:0:0:
109,192,49395,128,0,49491:0:0:0:0:
256,192,49443,1,0,0:0:0:0:
182,192,49443,128,0,49491:0:0:0:0:
182,192,49539,128,0,49828:0:0:0:0:
36,192,49539,128,0,49828:0:0:0:0:
329,192,49539,1,0,0:0:0:0:
402,192,49539,1,0,0:0:0:0:
475,192,49539,128,0,49828:0:0:0:0:
256,192,49635,128,0,50116:0:0:0:0:
329,192,49732,128,0,50020:0:0:0:0:
402,192,49828,128,0,49924:0:0:0:0:
475,192,49924,1,0,0:0:0:0:
182,192,49924,128,0,50212:0:0:0:0:
36,192,49924,128,0,50212:0:0:0:0:
402,192,50020,1,0,0:0:0:0:
329,192,50116,1,0,0:0:0:0:
256,192,50212,1,0,0:0:0:0:
329,192,50309,128,0,50597:0:0:0:0:
475,192,50309,128,0,50597:0:0:0:0:
36,192,50309,128,0,50597:0:0:0:0:
109,192,50309,1,0,0:0:0:0:
182,192,50309,1,0,0:0:0:0:
256,192,50405,128,0,50885:0:0:0:0:
182,192,50501,128,0,50789:0:0:0:0:
109,192,50597,128,0,50693:0:0:0:0:
329,192,50693,128,0,50982:0:0:0:0:
36,192,50693,1,0,0:0:0:0:
475,192,50693,128,0,50982:0:0:0:0:
109,192,50789,1,0,0:0:0:0:
182,192,50885,1,0,0:0:0:0:
256,192,50982,1,0,0:0:0:0:
402,192,51078,128,0,51366:0:0:0:0:
36,192,51078,128,0,51366:0:0:0:0:
329,192,51078,1,0,0:0:0:0:
475,192,51078,128,0,51366:0:0:0:0:
182,192,51078,1,0,0:0:0:0:
109,192,51174,128,0,51655:0:0:0:0:
182,192,51270,128,0,51559:0:0:0:0:
256,192,51366,128,0,51462:0:0:0:0:
36,192,51462,128,0,51751:0:0:0:0:
402,192,51462,128,0,51751:0:0:0:0:
329,192,51462,128,0,51751:0:0:0:0:
475,192,51462,1,0,0:0:0:0:
256,192,51559,1,0,0:0:0:0:
182,192,51655,1,0,0:0:0:0:
109,192,51751,1,0,0:0:0:0:
475,192,51847,128,0,52135:0:0:0:0:
182,192,51847,128,0,52135:0:0:0:0:
36,192,51847,1,0,0:0:0:0:
109,192,51847,128,0,52135:0:0:0:0:
329,192,51847,1,0,0:0:0:0:
402,192,51943,128,0,52424:0:0:0:0:
329,192,52039,128,0,52328:0:0:0:0:
256,192,52135,128,0,52232:0:0:0:0:
109,192,52232,128,0,52520:0:0:0:0:
36,192,52232,128,0,52520:0:0:0:0:
475,192,52232,128,0,52520:0:0:0:0:
182,192,52232,1,0,0:0:0:0:
256,192,52328,1,0,0:0:0:0:
329,192,52424,1,0,0:0:0:0:
402,192,52520,1,0,0:0:0:0:
329,192,52616,128,0,52905:0:0:0:0:
475,192,52616,128,0,53289:0:0:0:0:
182,192,52616,1,0,0:0:0:0:
109,192,52616,1,0,0:0:0:0:
36,192,52616,128,0,52905:0:0:0:0:
256,192,52712,128,0,53193:0:0:0:0:
182,192,52809,128,0,53097:0:0:0:0:
109,192,52905,128,0,53001:0:0:0:0:
36,192,53001,1,0,0:0:0:0:
402,192,53001,128,0,53289:0:0:0:0:
329,192,53001,128,0,53289:0:0:0:0:
109,192,53097,1,0,0:0:0:0:
182,192,53193,1,0,0:0:0:0:
256,192,53289,1,0,0:0:0:0:
182,192,53385,128,0,53674:0:0:0:0:
36,192,53385,128,0,54059:0:0:0:0:
475,192,53385,128,0,53674:0:0:0:0:
402,192,53385,1,0,0:0:0:0:
329,192,53385,1,0,0:0:0:0:
256,192,53482,128,0,53962:0:0:0:0:
329,192,53578,128,0,53866:0:0:0:0:
402,192,53674,128,0,53770:0:0:0:0:
182,192,53770,128,0,54059:0:0:0:0:
475,192,53770,1,0,0:0:0:0:
109,192,53770,128,0,54059:0:0:0:0:
402,192,53866,1,0,0:0:0:0:
329,192,53962,1,0,0:0:0:0:
256,192,54059,1,0,0:0:0:0:
109,192,54155,128,0,54828:0:0:0:0:
475,192,54155,128,0,54443:0:0:0:0:
182,192,54155,1,0,0:0:0:0:
36,192,54155,128,0,54443:0:0:0:0:
329,192,54155,1,0,0:0:0:0:
402,192,54251,128,0,54732:0:0:0:0:
329,192,54347,128,0,54635:0:0:0:0:
256,192,54443,128,0,54539:0:0:0:0:
475,192,54539,128,0,54828:0:0:0:0:
182,192,54539,128,0,54828:0:0:0:0:
36,192,54539,1,0,0:0:0:0:
256,192,54635,1,0,0:0:0:0:
329,192,54732,1,0,0:0:0:0:
402,192,54828,1,0,0:0:0:0:
36,192,54924,128,0,55212:0:0:0:0:
329,192,54924,128,0,55212:0:0:0:0:
475,192,54924,1,0,0:0:0:0:
182,192,54924,1,0,0:0:0:0:
256,192,54924,1,0,0:0:0:0:
402,192,55020,128,0,55597:0:0:0:0:
109,192,55020,128,0,55597:0:0:0:0:
475,192,55116,128,0,55212:0:0:0:0:
182,192,55116,128,0,55405:0:0:0:0:
256,192,55212,128,0,55309:0:0:0:0:
475,192,55309,128,0,55405:0:0:0:0:
36,192,55309,128,0,55405:0:0:0:0:
329,192,55309,128,0,55597:0:0:0:0:
256,192,55405,128,0,55501:0:0:0:0:
182,192,55501,1,0,0:0:0:0:
475,192,55501,128,0,55597:0:0:0:0:
36,192,55501,128,0,55597:0:0:0:0:
256,192,55597,1,0,0:0:0:0:
182,192,55693,128,0,55982:0:0:0:0:
36,192,55693,128,0,55789:0:0:0:0:
329,192,55693,1,0,0:0:0:0:
402,192,55693,1,0,0:0:0:0:
475,192,55693,128,0,55982:0:0:0:0:
256,192,55789,128,0,56270:0:0:0:0:
329,192,55885,128,0,56174:0:0:0:0:
36,192,55885,128,0,56174:0:0:0:0:
402,192,55982,128,0,56078:0:0:0:0:
475,192,56078,1,0,0:0:0:0:
182,192,56078,128,0,56366:0:0:0:0:
402,192,56174,1,0,0:0:0:0:
329,192,56270,1,0,0:0:0:0:
36,192,56270,128,0,56366:0:0:0:0:
256,192,56366,1,0,0:0:0:0:
329,192,56462,128,0,56751:0:0:0:0:
36,192,56462,128,0,56751:0:0:0:0:
109,192,56462,1,0,0:0:0:0:
182,192,56462,1,0,0:0:0:0:
475,192,56462,128,0,56559:0:0:0:0:
256,192,56559,128,0,57039:0:0:0:0:
475,192,56655,128,0,56943:0:0:0:0:
182,192,56655,128,0,56943:0:0:0:0:
109,192,56751,128,0,56847:0:0:0:0:
329,192,56847,128,0,57135:0:0:0:0:
36,192,56847,1,0,0:0:0:0:
109,192,56943,1,0,0:0:0:0:
475,192,57039,128,0,57135:0:0:0:0:
182,192,57039,1,0,0:0:0:0:
256,192,57135,1,0,0:0:0:0:
402,192,57232,128,0,57328:0:0:0:0:
36,192,57232,128,0,57520:0:0:0:0:
329,192,57232,1,0,0:0:0:0:
475,192,57232,128,0,57520:0:0:0:0:
182,192,57232,1,0,0:0:0:0:
109,192,57328,128,0,57809:0:0:0:0:
182,192,57424,128,0,57712:0:0:0:0:
402,192,57424,128,0,57712:0:0:0:0:
256,192,57520,128,0,57616:0:0:0:0:
36,192,57616,128,0,57905:0:0:0:0:
329,192,57616,128,0,57905:0:0:0:0:
475,192,57616,1,0,0:0:0:0:
256,192,57712,1,0,0:0:0:0:
182,192,57809,1,0,0:0:0:0:
402,192,57809,128,0,57905:0:0:0:0:
109,192,57905,1,0,0:0:0:0:
475,192,58001,128,0,58289:0:0:0:0:
182,192,58001,128,0,58289:0:0:0:0:
36,192,58001,1,0,0:0:0:0:
109,192,58001,128,0,58097:0:0:0:0:
329,192,58001,1,0,0:0:0:0:
402,192,58097,128,0,58578:0:0:0:0:
329,192,58193,128,0,58482:0:0:0:0:
109,192,58193,128,0,58482:0:0:0:0:
256,192,58289,128,0,58385:0:0:0:0:
36,192,58385,128,0,58674:0:0:0:0:
475,192,58385,128,0,58674:0:0:0:0:
182,192,58385,1,0,0:0:0:0:
256,192,58482,1,0,0:0:0:0:
329,192,58578,1,0,0:0:0:0:
109,192,58578,128,0,58674:0:0:0:0:
402,192,58674,1,0,0:0:0:0:
329,192,58770,128,0,59059:0:0:0:0:
475,192,58770,128,0,58866:0:0:0:0:
182,192,58770,1,0,0:0:0:0:
109,192,58770,1,0,0:0:0:0:
36,192,58770,128,0,59059:0:0:0:0:
256,192,58866,128,0,59347:0:0:0:0:
182,192,58962,128,0,59251:0:0:0:0:
475,192,58962,128,0,59251:0:0:0:0:
109,192,59059,128,0,59155:0:0:0:0:
36,192,59155,1,0,0:0:0:0:
402,192,59155,128,0,59443:0:0:0:0:
329,192,59155,128,0,59443:0:0:0:0:
109,192,59251,1,0,0:0:0:0:
182,192,59347,1,0,0:0:0:0:
475,192,59347,128,0,59443:0:0:0:0:
256,192,59443,1,0,0:0:0:0:
182,192,59539,128,0,59828:0:0:0:0:
36,192,59539,128,0,59635:0:0:0:0:
475,192,59539,128,0,59828:0:0:0:0:
402,192,59539,1,0,0:0:0:0:
329,192,59539,1,0,0:0:0:0:
256,192,59635,128,0,60116:0:0:0:0:
329,192,59732,128,0,60020:0:0:0:0:
36,192,59732,128,0,60020:0:0:0:0:
402,192,59828,128,0,59924:0:0:0:0:
182,192,59924,128,0,60212:0:0:0:0:
475,192,59924,1,0,0:0:0:0:
109,192,59924,128,0,60212:0:0:0:0:
402,192,60020,1,0,0:0:0:0:
329,192,60116,1,0,0:0:0:0:
36,192,60116,128,0,60212:0:0:0:0:
256,192,60212,1,0,0:0:0:0:
109,192,60309,128,0,60405:0:0:0:0:
475,192,60309,128,0,60597:0:0:0:0:
182,192,60309,1,0,0:0:0:0:
36,192,60309,128,0,60597:0:0:0:0:
329,192,60309,1,0,0:0:0:0:
402,192,60405,128,0,60885:0:0:0:0:
329,192,60501,128,0,60789:0:0:0:0:
109,192,60501,128,0,60789:0:0:0:0:
256,192,60597,128,0,60693:0:0:0:0:
475,192,60693,128,0,60982:0:0:0:0:
182,192,60693,128,0,60982:0:0:0:0:
36,192,60693,1,0,0:0:0:0:
256,192,60789,1,0,0:0:0:0:
329,192,60885,1,0,0:0:0:0:
109,192,60885,128,0,60982:0:0:0:0:
402,192,60982,1,0,0:0:0:0:
475,192,61078,128,0,61366:0:0:0:0:
36,192,61078,128,0,61366:0:0:0:0:
182,192,61078,1,0,0:0:0:0:
256,192,61078,1,0,0:0:0:0:
402,192,61110,128,0,61751:0:0:0:0:
329,192,61142,128,0,61366:0:0:0:0:
256,192,61174,128,0,61462:0:0:0:0:
109,192,61174,128,0,61270:0:0:0:0:
182,192,61270,128,0,61559:0:0:0:0:
109,192,61366,128,0,61462:0:0:0:0:
329,192,61462,128,0,61559:0:0:0:0:
475,192,61462,128,0,61559:0:0:0:0:
36,192,61462,128,0,61751:0:0:0:0:
256,192,61559,1,0,0:0:0:0:
109,192,61559,128,0,61655:0:0:0:0:
329,192,61655,128,0,61751:0:0:0:0:
475,192,61655,128,0,61751:0:0:0:0:
182,192,61655,1,0,0:0:0:0:
109,192,61751,1,0,0:0:0:0:
36,192,61847,1,0,0:0:0:0:
256,192,61847,128,0,61943:0:0:0:0:
329,192,61847,128,0,62135:0:0:0:0:
402,192,61847,128,0,61943:0:0:0:0:
475,192,61847,128,0,61943:0:0:0:0:
36,192,62039,128,0,62135:0:0:0:0:
109,192,62039,128,0,62135:0:0:0:0:
182,192,62039,128,0,62328:0:0:0:0:
256,192,62039,128,0,62135:0:0:0:0:
256,192,62232,128,0,62328:0:0:0:0:
402,192,62232,128,0,62328:0:0:0:0:
329,192,62232,128,0,62520:0:0:0:0:
475,192,62232,128,0,62328:0:0:0:0:
182,192,62424,128,0,62520:0:0:0:0:
36,192,62424,128,0,62520:0:0:0:0:
256,192,62424,128,0,62520:0:0:0:0:
109,192,62424,128,0,62520:0:0:0:0:
256,192,62616,128,0,62712:0:0:0:0:
329,192,62616,128,0,62712:0:0:0:0:
402,192,62616,128,0,62712:0:0:0:0:
475,192,62616,128,0,62712:0:0:0:0:
182,192,62809,128,0,62905:0:0:0:0:
256,192,62809,128,0,62905:0:0:0:0:
329,192,62809,128,0,62905:0:0:0:0:
402,192,62809,128,0,62905:0:0:0:0:
109,192,63001,128,0,63097:0:0:0:0:
182,192,63001,128,0,63097:0:0:0:0:
256,192,63001,128,0,63097:0:0:0:0:
329,192,63001,128,0,63097:0:0:0:0:
36,192,63193,128,0,63289:0:0:0:0:
109,192,63193,128,0,63289:0:0:0:0:
182,192,63193,128,0,63289:0:0:0:0:
256,192,63193,128,0,63289:0:0:0:0:
36,192,63385,1,0,0:0:0:0:
475,192,63385,128,0,63674:0:0:0:0:
36,192,63482,128,0,63914:0:0:0:0:
109,192,63482,1,0,0:0:0:0:
402,192,63482,128,0,63578:0:0:0:0:
109,192,63578,128,0,64010:0:0:0:0:
182,192,63578,1,0,0:0:0:0:
329,192,63578,128,0,63866:0:0:0:0:
182,192,63674,128,0,64107:0:0:0:0:
256,192,63674,1,0,0:0:0:0:
402,192,63674,128,0,63770:0:0:0:0:
256,192,63770,128,0,63962:0:0:0:0:
475,192,63770,1,0,0:0:0:0:
402,192,63866,1,0,0:0:0:0:
475,192,63866,128,0,64107:0:0:0:0:
329,192,63962,1,0,0:0:0:0:
36,192,63962,128,0,64395:0:0:0:0:
402,192,63962,128,0,64155:0:0:0:0:
256,192,64059,1,0,0:0:0:0:
109,192,64059,128,0,64347:0:0:0:0:
329,192,64059,128,0,64203:0:0:0:0:
256,192,64155,128,0,64539:0:0:0:0:
182,192,64155,128,0,64299:0:0:0:0:
475,192,64155,1,0,0:0:0:0:
402,192,64203,1,0,0:0:0:0:
329,192,64251,1,0,0:0:0:0:
475,192,64251,128,0,64395:0:0:0:0:
402,192,64299,128,0,64443:0:0:0:0:
182,192,64347,1,0,0:0:0:0:
329,192,64347,128,0,64491:0:0:0:0:
109,192,64395,1,0,0:0:0:0:
182,192,64443,128,0,64587:0:0:0:0:
36,192,64443,1,0,0:0:0:0:
475,192,64443,1,0,0:0:0:0:
109,192,64491,128,0,64635:0:0:0:0:
402,192,64491,1,0,0:0:0:0:
36,192,64539,128,0,64684:0:0:0:0:
475,192,64539,128,0,64876:0:0:0:0:
329,192,64539,1,0,0:0:0:0:
402,192,64587,128,0,64876:0:0:0:0:
256,192,64587,1,0,0:0:0:0:
329,192,64635,128,0,64876:0:0:0:0:
182,192,64635,1,0,0:0:0:0:
256,192,64684,128,0,64876:0:0:0:0:
109,192,64684,1,0,0:0:0:0:
182,192,64732,128,0,64876:0:0:0:0:
36,192,64732,1,0,0:0:0:0:
109,192,64780,128,0,64876:0:0:0:0:
36,192,64828,128,0,64876:0:0:0:0:
475,192,64924,1,0,0:0:0:0:
109,192,64924,1,0,0:0:0:0:
36,192,64924,1,0,0:0:0:0:
256,192,64924,128,0,65645:0:0:0:0:
182,192,64924,1,0,0:0:0:0:
402,192,64924,1,0,0:0:0:0:
329,192,64924,1,0,0:0:0:0:
329,192,65020,1,0,0:0:0:0:
475,192,65116,1,0,0:0:0:0:
36,192,65116,1,0,0:0:0:0:
182,192,65116,1,0,0:0:0:0:
402,192,65212,1,0,0:0:0:0:
329,192,65212,1,0,0:0:0:0:
475,192,65309,1,0,0:0:0:0:
36,192,65309,1,0,0:0:0:0:
109,192,65309,1,0,0:0:0:0:
182,192,65309,1,0,0:0:0:0:
402,192,65405,1,0,0:0:0:0:
329,192,65501,1,0,0:0:0:0:
109,192,65501,1,0,0:0:0:0:
182,192,65501,128,0,65645:0:0:0:0:
402,192,65597,1,0,0:0:0:0:
36,192,65597,1,0,0:0:0:0:
329,192,65693,128,0,66414:0:0:0:0:
475,192,65693,1,0,0:0:0:0:
256,192,65693,1,0,0:0:0:0:
182,192,65693,1,0,0:0:0:0:
109,192,65789,1,0,0:0:0:0:
36,192,65885,1,0,0:0:0:0:
402,192,65885,1,0,0:0:0:0:
475,192,65885,1,0,0:0:0:0:
182,192,65982,1,0,0:0:0:0:
256,192,65982,1,0,0:0:0:0:
109,192,66078,1,0,0:0:0:0:
475,192,66078,1,0,0:0:0:0:
402,192,66078,1,0,0:0:0:0:
36,192,66078,1,0,0:0:0:0:
256,192,66174,1,0,0:0:0:0:
475,192,66270,128,0,66414:0:0:0:0:
182,192,66270,1,0,0:0:0:0:
402,192,66270,1,0,0:0:0:0:
109,192,66366,1,0,0:0:0:0:
256,192,66366,1,0,0:0:0:0:
182,192,66462,128,0,67184:0:0:0:0:
36,192,66462,1,0,0:0:0:0:
475,192,66462,1,0,0:0:0:0:
329,192,66462,1,0,0:0:0:0:
109,192,66559,1,0,0:0:0:0:
475,192,66655,1,0,0:0:0:0:
256,192,66655,1,0,0:0:0:0:
329,192,66751,1,0,0:0:0:0:
109,192,66751,1,0,0:0:0:0:
475,192,66847,1,0,0:0:0:0:
402,192,66847,1,0,0:0:0:0:
36,192,66847,1,0,0:0:0:0:
256,192,66847,1,0,0:0:0:0:
329,192,66943,1,0,0:0:0:0:
36,192,67039,128,0,67184:0:0:0:0:
256,192,67039,1,0,0:0:0:0:
475,192,67039,1,0,0:0:0:0:
329,192,67135,1,0,0:0:0:0:
182,192,67232,1,0,0:0:0:0:
402,192,67232,1,0,0:0:0:0:
475,192,67232,128,0,67905:0:0:0:0:
36,192,67232,128,0,67905:0:0:0:0:
109,192,67232,1,0,0:0:0:0:
256,192,67232,1,0,0:0:0:0:
182,192,67328,128,0,67520:0:0:0:0:
329,192,67424,1,0,0:0:0:0:
402,192,67424,1,0,0:0:0:0:
256,192,67424,128,0,67520:0:0:0:0:
329,192,67520,128,0,67712:0:0:0:0:
109,192,67616,1,0,0:0:0:0:
256,192,67616,128,0,67712:0:0:0:0:
182,192,67616,1,0,0:0:0:0:
182,192,67712,128,0,68001:0:0:0:0:
256,192,67809,128,0,68097:0:0:0:0:
402,192,67809,1,0,0:0:0:0:
329,192,67809,1,0,0:0:0:0:
329,192,67905,128,0,68193:0:0:0:0:
36,192,68001,128,0,69155:0:0:0:0:
109,192,68001,128,0,68289:0:0:0:0:
475,192,68001,128,0,69155:0:0:0:0:
402,192,68001,128,0,68289:0:0:0:0:
182,192,68097,128,0,68578:0:0:0:0:
256,192,68193,128,0,68482:0:0:0:0:
329,192,68289,128,0,68385:0:0:0:0:
402,192,68385,128,0,68674:0:0:0:0:
109,192,68385,128,0,68674:0:0:0:0:
329,192,68482,128,0,68674:0:0:0:0:
256,192,68578,128,0,68674:0:0:0:0:
182,192,68674,1,0,0:0:0:0:
329,192,68770,128,0,68866:0:0:0:0:
182,192,68770,128,0,69059:0:0:0:0:
402,192,68770,1,0,0:0:0:0:
109,192,68770,1,0,0:0:0:0:
256,192,68770,1,0,0:0:0:0:
329,192,68962,128,0,69155:0:0:0:0:
256,192,69059,128,0,69251:0:0:0:0:
182,192,69155,128,0,69347:0:0:0:0:
402,192,69155,1,0,0:0:0:0:
109,192,69155,1,0,0:0:0:0:
475,192,69251,128,0,69443:0:0:0:0:
36,192,69251,128,0,69443:0:0:0:0:
329,192,69251,128,0,69443:0:0:0:0:
256,192,69347,128,0,69443:0:0:0:0:
182,192,69443,1,0,0:0:0:0:
329,192,69539,1,0,0:0:0:0:
109,192,69539,1,0,0:0:0:0:
475,192,69539,1,0,0:0:0:0:
36,192,69539,1,0,0:0:0:0:
256,192,69539,128,0,70837:0:0:0:0:
402,192,69539,1,0,0:0:0:0:
182,192,69635,1,0,0:0:0:0:
36,192,69732,128,0,70068:0:0:0:0:
329,192,69732,1,0,0:0:0:0:
475,192,69732,1,0,0:0:0:0:
109,192,69828,1,0,0:0:0:0:
475,192,69924,128,0,70260:0:0:0:0:
402,192,69924,1,0,0:0:0:0:
182,192,70020,1,0,0:0:0:0:
36,192,70116,128,0,70260:0:0:0:0:
329,192,70116,1,0,0:0:0:0:
109,192,70212,1,0,0:0:0:0:
402,192,70309,128,0,70645:0:0:0:0:
329,192,70309,1,0,0:0:0:0:
182,192,70309,1,0,0:0:0:0:
475,192,70309,1,0,0:0:0:0:
36,192,70309,1,0,0:0:0:0:
109,192,70405,1,0,0:0:0:0:
109,192,70501,128,0,71030:0:0:0:0:
475,192,70501,1,0,0:0:0:0:
329,192,70501,1,0,0:0:0:0:
36,192,70597,128,0,70693:0:0:0:0:
402,192,70693,128,0,71030:0:0:0:0:
182,192,70693,128,0,70789:0:0:0:0:
36,192,70741,1,0,0:0:0:0:
329,192,70789,128,0,70885:0:0:0:0:
182,192,70837,1,0,0:0:0:0:
256,192,70885,1,0,0:0:0:0:
475,192,70885,128,0,70982:0:0:0:0:
329,192,70934,1,0,0:0:0:0:
256,192,70982,128,0,71030:0:0:0:0:
475,192,71030,1,0,0:0:0:0:
109,192,71078,1,0,0:0:0:0:
402,192,71078,1,0,0:0:0:0:
475,192,71078,1,0,0:0:0:0:
36,192,71078,128,0,71559:0:0:0:0:
256,192,71078,1,0,0:0:0:0:
329,192,71078,128,0,71799:0:0:0:0:
109,192,71174,128,0,71462:0:0:0:0:
182,192,71270,128,0,71366:0:0:0:0:
402,192,71270,1,0,0:0:0:0:
475,192,71270,1,0,0:0:0:0:
256,192,71366,1,0,0:0:0:0:
182,192,71462,1,0,0:0:0:0:
402,192,71462,1,0,0:0:0:0:
475,192,71462,1,0,0:0:0:0:
109,192,71559,1,0,0:0:0:0:
475,192,71655,128,0,71799:0:0:0:0:
36,192,71655,1,0,0:0:0:0:
256,192,71655,128,0,71799:0:0:0:0:
182,192,71847,128,0,72568:0:0:0:0:
475,192,71847,128,0,72328:0:0:0:0:
402,192,71847,1,0,0:0:0:0:
36,192,71847,1,0,0:0:0:0:
256,192,71847,1,0,0:0:0:0:
109,192,71847,1,0,0:0:0:0:
402,192,71943,128,0,72232:0:0:0:0:
329,192,72039,128,0,72135:0:0:0:0:
36,192,72039,1,0,0:0:0:0:
109,192,72039,1,0,0:0:0:0:
256,192,72135,1,0,0:0:0:0:
329,192,72232,1,0,0:0:0:0:
36,192,72232,1,0,0:0:0:0:
109,192,72232,1,0,0:0:0:0:
402,192,72328,1,0,0:0:0:0:
36,192,72424,128,0,72568:0:0:0:0:
475,192,72424,1,0,0:0:0:0:
256,192,72424,128,0,72568:0:0:0:0:
36,192,72616,128,0,73097:0:0:0:0:
256,192,72616,1,0,0:0:0:0:
402,192,72616,128,0,73337:0:0:0:0:
109,192,72616,1,0,0:0:0:0:
329,192,72616,1,0,0:0:0:0:
475,192,72616,1,0,0:0:0:0:
109,192,72712,128,0,73001:0:0:0:0:
475,192,72809,1,0,0:0:0:0:
329,192,72809,1,0,0:0:0:0:
182,192,72809,128,0,72905:0:0:0:0:
256,192,72905,1,0,0:0:0:0:
475,192,73001,1,0,0:0:0:0:
329,192,73001,1,0,0:0:0:0:
182,192,73001,1,0,0:0:0:0:
109,192,73097,1,0,0:0:0:0:
182,192,73193,128,0,73674:0:0:0:0:
36,192,73193,1,0,0:0:0:0:
256,192,73193,128,0,73337:0:0:0:0:
256,192,73385,1,0,0:0:0:0:
475,192,73385,128,0,73866:0:0:0:0:
402,192,73385,1,0,0:0:0:0:
36,192,73385,128,0,73482:0:0:0:0:
109,192,73385,128,0,73482:0:0:0:0:
402,192,73482,128,0,73770:0:0:0:0:
329,192,73578,128,0,73674:0:0:0:0:
36,192,73578,128,0,74107:0:0:0:0:
109,192,73578,128,0,73674:0:0:0:0:
256,192,73674,1,0,0:0:0:0:
329,192,73770,1,0,0:0:0:0:
182,192,73770,128,0,74107:0:0:0:0:
402,192,73866,1,0,0:0:0:0:
109,192,73962,128,0,74107:0:0:0:0:
475,192,73962,1,0,0:0:0:0:
256,192,73962,1,0,0:0:0:0:
329,192,74059,1,0,0:0:0:0:
182,192,74155,1,0,0:0:0:0:
109,192,74155,1,0,0:0:0:0:
475,192,74155,128,0,75597:0:0:0:0:
402,192,74155,1,0,0:0:0:0:
36,192,74155,128,0,75597:0:0:0:0:
402,192,74251,128,0,74443:0:0:0:0:
329,192,74251,1,0,0:0:0:0:
329,192,74347,128,0,74539:0:0:0:0:
256,192,74347,1,0,0:0:0:0:
256,192,74443,128,0,74635:0:0:0:0:
182,192,74443,1,0,0:0:0:0:
109,192,74539,128,0,74732:0:0:0:0:
402,192,74539,1,0,0:0:0:0:
182,192,74635,128,0,74828:0:0:0:0:
329,192,74635,1,0,0:0:0:0:
256,192,74732,128,0,74924:0:0:0:0:
402,192,74732,1,0,0:0:0:0:
329,192,74828,128,0,75020:0:0:0:0:
109,192,74828,1,0,0:0:0:0:
402,192,74924,128,0,75116:0:0:0:0:
182,192,74924,1,0,0:0:0:0:
256,192,75020,1,0,0:0:0:0:
109,192,75020,128,0,75212:0:0:0:0:
329,192,75116,1,0,0:0:0:0:
182,192,75116,128,0,75309:0:0:0:0:
402,192,75212,1,0,0:0:0:0:
256,192,75212,128,0,75405:0:0:0:0:
109,192,75309,1,0,0:0:0:0:
329,192,75309,128,0,75501:0:0:0:0:
402,192,75405,128,0,75597:0:0:0:0:
182,192,75405,1,0,0:0:0:0:
256,192,75501,1,0,0:0:0:0:
329,192,75597,1,0,0:0:0:0:
109,192,75693,128,0,76174:0:0:0:0:
36,192,75693,128,0,75789:0:0:0:0:
182,192,75693,128,0,75885:0:0:0:0:
402,192,75693,128,0,76366:0:0:0:0:
475,192,75693,128,0,75789:0:0:0:0:
256,192,75789,128,0,75982:0:0:0:0:
329,192,75885,128,0,76078:0:0:0:0:
475,192,75885,128,0,75982:0:0:0:0:
36,192,75885,128,0,75982:0:0:0:0:
182,192,75982,128,0,76222:0:0:0:0:
256,192,76078,128,0,76270:0:0:0:0:
475,192,76078,128,0,76174:0:0:0:0:
36,192,76078,128,0,76174:0:0:0:0:
329,192,76174,128,0,76318:0:0:0:0:
36,192,76222,128,0,76655:0:0:0:0:
475,192,76270,128,0,76366:0:0:0:0:
109,192,76270,1,0,0:0:0:0:
182,192,76318,128,0,76559:0:0:0:0:
256,192,76366,128,0,76510:0:0:0:0:
329,192,76414,128,0,76462:0:0:0:0:
475,192,76414,1,0,0:0:0:0:
402,192,76462,1,0,0:0:0:0:
329,192,76510,1,0,0:0:0:0:
475,192,76510,128,0,76703:0:0:0:0:
256,192,76559,128,0,77184:0:0:0:0:
402,192,76559,128,0,76751:0:0:0:0:
182,192,76607,1,0,0:0:0:0:
329,192,76607,128,0,76799:0:0:0:0:
109,192,76655,1,0,0:0:0:0:
36,192,76703,1,0,0:0:0:0:
182,192,76703,128,0,76895:0:0:0:0:
475,192,76751,1,0,0:0:0:0:
109,192,76751,128,0,76943:0:0:0:0:
402,192,76799,1,0,0:0:0:0:
36,192,76799,128,0,76991:0:0:0:0:
329,192,76847,1,0,0:0:0:0:
475,192,76847,128,0,77184:0:0:0:0:
402,192,76895,128,0,77184:0:0:0:0:
182,192,76943,1,0,0:0:0:0:
329,192,76943,128,0,77184:0:0:0:0:
109,192,76991,1,0,0:0:0:0:
36,192,77039,1,0,0:0:0:0:
182,192,77039,128,0,77184:0:0:0:0:
109,192,77087,128,0,77184:0:0:0:0:
36,192,77135,128,0,77184:0:0:0:0:
