osu file format v14

[General]
AudioFilename: audio.mp3
AudioLeadIn: 0
PreviewTime: 61667
Countdown: 0
SampleSet: Drum
StackLeniency: 0.7
Mode: 0
LetterboxInBreaks: 0
SkinPreference:Default
WidescreenStoryboard: 0
SamplesMatchPlaybackRate: 1

[Editor]
Bookmarks: 46926,51618,97198
DistanceSpacing: 1.2
BeatDivisor: 4
GridSize: 4
TimelineZoom: 3.799998

[Metadata]
Title:Lovesong
TitleUnicode:Lovesong
Artist:Frontliner
ArtistUnicode:Frontliner
Creator:Kazuya
Version:Dance!
Source:
Tags:hardcore hardstyle uptempo nightcore english electronic rave custom beatmap skin kazuya-sama
BeatmapID:2979584
BeatmapSetID:1449082

[Difficulty]
HPDrainRate:6
CircleSize:4
OverallDifficulty:8
ApproachRate:9
SliderMultiplier:1.74
SliderTickRate:1

[Events]
//Background and Video events
0,0,"background.jpg",0,0
//Break Periods
2,27007,28889
//Storyboard Layer 0 (Background)
//Storyboard Layer 1 (Fail)
//Storyboard Layer 2 (Pass)
//Storyboard Layer 3 (Foreground)
//Storyboard Layer 4 (Overlay)
//Storyboard Sound Samples

[TimingPoints]
5355,335.195530726257,4,1,0,80,1,0
5355,-133.333333333333,4,2,2,80,0,0
24796,-133.333333333333,4,2,2,65,0,0
25466,-133.333333333333,4,2,2,50,0,0
26807,-133.333333333333,4,3,1,80,0,0
29489,-133.333333333333,4,2,1,80,0,0
40215,-100,4,2,1,80,0,0
50941,-133.333333333333,4,3,1,80,0,0
61667,-100,4,1,1,80,0,1
71053,-100,4,2,1,80,0,0
72394,-100,4,1,1,80,0,1
80438,-100,4,3,1,80,0,1
81779,-100,4,2,1,80,0,0
83120,-133.333333333333,4,3,1,80,0,0
99209,-100,4,1,1,80,0,0
127366,-100,4,2,0,5,0,0

[Colours]
Combo1 : 66,136,84
Combo2 : 145,57,138
Combo3 : 129,129,129
Combo4 : 162,40,40
SliderBorder : 240,240,240

[HitObjects]
506,356,5355,5,6,0:0:0:0:
392,248,5690,1,0,0:0:0:0:
497,132,6025,2,0,P|444:113|362:96,1,130.50000497818,2|0,0:0|0:0,0:0:0:0:
190,23,6695,2,0,P|211:84|224:148,1,130.50000497818,2|0,0:0|0:0,0:0:0:0:
307,326,7366,2,0,P|320:262|341:200,1,130.50000497818,2|0,0:0|0:0,0:0:0:0:
407,158,7868,1,0,0:0:0:0:
407,158,8036,6,0,P|400:121|391:90,1,65.2500024890901,2|0,0:0|0:0,0:0:0:0:
329,20,8371,2,0,P|323:52|314:83,1,65.2500024890901,2|0,0:0|0:0,0:0:0:0:
276,152,8706,2,0,P|274:88|241:25,1,130.50000497818,2|0,0:0|0:0,0:0:0:0:
74,127,9377,2,0,P|44:184|42:249,1,130.50000497818,2|0,0:0|0:0,0:0:0:0:
209,352,10047,2,0,L|178:219,1,130.50000497818,2|0,0:0|0:0,0:0:0:0:
213,154,10550,1,0,0:0:0:0:
213,154,10718,6,0,P|220:120|235:82,1,65.2500024890901,6|0,0:0|0:0,0:0:0:0:
292,15,11053,2,0,P|303:45|309:77,1,65.2500024890901,2|0,0:0|0:0,0:0:0:0:
292,154,11388,2,0,P|323:172|431:173,1,130.50000497818,2|0,0:0|0:0,0:0:0:0:
235,253,12058,2,0,P|170:250|111:277,1,130.50000497818,2|0,0:0|0:0,0:0:0:0:
24,101,12729,2,0,P|82:127|147:125,1,130.50000497818,2|0,0:0|0:0,0:0:0:0:
214,83,13232,1,0,0:0:0:0:
214,83,13399,6,0,P|222:131|249:216,1,130.50000497818,2|0,0:0|0:0,0:0:0:0:
372,359,14070,2,0,P|392:297|404:232,1,130.50000497818,2|0,0:0|0:0,0:0:0:0:
501,63,14740,2,0,P|455:157|302:167,1,261.00000995636,2|0,0:0|0:0,0:0:0:0:
155,53,15746,1,0,0:0:0:0:
155,53,15913,1,0,0:0:0:0:
155,53,16081,5,6,0:0:0:0:
80,190,16416,1,2,0:0:0:0:
143,333,16751,2,0,P|163:297|249:288,1,130.50000497818,2|0,0:0|0:0,0:0:0:0:
427,359,17422,2,0,L|457:228,1,130.50000497818,2|0,0:0|0:0,0:0:0:0:
496,40,18092,2,0,P|467:95|399:94,1,130.50000497818,2|0,0:0|0:0,0:0:0:0:
337,57,18595,1,0,0:0:0:0:
337,57,18762,6,0,P|325:90|318:130,1,65.2500024890901,2|0,0:0|0:0,0:0:0:0:
258,197,19098,2,0,P|251:165|240:134,1,65.2500024890901,2|0,0:0|0:0,0:0:0:0:
212,61,19433,2,0,P|200:120|177:190,1,130.50000497818,2|0,0:0|0:0,0:0:0:0:
41,326,20103,2,0,P|102:305|166:292,1,130.50000497818,2|0,0:0|0:0,0:0:0:0:
351,357,20773,2,0,P|364:293|384:231,1,130.50000497818,2|0,0:0|0:0,0:0:0:0:
446,182,21276,1,0,0:0:0:0:
446,182,21444,6,0,P|431:151|422:112,1,65.2500024890901,6|0,0:0|0:0,0:0:0:0:
366,42,21779,2,0,P|351:71|343:102,1,65.2500024890901,2|0,0:0|0:0,0:0:0:0:
320,178,22114,2,0,P|323:124|266:70,1,130.50000497818,2|0,0:0|0:0,0:0:0:0:
81,27,22785,2,0,P|98:76|112:162,1,130.50000497818,2|0,0:0|0:0,0:0:0:0:
87,347,23455,2,0,P|109:302|198:294,1,130.50000497818,2|0,0:0|0:0,0:0:0:0:
251,325,23958,1,0,0:0:0:0:
251,325,24125,6,0,P|256:276|282:192,1,130.50000497818,2|0,0:0|0:0,0:0:0:0:
360,19,24796,2,0,P|325:77|263:77,1,130.50000497818,2|0,0:0|0:0,0:0:0:0:
80,22,25466,2,0,B|81:99|28:182|28:182|68:145|121:151,1,261.00000995636,2|0,0:0|0:0,0:0:0:0:
110,150,26807,1,4,3:3:0:0:
415,323,29489,6,0,P|418:291|427:252,1,65.2500024890901,6|0,0:0|0:0,0:0:0:0:
485,208,29824,2,0,P|481:175|474:143,1,65.2500024890901,2|0,0:0|0:0,0:0:0:0:
421,62,30159,1,2,0:0:0:0:
382,152,30327,1,2,0:0:0:0:
394,75,30494,1,2,0:0:0:0:
204,27,30829,6,0,P|191:93|170:162,1,130.50000497818,2|2,0:0|0:0,0:0:0:0:
403,335,31667,2,0,P|395:301|382:262,1,65.2500024890901,2|2,0:0|0:0,0:0:0:0:
341,81,32170,2,0,P|360:126|439:137,1,130.50000497818,2|2,0:0|0:0,0:0:0:0:
176,279,33008,2,0,P|143:288|104:294,1,65.2500024890901,2|2,0:0|0:0,0:0:0:0:
7,127,33511,1,2,0:0:0:0:
40,220,33679,1,2,0:0:0:0:
47,142,33846,1,2,0:0:0:0:
230,371,34349,2,0,P|236:338|249:301,1,65.2500024890901,2|2,0:0|0:0,0:0:0:0:
352,143,34852,6,0,P|362:173|368:206,1,65.2500024890901,2|0,0:0|0:0,0:0:0:0:
437,243,35187,2,0,P|426:273|420:306,1,65.2500024890901,2|0,0:0|0:0,0:0:0:0:
347,370,35522,1,2,0:0:0:0:
305,281,35690,1,2,0:0:0:0:
323,357,35857,1,2,0:0:0:0:
129,329,36192,6,0,P|141:275|154:193,1,130.50000497818,2|2,0:0|0:0,0:0:0:0:
388,25,37030,2,0,P|393:54|406:94,1,65.2500024890901,2|2,0:0|0:0,0:0:0:0:
476,270,37533,2,0,P|443:219|369:224,1,130.50000497818,2|2,0:0|0:0,0:0:0:0:
99,309,38371,2,0,P|91:280|85:241,1,65.2500024890901,2|2,0:0|0:0,0:0:0:0:
162,64,38874,5,0,0:0:0:0:
181,160,39042,1,0,0:0:0:0:
204,32,39209,1,0,0:0:0:0:
237,103,39377,1,0,0:0:0:0:
286,19,39544,5,0,3:3:0:0:
304,31,39628,1,0,3:3:0:0:
323,42,39712,1,0,3:3:0:0:
344,49,39796,1,0,3:3:0:0:
366,53,39880,1,0,3:3:0:0:
388,56,39963,1,0,3:3:0:0:
410,53,40047,1,0,3:3:0:0:
432,48,40131,1,0,3:3:0:0:
452,38,40215,6,0,P|438:77|435:127,1,87,14|0,0:0|0:0,0:0:0:0:
470,248,40550,2,0,P|452:192|349:170,1,174,10|10,0:0|0:0,0:0:0:0:
265,232,41053,1,2,0:0:0:0:
265,232,41220,2,0,P|282:271|294:313,1,87,10|0,0:0|0:0,0:0:0:0:
185,241,41556,2,0,P|192:198|225:160,1,87,10|0,0:0|0:0,0:0:0:0:
256,67,41891,2,0,P|196:143|128:134,1,174,10|8,0:0|0:0,0:0:0:0:
43,72,42394,1,2,0:0:0:0:
6,169,42561,1,10,0:0:0:0:
63,51,42729,1,8,0:0:0:0:
37,178,42896,6,0,P|51:211|67:266,1,87,10|0,0:0|0:0,0:0:0:0:
20,355,43232,2,0,P|57:366|190:324,1,174,10|8,0:0|0:0,0:0:0:0:
239,243,43734,1,2,0:0:0:0:
239,243,43902,2,0,P|246:200|261:151,1,87,10|0,0:0|0:0,0:0:0:0:
305,36,44237,1,10,0:0:0:0:
352,158,44405,1,2,0:0:0:0:
422,81,44572,6,0,P|433:154|457:255,1,174,10|8,0:0|0:0,0:0:0:0:
398,339,45075,1,2,0:0:0:0:
329,260,45243,1,10,0:0:0:0:
261,371,45410,1,8,0:0:0:0:
306,248,45578,6,0,P|290:206|281:163,1,87,10|0,0:0|0:0,0:0:0:0:
231,44,45913,2,0,P|282:124|357:118,1,174,10|10,0:0|0:0,0:0:0:0:
428,48,46416,1,2,0:0:0:0:
428,48,46584,2,0,P|435:89|449:134,1,87,10|0,0:0|0:0,0:0:0:0:
507,249,46919,2,0,P|465:236|422:228,1,87,10|0,0:0|0:0,0:0:0:0:
337,289,47254,2,0,P|311:223|292:122,1,174,10|8,0:0|0:0,0:0:0:0:
239,31,47757,1,2,0:0:0:0:
199,127,47924,1,10,0:0:0:0:
154,4,48092,1,8,0:0:0:0:
167,134,48260,6,0,P|157:177|141:220,1,87,10|0,0:0|0:0,0:0:0:0:
90,308,48595,2,0,P|117:256|229:250,1,174,10|8,0:0|0:0,0:0:0:0:
313,299,49098,1,2,0:0:0:0:
313,299,49265,2,0,P|326:262|344:188,1,87,10|0,0:0|0:0,0:0:0:0:
394,97,49600,5,10,0:0:0:0:
427,196,49768,1,0,0:0:0:0:
430,91,49936,1,10,0:0:0:0:
417,220,50103,1,0,0:0:0:0:
354,57,50271,1,10,0:0:0:0:
309,224,50438,1,0,0:0:0:0:
309,93,50606,1,10,0:0:0:0:
270,189,50773,1,0,0:0:0:0:
206,74,50941,6,0,P|193:103|183:144,1,65.2500024890901,14|0,0:0|0:0,0:0:0:0:
127,215,51276,2,0,P|118:183|105:153,1,65.2500024890901,10|0,0:0|0:0,0:0:0:0:
79,80,51611,2,0,P|68:143|44:219,1,130.50000497818,10|8,0:0|0:0,0:0:0:0:
260,360,52282,2,0,P|241:297|229:233,1,130.50000497818,8|8,0:0|0:0,0:0:0:0:
378,19,52952,2,0,P|396:81|408:145,1,130.50000497818,10|8,0:0|0:0,0:0:0:0:
387,221,53455,1,8,0:0:0:0:
387,221,53623,6,0,P|416:233|454:235,1,65.2500024890901,14|0,0:0|0:0,0:0:0:0:
324,273,53958,2,0,P|312:244|310:206,1,65.2500024890901,10|0,0:0|0:0,0:0:0:0:
328,134,54293,2,0,P|265:115|201:103,1,130.50000497818,10|8,0:0|0:0,0:0:0:0:
16,287,54963,2,0,P|80:275|142:256,1,130.50000497818,8|8,0:0|0:0,0:0:0:0:
370,128,55634,5,8,0:0:0:0:
375,140,55718,1,0,0:0:0:0:
381,151,55801,1,0,0:0:0:0:
387,162,55885,1,0,0:0:0:0:
393,173,55969,1,8,0:0:0:0:
341,293,56137,1,8,0:0:0:0:
341,293,56304,5,12,0:0:0:0:
295,206,56472,1,0,0:0:0:0:
253,294,56639,1,8,0:0:0:0:
248,196,56807,1,0,0:0:0:0:
173,259,56975,5,8,0:0:0:0:
190,129,57142,1,0,0:0:0:0:
161,222,57310,1,8,0:0:0:0:
164,92,57477,1,0,0:0:0:0:
120,215,57645,5,8,0:0:0:0:
5,152,57813,1,8,0:0:0:0:
74,221,57980,1,8,0:0:0:0:
8,108,58148,1,8,0:0:0:0:
39,234,58315,5,8,0:0:0:0:
96,81,58483,1,8,0:0:0:0:
159,156,58651,1,8,0:0:0:0:
183,159,58734,1,8,0:0:0:0:
207,156,58818,1,8,0:0:0:0:
230,149,58902,1,8,0:0:0:0:
245,139,60327,5,0,0:1:0:0:
248,161,60410,1,0,0:0:0:0:
253,183,60494,1,0,0:1:0:0:
258,205,60578,1,0,0:0:0:0:
263,227,60662,1,0,0:1:0:0:
207,344,60829,1,0,0:0:0:0:
287,308,60997,1,0,0:1:0:0:
168,254,61165,1,0,0:0:0:0:
287,308,61332,6,0,P|328:290|381:276,1,97.8750037336351,0|0,0:1|0:0,0:0:0:0:
401,273,61667,6,0,P|413:233|436:179,1,87,14|0,0:0|0:0,0:0:0:0:
492,27,62003,2,0,P|456:100|371:104,1,174,10|10,0:0|0:0,0:0:0:0:
211,38,62505,1,2,0:0:0:0:
211,38,62673,2,0,P|222:59|242:125,1,87,10|0,0:0|0:0,0:0:0:0:
284,288,63008,2,0,P|295:246|314:206,1,87,10|0,0:0|0:0,0:0:0:0:
438,84,63343,2,0,L|490:263,1,174,10|8,0:0|0:0,0:0:0:0:
366,377,63846,1,2,0:0:0:0:
267,233,64014,1,10,0:0:0:0:
236,359,64181,1,8,0:0:0:0:
139,214,64349,6,0,P|93:201|45:182,1,87,10|0,0:0|0:0,0:0:0:0:
181,65,64684,2,0,P|255:49|370:32,1,174,10|8,0:0|0:0,0:0:0:0:
494,135,65187,1,2,0:0:0:0:
494,135,65355,2,0,P|485:153|463:227,1,87,10|0,0:0|0:0,0:0:0:0:
386,372,65690,5,10,0:0:0:0:
314,214,65857,1,2,0:0:0:0:
262,334,66025,2,0,P|197:303|93:274,1,174,10|8,0:0|0:0,0:0:0:0:
4,129,66528,1,2,0:0:0:0:
4,129,66695,2,0,P|49:121|100:103,1,87,10|0,0:0|0:0,0:0:0:0:
240,23,67030,6,0,P|226:64|219:107,1,87,10|0,0:0|0:0,0:0:0:0:
129,257,67366,2,0,P|157:199|259:194,1,174,10|10,0:0|0:0,0:0:0:0:
399,292,67868,1,2,0:0:0:0:
399,292,68036,2,0,P|415:248|429:196,1,87,10|0,0:0|0:0,0:0:0:0:
458,38,68371,2,0,P|435:77|388:88,1,87,10|0,0:0|0:0,0:0:0:0:
239,15,68706,2,0,P|218:82|199:184,1,174,10|8,0:0|0:0,0:0:0:0:
280,338,69209,1,10,0:0:0:0:
424,240,69377,1,10,0:0:0:0:
372,359,69544,1,8,0:0:0:0:
307,197,69712,6,0,P|289:158|281:111,1,87,10|0,0:0|0:0,0:0:0:0:
147,4,70047,2,0,P|139:80|111:176,1,174,10|8,0:0|0:0,0:0:0:0:
216,313,70550,1,2,0:0:0:0:
216,313,70718,2,0,P|199:271|192:219,1,87,10|0,0:0|0:0,0:0:0:0:
251,65,71053,5,10,0:0:0:0:
309,181,71220,1,2,0:0:0:0:
351,85,71388,1,2,0:0:0:0:
53,339,71891,1,2,0:0:0:0:
53,339,72058,2,0,P|39:281|13:213,1,130.5,2|0,0:0|0:0,0:0:0:0:
7,194,72394,5,10,0:0:0:0:
98,46,72561,1,8,0:0:0:0:
136,171,72729,2,0,P|211:141|310:108,1,174,10|10,0:0|0:0,0:0:0:0:
452,27,73232,1,2,0:0:0:0:
452,27,73399,2,0,P|435:65|422:114,1,87,10|0,0:0|0:0,0:0:0:0:
391,280,73734,2,0,P|379:238|361:198,1,87,10|0,0:0|0:0,0:0:0:0:
286,40,74070,6,0,P|272:116|242:218,1,174,10|8,0:0|0:0,0:0:0:0:
179,369,74572,1,2,0:0:0:0:
335,291,74740,1,10,0:0:0:0:
314,299,74824,1,8,0:0:0:0:
294,309,74908,1,8,0:0:0:0:
125,270,75075,2,0,P|119:226|105:180,1,87,10|0,0:0|0:0,0:0:0:0:
63,16,75410,2,0,P|87:81|197:89,1,174,10|8,0:0|0:0,0:0:0:0:
353,65,75913,1,2,0:0:0:0:
353,65,76081,2,0,P|331:102|315:155,1,87,10|0,0:0|0:0,0:0:0:0:
317,318,76416,5,10,0:0:0:0:
414,230,76584,1,2,0:0:0:0:
241,229,76751,2,0,P|228:158|188:48,1,174,10|8,0:0|0:0,0:0:0:0:
67,181,77254,1,2,0:0:0:0:
20,349,77422,2,0,P|41:348|62:342,1,43.5,10|2,0:0|0:0,0:0:0:0:
125,245,77589,2,0,P|118:272|118:287,1,43.5,8|0,0:0|0:0,0:0:0:0:
139,361,77757,5,10,0:0:0:0:
205,195,77924,1,0,0:0:0:0:
45,266,78092,1,10,0:0:0:0:
262,270,78260,1,0,0:0:0:0:
262,270,78427,5,10,0:0:0:0:
298,99,78595,1,2,0:0:0:0:
373,205,78762,2,0,P|416:197|458:183,1,87,10|0,0:0|0:0,0:0:0:0:
298,99,79098,2,0,P|255:84|213:77,1,87,10|0,0:0|0:0,0:0:0:0:
50,18,79433,2,0,P|86:84|107:187,1,174,10|8,0:0|0:0,0:0:0:0:
69,350,79936,1,2,0:0:0:0:
218,262,80103,1,10,0:0:0:0:
196,267,80187,1,8,0:0:0:0:
175,273,80271,1,8,0:0:0:0:
331,348,80438,5,8,1:0:0:0:
334,335,80522,1,0,3:0:0:0:
336,322,80606,1,0,3:0:0:0:
339,309,80690,1,0,3:0:0:0:
342,296,80773,1,0,3:0:0:0:
344,283,80857,1,0,3:0:0:0:
346,270,80941,1,0,3:0:0:0:
349,257,81025,1,0,3:0:0:0:
361,260,81109,5,8,1:0:0:0:
373,263,81192,1,0,3:0:0:0:
385,266,81276,1,0,3:0:0:0:
398,267,81360,1,0,3:0:0:0:
410,264,81444,1,0,3:0:0:0:
422,260,81528,1,0,3:0:0:0:
432,253,81611,1,0,3:0:0:0:
441,244,81695,1,0,3:0:0:0:
449,234,81779,5,12,0:0:0:0:
455,103,81947,1,0,0:0:0:0:
510,191,82114,1,0,0:0:0:0:
256,375,82617,1,0,0:0:0:0:
256,375,82785,1,0,0:0:0:0:
165,201,83120,6,0,P|139:186|103:172,1,65.2500024890901,14|0,0:0|0:0,0:0:0:0:
32,109,83455,2,0,P|65:102|96:90,1,65.2500024890901,10|0,0:0|0:0,0:0:0:0:
158,16,83790,1,10,0:0:0:0:
195,107,83958,1,0,0:0:0:0:
230,37,84125,1,8,0:0:0:0:
470,141,84461,2,0,P|473:181|494:272,1,130.50000497818,8|8,0:0|0:0,0:0:0:0:
252,368,85131,2,0,P|268:304|274:240,1,130.50000497818,10|8,0:0|0:0,0:0:0:0:
212,193,85634,1,8,0:0:0:0:
212,193,85801,6,0,P|215:159|230:116,1,65.2500024890901,10|0,0:0|0:0,0:0:0:0:
295,61,86137,2,0,P|304:92|306:124,1,65.2500024890901,10|0,0:0|0:0,0:0:0:0:
339,196,86472,2,0,P|348:134|377:66,1,130.50000497818,10|8,0:0|0:0,0:0:0:0:
270,311,87142,2,0,P|208:320|140:349,1,130.50000497818,8|8,0:0|0:0,0:0:0:0:
11,120,87813,2,0,P|47:139|105:156,1,97.8750037336351,10|0,0:0|0:0,0:0:0:0:
118,154,88148,1,10,0:0:0:0:
181,40,88315,1,0,0:0:0:0:
181,40,88483,5,8,0:0:0:0:
218,131,88651,1,0,0:0:0:0:
275,14,88818,1,8,0:0:0:0:
261,111,88986,1,0,0:0:0:0:
370,40,89153,1,8,0:0:0:0:
308,116,89321,1,0,0:0:0:0:
439,111,89489,1,8,0:0:0:0:
347,144,89656,1,0,0:0:0:0:
407,260,89824,5,8,0:0:0:0:
339,190,89991,1,8,0:0:0:0:
324,320,90159,1,8,0:0:0:0:
309,223,90327,1,8,0:0:0:0:
220,318,90494,1,8,0:0:0:0:
264,230,90662,1,8,0:0:0:0:
137,257,90829,1,8,0:0:0:0:
224,212,90997,1,8,0:0:0:0:
168,94,91165,5,8,0:0:0:0:
192,103,91248,1,8,0:0:0:0:
217,111,91332,1,8,0:0:0:0:
243,112,91416,1,8,0:0:0:0:
269,111,91500,1,8,0:0:0:0:
293,101,91584,1,8,0:0:0:0:
316,89,91667,1,8,0:0:0:0:
336,72,91751,1,8,0:0:0:0:
350,50,91835,5,8,0:0:0:0:
364,72,91919,1,8,0:0:0:0:
379,93,92003,1,8,0:0:0:0:
398,110,92086,1,8,0:0:0:0:
420,124,92170,1,8,0:0:0:0:
445,133,92254,1,8,0:0:0:0:
471,138,92338,1,8,0:0:0:0:
497,133,92422,1,8,0:0:0:0:
69,328,93846,6,0,P|64:295|54:265,1,65.2500024890901
156,183,94181,2,0,P|145:213|140:246,1,65.2500024890901
151,324,94517,1,0,0:1:0:0:
277,231,94852,1,0,0:1:0:0:
11,167,95187,5,8,0:0:0:0:
27,177,95271,1,8,0:0:0:0:
45,183,95355,1,8,0:0:0:0:
64,185,95438,1,8,0:0:0:0:
83,182,95522,1,8,0:0:0:0:
101,175,95606,1,8,0:0:0:0:
114,160,95690,1,8,0:0:0:0:
124,143,95773,1,8,0:0:0:0:
127,123,95857,5,8,0:0:0:0:
124,103,95941,1,8,0:0:0:0:
118,84,96025,1,8,0:0:0:0:
120,64,96109,1,8,0:0:0:0:
130,47,96192,1,8,0:0:0:0:
145,35,96276,1,8,0:0:0:0:
164,36,96360,1,8,0:0:0:0:
178,48,96444,1,8,0:0:0:0:
212,68,96528,6,0,L|234:61,7,16.3125006222725
269,84,96863,6,0,L|291:77,7,16.3125006222725
310,41,97198,6,0,L|332:34,7,16.3125006222725
364,61,97533,6,0,L|386:54,7,16.3125006222725
408,71,97868,5,0,0:1:0:0:
445,196,98036,1,0,0:0:0:0:
450,98,98204,1,0,0:1:0:0:
355,187,98371,1,0,0:0:0:0:
359,202,98455,1,0,0:0:0:0:
364,217,98539,2,0,P|354:248|343:301,1,65.2500024890901,0|0,0:1|0:0,0:0:0:0:
295,363,98874,1,10,0:0:0:0:
295,363,99042,1,8,0:0:0:0:
249,241,99209,6,0,P|242:197|231:154,1,87,12|0,0:0|0:0,0:0:0:0:
153,51,99544,2,0,P|142:93|135:136,1,87,8|0,0:0|0:0,0:0:0:0:
125,267,99880,2,0,P|82:277|39:284,1,87,8|0,0:0|0:0,0:0:0:0:
205,340,100215,2,0,P|247:346|290:357,1,87,8|0,0:0|0:0,0:0:0:0:
393,277,100550,6,0,P|399:234|410:191,1,87,8|0,0:0|0:0,0:0:0:0:
491,89,100885,2,0,P|501:131|508:174,1,87,8|0,0:0|0:0,0:0:0:0:
342,122,101220,2,0,P|311:121|252:90,1,87,8|0,0:0|0:0,0:0:0:0:
153,22,101556,1,8,0:0:0:0:
163,40,101639,1,8,0:0:0:0:
164,61,101723,1,8,0:0:0:0:
63,203,101891,6,0,P|69:160|83:119,1,87,8|0,0:0|0:0,0:0:0:0:
191,194,102226,2,0,P|205:234|211:277,1,87,8|0,0:0|0:0,0:0:0:0:
48,188,102561,6,0,P|54:145|68:104,1,87,8|0,0:0|0:0,0:0:0:0:
176,179,102896,2,0,P|190:219|196:262,1,87,8|0,0:0|0:0,0:0:0:0:
258,379,103232,2,0,P|261:309|316:220,1,174,10|10,0:0|0:0,0:0:0:0:
148,20,103902,1,10,0:0:0:0:
98,141,104070,1,2,0:0:0:0:
123,40,104237,1,10,0:0:0:0:
182,204,104405,1,8,0:0:0:0:
246,91,104572,6,0,P|252:53|268:1,1,87,12|0,0:0|0:0,0:0:0:0:
377,77,104908,2,0,P|389:118|396:161,1,87,8|0,0:0|0:0,0:0:0:0:
429,288,105243,2,0,P|409:258|351:249,1,87,8|0,0:0|0:0,0:0:0:0:
252,318,105578,2,0,P|239:279|233:224,1,87,8|0,0:0|0:0,0:0:0:0:
234,59,105913,6,0,P|216:96|171:105,1,87,8|0,0:0|0:0,0:0:0:0:
47,74,106248,2,0,P|66:109|79:166,1,87,8|0,0:0|0:0,0:0:0:0:
63,285,106584,1,8,0:0:0:0:
0,202,106751,1,8,0:0:0:0:
129,223,106919,1,8,0:0:0:0:
134,244,107003,1,8,0:0:0:0:
139,265,107086,1,8,0:0:0:0:
222,111,107254,6,0,P|228:67|245:11,1,87,8|0,0:0|0:0,0:0:0:0:
352,92,107589,2,0,P|363:133|369:176,1,87,8|0,0:0|0:0,0:0:0:0:
407,347,107924,2,0,P|382:311|334:300,1,87,8|0,0:0|0:0,0:0:0:0:
227,363,108260,2,0,P|216:320|207:271,1,87,8|0,0:0|0:0,0:0:0:0:
134,170,108595,2,0,P|129:237|106:345,2,174,10|2|2,0:0|0:0|0:0,0:0:0:0:
110,41,109433,1,2,0:0:0:0:
110,41,109600,1,2,0:0:0:0:
225,103,109768,1,8,0:0:0:0:
225,103,109936,6,0,P|238:142|246:202,1,87,12|0,0:0|0:0,0:0:0:0:
242,362,110271,2,0,P|254:322|291:301,1,87,8|0,0:0|0:0,0:0:0:0:
463,332,110606,2,0,P|472:292|482:239,1,87,8|0,0:0|0:0,0:0:0:0:
499,73,110941,2,0,P|472:114|426:109,1,87,8|0,0:0|0:0,0:0:0:0:
275,51,111276,6,0,P|263:96|257:141,1,87,8|0,0:0|0:0,0:0:0:0:
371,269,111611,2,0,P|364:226|353:183,1,87,8|0,0:0|0:0,0:0:0:0:
265,41,111947,2,0,P|253:86|247:131,1,87,8|0,0:0|0:0,0:0:0:0:
236,300,112282,2,0,L|285:290,1,43.5,8|8,0:0|0:0,0:0:0:0:
177,359,112449,2,0,L|134:350,1,43.5,8|8,0:0|0:0,0:0:0:0:
164,276,112617,1,8,0:0:0:0:
110,110,112785,1,8,0:0:0:0:
79,209,112952,6,0,P|67:247|55:317,1,87,8|0,0:0|0:0,0:0:0:0:
110,110,113287,2,0,P|101:67|89:25,1,87,8|0,0:0|0:0,0:0:0:0:
172,180,113623,2,0,P|214:171|256:159,1,87,8|0,0:0|0:0,0:0:0:0:
379,35,113958,2,0,P|356:118|345:216,1,174,10|10,0:0|0:0,0:0:0:0:
128,350,114628,1,10,0:0:0:0:
29,206,114796,1,10,0:0:0:0:
64,304,114963,1,10,0:0:0:0:
65,130,115131,1,8,0:0:0:0:
159,276,115299,6,0,L|211:268,1,43.5,8|0,0:0|0:0,0:0:0:0:
292,345,115466,2,0,L|249:338,1,43.5,8|0,0:0|0:0,0:0:0:0:
265,216,115634,2,0,P|256:172|253:130,1,87,8|0,0:0|0:0,0:0:0:0:
409,52,115969,2,0,P|405:95|397:137,1,87,8|0,0:0|0:0,0:0:0:0:
255,206,116304,2,0,P|246:162|243:120,1,87,8|0,0:0|0:0,0:0:0:0:
105,13,116639,6,0,P|101:56|93:98,1,87,8|0,0:0|0:0,0:0:0:0:
20,258,116975,2,0,P|43:225|86:212,1,87,8|0,0:0|0:0,0:0:0:0:
219,325,117310,1,8,0:0:0:0:
335,196,117477,1,8,0:0:0:0:
308,324,117645,1,8,0:0:0:0:
303,307,117729,1,8,0:0:0:0:
297,290,117813,1,8,0:0:0:0:
199,146,117980,6,0,P|194:189|185:235,1,87,8|0,0:0|0:0,0:0:0:0:
327,44,118315,2,0,P|332:87|340:129,1,87,8|0,0:0|0:0,0:0:0:0:
407,292,118651,2,0,P|364:283|321:278,1,87,8|0,0:0|0:0,0:0:0:0:
171,368,118986,2,0,P|214:362|256:354,1,87,8|0,0:0|0:0,0:0:0:0:
94,291,119321,2,0,P|86:213|57:118,2,174,10|2|2,0:0|0:0|0:0,0:0:0:0:
171,368,120159,1,2,0:0:0:0:
227,280,120327,1,2,0:0:0:0:
31,352,120662,5,12,0:0:0:0:
256,192,120746,12,0,127366,0:0:0:0:
