osu file format v14

[General]
AudioFilename: audio.mp3
AudioLeadIn: 0
PreviewTime: 61667
Countdown: 0
SampleSet: Drum
StackLeniency: 0.3
Mode: 0
LetterboxInBreaks: 0
SkinPreference:Default
WidescreenStoryboard: 0
SamplesMatchPlaybackRate: 1

[Editor]
Bookmarks: 46926,51618,78518
DistanceSpacing: 1.5
BeatDivisor: 4
GridSize: 4
TimelineZoom: 1.5

[Metadata]
Title:Lovesong
TitleUnicode:Lovesong
Artist:Frontliner
ArtistUnicode:Frontliner
Creator:Kazuya
Version:Advanced
Source:
Tags:hardcore hardstyle uptempo nightcore english electronic rave custom beatmap skin kazuya-sama
BeatmapID:2981292
BeatmapSetID:1449082

[Difficulty]
HPDrainRate:4
CircleSize:4
OverallDifficulty:5
ApproachRate:7
SliderMultiplier:1.42
SliderTickRate:1

[Events]
//Background and Video events
0,0,"background.jpg",0,0
//Break Periods
2,27007,28589
2,59186,60767
//Storyboard Layer 0 (Background)
//Storyboard Layer 1 (Fail)
//Storyboard Layer 2 (Pass)
//Storyboard Layer 3 (Foreground)
//Storyboard Layer 4 (Overlay)
//Storyboard Sound Samples

[TimingPoints]
5355,335.195530726257,4,2,2,80,1,0
5355,-133.333333333333,4,2,2,80,0,0
24796,-133.333333333333,4,2,2,65,0,0
25466,-133.333333333333,4,2,2,50,0,0
26807,-133.333333333333,4,3,1,80,0,0
29489,-133.333333333333,4,2,1,80,0,0
40215,-100,4,2,1,80,0,0
50941,-133.333333333333,4,3,1,80,0,0
61667,-100,4,1,1,80,0,1
71053,-100,4,2,1,80,0,0
72394,-100,4,1,1,80,0,1
80438,-100,4,3,1,80,0,1
81779,-100,4,2,1,80,0,0
83120,-133.333333333333,4,3,1,80,0,0
99209,-100,4,1,1,80,0,0
127366,-100,4,2,0,5,0,0

[Colours]
Combo1 : 66,136,84
Combo2 : 145,57,138
Combo3 : 129,129,129
Combo4 : 162,40,40
SliderBorder : 240,240,240

[HitObjects]
461,367,5355,6,0,P|461:323|435:259,1,106.500004062653,6|0,0:0|0:0,0:0:0:0:
363,190,6025,2,0,P|357:111|464:29,2,213.000008125305,2|2|2,0:0|0:0|0:0,0:0:0:0:
226,354,8036,1,2,0:0:0:0:
181,257,8371,1,2,0:0:0:0:
80,292,8706,2,0,P|105:178|116:79,2,213.000008125305,2|2|2,0:0|0:0|0:0,0:0:0:0:
161,361,10382,1,0,0:0:0:0:
170,348,10550,1,0,0:0:0:0:
179,335,10718,5,6,0:0:0:0:
180,229,11053,1,2,0:0:0:0:
285,242,11388,2,0,P|340:255|458:167,2,213.000008125305,2|2|2,0:0|0:0|0:0,0:0:0:0:
244,143,13064,1,0,0:0:0:0:
238,128,13232,1,0,0:0:0:0:
232,113,13399,2,0,P|162:36|59:39,2,213.000008125305,2|2|2,0:0|0:0|0:0,0:0:0:0:
427,366,15746,1,0,0:0:0:0:
421,351,15913,1,0,0:0:0:0:
415,336,16081,6,0,P|424:286|441:231,1,106.500004062653,6|2,0:0|0:0,0:0:0:0:
497,143,16751,2,0,B|456:125|443:56|443:56|401:106|342:94,2,213.000008125305,2|2|2,0:0|0:0|0:0,0:0:0:0:
403,334,18762,1,2,0:0:0:0:
300,362,19098,1,2,0:0:0:0:
271,259,19433,2,0,P|276:196|227:52,2,213.000008125305,2|2|2,0:0|0:0|0:0,0:0:0:0:
223,354,21109,1,0,0:0:0:0:
209,346,21276,1,0,0:0:0:0:
195,338,21444,6,0,P|160:323|88:308,1,106.500004062653,6|2,0:0|0:0,0:0:0:0:
21,230,22114,2,0,P|48:151|68:24,2,213.000008125305,2|2|2,0:0|0:0|0:0,0:0:0:0:
90,311,23790,1,0,0:0:0:0:
102,300,23958,1,0,0:0:0:0:
115,291,24125,2,0,B|135:271|153:241|153:241|197:336|289:328,2,213.000008125305,2|2|2,0:0|0:0|0:0,0:0:0:0:
115,291,26807,1,4,3:3:0:0:
429,31,29489,6,0,P|436:77|452:140,1,106.500004062653,6|2,0:0|0:0,0:0:0:0:
360,191,30159,2,0,P|365:172|370:135,2,53.2500020313264,2|2|2,0:0|0:0|0:0,0:0:0:0:
432,269,30829,1,2,0:0:0:0:
432,269,31165,1,2,0:0:0:0:
280,319,31667,2,0,L|226:304,1,53.2500020313264,2|2,0:0|0:0,0:0:0:0:
138,361,32170,5,2,0:0:0:0:
138,361,32505,1,2,0:0:0:0:
92,207,33008,2,0,P|82:236|74:276,1,53.2500020313264,2|2,0:0|0:0,0:0:0:0:
170,204,33511,2,0,P|163:178|149:150,2,53.2500020313264,2|2|2,0:0|0:0|0:0,0:0:0:0:
213,357,34349,2,0,P|240:348|267:348,1,53.2500020313264,2|2,0:0|0:0,0:0:0:0:
331,260,34852,6,0,P|335:222|352:149,1,106.500004062653,2|2,0:0|0:0,0:0:0:0:
438,96,35522,2,0,P|450:122|458:156,2,53.2500020313264,2|2|2,0:0|0:0|0:0,0:0:0:0:
356,28,36192,1,2,0:0:0:0:
356,28,36528,1,2,0:0:0:0:
252,148,37030,2,0,L|186:123,1,53.2500020313264,2|2,0:0|0:0,0:0:0:0:
128,206,37533,5,2,0:0:0:0:
128,206,37868,1,2,0:0:0:0:
79,53,38371,2,0,P|69:81|64:111,1,53.2500020313264,2|2,0:0|0:0,0:0:0:0:
38,207,38874,2,0,L|89:191,1,53.2500020313264
135,218,39209,2,0,L|186:202,1,53.2500020313264
236,220,39544,2,0,P|241:171|272:121,1,106.500004062653,0|0,3:3|3:3,0:0:0:0:
374,25,40215,6,0,P|384:85|409:162,1,142,14|10,0:0|0:0,0:0:0:0:
472,320,40885,2,0,P|442:297|399:281,1,71,10|2,0:0|0:0,0:0:0:0:
336,324,41220,1,10,0:0:0:0:
196,225,41556,2,0,P|182:294|159:381,2,142,10|10|8,0:0|0:0|0:0,0:0:0:0:
135,165,42394,1,2,0:0:0:0:
135,165,42561,2,0,P|128:130|114:90,1,71,10|8,0:0|0:0,0:0:0:0:
96,14,42896,6,0,P|129:70|223:69,1,142,10|10,0:0|0:0,0:0:0:0:
364,32,43567,1,8,0:0:0:0:
364,32,43734,2,0,P|351:64|339:108,1,71,2|10,0:0|0:0,0:0:0:0:
235,233,44237,2,0,P|247:265|260:309,1,71,10|2,0:0|0:0,0:0:0:0:
194,357,44572,1,10,0:0:0:0:
97,216,44908,1,8,0:0:0:0:
97,216,45075,2,0,P|109:183|122:140,1,71,2|10,0:0|0:0,0:0:0:0:
98,66,45410,1,8,0:0:0:0:
98,66,45578,6,0,P|154:54|245:41,1,142,10|10,0:0|0:0,0:0:0:0:
405,13,46248,2,0,P|393:45|383:92,1,71,10|2,0:0|0:0,0:0:0:0:
426,156,46584,1,10,0:0:0:0:
329,296,46919,2,0,P|253:312|189:335,2,142,10|10|8,0:0|0:0|0:0,0:0:0:0:
410,322,47757,1,2,0:0:0:0:
410,322,47924,2,0,P|420:289|429:249,1,71,10|8,0:0|0:0,0:0:0:0:
510,228,48260,6,0,P|489:174|470:86,1,142,10|10,0:0|0:0,0:0:0:0:
319,14,48930,1,8,0:0:0:0:
319,14,49098,2,0,P|313:52|299:92,1,71,2|10,0:0|0:0,0:0:0:0:
170,189,49600,2,0,P|159:155|154:120,2,71,10|0|10,0:0|0:0|0:0,0:0:0:0:
250,218,50103,1,0,0:0:0:0:
250,218,50271,2,0,P|244:255|231:297,2,71,10|0|10,0:0|0:0|0:0,0:0:0:0:
244,133,50773,1,0,0:0:0:0:
244,133,50941,6,0,P|282:124|353:101,1,106.500004062653,14|10,0:0|0:0,0:0:0:0:
195,51,51611,2,0,P|144:33|92:21,2,106.500004062653,10|8|8,0:0|0:0|0:0,0:0:0:0:
257,199,52617,1,8,0:0:0:0:
387,107,52952,2,0,P|395:145|419:216,1,106.500004062653,10|8,0:0|0:0,0:0:0:0:
422,224,53455,1,8,0:0:0:0:
427,239,53623,6,0,P|386:204|337:208,1,106.500004062653,14|10,0:0|0:0,0:0:0:0:
180,176,54293,2,0,P|187:201|201:287,1,106.500004062653,10|8,0:0|0:0,0:0:0:0:
324,381,54963,2,0,P|331:328|344:276,1,106.500004062653,8|8,0:0|0:0,0:0:0:0:
379,120,55634,2,0,P|348:167|287:164,1,106.500004062653,8|8,0:0|0:0,0:0:0:0:
256,192,56304,12,0,58986,0:0:0:0:
86,249,61667,6,0,P|97:217|107:176,1,71,14|0,0:0|0:0,0:0:0:0:
148,82,62003,2,0,P|148:137|183:228,1,142,10|10,0:0|0:0,0:0:0:0:
235,280,62505,1,2,0:0:0:0:
235,280,62673,2,0,L|307:266,1,71,10|0,0:0|0:0,0:0:0:0:
396,211,63008,2,0,P|386:244|381:290,1,71,10|0,0:0|0:0,0:0:0:0:
485,255,63343,2,0,P|465:183|450:106,1,142,10|8,0:0|0:0,0:0:0:0:
393,55,63846,1,2,0:0:0:0:
393,55,64014,2,0,P|382:88|364:132,1,71,10|8,0:0|0:0,0:0:0:0:
346,204,64349,6,0,P|330:133|295:69,2,142,10|10|8,0:0|0:0|0:0,0:0:0:0:
304,278,65187,1,2,0:0:0:0:
304,278,65355,2,0,B|261:262|261:262|211:275|211:275|168:258,1,142,10|10,0:0|0:0,0:0:0:0:
86,275,65857,1,2,0:0:0:0:
86,275,66025,2,0,P|82:217|53:125,1,142,10|8,0:0|0:0,0:0:0:0:
130,91,66528,1,2,0:0:0:0:
130,91,66695,2,0,P|139:55|152:16,1,71,10|0,0:0|0:0,0:0:0:0:
214,108,67030,6,0,P|224:141|233:176,1,71,10|0,0:0|0:0,0:0:0:0:
226,262,67366,2,0,P|253:196|318:159,1,142,10|10,0:0|0:0,0:0:0:0:
382,114,67868,1,2,0:0:0:0:
382,114,68036,2,0,P|380:76|381:39,1,71,10|0,0:0|0:0,0:0:0:0:
467,106,68371,6,0,P|468:141|468:176,1,71,10|0,0:0|0:0,0:0:0:0:
493,259,68706,2,0,P|459:202|383:208,1,142,10|8,0:0|0:0,0:0:0:0:
328,262,69209,1,10,0:0:0:0:
281,191,69377,1,10,0:0:0:0:
246,291,69544,1,8,0:0:0:0:
201,218,69712,6,0,P|193:160|173:73,2,142,10|10|8,0:0|0:0|0:0,0:0:0:0:
246,291,70550,1,2,0:0:0:0:
246,291,70718,2,0,P|262:258|290:223,1,71,10|0,0:0|0:0,0:0:0:0:
356,187,71053,2,0,L|446:202,2,71,10|2|2,0:0|0:0|0:0,0:0:0:0:
159,23,71891,2,0,L|147:93,1,71,2|2,0:0|0:0,0:0:0:0:
112,303,72394,5,10,0:0:0:0:
80,224,72561,1,8,0:0:0:0:
183,251,72729,2,0,B|217:237|217:237|274:254|274:254|323:237,1,142,10|10,0:0|0:0,0:0:0:0:
375,176,73232,1,2,0:0:0:0:
375,176,73399,2,0,P|382:141|397:104,1,71,10|0,0:0|0:0,0:0:0:0:
458,194,73734,6,0,P|470:227|478:261,1,71,10|0,0:0|0:0,0:0:0:0:
503,344,74070,2,0,P|467:286|391:290,1,142,10|8,0:0|0:0,0:0:0:0:
330,334,74572,1,2,0:0:0:0:
293,257,74740,2,0,L|246:245,2,35.5,10|8|8,0:0|0:0|0:0,0:0:0:0:
363,208,75075,6,0,B|355:159|355:159|373:124|373:124|366:69,2,142,10|10|8,0:0|0:0|0:0,0:0:0:0:
399,285,75913,1,2,0:0:0:0:
399,285,76081,2,0,P|350:294|285:231,1,142,10|10,0:0|0:0,0:0:0:0:
259,155,76584,1,2,0:0:0:0:
259,155,76751,2,0,P|251:211|216:308,1,142,10|8,0:0|0:0,0:0:0:0:
180,365,77254,1,2,0:0:0:0:
120,304,77422,1,10,0:0:0:0:
43,340,77589,1,8,0:0:0:0:
43,340,77757,6,0,P|37:309|20:270,1,71,10|0,0:0|0:0,0:0:0:0:
84,215,78092,2,0,P|98:159|106:72,1,142,10|10,0:0|0:0,0:0:0:0:
169,18,78595,1,2,0:0:0:0:
169,18,78762,2,0,P|185:47|190:91,1,71,10|0,0:0|0:0,0:0:0:0:
265,161,79098,6,0,P|269:126|286:94,1,71,10|0,0:0|0:0,0:0:0:0:
323,15,79433,2,0,P|329:70|356:157,1,142,10|8,0:0|0:0,0:0:0:0:
399,225,79936,1,2,0:0:0:0:
466,173,80103,2,0,L|505:180,2,35.5,10|8|8,0:0|0:0|0:0,0:0:0:0:
399,225,80438,6,0,B|303:260|303:260|259:242,1,142,8|0,1:0|3:0,0:0:0:0:
119,145,81109,1,8,1:0:0:0:
119,145,81276,2,0,P|133:110|142:74,1,71,0|0,3:0|3:0,0:0:0:0:
299,12,81779,2,0,P|307:46|321:79,1,71,12|0,0:0|0:0,0:0:0:0:
265,143,82114,1,0,0:0:0:0:
410,353,82617,2,0,P|418:318|432:285,1,71
510,87,83120,6,0,P|483:133|423:130,1,106.500004062653,14|10,0:0|0:0,0:0:0:0:
288,71,83790,2,0,L|272:16,2,53.2500020313264,10|0|8,0:0|0:0|0:0,0:0:0:0:
183,192,84461,1,8,0:0:0:0:
183,192,84796,1,8,0:0:0:0:
299,301,85131,2,0,P|335:283|408:260,1,106.500004062653,10|8,0:0|0:0,0:0:0:0:
414,263,85634,1,8,0:0:0:0:
429,269,85801,6,0,P|435:216|450:164,1,106.500004062653,10|10,0:0|0:0,0:0:0:0:
317,75,86472,2,0,P|331:126|338:179,1,106.500004062653,10|8,0:0|0:0,0:0:0:0:
256,316,87142,1,8,0:0:0:0:
256,316,87477,1,8,0:0:0:0:
173,179,87813,2,0,P|180:126|195:75,1,106.500004062653,10|8,0:0|0:0,0:0:0:0:
256,192,88483,12,8,92422,0:0:0:0:
441,93,93846,5,0,0:1:0:0:
441,93,94181,1,0,0:1:0:0:
402,215,94517,1,0,0:1:0:0:
402,215,94852,1,0,0:1:0:0:
283,168,95187,2,0,P|276:190|277:222,2,53.2500020313264,8|8|8,0:0|0:0|0:0,0:0:0:0:
111,81,96025,2,0,P|117:58|117:27,2,53.2500020313264,8|8|8,0:0|0:0|0:0,0:0:0:0:
60,143,96528,5,0,0:0:0:0:
60,143,96863,1,0,0:0:0:0:
254,308,97533,2,0,L|324:319,2,53.2500020313264,0|0|0,0:0|0:0|0:1,0:0:0:0:
49,43,99042,1,8,0:0:0:0:
49,43,99209,6,0,P|58:74|65:132,1,71,12|0,0:0|0:0,0:0:0:0:
127,198,99544,2,0,P|132:162|141:128,1,71,8|0,0:0|0:0,0:0:0:0:
176,50,99880,2,0,P|177:110|228:185,1,142,8|8,0:0|0:0,0:0:0:0:
358,339,100550,2,0,P|369:304|385:252,1,71,8|0,0:0|0:0,0:0:0:0:
452,227,100885,2,0,P|432:156|420:89,1,142,8|8,0:0|0:0,0:0:0:0:
259,30,101556,2,0,L|214:10,2,35.5,8|8|8,0:0|0:0|0:0,0:0:0:0:
238,113,101891,6,0,L|168:75,1,71,8|0,0:0|0:0,0:0:0:0:
79,33,102226,2,0,P|91:63|103:118,1,71,8|0,0:0|0:0,0:0:0:0:
155,166,102561,2,0,P|142:199|133:233,1,71,8|0,0:0|0:0,0:0:0:0:
178,306,102896,1,8,0:0:0:0:
340,251,103232,2,0,P|407:236|484:212,2,142,10|10|10,0:0|0:0|0:0,0:0:0:0:
279,191,104070,1,2,0:0:0:0:
241,267,104237,1,10,0:0:0:0:
168,222,104405,1,8,0:0:0:0:
168,222,104572,6,0,P|160:256|150:290,1,71,12|0,0:0|0:0,0:0:0:0:
78,370,104908,2,0,P|67:336|60:301,1,71,8|0,0:0|0:0,0:0:0:0:
1,240,105243,2,0,P|25:173|44:99,1,142,8|8,0:0|0:0,0:0:0:0:
187,14,105913,2,0,P|198:46|206:82,1,71,8|0,0:0|0:0,0:0:0:0:
195,167,106248,2,0,P|222:109|287:65,1,142,8|8,0:0|0:0,0:0:0:0:
348,123,106751,1,8,0:0:0:0:
402,57,106919,2,0,L|393:13,2,35.5,8|8|8,0:0|0:0|0:0,0:0:0:0:
348,123,107254,6,0,L|331:198,1,71,8|0,0:0|0:0,0:0:0:0:
408,232,107589,2,0,L|391:307,1,71,8|0,0:0|0:0,0:0:0:0:
413,384,107924,2,0,P|388:329|308:311,1,142,8|8,0:0|0:0,0:0:0:0:
180,203,108595,2,0,P|158:135|146:57,2,142,10|2|2,0:0|0:0|0:0,0:0:0:0:
224,276,109433,1,2,0:0:0:0:
224,276,109600,1,2,0:0:0:0:
259,175,109768,1,8,0:0:0:0:
259,175,109936,6,0,P|267:138|281:92,1,71,12|0,0:0|0:0,0:0:0:0:
341,21,110271,2,0,P|350:55|358:89,1,71,8|0,0:0|0:0,0:0:0:0:
392,168,110606,2,0,P|398:103|426:27,1,142,8|8,0:0|0:0,0:0:0:0:
261,168,111276,2,0,P|271:202|279:250,1,71,8|0,0:0|0:0,0:0:0:0:
308,317,111611,2,0,P|289:274|195:265,1,142,8|8,0:0|0:0,0:0:0:0:
48,333,112282,2,0,L|61:375,2,35.5,8|8|8,0:0|0:0|0:0,0:0:0:0:
89,258,112617,5,8,0:0:0:0:
89,258,112785,1,8,0:0:0:0:
21,206,112952,2,0,P|46:137|60:60,2,142,8|8|8,0:0|0:0|0:0,0:0:0:0:
132,335,113958,2,0,P|201:348|268:372,2,142,10|10|10,0:0|0:0|0:0,0:0:0:0:
47,346,114796,1,10,0:0:0:0:
16,267,114963,2,0,P|26:233|34:196,1,71,10|8,0:0|0:0,0:0:0:0:
14,115,115299,5,12,0:0:0:0:
14,115,115466,1,8,0:0:0:0:
98,102,115634,2,0,P|129:95|174:76,1,71,8|0,0:0|0:0,0:0:0:0:
223,18,115969,2,0,P|202:72|186:168,1,142,8|8,0:0|0:0,0:0:0:0:
376,251,116639,2,0,P|364:181|339:114,2,142,8|8|8,0:0|0:0|0:0,0:0:0:0:
329,322,117477,1,8,0:0:0:0:
262,267,117645,2,0,L|266:225,2,35.5,8|8|8,0:0|0:0|0:0,0:0:0:0:
220,341,117980,6,0,P|183:343|146:358,1,71,8|0,0:0|0:0,0:0:0:0:
76,279,118315,2,0,P|87:245|90:210,1,71,8|0,0:0|0:0,0:0:0:0:
42,139,118651,2,0,L|181:100,1,142,8|8,0:0|0:0,0:0:0:0:
337,242,119321,2,0,L|476:203,2,142,10|2|2,0:0|0:0|0:0,0:0:0:0:
264,197,120159,1,2,0:0:0:0:
241,279,120327,1,2,0:0:0:0:
250,109,120662,1,12,0:0:0:0:
256,192,120829,12,0,127366,0:0:0:0:
