osu file format v14

[General]
AudioFilename: -.mp3
AudioLeadIn: 0
PreviewTime:78890
Countdown: 0
SampleSet: Soft
StackLeniency: 0.4
Mode: 0
LetterboxInBreaks: 0
WidescreenStoryboard: 1

[Editor]
Bookmarks:99930
DistanceSpacing: 0.8
BeatDivisor: 2
GridSize: 8
TimelineZoom: 0.9999988

[Metadata]
Title:Letter to the Black World
TitleUnicode:黒塗り世界宛て書簡
Artist:Frog96
ArtistUnicode:フロクロ
Creator:Ryuusei Aika
Version:mind*as***'s n*rmal
Source:
Tags:mindmaster107 dragonicz john mapping jasontime12345 Mizunashi Akari Calvaria FuroKuro Kuronuri Sekai ate Shokan Blacked-out Blacked out 重音テト Kasane Teto UTAU Japanese Electronic Pop J-Pop JPop
BeatmapID:4049193
BeatmapSetID:1946744

[Difficulty]
HPDrainRate:4
CircleSize:4
OverallDifficulty:5
ApproachRate:5
SliderMultiplier:1.2
SliderTickRate:1

[Events]
//Background and Video events
0,0,"bg.jpg",0,0
//Break Periods
//Storyboard Layer 0 (Background)
//Storyboard Layer 1 (Fail)
//Storyboard Layer 2 (Pass)
//Storyboard Layer 3 (Foreground)
//Storyboard Layer 4 (Overlay)
//Storyboard Sound Samples

[TimingPoints]
1336,324.324324324324,4,2,0,60,1,0
12687,-100,4,2,0,80,0,0
13011,-100,4,2,0,60,0,0
28254,-100,4,2,0,80,0,0
28579,-100,4,2,0,60,0,0
38633,-100,4,2,0,80,0,0
38957,-100,4,2,0,60,0,0
48038,-100,4,2,0,80,0,0
48687,-100,4,2,0,80,0,0
49335,-100,4,2,0,60,0,0
59390,-100,4,2,0,80,0,0
59714,-100,4,2,0,60,0,0
68471,-100,4,2,0,80,0,0
68795,-100,4,2,0,60,0,0
77876,-100,4,2,0,70,0,0
97335,-100,4,2,0,60,0,0
99606,-100,4,2,0,60,0,0

[Colours]
Combo1 : 159,159,159
Combo2 : 95,95,95

[HitObjects]
1,280,7822,6,0,P|73:280|113:336,1,120,2|8,1:3|1:2,0:0:0:0:
211,299,8471,1,2,0:0:0:0:
228,325,8633,2,0,P|234:372|230:396,2,60,2|8|2,1:3|1:2|1:3,0:0:0:0:
1,280,10417,2,0,P|73:280|113:336,1,120,2|8,1:3|1:2,0:0:0:0:
228,325,11065,2,0,P|234:372|230:396,2,60,2|2|8,0:0|1:3|1:2,0:0:0:0:
247,295,11551,1,2,1:3:0:0:
503,186,13011,6,0,P|431:186|391:242,1,120,2|8,1:3|1:2,0:0:0:0:
303,202,13660,1,2,0:0:0:0:
276,231,13822,2,0,P|270:278|274:302,2,60,2|8|2,1:3|1:2|1:3,0:0:0:0:
503,186,15606,6,0,P|431:186|391:242,1,120,2|8,1:3|1:2,0:0:0:0:
276,231,16255,2,0,P|270:278|274:302,2,60,2|2|8,0:0|1:3|1:2,0:0:0:0:
256,192,16741,1,4,1:2:0:0:
128,192,17065,2,0,L|12:192,2,90
144,56,18200,5,2,1:3:0:0:
144,56,19173,2,0,P|176:139|248:120,1,180,8|0,1:2|0:0,0:0:0:0:
248,0,19984,1,0,0:0:0:0:
371,42,20308,1,2,1:3:0:0:
392,42,20471,2,0,L|512:42,2,120,8|2|8,1:2|1:3|1:2,0:0:0:0:
464,184,21606,5,2,1:3:0:0:
464,184,21930,2,0,P|449:241|449:301,1,120,2|2,0:0|0:0,0:0:0:0:
458,318,22417,2,0,P|487:315|511:297,2,60,8|2|2,1:3|0:0|0:0,0:0:0:0:
352,260,23065,1,8,1:2:0:0:
332,367,23390,5,2,1:0:0:0:
332,367,23714,2,0,B|194:386|248:296|105:323,1,240,8|8,1:2|1:2,0:0:0:0:
24,384,24687,2,0,P|-8:327|37:237,1,120,2|8,1:3|1:2,0:0:0:0:
74,214,25335,2,0,P|120:168|99:69,1,120,2|8,0:0|1:2,0:0:0:0:
39,73,25984,1,2,1:3:0:0:
42,45,26146,1,2,0:0:0:0:
61,20,26308,1,8,1:2:0:0:
245,69,26795,5,2,1:3:0:0:
245,69,27119,2,0,P|318:67|363:54,1,120,2|2,0:0|0:0,0:0:0:0:
381,39,27606,1,8,1:2:0:0:
490,93,27930,2,0,P|506:64|514:24,2,60,2|2|2,0:0|1:3|1:0,0:0:0:0:
490,93,28903,6,0,P|479:196|383:156,1,240,8|8,1:2|1:2,0:0:0:0:
287,197,29876,1,2,1:3:0:0:
269,184,30038,1,2,0:0:0:0:
416,312,30525,5,2,1:0:0:0:
416,312,31173,2,0,L|288:312,1,120,2|8,1:3|1:2,0:0:0:0:
192,352,31822,2,0,L|192:224,1,120,2|8,0:0|1:2,0:0:0:0:
27,209,32633,6,0,P|35:158|49:136,1,60,2|8,1:3|1:2,0:0:0:0:
127,70,33119,1,2,0:0:0:0:
130,98,33281,2,0,L|137:161,1,60,2|0,1:3|0:0,0:0:0:0:
242,204,33768,5,2,1:0:0:0:
242,204,34092,2,0,P|296:225|349:136,1,180,8|2,1:2|1:3,0:0:0:0:
459,175,34903,1,2,0:0:0:0:
449,198,35065,2,0,P|447:245|480:325,1,120,2|8,1:3|1:2,0:0:0:0:
378,384,35714,2,0,P|338:358|252:347,1,120,2|8,0:0|1:2,0:0:0:0:
142,378,36363,6,0,L|22:378,1,120,2|2,0:3|0:3,0:0:0:0:
142,298,37011,2,0,L|22:298,1,120,2|2,0:3|0:3,0:0:0:0:
142,218,37660,2,0,L|22:218,1,120,2|2,0:3|0:3,0:0:0:0:
142,138,38308,1,2,0:3:0:0:
22,138,38633,1,2,0:1:0:0:
0,12,38957,6,0,B|146:-25|82:77|237:38,1,240,2|2,1:3|0:0,0:0:0:0:
469,18,40254,2,0,P|515:64|496:132,2,120,2|8|2,1:3|1:2|0:0,0:0:0:0:
368,0,41227,1,8,1:2:0:0:
402,90,41552,2,0,P|398:156|290:127,1,180,2|2,1:3|0:0,0:0:0:0:
512,242,42525,1,8,1:2:0:0:
507,255,42687,1,2,0:0:0:0:
410,319,43011,6,0,P|382:331|353:329,1,60,2|8,0:0|1:2,0:0:0:0:
233,318,43498,2,0,P|215:349|215:379,2,60,2|2|8,0:0|1:3|1:2,0:0:0:0:
300,235,44146,1,2,1:3:0:0:
300,235,44471,6,0,P|282:203|256:188,1,60,8|2,1:2|0:0,0:0:0:0:
160,233,44957,1,2,1:3:0:0:
144,248,45119,2,0,L|-8:248,1,120,8|2,1:2|1:3,0:0:0:0:
67,134,45768,2,0,P|57:84|-3:35,1,120,8|2,1:2|0:0,0:0:0:0:
126,18,46417,2,0,P|174:34|246:6,1,120,8|2,1:2|1:3,0:0:0:0:
203,129,47065,2,0,P|164:162|152:239,1,120,8|2,1:2|0:0,0:0:0:0:
222,315,47714,1,8,1:2:0:0:
231,346,47876,1,2,0:0:0:0:
223,375,48038,1,2,1:0:0:0:
348,381,48525,5,2,3:1:0:0:
367,358,48687,2,2,L|527:358,1,120,2|2,1:0|1:0,0:1:0:0:
512,261,49335,6,0,B|481:187|426:220|397:128,1,180,2|2,1:3|0:0,0:0:0:0:
410,113,49984,2,0,P|462:82|466:15,1,120,2|8,0:0|1:2,0:0:0:0:
361,15,50633,1,2,1:3:0:0:
344,7,50795,1,2,0:0:0:0:
293,96,51119,1,2,0:0:0:0:
272,107,51281,2,0,P|198:100|161:47,1,120,2|8,0:0|1:2,0:0:0:0:
100,4,51930,2,0,P|22:-2|-6:49,1,120,2|8,1:3|1:2,0:0:0:0:
72,213,52741,5,2,1:3:0:0:
72,213,53065,2,0,P|70:286|57:331,1,120,2|2,0:0|0:0,0:0:0:0:
57,343,53552,2,0,P|28:340|4:322,2,60,8|2|2,1:2|0:0|0:0,0:0:0:0:
153,289,54200,1,8,1:2:0:0:
239,370,54525,6,0,P|312:348|495:347,1,240,2|2,1:3|0:0,0:0:0:0:
430,250,55498,1,8,1:2:0:0:
512,200,55822,2,0,P|473:156|415:159,1,120,2|8,1:3|1:2,0:0:0:0:
339,229,56471,1,2,0:0:0:0:
312,208,56633,1,2,1:3:0:0:
280,200,56795,1,8,1:2:0:0:
160,165,57119,1,2,1:3:0:0:
137,189,57281,1,0,0:0:0:0:
106,202,57443,1,8,1:2:0:0:
0,40,57930,5,2,1:3:0:0:
0,40,58254,2,0,P|73:42|118:55,1,120,2|2,0:0|0:0,0:0:0:0:
136,70,58741,1,8,1:2:0:0:
233,106,59065,2,0,P|249:135|257:175,2,60,2|2|2,0:0|1:3|1:0,0:0:0:0:
245,16,59714,6,0,B|379:31|312:116|448:133,1,240,0|2,0:0|0:0,0:0:0:0:
464,240,61011,5,2,1:0:0:0:
464,240,61660,5,4,1:2:0:0:
464,240,62308,6,0,P|398:277|415:344,1,120,2|8,1:3|1:2,0:0:0:0:
315,382,62957,2,0,P|242:328|245:276,1,120,2|8,0:0|1:2,0:0:0:0:
147,347,63606,1,2,1:3:0:0:
131,329,63768,6,0,P|102:318|73:317,1,60,2|8,0:0|1:2,0:0:0:0:
16,228,64254,1,2,0:0:0:0:
26,215,64416,2,0,P|37:181|35:153,1,60,2|8,0:0|1:2,0:0:0:0:
137,223,64903,6,0,P|154:153|101:73,1,120,2|8,1:3|1:2,0:0:0:0:
59,39,65552,2,0,P|26:18|18:-6,2,60,2|2|8,0:0|1:3|1:2,0:0:0:0:
177,0,66200,1,2,1:3:0:0:
215,9,66363,1,2,0:0:0:0:
255,22,66525,1,8,1:2:0:0:
385,23,66849,1,2,0:0:0:0:
405,43,67011,1,2,1:3:0:0:
412,72,67173,1,0,1:2:0:0:
392,184,67498,6,0,L|512:184,1,120,2|2,0:3|0:3,0:0:0:0:
392,264,68146,1,2,0:3:0:0:
512,264,68471,1,2,0:1:0:0:
512,369,68795,6,0,B|324:424|388:259|170:311,1,360,2|8,1:3|1:2,0:0:0:0:
107,355,70092,2,0,P|57:327|78:266,1,120,2|8,1:3|1:2,0:0:0:0:
145,236,70741,2,0,P|188:160|143:117,1,120,2|8,0:0|1:2,0:0:0:0:
81,117,71390,5,2,1:3:0:0:
33,40,71714,1,8,1:2:0:0:
55,21,71876,1,2,0:0:0:0:
86,12,72038,1,2,0:0:0:0:
190,29,72363,1,8,1:2:0:0:
229,33,72525,1,2,0:0:0:0:
331,49,72849,6,0,P|319:77|321:106,1,60,2|8,0:0|1:2,0:0:0:0:
348,209,73335,2,0,P|317:227|287:227,2,60,2|2|8,0:0|1:3|1:2,0:0:0:0:
443,153,73984,1,2,1:3:0:0:
443,153,74633,6,0,B|483:251|410:228|444:326,1,180,2|2,0:0|0:0,0:0:0:0:
454,340,75281,2,0,P|373:313|331:333,1,120,2|8,1:3|1:2,0:0:0:0:
241,358,75930,2,0,P|160:385|118:365,1,120,2|10,0:0|1:2,0:0:0:0:
43,323,76579,6,0,P|72:244|67:197,1,120,2|8,1:3|1:2,0:0:0:0:
204,241,77227,2,0,P|180:162|141:123,1,120,2|8,0:0|1:2,0:0:0:0:
72,33,77876,1,4,1:0:0:0:
198,46,78200,1,4,1:0:0:0:
313,25,78525,1,4,1:0:0:0:
439,42,78849,1,8,1:2:0:0:
439,42,79173,6,0,P|461:108|448:162,1,120,2|2,1:3|1:0,0:0:0:0:
357,131,79822,2,0,P|353:161|360:190,1,60,2|2,0:0|1:0,0:0:0:0:
485,245,80471,2,0,P|507:311|494:365,1,120,2|8,1:3|1:2,0:0:0:0:
409,310,81119,1,2,0:0:0:0:
387,307,81281,2,0,L|339:262,1,60,2|0,1:0|0:0,0:0:0:0:
320,384,81768,6,0,L|200:384,1,120,2|8,1:3|1:2,0:0:0:0:
106,384,82417,2,0,P|82:352|74:320,1,60,2|2,0:0|1:3,0:0:0:0:
224,233,83065,5,2,1:0:0:0:
224,233,83390,2,0,L|104:233,1,120,10|8,1:2|1:3,0:0:0:0:
23,160,84038,5,8,1:2:0:0:
10,147,84200,2,2,P|10:82|54:52,1,120,2|2,0:1|0:0,0:1:0:0:
65,35,84687,2,2,P|121:67|125:120,1,120,2|2,1:0|0:1,0:1:0:0:
284,9,85660,1,2,1:0:0:0:
295,19,85822,2,0,L|363:29,2,60
481,63,86795,6,2,P|502:121|483:178,1,120,2|2,0:1|0:0,0:1:0:0:
395,144,87444,2,2,P|393:194|398:214,1,60,2|2,1:0|0:0,0:1:0:0:
330,357,88254,6,0,B|203:308|233:423|102:368,1,240,2|2,1:0|0:0,0:1:0:0:
21,248,89390,6,2,P|-13:171|40:55,1,180,2|8,0:1|1:2,0:1:0:0:
107,92,90200,2,2,P|136:92|164:102,1,60,2|2,1:0|1:3,0:1:0:0:
257,128,90687,6,2,P|253:68|277:14,1,120,2|2,0:1|0:0,0:1:0:0:
372,21,91335,2,2,P|431:24|485:0,1,120,2|2,0:1|1:3,0:1:0:0:
512,120,92146,6,2,L|512:256,1,120,2|8,1:0|1:2,0:1:0:0:
512,264,92633,2,2,L|384:264,1,120,2|2,1:0|3:2,0:1:0:0:
368,264,93119,2,2,L|368:400,1,120,2|2,1:0|1:3,0:1:0:0:
196,335,94741,6,2,P|116:343|56:390,1,120,2|8,1:0|1:2,0:1:0:0:
33,301,95390,2,2,P|7:274|-2:235,1,60,2|2,1:0|1:3,0:1:0:0:
114,167,96038,2,2,P|114:96|80:25,1,120,2|8,1:0|1:2,0:1:0:0:
356,46,97335,5,2,1:3:0:0:
356,46,98633,5,0,1:0:0:0:
438,100,98957,1,0,1:0:0:0:
424,180,99281,1,0,1:0:0:0:
408,266,99606,2,0,L|384:398,1,120,2|6,1:0|1:1,0:0:0:0:
