osu file format v14

[General]
AudioFilename: -.mp3
AudioLeadIn: 0
PreviewTime:78890
Countdown: 0
SampleSet: Soft
StackLeniency: 0.3
Mode: 0
LetterboxInBreaks: 0
WidescreenStoryboard: 1

[Editor]
Bookmarks:18200,19173,23390,23714,30525,31011,33768,34092,59876,60038,61011,61660,79011,79173,79498,79660,79984,80308,80633,80795,81606,81768,82254,82417,83065,83390,84200,84525,84687,84849,85011,85335,85660,85822,86795,87119,87444,87606,88254,88579,89390,89714,90200,90363,90687,91011,91335,91660,92146,92471,92633,92957,93119,93444,94741,94903,95390,95552,96038,96363
DistanceSpacing: 0.6
BeatDivisor: 3
GridSize: 8
TimelineZoom: 1.899999

[Metadata]
Title:Letter to the Black World
TitleUnicode:黒塗り世界宛て書簡
Artist:Frog96
ArtistUnicode:フロクロ
Creator:Ryuusei Aika
Version:j**n mapping's h*rd
Source:
Tags:mindmaster107 dragonicz john mapping jasontime12345 Mizunashi Akari Calvaria FuroKuro Kuronuri Sekai ate Shokan Blacked-out Blacked out 重音テト Kasane Teto UTAU Japanese Electronic Pop J-Pop JPop
BeatmapID:4033895
BeatmapSetID:1946744

[Difficulty]
HPDrainRate:6
CircleSize:4
OverallDifficulty:7
ApproachRate:8
SliderMultiplier:1.4
SliderTickRate:1

[Events]
//Background and Video events
0,0,"bg.jpg",0,0
//Break Periods
//Storyboard Layer 0 (Background)
//Storyboard Layer 1 (Fail)
//Storyboard Layer 2 (Pass)
//Storyboard Layer 3 (Foreground)
//Storyboard Layer 4 (Overlay)
//Storyboard Sound Samples

[TimingPoints]
1336,324.324324324324,4,2,0,60,1,0
1336,-125,4,2,0,60,0,0
7498,-90.9090909090909,4,2,0,60,0,0
7822,-100,4,2,0,60,0,0
12687,-90.9090909090909,4,2,0,80,0,0
13011,-100,4,2,0,60,0,0
19173,-111.111111111111,4,2,0,60,0,0
28254,-90.9090909090908,4,2,0,80,0,0
28579,-111.111111111111,4,2,0,60,0,0
36363,-100,4,2,0,60,0,0
38633,-90.9090909090909,4,2,0,80,0,0
38957,-111.111111111111,4,2,0,60,0,0
48038,-111.111111111111,4,2,0,80,0,0
48687,-90.9090909090908,4,2,0,80,0,0
49335,-111.111111111111,4,2,0,60,0,0
59390,-90.9090909090908,4,2,0,80,0,0
59714,-111.111111111111,4,2,0,60,0,0
67498,-100,4,2,0,60,0,0
68471,-90.9090909090909,4,2,0,80,0,0
68795,-111.111111111111,4,2,0,60,0,0
77876,-111.111111111111,4,2,0,70,0,0
97335,-111.111111111111,4,2,0,60,0,0
99606,-90.9090909090908,4,2,0,60,0,0

[Colours]
Combo1 : 159,159,159
Combo2 : 95,95,95

[HitObjects]
512,53,1336,5,2,0:0:0:0:
446,101,1660,1,2,0:0:0:0:
406,172,1984,1,2,0:0:0:0:
406,172,2146,1,0,0:0:0:0:
406,172,2308,1,2,0:0:0:0:
406,172,2471,1,2,0:0:0:0:
375,247,2795,1,0,0:0:0:0:
375,247,2957,1,2,0:0:0:0:
353,325,3281,1,2,0:0:0:0:
285,370,3606,1,0,0:0:0:0:
204,355,3930,1,2,0:0:0:0:
148,294,4254,1,2,0:0:0:0:
71,265,4579,1,2,0:0:0:0:
71,265,4741,1,0,0:0:0:0:
3,310,5065,2,0,L|27:373,1,56,2|0,0:0|0:0,0:0:0:0:
17,317,5390,2,0,L|41:380,1,56
3,310,5714,2,0,L|27:373,1,56,2|0,0:0|0:0,0:0:0:0:
17,317,6038,2,0,L|41:380,1,56
3,310,6363,2,0,L|27:373,1,56,2|0,0:0|0:0,0:0:0:0:
17,317,6687,2,0,L|41:380,1,56
3,310,7011,2,0,L|27:373,1,56,2|2,0:0|3:0,0:0:0:0:
3,310,7335,5,2,0:3:0:0:
3,310,7498,2,2,B|6:283|22:272|22:272|34:251|30:230|30:230|27:217|30:202,1,115.50000352478,2|2,0:1|0:1,0:1:0:0:
15,185,7822,6,0,B|34:168|46:128|40:99,1,70,2|2,1:3|0:0,0:0:0:0:
105,25,8146,2,0,B|124:42|136:82|130:111,1,70,8|2,1:2|0:0,0:0:0:0:
28,103,8471,1,2,0:0:0:0:
122,109,8633,1,2,1:3:0:0:
204,74,8795,1,8,1:2:0:0:
192,159,8957,2,0,B|187:177|198:212|214:226,1,70,2|0,1:3|0:0,0:0:0:0:
308,261,9281,5,2,1:3:0:0:
223,242,9444,1,8,1:2:0:0:
297,241,9606,1,2,0:0:0:0:
379,288,9768,2,0,B|401:301|418:336|415:358,1,70,2|2,0:0|1:3,0:0:0:0:
491,301,10092,2,0,B|467:286|450:250|453:228,1,70,8|0,1:2|0:0,0:0:0:0:
511,149,10417,6,0,B|509:130|482:100|445:109,1,70,2|0,1:3|0:0,0:0:0:0:
349,213,10741,2,0,B|351:194|378:164|415:173,1,70,8|0,1:2|0:0,0:0:0:0:
447,96,11065,1,2,0:0:0:0:
403,158,11227,1,2,1:3:0:0:
445,230,11390,1,8,1:2:0:0:
411,303,11552,1,2,1:3:0:0:
411,303,11876,5,2,1:3:0:0:
483,330,12038,1,8,1:2:0:0:
483,330,12200,1,2,0:0:0:0:
395,321,12363,1,2,0:0:0:0:
495,314,12525,1,2,1:3:0:0:
495,314,12687,2,2,B|491:287|475:275|475:275|480:254|472:232|472:232|459:223|449:207,1,115.50000352478,2|2,1:0|0:1,0:1:0:0:
438,205,13011,6,0,B|429:184|430:148|445:129,1,70,2|2,1:3|0:0,0:0:0:0:
400,37,13335,2,0,B|397:59|378:90|355:99,1,70,8|2,1:2|0:0,0:0:0:0:
454,123,13660,1,2,0:0:0:0:
370,114,13822,1,2,1:3:0:0:
309,49,13984,1,8,1:2:0:0:
281,132,14146,2,0,B|290:148|288:184|277:202,1,70,2|0,1:3|0:0,0:0:0:0:
192,240,14470,5,2,1:3:0:0:
273,225,14633,1,8,1:2:0:0:
200,215,14795,1,2,0:0:0:0:
117,262,14957,2,0,B|99:286|94:318|101:341,1,70,2|2,0:0|1:3,0:0:0:0:
6,307,15281,2,0,B|24:283|29:251|22:228,1,70,8|2,1:2|0:0,0:0:0:0:
5,133,15606,6,0,B|7:114|34:84|71:93,1,70,2|2,1:3|0:0,0:0:0:0:
167,197,15930,2,0,B|165:178|138:148|101:157,1,70,8|2,1:2|0:0,0:0:0:0:
69,80,16254,1,2,0:0:0:0:
113,142,16416,1,2,1:3:0:0:
71,214,16579,1,8,1:2:0:0:
105,287,16741,1,4,1:2:0:0:
256,192,16903,12,8,17876,0:0:0:0:
493,166,18200,5,2,1:3:0:0:
493,166,19173,6,0,P|469:191|451:236,1,62.9999980773926,8|2,1:2|0:0,0:0:0:0:
383,232,19498,2,0,P|355:209|323:194,2,62.9999980773926,2|0|8,1:3|0:0|1:2,0:0:0:0:
438,289,19984,1,0,0:0:0:0:
438,289,20146,2,0,P|424:326|422:363,1,62.9999980773926,2|2,0:0|1:3,0:0:0:0:
512,225,20471,2,0,P|506:194|492:165,1,62.9999980773926,8|2,1:2|0:0,0:0:0:0:
451,104,20795,1,2,1:3:0:0:
373,109,20957,1,2,0:0:0:0:
326,50,21119,2,0,P|292:43|249:21,1,62.9999980773926,8|2,1:2|0:0,0:0:0:0:
156,23,21444,1,2,0:0:0:0:
156,23,21606,6,0,L|174:94,1,62.9999980773926,2|8,1:3|1:2,0:0:0:0:
49,116,21930,2,0,L|182:80,1,125.999996154785,2|2,0:0|0:0,0:0:0:0:
220,139,22417,1,8,1:3:0:0:
189,210,22579,1,2,0:0:0:0:
243,264,22741,2,0,B|259:283|275:307|285:330,1,62.9999980773926,2|2,0:0|1:3,0:0:0:0:
336,364,23065,2,0,B|348:358|372:352|397:351,1,62.9999980773926,8|6,1:2|0:0,0:0:0:0:
217,360,23390,5,2,1:3:0:0:
217,360,23714,5,8,1:2:0:0:
151,321,23876,1,2,0:0:0:0:
91,361,24038,1,2,0:0:0:0:
138,307,24200,1,2,1:3:0:0:
193,254,24363,1,8,1:2:0:0:
124,291,24525,1,2,0:0:0:0:
47,269,24687,2,0,P|20:253|-7:215,2,62.9999980773926,2|2|8,1:3|0:0|1:2,0:0:0:0:
101,217,25173,5,2,0:0:0:0:
101,217,25335,2,0,P|86:186|60:160,1,62.9999980773926,2|2,0:0|1:3,0:0:0:0:
65,92,25660,1,8,1:2:0:0:
15,39,25822,1,2,0:0:0:0:
81,2,25984,2,0,P|116:27|145:31,1,62.9999980773926,2|2,1:3|0:0,0:0:0:0:
200,70,26308,2,0,P|220:46|267:34,1,62.9999980773926,8|2,1:2|0:0,0:0:0:0:
358,61,26633,1,2,0:0:0:0:
358,61,26795,6,0,P|346:31|345:-4,1,62.9999980773926,2|8,1:3|1:2,0:0:0:0:
469,13,27119,2,0,P|402:25|344:81,1,125.999996154785,2|2,0:0|0:0,0:0:0:0:
325,132,27606,1,8,1:2:0:0:
325,132,27768,1,2,0:0:0:0:
371,197,27930,1,2,0:0:0:0:
341,265,28092,1,2,1:3:0:0:
341,265,28254,2,2,B|308:261|293:268|293:268|281:294|253:299|253:299|229:333,1,115.50000352478,2|2,1:0|0:1,0:1:0:0:
229,334,28579,5,2,1:3:0:0:
229,334,28741,2,0,P|260:352|295:352,2,62.9999980773926,2|8|2,0:0|1:2|0:0,0:0:0:0:
161,369,29227,2,0,P|129:357|116:321,1,62.9999980773926,2|2,0:0|1:3,0:0:0:0:
46,310,29552,2,0,P|37:274|67:263,1,62.9999980773926,8|2,1:2|0:0,0:0:0:0:
39,191,29876,1,2,1:3:0:0:
39,191,30038,2,0,P|46:164|41:191,1,62.9999980773926,2|8,0:0|1:2,0:0:0:0:
105,119,30363,1,2,0:0:0:0:
105,119,30525,5,2,1:0:0:0:
105,119,31011,5,2,0:0:0:0:
105,119,31173,2,0,P|133:87|116:56,1,62.9999980773926,2|2,1:3|0:0,0:0:0:0:
199,12,31498,2,0,P|210:57|247:57,1,62.9999980773926,8|2,1:2|0:0,0:0:0:0:
264,123,31822,2,0,P|303:96|398:74,1,125.999996154785,2|8,0:0|1:2,0:0:0:0:
377,74,32308,1,2,1:3:0:0:
455,109,32471,1,0,0:0:0:0:
455,109,32633,6,0,L|495:175,2,62.9999980773926,2|8|2,1:3|1:2|0:0,0:0:0:0:
392,154,33119,1,2,0:0:0:0:
316,131,33281,1,2,1:3:0:0:
307,132,33363,1,0,0:0:0:0:
299,136,33444,2,0,P|290:179|289:210,1,62.9999980773926,8|2,1:2|0:0,0:0:0:0:
208,142,33768,5,2,1:3:0:0:
208,142,34092,6,0,P|177:178|153:217,1,62.9999980773926,8|2,1:2|0:0,0:0:0:0:
102,231,34417,2,0,P|113:279|123:306,1,62.9999980773926,2|2,0:0|1:3,0:0:0:0:
44,183,34741,1,8,1:2:0:0:
44,183,34903,1,2,0:0:0:0:
44,183,35065,2,0,P|17:155|13:116,1,62.9999980773926,2|2,1:3|0:0,0:0:0:0:
33,61,35390,1,8,1:2:0:0:
138,137,35714,2,0,P|177:144|217:139,1,62.9999980773926,2|2,0:0|1:3,0:0:0:0:
264,99,36038,1,8,1:2:0:0:
366,155,36363,6,0,B|384:153|384:153|431:207|431:207|429:231,1,105,2|0,0:3|0:0,0:0:0:0:
411,216,36687,2,0,B|427:223|427:223|441:293|441:293|427:313,1,105,2|0,0:3|0:0,0:0:0:0:
416,301,37011,2,0,B|408:317|408:317|338:331|338:331|318:317,1,105,2|0,0:3|0:0,0:0:0:0:
340,309,37335,2,0,B|325:319|325:319|257:296|257:296|247:274,1,105,2|0,0:3|0:0,0:0:0:0:
263,273,37660,2,0,B|252:258|252:258|275:190|275:190|297:180,1,105,2|0,0:3|0:0,0:0:0:0:
294,203,37984,2,0,B|292:185|292:185|346:137|346:137|370:139,1,105,2|0,0:3|0:0,0:0:0:0:
366,155,38308,1,2,0:3:0:0:
366,155,38633,6,2,B|381:129|406:126|406:126|422:112|433:81|433:81|454:61,1,115.50000352478,2|2,0:1|0:1,0:1:0:0:
456,70,38957,6,0,B|434:35|380:48|341:14,1,125.999996154785,2|8,1:3|1:2,0:0:0:0:
344,16,39444,1,2,0:0:0:0:
286,57,39606,2,0,P|271:98|261:138,1,62.9999980773926,2|2,0:0|1:3,0:0:0:0:
202,154,39930,2,0,P|185:95|170:57,1,94.499997116089,8|0,1:2|0:0,0:0:0:0:
178,50,40254,5,2,1:3:0:0:
105,75,40417,1,2,0:0:0:0:
43,40,40579,1,8,1:2:0:0:
97,87,40741,1,2,0:0:0:0:
20,127,40903,1,2,0:0:0:0:
89,101,41065,1,2,1:3:0:0:
138,158,41227,2,0,B|153:169|161:195|159:209|172:223,1,62.9999980773926,8|2,1:2|0:0,0:0:0:0:
237,263,41552,6,0,B|222:284|228:298|221:307|204:322,2,62.9999980773926,2|2|8,1:3|0:0|1:2,0:0:0:0:
309,226,42038,1,2,0:0:0:0:
309,226,42200,2,0,P|353:219|393:217,1,62.9999980773926,2|2,0:0|1:3,0:0:0:0:
439,298,42525,2,0,P|395:296|368:298,2,62.9999980773926,8|2|2,1:2|0:0|1:3,0:0:0:0:
510,231,43011,5,2,0:0:0:0:
446,284,43173,1,8,1:2:0:0:
380,226,43335,1,2,0:0:0:0:
416,154,43498,1,2,0:0:0:0:
416,154,43660,2,0,P|427:108|424:67,2,62.9999980773926,2|8|2,1:3|1:2|0:0,0:0:0:0:
320,177,44146,6,0,P|281:170|177:173,1,125.999996154785,2|8,1:3|1:2,0:0:0:0:
194,170,44633,1,2,0:0:0:0:
78,239,44957,1,2,1:3:0:0:
77,313,45119,1,8,1:2:0:0:
27,370,45281,1,0,0:0:0:0:
89,322,45444,2,0,P|126:313|165:313,1,62.9999980773926,2|2,1:3|0:0,0:0:0:0:
203,251,45768,2,0,P|239:248|274:266,1,62.9999980773926,8|2,1:2|0:0,0:0:0:0:
343,240,46092,2,0,P|369:249|379:286,1,62.9999980773926,2|2,0:0|1:3,0:0:0:0:
450,304,46417,2,0,P|471:319|444:335,1,62.9999980773926,8|2,1:2|0:0,0:0:0:0:
393,384,46741,5,2,1:3:0:0:
333,339,46903,1,2,0:0:0:0:
371,275,47065,1,8,1:2:0:0:
320,222,47227,1,2,0:0:0:0:
367,152,47390,5,2,0:0:0:0:
317,211,47552,1,2,1:3:0:0:
244,181,47714,1,8,1:2:0:0:
190,227,47876,1,2,0:0:0:0:
119,206,48038,5,2,1:0:0:0:
119,206,48200,2,0,L|118:129,1,62.9999980773926,2|8,3:1|1:2,0:0:0:0:
104,220,48525,1,2,3:1:0:0:
101,127,48687,2,2,B|96:116|85:104|85:104|60:103|46:95|46:95|33:65|21:56,1,115.50000352478,2|2,1:0|0:1,0:1:0:0:
0,44,49011,2,2,B|19:43|36:43|36:43|61:27|78:22|78:22|108:24|143:16,1,115.50000352478,2|2,1:0|0:0,0:1:0:0:
128,8,49335,6,0,P|148:43|168:68,1,62.9999980773926,2|2,1:3|0:0,0:0:0:0:
206,120,49660,2,2,P|239:135|279:136,1,62.9999980773926,10|2,1:2|0:0,0:0:0:0:
330,97,49984,1,2,0:0:0:0:
406,108,50146,1,2,1:3:0:0:
463,55,50308,2,0,P|483:23|493:-7,1,62.9999980773926,8|2,1:2|0:0,0:0:0:0:
406,108,50633,5,2,1:3:0:0:
406,108,50795,2,0,P|414:165|439:235,1,125.999996154785,2|2,0:0|0:0,0:0:0:0:
409,309,51281,2,0,P|377:281|332:266,1,62.9999980773926,2|2,0:0|1:3,0:0:0:0:
297,323,51606,1,8,1:2:0:0:
224,321,51768,1,2,0:0:0:0:
160,357,51930,2,0,P|125:376|92:382,1,62.9999980773926,2|0,1:3|0:0,0:0:0:0:
8,285,52254,2,0,P|28:306|65:325,1,62.9999980773926,8|2,1:2|0:0,0:0:0:0:
115,275,52579,1,2,0:0:0:0:
115,275,52741,6,0,L|135:212,1,62.9999980773926,2|8,1:3|1:2,0:0:0:0:
14,177,53065,2,0,L|153:221,1,125.999996154785,2|2,0:0|0:0,0:0:0:0:
191,160,53552,1,8,1:2:0:0:
174,85,53714,1,2,0:0:0:0:
230,34,53876,2,0,P|263:24|302:3,1,62.9999980773926,2|2,0:0|1:3,0:0:0:0:
362,101,54200,2,0,P|357:59|357:24,1,62.9999980773926,8|6,1:2|0:0,0:0:0:0:
427,2,54525,5,2,1:3:0:0:
427,2,54687,1,0,0:0:0:0:
475,85,54849,1,8,1:2:0:0:
457,12,55011,1,2,0:0:0:0:
494,95,55173,2,0,P|506:139|518:171,1,62.9999980773926,2|2,0:0|1:3,0:0:0:0:
392,215,55498,2,0,P|414:192|440:168,1,62.9999980773926,8|2,1:2|0:0,0:0:0:0:
450,274,55822,5,2,1:3:0:0:
447,357,55984,1,2,0:0:0:0:
426,283,56146,1,8,1:2:0:0:
379,223,56308,1,2,0:0:0:0:
406,291,56471,1,2,0:0:0:0:
420,364,56633,1,2,1:3:0:0:
383,300,56795,2,0,P|343:297|291:302,1,62.9999980773926,8|2,1:2|0:0,0:0:0:0:
210,230,57119,1,2,1:3:0:0:
210,230,57281,2,0,P|227:255|244:282,2,62.9999980773926,0|8|2,0:0|1:2|0:0,0:0:0:0:
139,201,57768,1,2,0:0:0:0:
125,126,57930,6,0,P|119:85|109:57,1,62.9999980773926,2|8,1:3|1:2,0:0:0:0:
4,113,58254,2,0,P|63:107|128:128,1,125.999996154785,2|2,0:0|0:0,0:0:0:0:
207,146,58741,1,8,1:2:0:0:
264,91,58903,1,2,0:0:0:0:
345,97,59065,1,2,0:0:0:0:
393,34,59227,5,2,1:3:0:0:
393,34,59390,2,2,B|421:41|440:43|440:43|456:60|461:82|461:82|470:98|481:104,1,115.50000352478,2|2,1:0|0:1,0:1:0:0:
462,117,59714,1,2,1:3:0:0:
482,216,59876,5,2,0:1:0:0:
482,216,60038,6,0,P|437:198|409:200,1,62.9999980773926,10|2,1:2|0:0,0:0:0:0:
354,177,60363,2,0,P|341:212|341:253,1,62.9999980773926,2|2,0:0|1:3,0:0:0:0:
317,307,60687,2,0,P|358:316|392:319,1,62.9999980773926,8|2,1:2|0:0,0:0:0:0:
444,359,61011,5,2,1:0:0:0:
455,369,61660,5,4,1:2:0:0:
455,369,61876,5,4,1:2:0:0:
455,369,62092,5,4,1:2:0:0:
455,369,62308,6,0,P|468:315|486:285,1,62.9999980773926,2|2,1:3|0:0,0:0:0:0:
448,200,62633,2,0,P|487:235|510:245,1,62.9999980773926,8|2,1:2|0:0,0:0:0:0:
398,258,62957,2,0,P|361:278|326:283,1,62.9999980773926,2|2,0:0|1:3,0:0:0:0:
301,343,63281,1,8,1:2:0:0:
230,328,63444,1,2,0:0:0:0:
171,374,63606,1,2,1:3:0:0:
75,347,63768,6,0,P|35:370|16:386,2,62.9999980773926,2|8|2,0:0|1:2|0:0,0:0:0:0:
119,280,64254,1,2,0:0:0:0:
69,224,64417,1,2,0:0:0:0:
64,217,64498,1,2,0:0:0:0:
59,209,64579,2,0,P|52:172|52:134,1,62.9999980773926,8|0,1:2|0:0,0:0:0:0:
26,75,64903,6,0,P|75:66|99:46,1,62.9999980773926,2|0,1:3|0:0,0:0:0:0:
148,21,65227,1,8,1:2:0:0:
208,66,65390,1,2,0:0:0:0:
286,64,65552,2,0,P|298:106|315:136,1,62.9999980773926,2|2,0:0|1:3,0:0:0:0:
311,199,65876,1,8,1:2:0:0:
371,248,66038,1,2,0:0:0:0:
356,326,66200,5,2,1:3:0:0:
283,361,66363,2,0,P|239:370|203:383,2,62.9999980773926,2|8|2,0:0|1:2|0:0,0:0:0:0:
356,326,66849,5,2,0:0:0:0:
435,350,67011,2,0,P|470:358|503:375,2,62.9999980773926,2|8|2,1:3|1:2|0:0,0:0:0:0:
356,326,67498,6,0,B|351:308|351:308|284:285|284:285|260:296,1,105,2|0,0:3|0:0,0:0:0:0:
274,306,67822,2,0,B|259:312|259:312|192:289|192:289|187:271,1,105,2|0,0:3|0:0,0:0:0:0:
202,266,68146,1,2,0:3:0:0:
202,266,68471,2,2,B|177:273|157:270|157:270|146:288|142:307|142:307|124:313|111:327,1,115.50000352478,2|2,0:1|0:1,0:1:0:0:
117,343,68795,6,0,P|80:340|48:351,1,62.9999980773926,2|0,1:3|0:0,0:0:0:0:
11,292,69119,2,0,P|24:262|26:222,1,62.9999980773926,8|2,1:2|0:0,0:0:0:0:
84,182,69444,1,2,0:0:0:0:
84,182,69606,1,2,1:3:0:0:
71,108,69768,2,0,P|66:70|74:22,1,62.9999980773926,8|0,1:2|0:0,0:0:0:0:
140,9,70092,5,2,1:3:0:0:
206,54,70254,1,0,0:0:0:0:
276,27,70417,1,8,1:2:0:0:
202,65,70579,1,2,0:0:0:0:
262,117,70741,2,0,P|295:133|344:147,1,62.9999980773926,2|2,0:0|1:3,0:0:0:0:
363,204,71065,2,0,P|389:183|411:143,1,62.9999980773926,8|2,1:2|0:0,0:0:0:0:
504,138,71390,6,0,P|482:156|485:188,1,62.9999980773926,2|2,1:3|0:0,0:0:0:0:
436,247,71714,1,8,1:2:0:0:
462,316,71876,1,2,0:0:0:0:
410,371,72038,1,2,0:0:0:0:
328,343,72200,1,2,1:3:0:0:
403,359,72363,1,8,1:2:0:0:
316,352,72525,2,0,P|278:359|184:381,1,125.999996154785,2|2,0:0|0:0,0:0:0:0:
149,325,73011,1,8,1:2:0:0:
78,323,73173,1,2,0:0:0:0:
78,323,73335,2,0,P|47:288|34:252,2,62.9999980773926,2|2|8,0:0|1:3|1:2,0:0:0:0:
149,325,73822,1,2,0:0:0:0:
193,260,73984,6,0,P|197:221|192:189,1,62.9999980773926,2|2,1:3|0:0,0:0:0:0:
220,103,74308,2,0,P|247:138|275:162,1,62.9999980773926,8|2,1:2|0:0,0:0:0:0:
345,163,74633,1,2,0:0:0:0:
254,162,74795,1,2,1:3:0:0:
350,151,74957,1,8,1:2:0:0:
351,151,75119,1,2,0:0:0:0:
370,60,75281,6,0,P|341:39|309:31,1,62.9999980773926,2|2,1:3|0:0,0:0:0:0:
240,17,75606,2,0,P|215:37|206:69,1,62.9999980773926,8|2,1:2|0:0,0:0:0:0:
141,98,75930,2,0,P|146:147|163:152,1,62.9999980773926,2|2,0:0|1:3,0:0:0:0:
172,220,76254,2,2,P|174:244|195:222,1,62.9999980773926,10|2,1:2|0:0,0:0:0:0:
272,255,76579,6,0,P|295:283|300:325,1,62.9999980773926,2|2,1:3|0:0,0:0:0:0:
357,363,76903,2,0,P|376:333|426:317,1,62.9999980773926,8|2,1:2|0:0,0:0:0:0:
463,278,77227,2,0,P|440:250|435:208,1,62.9999980773926,2|2,0:0|1:3,0:0:0:0:
378,170,77551,2,0,P|359:200|309:216,1,62.9999980773926,8|2,1:2|0:0,0:0:0:0:
228,167,77876,5,4,1:0:0:0:
228,167,78200,1,4,1:0:0:0:
228,167,78525,1,4,1:0:0:0:
228,167,78849,1,8,1:2:0:0:
178,230,79011,5,14,0:0:0:0:
178,230,79173,6,0,P|136:243|115:262,1,62.9999980773926,2|2,1:3|0:0,0:0:0:0:
51,233,79498,5,8,1:2:0:0:
51,233,79660,5,2,0:0:0:0:
80,165,79822,1,2,0:0:0:0:
41,105,79984,5,2,1:0:0:0:
41,105,80308,6,0,P|73:73|88:43,1,62.9999980773926,2|2,0:0|1:3,0:0:0:0:
159,74,80633,5,2,0:0:0:0:
159,74,80795,5,8,1:2:0:0:
227,47,80957,1,2,0:0:0:0:
301,52,81119,2,0,P|336:63|361:88,1,62.9999980773926,2|2,0:0|1:0,0:0:0:0:
359,88,81363,1,0,0:0:0:0:
361,95,81444,1,8,1:2:0:0:
436,104,81606,5,6,0:0:0:0:
436,104,81768,6,0,P|426:139|421:171,1,62.9999980773926,2|2,1:3|0:0,0:0:0:0:
464,233,82092,1,8,1:2:0:0:
399,283,82254,5,2,0:0:0:0:
399,283,82417,6,0,P|380:235|373:200,1,62.9999980773926,2|2,0:0|1:3,0:0:0:0:
312,188,82741,2,0,P|265:193|231:192,1,62.9999980773926,8|2,1:2|0:0,0:0:0:0:
144,178,83065,5,2,1:0:0:0:
144,178,83390,5,10,1:2:0:0:
139,189,83471,1,0,0:0:0:0:
132,198,83552,2,0,P|103:225|77:237,1,62.9999980773926,2|8,0:0|1:3,0:0:0:0:
60,354,84038,1,8,1:2:0:0:
134,383,84200,5,2,0:1:0:0:
134,383,84525,5,2,0:0:0:0:
208,340,84687,5,8,1:2:0:0:
208,340,84849,5,2,0:0:0:0:
288,372,85011,5,2,0:1:0:0:
288,372,85335,5,8,1:2:0:0:
352,321,85498,1,2,0:0:0:0:
429,353,85660,5,2,1:3:0:0:
429,353,85822,5,0,0:0:0:0:
440,355,85903,1,0,0:0:0:0:
448,353,85984,2,0,P|471:326|480:292,1,62.9999980773926,8|2,1:2|0:0,0:0:0:0:
512,231,86308,2,0,P|484:193|476:99,1,125.999996154785,2|8,0:0|1:2,0:0:0:0:
429,59,86795,5,2,0:1:0:0:
429,59,87119,5,2,0:0:0:0:
358,87,87281,1,8,1:2:0:0:
300,40,87444,5,2,0:0:0:0:
300,40,87606,5,2,0:0:0:0:
224,65,87768,1,2,1:3:0:0:
224,65,87930,1,8,1:2:0:0:
284,21,88092,1,2,0:0:0:0:
208,50,88254,5,2,1:0:0:0:
208,50,88579,5,8,1:2:0:0:
121,38,88741,1,2,0:0:0:0:
59,98,88903,1,2,0:0:0:0:
35,216,89227,1,8,1:2:0:0:
101,254,89390,5,2,0:1:0:0:
101,254,89714,5,2,0:0:0:0:
111,329,89876,2,0,P|140:351|158:383,1,62.9999980773926,8|2,1:2|0:0,0:0:0:0:
229,380,90200,5,2,0:0:0:0:
229,380,90363,5,2,1:3:0:0:
264,312,90525,1,8,1:2:0:0:
220,249,90687,5,2,0:1:0:0:
220,249,91011,5,2,0:0:0:0:
250,177,91173,1,10,1:2:0:0:
204,115,91335,5,2,0:1:0:0:
204,115,91660,6,0,P|229:68|251:44,1,62.9999980773926,2|8,1:3|1:2,0:0:0:0:
309,62,91984,1,2,0:0:0:0:
363,13,92146,5,2,1:0:0:0:
363,13,92471,5,8,1:2:0:0:
430,52,92633,5,2,1:0:0:0:
430,52,92957,5,2,3:2:0:0:
469,120,93119,5,2,1:0:0:0:
469,120,93444,5,2,1:3:0:0:
437,189,93606,1,2,0:0:0:0:
475,259,93768,1,8,1:2:0:0:
421,200,93930,1,2,0:0:0:0:
491,246,94092,1,2,0:0:0:0:
402,274,94254,2,0,P|362:288|332:320,1,62.9999980773926,2|8,1:3|1:2,0:0:0:0:
281,258,94579,1,2,0:0:0:0:
215,308,94741,5,2,1:3:0:0:
215,308,94903,5,2,0:0:0:0:
152,357,95065,1,8,1:2:0:0:
81,323,95227,1,2,0:0:0:0:
16,282,95390,5,2,0:0:0:0:
16,282,95552,5,2,1:3:0:0:
9,203,95714,1,8,1:2:0:0:
2,124,95876,1,2,0:0:0:0:
56,67,96038,5,2,1:0:0:0:
56,67,96363,6,0,P|94:53|106:15,1,62.9999980773926,8|2,1:2|0:0,0:0:0:0:
172,80,96687,2,0,P|200:66|194:37,1,62.9999980773926,2|2,0:0|1:3,0:0:0:0:
281,72,97011,2,0,P|283:28|270:-12,1,62.9999980773926,8|2,1:2|0:0,0:0:0:0:
362,33,97335,1,2,1:3:0:0:
362,33,98633,5,0,1:0:0:0:
362,33,98957,1,0,1:0:0:0:
362,33,99281,1,0,1:0:0:0:
362,33,99606,6,2,B|376:60|368:70|375:86|375:86|373:104|371:122|371:122|386:131|390:142,1,115.50000352478,2|2,1:0|1:0,0:1:0:0:
413,146,99930,1,6,1:1:0:0:
