osu file format v14

[General]
AudioFilename: -.mp3
AudioLeadIn: 0
PreviewTime:78890
Countdown: 0
SampleSet: Soft
StackLeniency: 0
Mode: 0
LetterboxInBreaks: 0
WidescreenStoryboard: 1

[Editor]
DistanceSpacing: 0.8
BeatDivisor: 4
GridSize: 8
TimelineZoom: 1.899999

[Metadata]
Title:Letter to the Black World
TitleUnicode:黒塗り世界宛て書簡
Artist:Frog96
ArtistUnicode:フロクロ
Creator:Ryuusei Aika
Version:akari's i**ane
Source:
Tags:mindmaster107 dragonicz john mapping jasontime12345 Mizunashi Akari Calvaria FuroKuro Kuronuri Sekai ate Shokan Blacked-out Blacked out 重音テト Kasane Teto UTAU Japanese Electronic Pop J-Pop JPop
BeatmapID:4033979
BeatmapSetID:1946744

[Difficulty]
HPDrainRate:4
CircleSize:4
OverallDifficulty:8
ApproachRate:8
SliderMultiplier:1.7
SliderTickRate:1

[Events]
//Background and Video events
0,0,"bg.jpg",0,0
//Break Periods
//Storyboard Layer 0 (Background)
//Storyboard Layer 1 (Fail)
//Storyboard Layer 2 (Pass)
//Storyboard Layer 3 (Foreground)
//Storyboard Layer 4 (Overlay)
//Storyboard Sound Samples

[TimingPoints]
1336,324.324324324324,4,2,0,60,1,0
12687,-100,4,2,0,80,0,0
13011,-100,4,2,0,60,0,0
18200,-1000,4,2,0,60,0,0
19335,-100,4,2,0,60,0,0
23390,-1000,4,2,0,60,0,0
23714,-100,4,2,0,60,0,0
28254,-83.3333333333333,4,2,0,80,0,0
28579,-100,4,2,0,60,0,0
30525,-1000,4,2,0,60,0,0
31011,-100,4,2,0,60,0,0
33768,-1000,4,2,0,60,0,0
34092,-100,4,2,0,60,0,0
38633,-83.3333333333333,4,2,0,80,0,0
38957,-100,4,2,0,60,0,0
48038,-100,4,2,0,80,0,0
48687,-83.3333333333333,4,2,0,80,0,0
49335,-100,4,2,0,60,0,0
59390,-83.3333333333333,4,2,0,80,0,0
59714,-100,4,2,0,60,0,0
59876,-1000,4,2,0,60,0,0
61011,-1000,4,2,0,60,0,0
61660,-100,4,2,0,60,0,0
68471,-83.3333333333333,4,2,0,80,0,0
68795,-100,4,2,0,60,0,0
77876,-83.3333333333333,4,2,0,70,0,0
79011,-1000,4,2,0,70,0,0
79173,-83.3333333333333,4,2,0,70,0,1
79498,-1000,4,2,0,70,0,0
79660,-1000,4,2,0,70,0,1
79984,-1000,4,2,0,70,0,0
80308,-83.3333333333333,4,2,0,70,0,1
80633,-1000,4,2,0,70,0,0
80795,-83.3333333333333,4,2,0,70,0,1
81606,-1000,4,2,0,70,0,0
81768,-83.3333333333333,4,2,0,70,0,1
82254,-1000,4,2,0,70,0,0
82417,-83.3333333333333,4,2,0,70,0,1
83065,-1000,4,2,0,70,0,0
83390,-83.3333333333333,4,2,0,70,0,1
84200,-1000,4,2,0,70,0,0
84525,-1000,4,2,0,70,0,1
84687,-1000,4,2,0,70,0,0
84849,-1000,4,2,0,70,0,1
85011,-1000,4,2,0,70,0,0
85335,-83.3333333333333,4,2,0,70,0,1
85660,-1000,4,2,0,70,0,0
85822,-83.3333333333333,4,2,0,70,0,1
86795,-1000,4,2,0,70,0,0
87119,-83.3333333333333,4,2,0,70,0,1
87444,-1000,4,2,0,70,0,0
87606,-83.3333333333333,4,2,0,70,0,1
88254,-1000,4,2,0,70,0,0
88579,-83.3333333333333,4,2,0,70,0,1
89390,-1000,4,2,0,70,0,0
89714,-83.3333333333333,4,2,0,70,0,1
90200,-1000,4,2,0,70,0,0
90363,-83.3333333333333,4,2,0,70,0,1
90687,-1000,4,2,0,70,0,0
91011,-83.3333333333333,4,2,0,70,0,1
91335,-1000,4,2,0,70,0,0
91660,-83.3333333333333,4,2,0,70,0,1
92146,-1000,4,2,0,70,0,0
92471,-1000,4,2,0,70,0,1
92633,-1000,4,2,0,70,0,0
92957,-1000,4,2,0,70,0,1
93119,-1000,4,2,0,70,0,0
93444,-83.3333333333333,4,2,0,70,0,1
94741,-1000,4,2,0,70,0,0
94903,-83.3333333333333,4,2,0,70,0,1
95390,-1000,4,2,0,70,0,0
95552,-83.3333333333333,4,2,0,70,0,1
96038,-1000,4,2,0,70,0,0
96363,-1000,4,2,0,70,0,1
97335,-100,4,2,0,60,0,0
98633,-100,4,2,0,60,0,0
99606,-66.6666666666667,4,2,0,60,0,0
99930,-37.037037037037,4,2,0,60,0,1
120687,-37.037037037037,4,2,0,60,0,0

[Colours]
Combo1 : 159,159,159
Combo2 : 95,95,95

[HitObjects]
67,154,1336,5,2,0:0:0:0:
67,154,1660,1,2,0:0:0:0:
67,154,1984,1,2,0:0:0:0:
142,159,2146,1,0,0:0:0:0:
215,189,2308,1,2,0:0:0:0:
263,251,2471,1,2,0:0:0:0:
263,251,2795,1,0,0:0:0:0:
263,251,2957,1,2,0:0:0:0:
320,306,3281,1,2,0:0:0:0:
320,306,3606,1,0,0:0:0:0:
396,324,3930,5,2,0:0:0:0:
396,324,4254,1,2,0:0:0:0:
396,324,4579,1,2,0:0:0:0:
396,324,4741,1,0,0:0:0:0:
461,364,5065,5,2,0:0:0:0:
461,364,5390,1,0,0:0:0:0:
461,364,5714,1,2,0:0:0:0:
461,364,6038,1,0,0:0:0:0:
461,364,6363,1,2,0:0:0:0:
461,364,6687,1,0,0:0:0:0:
461,364,7011,1,2,0:0:0:0:
461,364,7173,6,0,L|406:359,1,42.5,2|0,3:0|0:0,0:0:0:0:
329,364,7335,2,0,L|336:321,1,42.5,2|0,0:3|0:0,0:0:0:0:
454,248,7498,6,2,B|428:257|428:257|370:302|370:302|338:313,1,127.5,2|2,0:1|0:1,0:1:0:0:
268,281,7822,5,2,1:3:0:0:
240,210,7984,1,2,0:0:0:0:
278,146,8146,1,8,1:2:0:0:
352,136,8308,5,2,0:0:0:0:
352,136,8390,1,2,0:0:0:0:
352,136,8471,1,2,0:0:0:0:
352,136,8552,1,0,0:0:0:0:
352,136,8633,1,2,1:3:0:0:
336,60,8795,1,8,1:2:0:0:
260,70,8957,5,2,1:3:0:0:
260,70,9038,1,0,0:0:0:0:
260,70,9119,1,0,0:0:0:0:
185,45,9281,5,2,1:3:0:0:
111,72,9444,1,8,1:2:0:0:
90,146,9606,5,2,0:0:0:0:
90,146,9687,1,0,0:0:0:0:
90,146,9768,1,2,0:0:0:0:
90,146,9849,1,2,0:0:0:0:
90,146,9930,1,2,1:3:0:0:
100,66,10092,1,8,1:2:0:0:
34,30,10254,5,0,0:0:0:0:
34,30,10335,1,0,0:0:0:0:
34,30,10417,1,2,1:3:0:0:
110,57,10579,1,0,0:0:0:0:
166,111,10741,1,8,1:2:0:0:
172,192,10903,5,0,0:0:0:0:
172,192,10984,1,2,0:0:0:0:
172,192,11065,1,2,0:0:0:0:
172,192,11146,1,0,0:0:0:0:
172,192,11227,1,2,1:3:0:0:
158,109,11390,1,8,1:2:0:0:
223,60,11552,5,2,1:3:0:0:
223,60,11633,1,0,0:0:0:0:
223,60,11714,1,0,0:0:0:0:
315,152,11876,2,0,L|304:107,2,42.5,2|0|8,1:3|0:0|1:2,0:0:0:0:
282,229,12200,5,2,0:0:0:0:
282,229,12281,1,2,0:0:0:0:
282,229,12363,1,2,0:0:0:0:
210,256,12525,2,0,L|203:308,1,42.5,2|0,1:3|0:0,0:0:0:0:
319,370,12687,2,2,B|293:361|293:361|235:316|235:316|203:305,1,127.5,2|2,1:0|0:1,0:1:0:0:
136,340,13011,5,2,1:3:0:0:
104,270,13173,1,2,0:0:0:0:
122,195,13335,1,8,1:2:0:0:
189,150,13497,5,2,0:0:0:0:
189,150,13579,1,2,0:0:0:0:
189,150,13660,1,2,0:0:0:0:
189,150,13741,1,0,0:0:0:0:
189,150,13822,1,2,1:3:0:0:
115,187,13984,1,8,1:2:0:0:
42,148,14146,5,2,1:3:0:0:
42,148,14227,1,0,0:0:0:0:
42,148,14308,1,0,0:0:0:0:
104,100,14470,1,2,1:3:0:0:
136,29,14633,1,8,1:2:0:0:
208,0,14795,5,2,0:0:0:0:
208,0,14876,1,2,0:0:0:0:
208,0,14957,1,2,0:0:0:0:
208,0,15038,1,0,0:0:0:0:
208,0,15119,1,2,1:3:0:0:
248,67,15281,1,8,1:2:0:0:
317,34,15443,5,2,0:0:0:0:
317,34,15524,1,2,0:0:0:0:
317,34,15606,1,2,1:3:0:0:
249,79,15768,1,2,0:0:0:0:
172,66,15930,1,8,1:2:0:0:
123,4,16092,5,2,0:0:0:0:
123,4,16173,1,2,0:0:0:0:
123,4,16254,1,2,0:0:0:0:
123,4,16335,1,2,0:0:0:0:
123,4,16416,1,2,1:3:0:0:
164,74,16579,1,8,1:2:0:0:
137,147,16741,5,4,1:2:0:0:
137,147,17065,1,0,0:0:0:0:
137,147,17308,1,0,0:0:0:0:
137,147,17552,1,0,0:0:0:0:
137,147,17876,5,8,0:0:0:0:
0,167,18200,6,2,L|0:218,1,51,2|8,1:3|1:2,0:1:0:0:
65,283,19335,6,0,L|119:282,1,42.5,2|2,0:0|0:0,0:0:0:0:
177,321,19498,2,0,P|222:313|268:325,1,85,2|0,1:3|0:0,0:0:0:0:
378,281,19822,1,8,1:2:0:0:
334,345,19984,5,0,0:0:0:0:
334,345,20065,1,2,0:0:0:0:
334,345,20146,1,2,0:0:0:0:
300,259,20308,1,2,1:3:0:0:
362,199,20471,1,8,1:2:0:0:
444,214,20633,5,2,0:0:0:0:
444,214,20714,1,2,0:0:0:0:
444,214,20795,2,0,L|444:126,1,85,2|2,1:3|0:0,0:0:0:0:
414,53,21119,1,8,1:2:0:0:
343,96,21281,1,2,0:0:0:0:
275,49,21444,5,2,0:0:0:0:
275,49,21525,1,0,0:0:0:0:
275,49,21606,2,0,L|181:49,1,85,2|8,1:3|1:2,0:0:0:0:
82,191,21930,2,0,L|167:191,1,85,2|2,0:0|1:3,0:0:0:0:
285,193,22254,1,2,0:0:0:0:
286,287,22417,1,8,1:3:0:0:
396,240,22579,5,2,0:0:0:0:
396,240,22660,1,2,0:0:0:0:
396,240,22741,1,2,0:0:0:0:
396,330,22903,1,2,1:3:0:0:
396,240,23065,1,8,1:2:0:0:
394,150,23227,1,6,0:0:0:0:
512,181,23390,6,2,L|512:201,1,17,2|8,1:0|1:2,0:1:0:0:
507,77,23876,6,0,L|453:76,1,42.5,2|0,0:0|0:0,0:0:0:0:
389,39,24039,2,0,P|347:30|306:38,1,85,2|2,0:0|1:3,0:0:0:0:
237,74,24363,1,8,1:2:0:0:
160,42,24525,5,2,0:0:0:0:
160,42,24606,1,2,0:0:0:0:
160,42,24687,1,2,1:3:0:0:
98,92,24849,1,2,0:0:0:0:
101,169,25012,1,8,1:2:0:0:
183,251,25174,5,2,0:0:0:0:
183,251,25255,1,0,0:0:0:0:
183,251,25336,2,0,L|10:251,1,170,2|8,0:0|1:2,0:0:0:0:
90,252,25822,1,2,0:0:0:0:
183,251,25985,1,2,1:3:0:0:
278,155,26147,2,0,L|278:249,1,85,2|8,0:0|1:2,0:0:0:0:
370,331,26471,5,2,0:0:0:0:
370,331,26552,1,2,0:0:0:0:
370,331,26633,1,2,0:0:0:0:
280,330,26795,1,2,1:3:0:0:
192,331,26958,1,8,1:2:0:0:
280,330,27119,5,2,0:0:0:0:
280,330,27201,1,0,0:0:0:0:
280,330,27282,1,2,1:3:0:0:
401,248,27444,2,0,L|347:236,2,42.5,2|2|8,0:0|0:0|1:2,0:0:0:0:
302,178,27768,5,2,0:0:0:0:
302,178,27849,1,2,0:0:0:0:
302,178,27930,1,2,0:0:0:0:
226,155,28092,1,2,1:3:0:0:
256,39,28254,2,2,B|228:47|228:47|151:109|151:109|113:120,1,152.999995330811,2|2,1:0|0:1,0:1:0:0:
50,132,28579,5,2,1:3:0:0:
15,226,28741,2,0,L|72:226,1,42.5,2|0,0:0|0:0,0:0:0:0:
123,268,28903,2,0,P|164:260|206:269,1,85,8|2,1:2|0:0,0:0:0:0:
273,379,29227,1,2,0:0:0:0:
285,300,29390,1,2,1:3:0:0:
295,220,29552,1,8,1:2:0:0:
302,142,29714,5,2,0:0:0:0:
302,142,29795,1,0,0:0:0:0:
302,142,29876,1,2,1:3:0:0:
225,95,30038,1,2,0:0:0:0:
141,89,30200,1,8,1:2:0:0:
61,120,30363,1,2,0:0:0:0:
0,180,30525,6,2,L|0:207,1,25.5,2|2,1:0|0:0,0:1:0:0:
67,284,31173,5,2,1:3:0:0:
145,258,31335,1,2,0:0:0:0:
220,291,31498,1,8,1:2:0:0:
255,366,31660,5,2,0:0:0:0:
255,366,31741,1,2,0:0:0:0:
255,366,31822,1,2,0:0:0:0:
331,336,31984,1,2,1:3:0:0:
374,269,32146,2,0,L|374:169,2,85,8|2|0,1:2|1:3|0:0,0:0:0:0:
295,203,32633,5,2,1:3:0:0:
210,186,32795,1,8,1:2:0:0:
130,165,32957,1,2,0:0:0:0:
210,186,33119,1,2,0:0:0:0:
319,119,33281,6,0,L|316:90,3,28.3333333333333,2|0|0|8,1:3|0:0|0:0|1:2,0:0:0:0:
428,88,33606,1,2,0:0:0:0:
512,181,33768,6,2,L|512:201,1,17,2|8,1:0|1:2,0:1:0:0:
454,279,34254,5,2,0:0:0:0:
377,248,34417,2,0,L|315:250,1,42.5,2|0,0:0|0:0,0:0:0:0:
276,307,34579,2,0,P|233:316|183:304,1,85,2|8,1:3|1:2,0:0:0:0:
128,247,34903,5,2,0:0:0:0:
128,247,34984,1,0,0:0:0:0:
128,247,35065,1,2,1:3:0:0:
168,174,35227,1,2,0:0:0:0:
129,105,35390,1,8,1:2:0:0:
53,97,35552,5,2,0:0:0:0:
53,97,35633,1,2,0:0:0:0:
53,97,35714,1,2,0:0:0:0:
130,94,35876,1,2,1:3:0:0:
187,42,36038,1,8,1:2:0:0:
247,96,36200,1,2,0:0:0:0:
307,148,36363,6,0,L|403:148,1,85,2|2,0:3|0:0,0:0:0:0:
206,281,36687,6,0,L|302:281,1,85,2|2,0:3|0:0,0:0:0:0:
382,239,37011,6,0,L|478:239,1,85,2|2,0:3|0:0,0:0:0:0:
148,202,37335,6,0,L|244:202,1,85,2|2,0:3|0:0,0:0:0:0:
307,148,37660,6,0,L|403:148,1,85,2|2,0:3|0:0,0:0:0:0:
171,88,37984,6,0,L|267:88,1,85,2|2,0:3|0:0,0:0:0:0:
297,1,38308,5,2,0:3:0:0:
297,1,38633,6,2,B|269:9|269:9|192:71|192:71|154:82,1,152.999995330811,2|2,0:1|0:1,0:1:0:0:
93,78,38957,6,0,L|8:78,1,85,2|0,1:3|0:0,0:0:0:0:
7,173,39281,1,8,1:2:0:0:
98,175,39444,5,2,0:0:0:0:
98,175,39525,1,2,0:0:0:0:
98,175,39606,2,0,L|98:277,1,85,2|2,0:0|1:3,0:0:0:0:
188,264,39930,1,8,1:2:0:0:
188,175,40092,5,2,0:0:0:0:
188,175,40173,1,0,0:0:0:0:
188,175,40254,2,0,L|188:65,1,85,2|2,1:3|0:0,0:0:0:0:
285,90,40579,1,8,1:2:0:0:
289,180,40741,5,2,0:0:0:0:
289,180,40822,1,2,0:0:0:0:
289,180,40903,2,0,L|391:180,1,85,2|2,0:0|1:3,0:0:0:0:
469,97,41227,2,0,L|384:97,1,85,8|2,1:2|0:0,0:0:0:0:
285,90,41552,5,2,1:3:0:0:
289,180,41714,1,2,0:0:0:0:
374,180,41876,1,8,1:2:0:0:
379,264,42038,1,2,0:0:0:0:
290,266,42200,1,2,0:0:0:0:
288,353,42363,1,2,1:3:0:0:
206,350,42525,1,8,1:2:0:0:
205,266,42687,1,2,0:0:0:0:
204,183,42849,1,2,1:3:0:0:
121,264,43011,5,2,0:0:0:0:
39,264,43173,1,8,1:2:0:0:
39,179,43335,5,2,0:0:0:0:
39,179,43417,1,2,0:0:0:0:
39,179,43498,2,0,L|39:279,1,85,2|2,0:0|1:3,0:0:0:0:
122,181,43822,1,8,1:2:0:0:
33,97,43984,1,2,0:0:0:0:
121,93,44146,2,0,L|121:8,1,85,2|2,1:3|0:0,0:0:0:0:
231,76,44471,1,8,1:2:0:0:
311,32,44633,5,2,0:0:0:0:
311,32,44714,1,2,0:0:0:0:
311,32,44795,1,2,0:0:0:0:
311,32,44876,1,2,0:0:0:0:
311,32,44957,1,2,1:3:0:0:
239,84,45119,1,8,1:2:0:0:
266,159,45281,5,0,0:0:0:0:
266,159,45363,1,0,0:0:0:0:
266,159,45444,1,2,1:3:0:0:
340,187,45606,1,2,0:0:0:0:
406,143,45768,1,8,1:2:0:0:
400,66,45930,5,2,0:0:0:0:
400,66,46011,1,2,0:0:0:0:
400,66,46092,1,2,0:0:0:0:
400,66,46173,1,2,0:0:0:0:
400,66,46254,1,2,1:3:0:0:
343,15,46417,1,8,1:2:0:0:
263,9,46579,5,2,0:0:0:0:
263,9,46660,1,0,0:0:0:0:
263,9,46741,1,2,1:3:0:0:
222,73,46903,1,2,0:0:0:0:
146,92,47065,1,8,1:2:0:0:
75,64,47227,1,2,0:0:0:0:
0,86,47390,5,2,0:0:0:0:
0,86,47471,1,2,0:0:0:0:
0,86,47552,1,2,1:3:0:0:
54,143,47714,1,8,1:2:0:0:
75,218,47876,1,2,0:0:0:0:
89,293,48038,5,2,1:0:0:0:
193,266,48200,2,0,L|181:306,1,42.5,2|0,3:1|0:0,0:0:0:0:
159,189,48363,5,8,1:2:0:0:
270,238,48525,2,0,L|282:184,1,42.5,2|0,3:1|0:0,0:0:0:0:
165,113,48687,6,2,B|193:121|193:121|270:183|270:183|308:194,1,152.999995330811,2|2,1:0|0:1,0:1:0:0:
358,266,49011,2,2,B|386:258|386:258|463:196|463:196|501:185,1,152.999995330811,2|2,1:0|0:0,0:1:0:0:
500,192,49335,5,2,1:3:0:0:
312,21,49660,2,2,L|312:106,1,85,10|2,1:2|0:0,0:0:0:0:
313,183,49903,5,2,0:0:0:0:
313,183,49984,1,2,0:0:0:0:
239,145,50146,1,2,1:3:0:0:
173,103,50308,1,8,1:2:0:0:
106,66,50471,5,2,0:0:0:0:
106,66,50552,1,2,0:0:0:0:
106,66,50633,1,2,1:3:0:0:
60,132,50795,1,2,0:0:0:0:
15,198,50957,2,0,L|15:315,1,85,8|2,1:2|0:0,0:0:0:0:
16,359,51200,5,0,0:0:0:0:
16,359,51281,1,2,0:0:0:0:
85,316,51444,1,2,1:3:0:0:
150,270,51606,1,8,1:2:0:0:
217,227,51768,5,2,0:0:0:0:
217,227,51849,1,2,0:0:0:0:
217,227,51930,1,2,1:3:0:0:
266,284,52092,1,0,0:0:0:0:
321,339,52254,2,0,L|425:339,1,85,8|2,1:2|0:0,0:0:0:0:
483,338,52498,5,2,0:0:0:0:
483,338,52579,1,2,0:0:0:0:
394,253,52741,2,0,L|493:253,1,85,2|8,1:3|1:2,0:0:0:0:
478,118,53065,2,0,L|393:118,1,85,2|2,0:0|1:3,0:0:0:0:
291,20,53390,1,2,0:0:0:0:
382,21,53552,1,8,1:2:0:0:
292,117,53714,5,2,0:0:0:0:
292,117,53795,1,2,0:0:0:0:
292,117,53876,1,2,0:0:0:0:
213,150,54038,1,2,1:3:0:0:
133,132,54200,1,8,1:2:0:0:
83,66,54363,1,6,0:0:0:0:
6,44,54525,5,2,1:3:0:0:
23,122,54687,1,0,0:0:0:0:
45,197,54849,1,8,1:2:0:0:
62,276,55011,5,2,0:0:0:0:
62,276,55092,1,2,0:0:0:0:
62,276,55173,1,2,0:0:0:0:
139,248,55335,1,2,1:3:0:0:
213,219,55498,2,0,L|326:219,1,85,8|2,1:2|0:0,0:0:0:0:
374,219,55741,5,2,0:0:0:0:
374,219,55822,1,2,1:3:0:0:
354,144,55984,1,2,0:0:0:0:
327,72,56146,1,8,1:2:0:0:
301,0,56308,5,2,0:0:0:0:
301,0,56390,1,2,0:0:0:0:
301,0,56471,1,2,0:0:0:0:
248,63,56633,1,2,1:3:0:0:
203,127,56795,2,0,L|105:127,1,85,8|2,1:2|0:0,0:0:0:0:
41,130,57038,5,0,0:0:0:0:
41,130,57119,1,2,1:3:0:0:
63,206,57281,1,0,0:0:0:0:
90,283,57444,1,8,1:2:0:0:
125,356,57606,5,2,0:0:0:0:
125,356,57687,1,2,0:0:0:0:
125,356,57768,1,2,0:0:0:0:
169,287,57930,1,2,1:3:0:0:
205,217,58092,2,0,L|309:217,1,85,8|2,1:2|0:0,0:0:0:0:
187,135,58417,5,2,1:3:0:0:
105,133,58579,2,0,L|50:133,1,42.5,2|0,0:0|0:0,0:0:0:0:
11,194,58741,1,8,1:2:0:0:
33,272,58903,5,2,0:0:0:0:
33,272,58984,1,2,0:0:0:0:
33,272,59065,1,2,0:0:0:0:
111,282,59227,2,0,L|165:282,1,42.5,2|0,1:3|0:0,0:0:0:0:
242,161,59390,6,2,B|234:189|234:189|172:266|172:266|161:304,1,152.999995330811,2|2,1:0|0:1,0:1:0:0:
0,196,59876,6,0,L|0:187,1,8.5,2|10,0:1|1:2,0:0:0:0:
84,223,60200,5,2,0:0:0:0:
160,185,60363,1,2,0:0:0:0:
256,225,60525,1,2,1:3:0:0:
357,188,60687,1,8,1:2:0:0:
430,221,60849,1,2,0:0:0:0:
512,174,61011,6,2,L|512:208,1,34,2|4,1:0|1:2,0:1:0:0:
370,288,61876,5,4,1:2:0:0:
261,164,62092,5,4,1:2:0:0:
353,36,62308,5,2,1:3:0:0:
442,69,62471,1,2,0:0:0:0:
441,160,62633,1,8,1:2:0:0:
347,183,62795,5,2,0:0:0:0:
347,183,62876,1,2,0:0:0:0:
347,183,62957,1,2,0:0:0:0:
292,102,63119,1,2,1:3:0:0:
212,69,63281,1,8,1:2:0:0:
127,92,63444,5,2,0:0:0:0:
127,92,63525,1,2,0:0:0:0:
127,92,63606,1,2,1:3:0:0:
121,172,63768,1,2,0:0:0:0:
42,190,63930,1,8,1:2:0:0:
0,122,64092,1,2,0:0:0:0:
51,62,64254,1,2,0:0:0:0:
121,172,64417,6,0,L|169:180,3,28.3333333333333,2|0|0|8,0:0|0:0|0:0|1:2,0:0:0:0:
62,270,64741,1,0,0:0:0:0:
110,332,64903,1,2,1:3:0:0:
176,292,65065,1,0,0:0:0:0:
227,348,65227,1,8,1:2:0:0:
288,304,65390,5,2,0:0:0:0:
288,304,65471,1,2,0:0:0:0:
288,304,65552,1,2,0:0:0:0:
364,318,65714,1,2,1:3:0:0:
441,332,65876,1,8,1:2:0:0:
496,274,66038,5,2,0:0:0:0:
496,274,66119,1,0,0:0:0:0:
496,274,66200,1,2,1:3:0:0:
418,260,66363,1,2,0:0:0:0:
343,243,66525,1,8,1:2:0:0:
269,227,66687,5,2,0:0:0:0:
269,227,66768,1,2,0:0:0:0:
269,227,66849,1,2,0:0:0:0:
231,131,67011,1,2,1:3:0:0:
138,108,67173,1,8,1:2:0:0:
57,160,67335,5,2,0:0:0:0:
57,160,67417,1,2,0:0:0:0:
57,160,67498,2,0,L|57:245,1,85,2|2,0:3|0:0,0:0:0:0:
161,290,67822,2,0,L|161:205,1,85,2|2,0:3|0:0,0:0:0:0:
11,336,68146,1,2,0:3:0:0:
11,336,68471,6,2,B|41:335|41:335|136:300|136:300|189:306,1,152.999995330811,2|2,0:1|0:1,0:1:0:0:
236,330,68795,1,2,1:3:0:0:
314,300,68957,1,0,0:0:0:0:
348,231,69119,1,8,1:2:0:0:
326,156,69281,5,2,0:0:0:0:
326,156,69363,1,2,0:0:0:0:
326,156,69444,1,2,0:0:0:0:
326,156,69525,1,0,0:0:0:0:
326,156,69606,1,2,1:3:0:0:
370,221,69768,1,8,1:2:0:0:
438,261,69930,5,0,0:0:0:0:
438,261,70011,1,0,0:0:0:0:
438,261,70092,1,2,1:3:0:0:
357,233,70254,1,0,0:0:0:0:
281,237,70417,1,8,1:2:0:0:
210,278,70579,5,2,0:0:0:0:
210,278,70660,1,2,0:0:0:0:
210,278,70741,1,2,0:0:0:0:
210,278,70822,1,0,0:0:0:0:
210,278,70903,1,2,1:3:0:0:
183,204,71065,1,8,1:2:0:0:
224,137,71227,5,2,0:0:0:0:
224,137,71308,1,0,0:0:0:0:
224,137,71390,1,2,1:3:0:0:
170,191,71552,1,2,0:0:0:0:
91,205,71714,1,8,1:2:0:0:
19,174,71876,5,2,0:0:0:0:
19,174,71957,1,2,0:0:0:0:
19,174,72038,1,2,0:0:0:0:
19,174,72119,1,0,0:0:0:0:
19,174,72200,1,2,1:3:0:0:
80,116,72363,1,8,1:2:0:0:
159,108,72525,5,2,0:0:0:0:
159,108,72606,1,0,0:0:0:0:
159,108,72687,1,2,1:3:0:0:
203,39,72849,1,2,0:0:0:0:
282,16,73011,1,8,1:2:0:0:
358,43,73173,5,2,0:0:0:0:
358,43,73254,1,0,0:0:0:0:
358,43,73335,1,2,0:0:0:0:
315,111,73498,1,2,1:3:0:0:
391,150,73660,1,8,1:2:0:0:
343,213,73822,1,2,0:0:0:0:
406,273,73984,5,2,1:3:0:0:
343,213,74146,1,2,0:0:0:0:
257,202,74308,1,8,1:2:0:0:
177,241,74471,1,2,0:0:0:0:
155,318,74633,1,2,0:0:0:0:
237,329,74795,1,2,1:3:0:0:
307,289,74957,1,8,1:2:0:0:
343,213,75119,1,2,0:0:0:0:
321,132,75281,6,0,L|321:36,1,85,2|2,1:3|0:0,0:0:0:0:
392,285,75606,1,8,1:2:0:0:
343,213,75768,5,2,0:0:0:0:
343,213,75849,1,2,0:0:0:0:
343,213,75930,1,2,0:0:0:0:
262,188,76092,1,2,1:3:0:0:
181,220,76254,1,10,1:2:0:0:
147,296,76417,1,2,0:0:0:0:
172,376,76579,1,2,1:3:0:0:
231,314,76741,1,2,0:0:0:0:
213,233,76903,1,8,1:2:0:0:
132,201,77065,5,2,0:0:0:0:
132,201,77146,1,2,0:0:0:0:
132,201,77227,1,2,0:0:0:0:
42,216,77390,1,2,1:3:0:0:
28,123,77552,1,8,1:2:0:0:
118,108,77714,5,2,0:0:0:0:
118,108,77795,1,2,0:0:0:0:
118,108,77876,2,0,L|191:25,1,101.999996887207,4|0,1:0|0:0,0:0:0:0:
225,111,78200,2,0,L|296:38,1,101.999996887207,4|0,1:0|0:0,0:0:0:0:
334,115,78444,1,2,0:0:0:0:
334,115,78525,2,0,L|334:183,1,50.9999984436036,4|0,1:0|0:0,0:0:0:0:
433,116,78687,2,0,L|433:14,1,101.999996887207,2|8,1:3|1:2,0:0:0:0:
512,192,79011,6,2,L|512:200,1,8.5,2|2,1:0|1:3,0:1:0:0:
512,115,79335,6,0,L|512:43,1,50.9999984436036,2|0,0:0|0:0,0:0:0:0:
435,193,79498,6,2,L|435:201,1,8.5,2|2,1:0|0:0,0:1:0:0:
436,281,79741,1,2,0:0:0:0:
436,281,79822,1,2,0:0:0:0:
337,188,79984,6,2,L|337:204,1,17,2|2,1:0|0:0,0:1:0:0:
336,109,80471,6,0,L|336:43,1,50.9999984436036,2|0,1:3|0:0,0:0:0:0:
257,187,80633,6,2,L|257:195,1,8.5,2|8,1:0|1:2,0:1:0:0:
256,271,80957,5,2,0:0:0:0:
256,271,81038,1,2,0:0:0:0:
256,271,81119,1,2,0:0:0:0:
107,270,81281,2,0,L|141:270,3,33.9999989624024,2|2|2|8,1:0|0:0|0:0|1:2,0:0:0:0:
182,187,81606,6,2,L|182:195,1,8.5,2|2,1:0|1:3,0:1:0:0:
183,110,81930,5,2,0:0:0:0:
183,110,82092,2,0,L|183:36,1,50.9999984436036,8|0,1:2|0:0,0:0:0:0:
105,184,82254,6,2,L|105:192,1,8.5,2|2,1:0|0:0,0:1:0:0:
107,321,82579,6,0,L|107:262,1,50.9999984436036,2|0,1:3|0:0,0:0:0:0:
186,298,82741,2,0,L|250:299,1,50.9999984436036,8|0,1:2|0:0,0:0:0:0:
107,321,82903,1,2,0:0:0:0:
0,182,83065,6,2,L|0:198,1,17,2|10,1:0|1:2,0:1:0:0:
0,104,83498,6,0,L|0:65,4,33.9999989624024,0|2|2|2|8,0:0|0:0|0:0|0:0|1:3,0:0:0:0:
171,106,83876,1,0,0:0:0:0:
77,107,84038,2,0,L|77:56,1,50.9999984436036,8|0,1:2|0:0,0:0:0:0:
0,182,84200,6,2,L|0:199,1,17,2|2,0:1|0:0,0:1:0:0:
75,187,84687,6,2,L|75:195,1,8.5,2|2,1:0|0:0,0:1:0:0:
172,185,85011,6,2,L|172:201,1,17,2|8,0:1|1:2,0:1:0:0:
173,324,85498,6,0,L|173:266,1,50.9999984436036,2|2,0:0|0:0,0:0:0:0:
256,191,85660,6,2,L|256:199,1,8.5,2|0,1:0|0:0,0:1:0:0:
256,116,85876,6,0,L|256:81,2,33.9999989624024,2|2|8,0:0|0:0|1:2,0:0:0:0:
344,60,86146,1,2,0:0:0:0:
171,61,86308,2,0,L|171:112,1,50.9999984436036,2|0,0:0|0:0,0:0:0:0:
257,3,86471,1,2,1:3:0:0:
344,111,86633,2,0,L|344:53,1,50.9999984436036,8|2,1:2|0:0,0:0:0:0:
344,186,86795,6,2,L|344:202,1,17,2|2,0:1|0:0,0:1:0:0:
344,327,87281,6,0,L|344:270,1,50.9999984436036,8|0,1:2|0:0,0:0:0:0:
421,190,87444,6,2,L|421:198,1,8.5,2|2,1:0|0:0,0:1:0:0:
422,62,87768,5,2,1:3:0:0:
422,62,87930,2,0,L|422:122,1,50.9999984436036,8|0,1:2|0:0,0:0:0:0:
345,107,88092,2,0,L|285:107,1,50.9999984436036,2|0,0:0|0:0,0:0:0:0:
508,186,88254,6,0,L|508:202,1,17,2|8,1:0|1:2,0:1:0:0:
510,279,88741,5,2,0:0:0:0:
510,279,88822,1,0,0:0:0:0:
510,279,88903,1,2,0:0:0:0:
334,279,89065,1,2,1:3:0:0:
446,335,89227,2,0,L|382:335,1,50.9999984436036,8|0,1:2|0:0,0:0:0:0:
508,186,89390,6,2,L|508:202,1,17,2|2,0:1|0:0,0:1:0:0:
508,108,89795,5,0,0:0:0:0:
508,108,89876,1,8,1:2:0:0:
348,56,90038,2,0,L|348:118,1,50.9999984436036,2|2,0:0|0:0,0:0:0:0:
434,187,90200,6,2,L|434:195,1,8.5,2|2,1:0|1:3,0:1:0:0:
434,323,90525,6,0,L|434:267,1,50.9999984436036,8|0,1:2|0:0,0:0:0:0:
349,182,90687,6,2,L|349:198,1,17,2|2,0:1|0:0,0:1:0:0:
348,56,91173,6,0,L|348:118,1,50.9999984436036,10|0,1:2|0:0,0:0:0:0:
262,180,91335,6,2,L|262:196,1,17,2|2,0:1|1:3,0:1:0:0:
134,274,91822,6,0,L|200:274,1,50.9999984436036,8|0,1:2|0:0,0:0:0:0:
261,323,91984,2,0,L|261:272,1,50.9999984436036,2|0,0:0|0:0,0:0:0:0:
174,179,92146,6,2,L|174:195,1,17,2|8,1:0|1:2,0:1:0:0:
87,181,92633,6,2,L|87:197,1,17,2|2,1:0|3:2,0:1:0:0:
0,180,93119,6,2,L|0:196,1,17,2|2,1:0|1:3,0:1:0:0:
0,50,93606,5,2,0:0:0:0:
137,112,93768,2,0,L|86:112,1,50.9999984436036,8|0,1:2|0:0,0:0:0:0:
216,113,93930,1,2,0:0:0:0:
216,113,94011,1,2,0:0:0:0:
216,113,94092,1,2,0:0:0:0:
0,180,94254,1,2,1:3:0:0:
86,112,94417,2,0,L|86:163,1,50.9999984436036,8|0,1:2|0:0,0:0:0:0:
89,242,94579,2,0,L|89:311,1,50.9999984436036,2|2,0:0|0:0,0:0:0:0:
89,372,94741,6,2,L|89:380,1,8.5,2|2,1:0|0:0,0:1:0:0:
13,339,95065,6,0,L|13:274,1,50.9999984436036,8|0,1:2|0:0,0:0:0:0:
211,331,95227,2,0,L|160:331,1,50.9999984436036,2|2,0:0|0:0,0:0:0:0:
172,247,95390,6,2,L|172:255,1,8.5,2|2,1:0|1:3,0:1:0:0:
131,171,95714,6,0,L|131:120,1,50.9999984436036,8|0,1:2|0:0,0:0:0:0:
310,252,95876,2,0,L|259:251,1,50.9999984436036,2|2,0:0|0:0,0:0:0:0:
293,150,96038,6,2,L|293:166,1,17,2|8,1:0|1:2,0:1:0:0:
306,161,96525,5,2,0:0:0:0:
328,248,96687,5,2,0:0:0:0:
369,95,96849,5,2,1:3:0:0:
421,270,97011,5,8,1:2:0:0:
459,118,97173,5,2,0:0:0:0:
490,209,97335,5,2,1:3:0:0:
394,185,97498,1,2,0:0:0:0:
306,161,97660,1,2,0:0:0:0:
227,234,97822,5,2,0:0:0:0:
142,208,97984,1,2,0:0:0:0:
60,179,98146,1,2,0:0:0:0:
0,236,98308,5,2,0:0:0:0:
0,311,98471,1,2,0:0:0:0:
0,384,98633,5,0,1:0:0:0:
0,384,98957,1,0,1:0:0:0:
0,384,99281,1,0,1:0:0:0:
0,384,99606,6,2,B|47:369|47:369|178:264|178:264|242:246,1,255.000009727478,2|6,1:0|1:1,0:1:0:0:
