osu file format v14

[General]
AudioFilename: audio.mp3
AudioLeadIn: 0
PreviewTime: -1
Countdown: 1
SampleSet: None
StackLeniency: 0.7
Mode: 0
LetterboxInBreaks: 0
WidescreenStoryboard: 0

[Editor]
DistanceSpacing: 1.2
BeatDivisor: 4
GridSize: 4
TimelineZoom: 1.7

[Metadata]
Title:Thringer Kle (Das Original)
TitleUnicode:Thüringer Klöße (Das Original)
Artist:Fritz
ArtistUnicode:Fritz
Creator:Mukboi223
Version:Easy
Source:
Tags:
BeatmapID:1882704
BeatmapSetID:901703

[Difficulty]
HPDrainRate:5
CircleSize:5
OverallDifficulty:5
ApproachRate:5
SliderMultiplier:1.6
SliderTickRate:1

[Events]
//Background and Video events
0,0,"getcover.jpg",0,0
//Break Periods
//Storyboard Layer 0 (Background)
//Storyboard Layer 1 (Fail)
//Storyboard Layer 2 (Pass)
//Storyboard Layer 3 (Foreground)
//Storyboard Sound Samples

[TimingPoints]
1962.16416116008,504.201680672269,4,1,0,100,1,0

[Colours]
Combo1 : 255,255,255
Combo2 : 255,0,0
Combo3 : 255,255,255
Combo4 : 255,255,255

[HitObjects]
256,192,10029,12,0,11541,0:0:0:0:
98,100,12046,5,0,0:0:0:0:
106,147,12172,2,0,B|358:201|362:124|290:82|290:81|292:79,1,280
345,94,14189,1,0,0:0:0:0:
161,151,14693,1,0,0:0:0:0:
314,72,15197,1,0,0:0:0:0:
342,243,15701,1,0,0:0:0:0:
211,138,16331,1,0,0:0:0:0:
383,105,16836,1,0,0:0:0:0:
191,105,17340,1,0,0:0:0:0:
355,208,17844,1,0,0:0:0:0:
168,170,18342,1,0,0:0:0:0:
373,94,18852,1,0,0:0:0:0:
225,100,19357,1,0,0:0:0:0:
139,258,19609,1,0,0:0:0:0:
296,183,20365,1,0,0:0:0:0:
143,119,20869,1,0,0:0:0:0:
351,119,21373,1,0,0:0:0:0:
163,243,22004,1,0,0:0:0:0:
156,72,22508,1,0,0:0:0:0:
335,121,23012,1,0,0:0:0:0:
170,194,23515,1,0,0:0:0:0:
182,28,24020,1,0,0:0:0:0:
285,129,24525,1,0,0:0:0:0:
91,197,25029,1,0,0:0:0:0:
261,87,25533,1,0,0:0:0:0:
454,154,26037,1,0,0:0:0:0:
263,195,26541,1,0,0:0:0:0:
355,57,27046,1,0,0:0:0:0:
195,177,27676,1,0,0:0:0:0:
357,187,27928,1,0,0:0:0:0:
134,193,28687,1,0,0:0:0:0:
315,166,29189,1,0,0:0:0:0:
146,163,29693,1,0,0:0:0:0:
322,172,30197,1,0,0:0:0:0:
172,162,30701,1,0,0:0:0:0:
295,113,31205,5,0,0:0:0:0:
250,91,31457,1,0,0:0:0:0:
291,197,31710,1,0,0:0:0:0:
374,79,31962,1,0,0:0:0:0:
278,91,32340,1,0,0:0:0:0:
35,22,32718,1,0,0:0:0:0:
240,128,33348,1,0,0:0:0:0:
401,223,33852,1,0,0:0:0:0:
211,190,34357,1,0,0:0:0:0:
341,84,34861,1,0,0:0:0:0:
197,201,35365,1,0,0:0:0:0:
346,86,35869,1,0,0:0:0:0:
286,132,36121,1,0,0:0:0:0:
79,295,36878,1,0,0:0:0:0:
212,190,37382,1,0,0:0:0:0:
361,73,37886,1,0,0:0:0:0:
280,136,38138,1,0,0:0:0:0:
53,319,38894,1,0,0:0:0:0:
183,117,39525,1,0,0:0:0:0:
374,212,40029,5,0,0:0:0:0:
230,101,40659,1,0,0:0:0:0:
177,223,41037,1,0,0:0:0:0:
334,153,41541,1,0,0:0:0:0:
152,112,42046,1,0,0:0:0:0:
196,290,42550,1,0,0:0:0:0:
243,220,42802,1,0,0:0:0:0:
377,173,43180,1,0,0:0:0:0:
200,131,43684,1,0,0:0:0:0:
293,276,44189,1,0,0:0:0:0:
369,110,44693,1,0,0:0:0:0:
176,134,45197,5,0,0:0:0:0:
262,300,45701,1,0,0:0:0:0:
381,149,46205,1,0,0:0:0:0:
189,103,46710,1,0,0:0:0:0:
136,190,46962,1,0,0:0:0:0:
249,229,47340,1,0,0:0:0:0:
368,112,47844,1,0,0:0:0:0:
214,107,48222,1,0,0:0:0:0:
71,294,48852,1,0,0:0:0:0:
231,223,49357,1,0,0:0:0:0:
177,57,49861,1,0,0:0:0:0:
337,154,50365,1,0,0:0:0:0:
157,210,50869,1,0,0:0:0:0:
335,313,51373,1,0,0:0:0:0:
180,169,51878,1,0,0:0:0:0:
388,178,52382,1,0,0:0:0:0:
191,115,52886,1,0,0:0:0:0:
397,179,53516,5,0,0:0:0:0:
215,170,54020,1,0,0:0:0:0:
385,98,54525,1,0,0:0:0:0:
206,200,55029,1,0,0:0:0:0:
408,277,55533,1,0,0:0:0:0:
286,195,56037,1,0,0:0:0:0:
414,32,56541,1,0,0:0:0:0:
226,135,57172,1,0,0:0:0:0:
344,244,57550,1,0,0:0:0:0:
136,194,58180,1,0,0:0:0:0:
299,161,58684,1,0,0:0:0:0:
458,175,59189,1,0,0:0:0:0:
228,155,59693,1,0,0:0:0:0:
41,158,60197,1,0,0:0:0:0:
235,125,60701,1,0,0:0:0:0:
333,134,60953,1,0,0:0:0:0:
294,241,61205,1,0,0:0:0:0:
211,61,61710,1,0,0:0:0:0:
380,169,62214,1,0,0:0:0:0:
174,161,62718,1,0,0:0:0:0:
375,141,63222,1,0,0:0:0:0:
152,169,63852,1,0,0:0:0:0:
345,175,64357,1,0,0:0:0:0:
147,189,64861,1,0,0:0:0:0:
277,162,65239,5,0,0:0:0:0:
267,55,65491,1,0,0:0:0:0:
133,138,65869,1,0,0:0:0:0:
314,194,66373,1,0,0:0:0:0:
171,44,66878,1,0,0:0:0:0:
203,141,67130,1,0,0:0:0:0:
89,155,67382,1,0,0:0:0:0:
211,119,67760,1,0,0:0:0:0:
159,41,68012,1,0,0:0:0:0:
252,97,68264,1,0,0:0:0:0:
162,178,68642,1,0,0:0:0:0:
241,135,68894,1,0,0:0:0:0:
307,233,69273,1,0,0:0:0:0:
324,117,69525,1,0,0:0:0:0:
131,124,70029,1,0,0:0:0:0:
316,90,70533,1,0,0:0:0:0:
131,151,71037,1,0,0:0:0:0:
305,274,71541,1,0,0:0:0:0:
130,143,72172,1,0,0:0:0:0:
290,122,72550,1,0,0:0:0:0:
157,279,73054,1,0,0:0:0:0:
276,72,73684,1,0,0:0:0:0:
389,199,74189,1,0,0:0:0:0:
233,167,74693,1,0,0:0:0:0:
434,92,75197,1,0,0:0:0:0:
248,121,75701,1,0,0:0:0:0:
163,304,76205,1,0,0:0:0:0:
310,167,76710,1,0,0:0:0:0:
102,188,77214,1,0,0:0:0:0:
315,149,77844,1,0,0:0:0:0:
143,187,78348,5,0,0:0:0:0:
315,232,78852,1,0,0:0:0:0:
224,77,79357,1,0,0:0:0:0:
189,258,79861,1,0,0:0:0:0:
321,127,80365,1,0,0:0:0:0:
258,72,80617,1,0,0:0:0:0:
180,111,80869,1,0,0:0:0:0:
95,280,81373,1,0,0:0:0:0:
228,154,81878,1,0,0:0:0:0:
403,129,82382,1,0,0:0:0:0:
216,105,82886,1,0,0:0:0:0:
35,126,83390,1,0,0:0:0:0:
236,233,84020,1,0,0:0:0:0:
331,77,84525,1,0,0:0:0:0:
259,114,84777,1,0,0:0:0:0:
175,120,85029,1,0,0:0:0:0:
94,135,85281,1,0,0:0:0:0:
163,189,85533,1,0,0:0:0:0:
256,174,85785,1,0,0:0:0:0:
313,76,86037,1,0,0:0:0:0:
197,114,86415,1,0,0:0:0:0:
131,156,86668,1,0,0:0:0:0:
286,188,87046,5,0,0:0:0:0:
336,27,87550,1,0,0:0:0:0:
203,126,88054,1,0,0:0:0:0:
374,271,88558,1,0,0:0:0:0:
305,104,89063,1,0,0:0:0:0:
102,173,89567,1,0,0:0:0:0:
327,142,90197,1,0,0:0:0:0:
142,82,90701,1,0,0:0:0:0:
208,158,90953,1,0,0:0:0:0:
99,163,91205,1,0,0:0:0:0:
202,119,91457,1,0,0:0:0:0:
87,114,91710,1,0,0:0:0:0:
286,177,92214,1,0,0:0:0:0:
97,129,92718,1,0,0:0:0:0:
267,113,93222,5,0,0:0:0:0:
81,157,93726,1,0,0:0:0:0:
303,224,94357,1,0,0:0:0:0:
320,49,94861,1,0,0:0:0:0:
194,172,95365,1,0,0:0:0:0:
356,283,95869,1,0,0:0:0:0:
191,154,96373,1,0,0:0:0:0:
194,330,97004,1,0,0:0:0:0:
303,203,97508,1,0,0:0:0:0:
137,147,98012,1,0,0:0:0:0:
300,113,98516,1,0,0:0:0:0:
146,149,99020,1,0,0:0:0:0:
339,260,99525,1,0,0:0:0:0:
203,125,100029,1,0,0:0:0:0:
253,312,100533,1,0,0:0:0:0:
341,126,101037,1,0,0:0:0:0:
226,194,101415,1,0,0:0:0:0:
248,61,101794,1,0,0:0:0:0:
164,157,102172,1,0,0:0:0:0:
306,205,102550,1,0,0:0:0:0:
369,25,103054,1,0,0:0:0:0:
290,105,103306,1,0,0:0:0:0:
166,127,103684,1,0,0:0:0:0:
227,286,104189,1,0,0:0:0:0:
336,150,104693,5,0,0:0:0:0:
167,118,105197,1,0,0:0:0:0:
341,89,105701,1,0,0:0:0:0:
209,215,106205,1,0,0:0:0:0:
109,64,106710,1,0,0:0:0:0:
305,126,107214,1,0,0:0:0:0:
82,187,107844,1,0,0:0:0:0:
247,181,108348,1,0,0:0:0:0:
263,31,108726,1,0,0:0:0:0:
355,187,109231,1,0,0:0:0:0:
178,187,109735,1,0,0:0:0:0:
288,103,110113,1,0,0:0:0:0:
345,157,110365,1,0,0:0:0:0:
169,187,110869,1,0,0:0:0:0:
330,92,111373,1,0,0:0:0:0:
277,166,111626,1,0,0:0:0:0:
373,158,111878,1,0,0:0:0:0:
148,161,112508,1,0,0:0:0:0:
307,129,112886,1,0,0:0:0:0:
83,188,113516,5,0,0:0:0:0:
270,181,114020,1,0,0:0:0:0:
449,145,114525,1,0,0:0:0:0:
262,143,115029,1,0,0:0:0:0:
396,244,115533,1,0,0:0:0:0:
245,165,116037,1,0,0:0:0:0:
60,247,116541,1,0,0:0:0:0:
239,142,117046,1,0,0:0:0:0:
432,129,117550,1,0,0:0:0:0:
250,140,118054,1,0,0:0:0:0:
309,327,118558,1,0,0:0:0:0:
218,148,119063,1,0,0:0:0:0:
412,153,119567,5,0,0:0:0:0:
212,140,120071,1,0,0:0:0:0:
113,183,120323,1,0,0:0:0:0:
230,175,120575,1,0,0:0:0:0:
123,85,120953,1,0,0:0:0:0:
213,143,121205,1,0,0:0:0:0:
131,255,121584,1,0,0:0:0:0:
204,195,121836,1,0,0:0:0:0:
271,122,122088,1,0,0:0:0:0:
188,147,122340,1,0,0:0:0:0:
268,172,122592,1,0,0:0:0:0:
176,165,122844,1,0,0:0:0:0:
270,174,123096,1,0,0:0:0:0:
176,165,123348,1,0,0:0:0:0:
367,207,123852,5,0,0:0:0:0:
222,106,124357,1,0,0:0:0:0:
167,231,124735,1,0,0:0:0:0:
365,242,125239,1,0,0:0:0:0:
169,113,125869,1,0,0:0:0:0:
350,105,126373,1,0,0:0:0:0:
278,136,126626,1,0,0:0:0:0:
343,199,126878,1,0,0:0:0:0:
146,172,127382,1,0,0:0:0:0:
359,111,128012,1,0,0:0:0:0:
183,132,128516,1,0,0:0:0:0:
241,170,128768,1,0,0:0:0:0:
162,211,129020,1,0,0:0:0:0:
346,177,129525,5,0,0:0:0:0:
191,136,129903,1,0,0:0:0:0:
316,305,130407,1,0,0:0:0:0:
156,168,131037,1,0,0:0:0:0:
340,126,131541,1,0,0:0:0:0:
192,205,132046,1,0,0:0:0:0:
246,123,132298,1,0,0:0:0:0:
299,209,132550,1,0,0:0:0:0:
94,178,133054,1,0,0:0:0:0:
303,148,133684,1,0,0:0:0:0:
119,162,134189,1,0,0:0:0:0:
285,112,134693,1,0,0:0:0:0:
150,234,135197,1,0,0:0:0:0:
319,155,135701,1,0,0:0:0:0:
159,184,136079,1,0,0:0:0:0:
284,180,136457,1,0,0:0:0:0:
208,154,136710,1,0,0:0:0:0:
297,130,136962,1,0,0:0:0:0:
199,111,137214,1,0,0:0:0:0:
297,130,137592,1,0,0:0:0:0:
203,123,137844,1,0,0:0:0:0:
259,216,138096,1,0,0:0:0:0:
149,174,138348,1,0,0:0:0:0:
303,152,138726,1,0,0:0:0:0:
83,150,139357,1,0,0:0:0:0:
272,128,139861,1,0,0:0:0:0:
89,171,140365,1,0,0:0:0:0:
204,165,140617,1,0,0:0:0:0:
258,53,140995,1,0,0:0:0:0:
124,148,141373,1,0,0:0:0:0:
325,205,141878,1,0,0:0:0:0:
120,197,142382,1,0,0:0:0:0:
232,140,142760,1,0,0:0:0:0:
319,123,143012,1,0,0:0:0:0:
132,193,143516,1,0,0:0:0:0:
314,162,144020,1,0,0:0:0:0:
128,135,144525,5,0,0:0:0:0:
248,125,144903,1,0,0:0:0:0:
328,175,145155,1,0,0:0:0:0:
196,212,145533,1,0,0:0:0:0:
394,242,146037,1,0,0:0:0:0:
238,131,146541,1,0,0:0:0:0:
250,244,146794,1,0,0:0:0:0:
192,139,147172,1,0,0:0:0:0:
266,134,147424,1,0,0:0:0:0:
244,67,147676,1,0,0:0:0:0:
118,157,148054,1,0,0:0:0:0:
333,154,148684,1,0,0:0:0:0:
175,105,149189,5,0,0:0:0:0:
356,97,149693,1,0,0:0:0:0:
177,179,150197,1,0,0:0:0:0:
265,188,150449,1,0,0:0:0:0:
216,116,150701,1,0,0:0:0:0:
389,208,151205,1,0,0:0:0:0:
188,147,151710,1,0,0:0:0:0:
287,117,151962,1,0,0:0:0:0:
257,219,152214,1,0,0:0:0:0:
414,163,152718,1,0,0:0:0:0:
230,118,153222,1,0,0:0:0:0:
16,128,153726,1,0,0:0:0:0:
254,135,154357,1,0,0:0:0:0:
322,149,154609,1,0,0:0:0:0:
260,203,154861,1,0,0:0:0:0:
216,134,155113,1,0,0:0:0:0:
300,104,155365,1,0,0:0:0:0:
322,149,155617,1,0,0:0:0:0:
250,220,155869,1,0,0:0:0:0:
251,108,156121,1,0,0:0:0:0:
322,149,156373,1,0,0:0:0:0:
215,163,156626,5,0,0:0:0:0:
314,106,157004,1,0,0:0:0:0:
322,149,157256,1,0,0:0:0:0:
46,161,158012,1,0,0:0:0:0:
221,135,158516,1,0,0:0:0:0:
408,166,159020,1,0,0:0:0:0:
332,169,159273,1,0,0:0:0:0:
266,218,159525,1,0,0:0:0:0:
222,153,159777,1,0,0:0:0:0:
301,125,160029,1,0,0:0:0:0:
210,86,160281,1,0,0:0:0:0:
313,105,160533,1,0,0:0:0:0:
393,333,161163,1,0,0:0:0:0:
314,263,161415,1,0,0:0:0:0:
256,192,161668,12,0,168780,0:0:0:0:
