osu file format v14

[General]
AudioFilename: audio.mp3
AudioLeadIn: 0
PreviewTime: 67204
Countdown: 0
SampleSet: Soft
StackLeniency: 0.5
Mode: 0
LetterboxInBreaks: 0
WidescreenStoryboard: 1

[Editor]
Bookmarks: 49037,112571,135159,187398,205751,217027,263616,272086
DistanceSpacing: 1
BeatDivisor: 4
GridSize: 32
TimelineZoom: 1.4

[Metadata]
Title:Nisemono
TitleUnicode:ニセモノ
Artist:Friends
ArtistUnicode:Friends
Creator:ErunamoJAZZ
Version:Insane
Source:今日の5の2
Tags:Anime Japanese kyou no go no ni fake promise pop jpop j-pop Kobayashi Yu Shimoda Asami MAKO Akesama Satomi Asumi Kana Honda Yohko 小林ゆう 下田麻美 明坂聡美 阿澄佳奈
BeatmapID:1412284
BeatmapSetID:667449

[Difficulty]
HPDrainRate:6.5
CircleSize:4
OverallDifficulty:8
ApproachRate:9
SliderMultiplier:1.6
SliderTickRate:1

[Events]
//Background and Video events
0,0,"friends.jpg",0,0
//Break Periods
//Storyboard Layer 0 (Background)
//Storyboard Layer 1 (Fail)
//Storyboard Layer 2 (Pass)
//Storyboard Layer 3 (Foreground)
//Storyboard Layer 4 (Overlay)
//Storyboard Sound Samples

[TimingPoints]
1028,352.941176470588,4,2,0,40,1,0
1028,-166.666666666667,4,2,0,40,0,0
12322,-166.666666666667,4,2,0,50,0,0
25027,-125,4,2,0,60,0,0
49027,-166.666666666667,4,2,0,50,0,0
60322,-125,4,2,0,60,0,0
64380,-200,4,2,0,60,0,0
67204,-83.3333333333333,4,2,0,70,0,1
77086,-83.3333333333333,4,2,0,80,0,1
79027,-83.3333333333333,4,2,0,70,0,1
100027,-100,4,2,0,60,0,0
112557,-125,4,2,0,50,0,0
123851,-100,4,2,0,60,0,0
135145,-166.666666666667,4,2,0,50,0,0
146439,-125,4,2,0,60,0,0
150498,-200,4,2,0,60,0,0
153322,-83.3333333333333,4,2,0,70,0,1
163204,-83.3333333333333,4,2,0,80,0,1
165145,-83.3333333333333,4,2,0,70,0,1
187380,-100,4,2,0,60,0,0
195851,-66.6666666666667,4,2,0,40,0,0
196204,-100,4,2,0,60,0,0
205733,-166.666666666667,4,2,0,50,0,0
214204,-100,4,2,0,60,0,0
215616,-166.666666666667,4,2,0,60,0,0
216851,-83.3333333333333,4,2,0,70,0,1
226733,-83.3333333333333,4,2,0,80,0,1
228675,-83.3333333333333,4,2,0,70,0,1
250733,-100,4,2,0,60,0,0
263616,-100,4,2,0,50,0,0
267851,-100,4,2,0,40,0,0
269263,-100,4,2,0,30,0,0
270675,-100,4,2,0,20,0,0
271733,-100,4,2,0,10,0,0

[Colours]
Combo1 : 250,231,1
Combo2 : 6,196,134
Combo3 : 255,128,0
Combo4 : 231,14,96

[HitObjects]
171,81,1028,6,0,L|134:51,2,47.9999985351563,2|0|0,0:0|0:0|0:0,0:0:0:0:
171,177,1557,2,0,L|208:207,2,47.9999985351563,2|0|0,0:0|0:0|0:0,0:0:0:0:
298,185,2086,2,0,L|348:226,1,47.9999985351563,2|0,0:0|0:0,0:0:0:0:
419,168,2439,5,0,0:0:0:0:
349,102,2616,2,0,L|360:55,1,47.9999985351563,2|0,0:0|0:0,0:0:0:0:
298,185,2969,1,0,0:0:0:0:
245,263,3145,2,0,L|229:327,2,47.9999985351563,2|0|0,0:0|0:0|0:0,0:0:0:0:
217,88,3851,6,0,L|159:72,1,47.9999985351563,2|0,0:0|0:0,0:0:0:0:
87,122,4204,1,0,0:0:0:0:
176,168,4380,2,0,L|164:221,1,47.9999985351563,2|0,0:0|0:0,0:0:0:0:
118,298,4733,1,0,0:0:0:0:
208,327,4910,2,0,L|194:383,1,47.9999985351563,2|0,0:0|0:0,0:0:0:0:
288,276,5263,5,0,0:0:0:0:
388,310,5439,2,0,L|392:384,1,47.9999985351563,2|0,0:0|0:0,0:0:0:0:
476,256,5792,1,0,0:0:0:0:
388,204,5969,2,0,L|383:155,1,47.9999985351563,2|0,0:0|0:0,0:0:0:0:
440,78,6322,1,2,0:0:0:0:
248,66,6675,6,0,L|194:43,2,47.9999985351563,2|0|0,0:0|0:0|0:0,0:0:0:0:
310,139,7204,2,0,L|366:119,2,47.9999985351563,2|0|0,0:0|0:0|0:0,0:0:0:0:
233,197,7733,2,0,L|178:179,1,47.9999985351563,2|0,0:0|0:0,0:0:0:0:
99,142,8086,5,0,0:0:0:0:
160,68,8263,2,0,L|219:39,1,47.9999985351563,2|0,0:0|0:0,0:0:0:0:
299,38,8616,1,0,0:0:0:0:
386,75,8792,2,0,L|445:43,2,47.9999985351563,2|0|0,0:0|0:0|0:0,0:0:0:0:
327,258,9498,6,0,L|355:309,1,47.9999985351563,2|0,0:0|0:0,0:0:0:0:
423,237,9851,1,0,0:0:0:0:
411,142,10027,2,0,L|431:91,1,47.9999985351563,2|0,0:0|0:0,0:0:0:0:
423,237,10380,1,0,0:0:0:0:
335,197,10557,1,2,0:0:0:0:
280,118,10733,6,0,L|264:59,1,47.9999985351563
228,203,11086,2,0,L|194:242,2,47.9999985351563,2|0|0,0:0|0:0|0:0,0:0:0:0:
199,110,11616,2,0,L|151:74,2,47.9999985351563,2|0|0,0:0|0:0|0:0,0:0:0:0:
126,172,12145,1,0,0:0:0:0:
303,305,12322,6,0,P|379:271|423:160,1,191.999994140625,4|2,0:3|0:0,0:0:0:0:
423,176,13380,2,0,L|381:135,1,47.9999985351563
343,86,13733,5,10,0:2:0:0:
228,214,13910,2,0,P|226:153|267:84,1,143.999995605469,0|2,0:2|0:0,0:0:0:0:
258,315,15145,6,0,P|101:268|23:125,1,335.999989746094,4|0,0:3|0:0,0:0:0:0:
42,30,16557,1,8,0:0:0:0:
234,122,16733,2,0,L|286:101,2,47.9999985351563,2|0|0,0:0|0:0|0:0,0:0:0:0:
351,152,17263,2,0,L|407:126,2,47.9999985351563,2|0|0,0:0|0:0|0:0,0:0:0:0:
42,30,17969,6,0,P|24:127|67:232,1,191.999994140625,4|2,0:3|0:0,0:0:0:0:
275,29,19204,1,0,0:0:0:0:
385,168,19380,2,0,L|358:232,1,47.9999985351563,10|0,0:0|0:0,0:0:0:0:
172,304,20086,1,2,0:0:0:0:
256,192,20792,12,0,22027,0:0:0:0:
256,192,22204,12,0,23439,0:0:0:0:
256,192,23616,12,0,24851,0:0:0:0:
144,192,25027,5,8,1:0:0:0:
256,76,25204,1,0,1:0:0:0:
340,212,25380,1,0,3:0:0:0:
324,232,25469,1,0,3:0:0:0:
308,252,25557,1,0,3:0:0:0:
200,132,25733,1,0,1:0:0:0:
196,292,25910,1,0,3:0:0:0:
200,316,25998,1,0,3:0:0:0:
204,340,26086,2,0,L|300:320,1,64,0|0,3:0|0:0,0:0:0:0:
368,172,26439,5,4,0:0:0:0:
220,48,26792,2,0,L|140:16,1,64,0|0,1:0|0:0,0:0:0:0:
84,80,27145,1,2,0:0:0:0:
128,168,27322,1,0,0:0:0:0:
316,48,27498,1,0,1:0:0:0:
304,144,27674,1,0,0:0:0:0:
224,196,27851,5,2,0:0:0:0:
200,104,28027,2,0,L|212:36,1,64,0|0,0:0|1:0,0:0:0:0:
128,168,28380,2,0,L|112:256,1,64,2|0,0:0|0:0,0:0:0:0:
96,324,28733,1,2,0:0:0:0:
28,256,28910,1,0,1:0:0:0:
188,280,29086,6,0,P|252:272|324:224,1,128,2|0,0:0|0:0,0:0:0:0:
430,236,29616,2,0,P|368:252|306:241,1,128,2|0,1:2|0:0,0:0:0:0:
288,148,30145,1,0,0:0:0:0:
264,56,30322,2,0,P|288:32|348:20,1,64,0|0,1:0|0:0,0:0:0:0:
380,92,30675,6,0,P|404:104|456:108,1,64,2|0,0:0|0:0,0:0:0:0:
436,12,31027,1,0,1:0:0:0:
504,192,31204,1,2,0:0:0:0:
468,280,31380,1,0,0:0:0:0:
372,272,31557,1,2,0:0:0:0:
356,176,31733,1,0,1:0:0:0:
292,340,31910,6,0,P|220:352|144:308,1,128,2|0,0:0|0:0,0:0:0:0:
104,176,32439,2,0,P|136:180|176:200,1,64,0|0,1:0|0:0,0:0:0:0:
108,268,32792,2,0,P|72:264|44:252,1,64
56,88,33145,1,2,1:2:0:0:
56,88,33322,1,0,0:0:0:0:
256,176,33498,6,0,P|252:216|232:264,2,64,2|0|0,0:0|0:0|1:0,0:0:0:0:
196,100,34027,1,2,0:0:0:0:
352,48,34204,2,0,P|328:72|268:92,1,64
244,8,34557,1,0,1:0:0:0:
448,164,34733,6,0,P|381:175|310:142,1,128,2|0,0:0|0:0,0:0:0:0:
196,36,35263,1,2,1:2:0:0:
288,64,35439,1,0,0:0:0:0:
232,148,35616,2,0,P|232:180|264:228,1,64
325,154,35969,1,0,1:0:0:0:
288,64,36145,1,0,0:0:0:0:
196,36,36322,5,0,0:0:0:0:
324,252,36498,1,2,1:2:0:0:
240,300,36675,1,2,1:2:0:0:
160,248,36851,1,0,0:0:0:0:
248,36,37027,1,2,0:2:0:0:
156,68,37203,1,2,1:2:0:0:
124,160,37380,1,2,1:2:0:0:
344,112,37557,1,4,0:3:0:0:
264,320,37733,6,0,P|328:336|412:312,1,128,4|0,0:0|1:2,0:0:0:0:
400,228,38263,1,0,0:0:0:0:
456,152,38439,2,0,P|436:120|400:100,1,64,2|0,0:0|0:0,0:0:0:0:
310,190,38792,2,0,P|311:158|320:128,1,64,0|0,1:0|0:0,0:0:0:0:
356,40,39145,5,2,0:0:0:0:
212,96,39322,2,0,P|172:92|144:80,1,64,0|0,0:0|1:0,0:0:0:0:
280,52,39675,2,0,P|288:116|236:180,1,128,2|0,0:0|0:0,0:0:0:0:
196,12,40204,1,0,1:0:0:0:
76,36,40380,6,0,P|64:88|124:176,1,128,2|0,0:0|0:0,0:0:0:0:
160,252,40910,2,0,P|140:188|88:152,1,128,2|0,1:2|0:0,0:0:0:0:
64,244,41439,1,0,0:0:0:0:
104,332,41616,1,0,1:0:0:0:
160,252,41792,1,0,0:0:0:0:
212,332,41969,6,0,L|280:288,2,64,2|0|0,0:0|0:0|1:0,0:0:0:0:
340,248,42498,1,2,0:0:0:0:
340,152,42675,1,0,0:0:0:0:
244,168,42851,1,2,0:0:0:0:
248,72,43027,1,0,1:0:0:0:
49,73,43204,6,0,B|89:81|89:81|125:113|125:113|163:119,1,128,2|0,0:0|0:0,0:0:0:0:
248,72,43733,1,2,1:2:0:0:
166,122,43910,1,2,0:2:0:0:
244,168,44086,2,0,L|328:156,1,64,2|0,0:0|0:0,0:0:0:0:
424,48,44439,1,0,1:0:0:0:
400,140,44616,1,0,0:0:0:0:
500,296,44792,5,2,0:0:0:0:
428,236,44969,2,0,L|364:245,1,64,0|0,0:0|1:0,0:0:0:0:
268,256,45322,1,2,0:0:0:0:
204,76,45675,1,0,0:0:0:0:
192,172,45851,1,0,1:0:0:0:
288,344,46027,6,0,P|319:293|389:258,1,128,4|0,0:0|0:0,0:0:0:0:
288,344,46557,1,0,1:0:0:0:
256,244,46733,2,0,P|205:205|129:198,1,128,4|0,0:0|0:0,0:0:0:0:
256,244,47263,1,0,1:0:0:0:
152,320,47439,1,4,0:0:0:0:
256,84,47792,5,2,3:2:0:0:
372,140,47969,1,2,1:2:0:0:
244,156,48145,1,2,3:2:0:0:
128,100,48322,1,2,1:2:0:0:
256,84,48498,1,2,3:2:0:0:
372,140,48675,1,2,1:2:0:0:
136,108,48851,5,0,1:0:0:0:
136,108,48939,1,0,1:0:0:0:
136,108,49027,2,0,P|80:124|44:152,1,95.9999970703126,4|0,1:2|0:0,0:0:0:0:
192,168,49733,1,2,1:2:0:0:
160,28,50086,1,2,0:0:0:0:
160,28,50263,1,0,3:0:0:0:
288,224,50439,6,0,P|288:252|272:280,2,47.9999985351563,2|0|0,0:0|1:0|3:0,0:0:0:0:
248,84,51145,2,0,P|320:104|424:76,1,143.999995605469,2|0,1:2|0:0,0:0:0:0:
192,128,51851,6,0,L|132:164,1,47.9999985351563,2|0,3:2|0:0,0:0:0:0:
120,85,52204,2,0,L|64:85,1,47.9999985351563,2|0,0:0|0:0,0:0:0:0:
148,16,52557,2,0,L|192:36,2,47.9999985351563,2|0|0,1:2|0:0|0:0,0:0:0:0:
248,84,53086,1,0,3:0:0:0:
332,166,53263,6,0,L|288:148,2,47.9999985351563,2|0|0,0:0|1:0|0:0,0:0:0:0:
394,126,53792,1,0,0:0:0:0:
468,139,53969,2,0,L|496:79,1,47.9999985351563,2|0,1:2|0:0,0:0:0:0:
472,216,54322,2,0,L|504:264,1,47.9999985351563,2|0,3:2|0:0,0:0:0:0:
392,216,54675,5,2,0:0:0:0:
332,84,55027,1,2,0:0:0:0:
256,208,55380,2,0,L|160:260,1,95.9999970703126,2|0,1:2|0:0,0:0:0:0:
106,290,55910,1,0,1:0:0:0:
112,216,56086,2,0,L|116:156,2,47.9999985351563,2|0|0,0:0|1:0|3:0,0:0:0:0:
220,312,56792,2,0,P|258:333|328:328,1,95.9999970703126,2|0,1:2|0:0,0:0:0:0:
399,198,57322,6,0,P|387:155|347:115,1,95.9999970703126,2|0,0:0|1:0,0:0:0:0:
287,205,57851,1,2,3:2:0:0:
362,273,58027,2,0,P|387:282|419:278,1,47.9999985351563,2|0,3:2|1:0,0:0:0:0:
484,219,58380,2,0,P|487:196|482:173,1,47.9999985351563,2|0,0:0|0:0,0:0:0:0:
352,118,58733,1,2,1:2:0:0:
204,264,58910,5,2,0:0:0:0:
204,264,59086,2,0,P|164:264|128:256,2,47.9999985351563,0|0|0,1:0|3:0|0:0,0:0:0:0:
184,48,59616,2,0,P|135:60|97:101,1,95.9999970703126,2|0,1:2|0:0,0:0:0:0:
416,340,60145,5,2,3:2:0:0:
416,340,60233,1,2,3:2:0:0:
416,340,60322,2,0,P|434:302|438:250,1,64,4|0,3:2|0:0,0:0:0:0:
443,89,60675,1,2,3:2:0:0:
176,280,60851,2,0,P|236:264|316:196,1,128,4|0,0:0|0:0,0:0:0:0:
408,92,61380,1,12,3:2:0:0:
60,256,61733,6,0,P|36:228|28:200,1,64,6|0,0:2|0:0,0:0:0:0:
88,20,62086,1,2,3:2:0:0:
240,140,62263,2,0,P|268:140|326:115,2,64,4|0|0,0:0|0:0|0:0,0:0:0:0:
88,20,62792,1,12,3:2:0:0:
456,124,63145,6,0,P|444:152|424:180,1,64,6|0,0:2|0:0,0:0:0:0:
240,140,63498,1,2,3:2:0:0:
36,280,63675,2,0,P|96:312|180:300,1,128,4|0,0:0|0:0,0:0:0:0:
340,144,64204,1,6,3:2:0:0:
276,264,64380,1,6,0:2:0:0:
256,192,64557,12,0,65616,0:0:0:0:
88,44,65969,5,0,1:0:0:0:
296,60,66145,1,0,1:0:0:0:
188,112,66322,1,0,1:0:0:0:
172,232,66498,2,0,L|160:328,1,80,2|0,3:2|0:0,0:0:0:0:
162,311,67027,1,0,1:0:0:0:
348,356,67204,6,0,B|354:327|397:306|397:306|356:301|322:267|325:218,1,191.999994140625,4|0,0:0|0:0,0:0:0:0:
368,88,67733,2,0,P|408:64|476:72,1,95.9999970703126,2|0,1:2|0:0,0:0:0:0:
320,148,68086,2,0,P|268:148|228:124,1,95.9999970703126,0|0,3:0|0:0,0:0:0:0:
432,148,68439,1,2,1:2:0:0:
292,68,68616,1,0,0:0:0:0:
152,148,68792,6,0,P|232:216|348:216,1,191.999994140625,2|0,2:2|1:0,0:0:0:0:
176,68,69322,2,0,P|120:72|76:116,1,95.9999970703126,2|0,0:0|0:0,0:0:0:0:
116,236,69675,1,2,0:0:0:0:
20,128,69851,1,0,1:2:0:0:
80,316,70027,6,0,P|156:344|272:304,1,191.999994140625,4|0,0:0|0:0,0:0:0:0:
352,204,70557,1,2,1:2:0:0:
288,76,70733,1,0,0:0:0:0:
256,216,70910,1,0,3:2:0:0:
360,116,71086,1,0,0:0:0:0:
488,188,71263,2,0,P|480:240|440:292,1,95.9999970703126,2|0,1:2|0:0,0:0:0:0:
285,324,71616,6,0,P|379:330|457:276,1,191.999994140625,2|0,0:0|1:0,0:0:0:0:
264,244,72145,2,0,B|256:197|216:178|216:178|195:197,1,95.9999970703126,2|0,0:0|0:0,0:0:0:0:
186,211,72410,1,0,3:2:0:0:
177,243,72498,1,0,0:0:0:0:
285,324,72675,1,0,1:0:0:0:
312,156,72851,6,0,P|248:80|136:64,1,191.999994140625,4|0,0:0|0:0,0:0:0:0:
60,164,73380,1,2,1:2:0:0:
92,24,73557,1,0,0:0:0:0:
160,152,73733,2,0,P|208:140|244:100,1,95.9999970703126,0|0,3:0|0:0,0:0:0:0:
376,56,74086,2,0,P|338:84|321:129,1,95.9999970703126,2|0,1:2|0:0,0:0:0:0:
349,323,74439,6,0,P|361:277|348:232,1,95.9999970703126,2|0,0:0|0:0,0:0:0:0:
256,120,74792,1,0,1:0:0:0:
256,264,74969,1,2,0:0:0:0:
256,120,75145,1,0,0:0:0:0:
163,232,75322,2,0,P|150:277|162:323,1,95.9999970703126,2|0,0:0|1:0,0:0:0:0:
228,52,75675,6,0,B|241:42|241:42|191:17|146:49|102:79|55:52|96:22,1,191.999994140625,6|0,0:2|0:0,0:0:0:0:
284,108,76204,1,2,1:2:0:0:
60,240,76380,1,0,3:0:0:0:
60,240,76469,1,0,3:0:0:0:
60,240,76557,1,2,3:2:0:0:
320,256,76733,2,0,B|352:217|335:177|335:177|314:199,1,95.9999970703126,0|0,0:2|1:0,0:0:0:0:
112,304,77086,6,0,B|154:328|196:321|196:321|187:300,1,95.9999970703126,6|0,3:2|0:0,0:0:0:0:
32,128,77439,1,2,1:2:0:0:
276,312,77615,1,2,1:2:0:0:
184,175,77792,1,0,3:2:0:0:
112,304,77968,1,2,3:2:0:0:
316,112,78145,1,8,3:0:0:0:
316,112,78233,1,8,3:0:0:0:
316,112,78322,1,4,3:0:0:0:
372,364,78498,6,0,P|432:272|440:172,1,191.999994140625,4|0,0:0|0:0,0:0:0:0:
312,116,79027,2,0,P|350:92|406:95,1,95.9999970703126,2|0,1:2|0:0,0:0:0:0:
328,205,79380,2,0,P|288:233|236:230,1,95.9999970703126,0|0,3:0|0:0,0:0:0:0:
188,104,79733,1,2,1:2:0:0:
160,244,79910,1,0,0:0:0:0:
128,40,80086,6,0,B|201:13|276:32|300:62|296:102,1,191.999994140625,2|0,0:0|1:0,0:0:0:0:
295,301,80616,2,0,B|299:322|275:352|200:371|127:344,1,191.999994140625,2|2,0:0|0:2,0:0:0:0:
120,188,81145,1,0,1:0:0:0:
396,184,81322,6,0,B|306:230|306:138|211:192,1,191.999994140625,4|0,0:0|0:0,0:0:0:0:
328,100,81851,1,2,1:2:0:0:
468,136,82027,1,0,0:0:0:0:
364,240,82204,1,0,3:0:0:0:
404,100,82380,1,0,0:0:0:0:
456,236,82557,2,0,P|447:286|391:330,1,95.9999970703126,2|0,1:2|0:0,0:0:0:0:
328,100,82910,6,0,P|256:152|236:264,1,191.999994140625,2|0,0:0|1:0,0:0:0:0:
372,184,83439,2,0,P|412:148|420:92,1,95.9999970703126,2|0,0:0|0:0,0:0:0:0:
416,72,83704,1,0,3:0:0:0:
388,44,83792,1,2,0:2:0:0:
244,20,83969,1,0,1:0:0:0:
336,208,84145,6,0,P|240:172|212:80,1,191.999994140625,6|0,0:2|0:0,0:0:0:0:
352,68,84674,1,2,1:2:0:0:
412,204,84851,1,0,0:0:0:0:
296,120,85027,2,0,P|344:144|408:120,1,95.9999970703126,0|0,3:0|0:0,0:0:0:0:
272,44,85380,2,0,P|232:76|220:136,1,95.9999970703126,2|0,1:2|0:0,0:0:0:0:
204,260,85733,6,0,P|176:224|112:200,1,95.9999970703126,2|0,0:0|0:0,0:0:0:0:
80,340,86086,1,0,1:0:0:0:
280,260,86263,2,0,P|236:184|116:128,1,191.999994140625,2|2,0:0|0:2,0:0:0:0:
128,276,86792,1,0,1:0:0:0:
64,148,86969,1,2,0:0:0:0:
248,336,87145,6,0,B|310:352|349:302|349:302|386:253|437:259,1,191.999994140625,4|0,0:0|1:0,0:0:0:0:
280,260,87674,1,2,0:0:0:0:
428,348,87851,1,2,0:0:0:0:
428,348,88027,1,0,0:0:0:0:
448,184,88204,1,0,1:2:0:0:
304,176,88380,1,2,0:2:0:0:
180,324,88557,5,6,3:2:0:0:
140,328,88645,1,0,3:2:0:0:
104,320,88733,1,0,1:2:0:0:
72,300,88822,1,0,1:2:0:0:
52,268,88910,1,0,1:0:0:0:
75,77,89086,1,2,0:0:0:0:
212,212,89262,1,2,3:2:0:0:
308,44,89439,1,0,3:2:0:0:
344,36,89527,1,0,3:2:0:0:
380,44,89616,1,0,1:0:0:0:
136,248,89792,6,0,P|84:184|76:76,1,191.999994140625,6|0,0:2|0:0,0:0:0:0:
436,77,90322,2,0,P|432:172|376:248,1,191.999994140625,2|2,1:2|0:0,0:0:0:0:
256,52,91027,1,0,1:0:0:0:
136,248,91380,6,0,B|165:238|165:238|152:204|172:167,2,95.9999970703126,2|0|0,0:0|0:0|1:0,0:0:0:0:
265,271,91910,2,0,B|270:291|270:291|230:289|206:326,1,95.9999970703126,2|0,0:0|0:0,0:0:0:0:
202,343,92175,1,0,3:0:0:0:
204,359,92263,1,2,0:0:0:0:
332,336,92439,1,0,1:0:0:0:
456,160,92616,6,0,P|372:120|272:132,1,191.999994140625,4|0,0:0|0:0,0:0:0:0:
344,260,93145,1,2,1:2:0:0:
220,184,93322,1,0,0:0:0:0:
420,228,93498,1,2,0:0:0:0:
176,76,93851,1,2,1:2:0:0:
308,16,94027,1,4,0:0:0:0:
156,144,94204,6,0,B|112:160|112:160|60:140,1,95.9999970703126,0|0,1:0|0:0,0:0:0:0:
195,203,94557,2,0,B|171:247|171:247|107:275,1,95.9999970703126,0|0,1:0|0:0,0:0:0:0:
268,220,94910,2,0,B|284:268|284:268|268:328,1,95.9999970703126,0|0,1:0|0:0,0:0:0:0:
129,266,95263,1,0,1:0:0:0:
66,142,95439,1,2,0:0:0:0:
344,64,95616,6,0,P|376:101|385:164,1,95.9999970703126,4|0,0:0|0:0,0:0:0:0:
272,28,95969,1,2,1:2:0:0:
196,304,96145,2,0,B|224:232|281:189|281:189|271:157|280:125,1,191.999994140625,4|0,0:0|0:0,0:0:0:0:
252,364,96675,1,2,1:2:0:0:
124,40,96851,6,0,B|117:116|151:171|151:171|133:195|136:225,1,191.999994140625,4|0,0:0|0:0,0:0:0:0:
196,20,97380,1,2,1:2:0:0:
296,292,97557,2,0,B|371:280|415:219|415:219|446:227|499:216,1,191.999994140625,4|0,0:0|0:0,0:0:0:0:
232,240,98086,1,2,1:2:0:0:
344,16,98263,1,4,0:0:0:0:
100,312,98616,5,0,1:2:0:0:
140,224,98792,1,0,1:2:0:0:
112,132,98969,1,0,1:2:0:0:
180,200,99145,1,0,1:2:0:0:
200,296,99322,1,0,1:2:0:0:
224,204,99498,1,0,1:2:0:0:
317,180,99675,1,0,1:2:0:0:
201,314,99851,5,6,1:2:0:0:
481,150,100027,1,6,1:2:0:0:
256,64,100910,5,0,1:0:0:0:
288,260,101086,2,0,P|316:292|384:304,2,80,6|0|0,0:0|0:0|0:0,0:0:0:0:
376,200,101616,1,2,1:2:0:0:
448,276,101792,1,0,0:0:0:0:
300,180,101969,2,0,P|312:104|400:36,1,160,2|0,0:0|1:0,0:0:0:0:
300,180,102498,6,0,P|216:196|124:148,1,160,6|0,0:0|0:0,0:0:0:0:
224,96,103027,2,0,B|209:58|209:58|164:24,1,80,2|0,1:2|0:0,0:0:0:0:
145,35,103292,1,2,3:2:0:0:
113,35,103380,1,2,0:0:0:0:
68,132,103557,1,2,0:0:0:0:
12,44,103733,1,0,1:0:0:0:
29,231,103910,6,0,P|16:271|-4:318,1,80,2|0,0:0|0:0,0:0:0:0:
102,202,104263,1,2,0:0:0:0:
146,108,104439,1,0,1:0:0:0:
179,206,104616,2,0,P|195:241|207:286,1,80,2|0,0:0|0:0,0:0:0:0:
230,149,104969,1,2,0:0:0:0:
279,57,105145,1,0,1:0:0:0:
304,173,105322,6,0,P|356:212|428:293,1,160,2|2,0:0|0:0,0:0:0:0:
259,254,105851,1,0,1:0:0:0:
345,95,106027,2,0,P|386:100|441:88,2,80,2|2|0,0:0|0:0|0:0,0:0:0:0:
132,40,106557,5,0,1:0:0:0:
132,40,106645,1,0,1:0:0:0:
132,40,106733,2,0,P|110:75|91:132,1,80,4|0,0:0|0:0,0:0:0:0:
213,79,107086,1,2,0:0:0:0:
91,186,107263,2,0,B|52:193|32:161|32:161|53:163,1,80,0|0,1:0|0:0,0:0:0:0:
128,196,107527,1,0,0:0:0:0:
128,196,107616,2,0,B|77:251|116:343|174:285,1,160,2|0,0:0|1:0,0:0:0:0:
358,171,108145,6,0,P|316:162|268:180,2,80,4|0|2,0:0|0:0|0:0,0:0:0:0:
399,212,108586,1,0,0:0:0:0:
399,212,108675,2,0,B|413:279|352:299|352:299|374:335,1,120,2|0,1:2|1:0,0:0:0:0:
322,293,109027,1,2,0:0:0:0:
239,228,109204,1,2,0:0:0:0:
67,321,109380,6,0,P|99:301|150:303,1,80,0|2,1:0|0:0,0:0:0:0:
164,321,109645,1,0,0:0:0:0:
172,351,109733,1,2,0:0:0:0:
270,215,109910,1,0,3:2:0:0:
239,228,109998,1,0,3:2:0:0:
208,220,110086,2,0,P|176:194|160:128,1,80,2|0,1:2|0:0,0:0:0:0:
341,110,110439,1,2,3:2:0:0:
247,137,110616,1,0,0:0:0:0:
273,46,110792,1,2,1:2:0:0:
324,236,110969,5,0,3:2:0:0:
307,260,111057,1,0,3:2:0:0:
322,286,111145,2,0,P|404:308|496:248,1,160,4|4,0:0|3:2,0:0:0:0:
487,261,111851,1,4,3:2:0:0:
360,132,112027,2,0,P|256:116|136:140,1,200,4|0,3:2|0:0,0:0:0:0:
163,130,112557,5,6,0:0:0:0:
256,72,112910,2,0,P|260:148|256:204,1,128,2|0,1:2|0:0,0:0:0:0:
200,280,113439,2,0,L|112:292,1,64,0|2,0:0|1:2,0:0:0:0:
176,196,113792,1,0,0:0:0:0:
288,276,113969,6,0,P|344:292|412:328,1,128,2|0,0:0|1:0,0:0:0:0:
480,264,114498,2,0,L|488:344,1,64,2|0,0:0|0:0,0:0:0:0:
408,236,114851,1,2,0:0:0:0:
484,180,115027,1,0,1:0:0:0:
424,104,115204,6,0,L|388:172,1,64,2|0,0:0|0:0,0:0:0:0:
331,86,115557,1,2,0:0:0:0:
284,164,115733,2,0,L|220:116,1,64,2|0,1:2|0:0,0:0:0:0:
164,196,116086,2,0,L|140:108,1,64
52,140,116439,2,0,L|80:76,1,64,0|0,1:0|0:0,0:0:0:0:
86,229,116792,6,0,P|70:261|58:293,1,64,2|0,0:0|0:0,0:0:0:0:
129,350,117145,1,0,1:0:0:0:
282,315,117322,2,0,P|246:314|214:308,2,64,2|0|2,0:0|0:0|0:0,0:0:0:0:
256,221,117851,1,0,1:0:0:0:
312,148,118027,6,0,P|298:119|271:85,1,64,2|0,0:0|0:0,0:0:0:0:
350,235,118380,1,0,0:0:0:0:
508,245,118557,2,0,L|428:239,1,64,0|0,1:0|0:0,0:0:0:0:
401,155,118910,2,0,L|486:143,1,64
360,64,119263,1,2,1:2:0:0:
312,148,119439,1,2,0:0:0:0:
280,12,119616,5,2,0:0:0:0:
231,95,119792,2,0,L|159:111,1,64,2|0,0:2|1:0,0:0:0:0:
80,208,120145,2,0,L|152:192,1,64,2|0,0:0|0:0,0:0:0:0:
169,109,120498,1,2,0:0:0:0:
107,34,120675,1,0,1:0:0:0:
224,172,120851,6,0,L|276:236,1,64,2|0,0:0|0:0,0:0:0:0:
189,294,121204,1,2,0:0:0:0:
92,256,121380,2,0,L|108:184,1,64,2|0,1:2|0:0,0:0:0:0:
22,131,121733,2,0,L|10:51,1,64,2|0,0:0|0:0,0:0:0:0:
123,109,122086,2,0,L|203:77,1,64,0|0,1:0|0:0,0:0:0:0:
96,24,122439,5,0,0:0:0:0:
212,176,122616,1,2,1:2:0:0:
388,100,122792,1,2,1:2:0:0:
352,188,122969,1,2,0:2:0:0:
408,264,123145,1,2,1:2:0:0:
222,342,123322,1,8,3:3:0:0:
215,317,123410,1,4,3:0:0:0:
200,296,123498,1,2,1:2:0:0:
179,282,123586,1,0,1:0:0:0:
154,276,123674,1,2,3:2:0:0:
129,280,123763,1,0,3:0:0:0:
108,288,123851,6,0,P|84:252|80:196,1,80,4|0,0:0|0:0,0:0:0:0:
116,104,124204,1,2,1:2:0:0:
212,176,124380,1,0,0:0:0:0:
288,84,124557,1,2,0:0:0:0:
396,132,124733,1,0,0:0:0:0:
320,224,124910,1,2,1:2:0:0:
212,176,125086,1,0,0:0:0:0:
60,136,125263,6,0,P|68:172|100:208,1,80,2|0,0:0|0:0,0:0:0:0:
212,176,125616,1,0,1:0:0:0:
417,233,125792,2,0,P|350:276|272:280,1,160,2|2,0:0|0:2,0:0:0:0:
212,176,126322,1,0,1:0:0:0:
316,116,126498,6,0,P|252:52|180:48,1,160,2|0,0:0|0:0,0:0:0:0:
320,196,127027,2,0,P|356:184|392:136,1,80,2|0,1:2|0:0,0:0:0:0:
396,36,127380,1,0,0:0:0:0:
460,140,127557,1,0,0:0:0:0:
408,248,127733,6,0,P|416:288|440:332,1,80,2|0,1:2|0:0,0:0:0:0:
460,340,127998,1,0,0:0:0:0:
492,348,128086,1,2,0:0:0:0:
472,212,128263,1,0,0:0:0:0:
352,196,128439,1,2,1:2:0:0:
248,320,128616,5,2,0:0:0:0:
368,308,128792,1,2,0:0:0:0:
280,176,128969,1,2,0:0:0:0:
136,240,129145,1,0,1:2:0:0:
212,148,129322,1,2,0:0:0:0:
155,44,129498,6,0,P|116:47|78:61,1,80
309,54,129851,2,0,P|271:68|232:72,1,80,0|0,1:0|0:0,0:0:0:0:
384,40,130204,2,0,P|423:38|462:46,1,80,2|0,2:0|0:0,0:0:0:0:
360,112,130557,1,2,1:2:0:0:
232,72,130733,1,2,0:2:0:0:
384,184,130910,5,2,0:0:0:0:
332,292,131086,1,2,0:0:0:0:
212,312,131263,1,0,1:2:0:0:
116,244,131439,2,0,P|88:168|112:88,1,160,2|2,0:0|0:0,0:0:0:0:
107,94,131969,1,0,1:0:0:0:
360,101,132145,6,0,P|299:152|221:165,1,160,6|0,0:0|0:0,0:0:0:0:
116,104,132675,1,0,1:0:0:0:
221,165,132851,2,0,P|276:200|373:204,1,160,6|0,0:0|0:0,0:0:0:0:
468,136,133380,1,0,1:0:0:0:
368,205,133557,1,6,0:0:0:0:
104,36,133910,5,2,3:2:0:0:
132,152,134086,1,2,1:2:0:0:
220,68,134263,1,2,3:2:0:0:
64,108,134439,1,2,1:2:0:0:
168,228,134616,1,2,3:2:0:0:
304,144,134792,1,2,1:2:0:0:
168,304,134969,5,0,1:0:0:0:
181,332,135057,1,0,1:0:0:0:
206,349,135145,2,0,P|255:356|309:336,1,95.9999970703126,4|0,0:0|0:0,0:0:0:0:
241,209,135851,2,0,P|260:170|309:142,1,95.9999970703126,2|0,1:2|0:0,0:0:0:0:
378,137,136380,1,0,3:0:0:0:
429,194,136557,2,0,L|441:240,1,47.9999985351563,2|0,3:2|1:0,0:0:0:0:
483,138,136910,2,0,L|497:88,1,47.9999985351563,0|0,3:2|0:0,0:0:0:0:
300,41,137263,2,0,P|370:25|437:47,1,143.999995605469,2|2,1:2|0:0,0:0:0:0:
250,93,137969,6,0,L|189:76,1,47.9999985351563,2|0,3:2|0:0,0:0:0:0:
133,56,138322,1,2,3:2:0:0:
62,36,138498,1,0,0:0:0:0:
151,128,138675,2,0,L|101:173,1,47.9999985351563,2|0,1:2|0:0,0:0:0:0:
61,211,139027,1,2,0:0:0:0:
218,162,139204,2,0,L|224:226,1,47.9999985351563,0|0,1:0|0:0,0:0:0:0:
169,317,139557,2,0,L|162:245,1,47.9999985351563,2|0,1:2|0:0,0:0:0:0:
115,160,139910,1,2,0:0:0:0:
203,80,140086,2,0,L|267:74,1,47.9999985351563,2|0,1:2|0:0,0:0:0:0:
357,130,140439,2,0,L|309:134,1,47.9999985351563,2|0,3:2|0:0,0:0:0:0:
307,13,140793,5,2,3:2:0:0:
430,86,141145,2,0,L|485:82,1,47.9999985351563,2|0,3:2|0:0,0:0:0:0:
428,162,141498,2,0,P|422:209|391:254,1,95.9999970703126,2|2,1:2|0:0,0:0:0:0:
336,290,142028,1,0,1:0:0:0:
271,259,142204,1,2,3:2:0:0:
200,273,142380,2,0,P|173:285|148:309,2,47.9999985351563,0|0|0,1:0|3:2|0:0,0:0:0:0:
215,344,142910,2,0,P|253:361|326:353,1,95.9999970703126,2|0,1:2|0:0,0:0:0:0:
372,226,143439,6,0,P|347:192|280:162,1,95.9999970703126,2|2,0:0|1:2,0:0:0:0:
237,202,143969,1,2,0:0:0:0:
216,133,144145,1,0,0:0:0:0:
159,258,144322,1,2,1:2:0:0:
164,184,144498,1,2,0:0:0:0:
143,114,144675,2,0,L|125:48,1,47.9999985351563,0|2,0:0|1:2,0:0:0:0:
86,173,145027,6,0,L|98:219,1,47.9999985351563,2|0,3:2|1:0,0:0:0:0:
67,103,145380,1,2,3:2:0:0:
16,154,145557,1,0,0:0:0:0:
49,323,145733,1,2,1:2:0:0:
114,293,145910,1,0,0:0:0:0:
182,316,146086,1,2,0:0:0:0:
321,353,146263,5,2,3:2:0:0:
321,353,146351,1,2,3:2:0:0:
321,353,146440,2,0,P|352:329|376:283,1,64,4|0,3:2|0:0,0:0:0:0:
408,92,146793,1,2,3:2:0:0:
151,78,146969,2,0,P|198:119|264:124,1,128,4|0,0:0|0:0,0:0:0:0:
101,19,147498,1,12,3:2:0:0:
248,8,147675,1,0,0:0:0:0:
355,166,147851,6,0,P|336:194|288:217,1,64,6|0,0:2|0:0,0:0:0:0:
120,182,148204,1,2,3:2:0:0:
249,324,148381,2,0,P|276:336|340:331,2,64,6|0|0,0:0|0:0|0:0,0:0:0:0:
355,166,148910,1,12,3:2:0:0:
97,23,149263,6,0,P|74:44|54:97,1,64,6|0,0:2|1:0,0:0:0:0:
56,220,149616,1,2,3:2:0:0:
163,119,149792,2,0,P|228:107|307:139,1,128,6|2,0:0|0:0,0:0:0:0:
404,212,150322,1,4,3:2:0:0:
289,128,150498,6,0,P|176:116|96:192,1,200,6|0,1:2|1:0,0:0:0:0:
66,249,151557,1,4,3:0:0:0:
66,249,151645,1,0,1:0:0:0:
66,249,151733,2,0,L|75:281,2,20,0|0|0,1:0|1:0|3:0,3:0:0:0:
226,255,152086,5,4,1:2:0:0:
316,122,152263,1,4,1:2:0:0:
326,281,152439,1,4,1:2:0:0:
227,154,152616,1,6,3:2:0:0:
383,197,152792,1,0,3:0:0:0:
392,209,152880,1,0,3:0:0:0:
407,214,152969,1,8,3:3:0:0:
414,228,153057,1,4,3:3:0:0:
428,234,153145,1,0,1:0:0:0:
152,28,153322,6,0,B|148:56|132:72|132:72|168:96|168:96|136:140|160:204,1,191.999994140625,6|0,0:0|0:0,0:0:0:0:
100,272,153851,2,0,P|55:273|9:240,1,95.9999970703126,2|0,1:2|0:0,0:0:0:0:
227,154,154204,2,0,P|276:168|306:210,1,95.9999970703126,0|0,3:0|0:0,0:0:0:0:
78,194,154557,1,2,1:2:0:0:
214,243,154734,1,0,0:0:0:0:
348,60,154910,6,0,P|424:124|424:244,1,191.999994140625,2|0,0:0|1:0,0:0:0:0:
312,315,155440,2,0,P|365:321|410:293,1,95.9999970703126,2|0,0:0|0:0,0:0:0:0:
346,226,155793,1,2,0:0:0:0:
258,186,155969,1,0,1:0:0:0:
90,313,156145,6,0,B|127:338|184:294|184:294|240:251|278:276,1,191.999994140625,4|0,0:0|0:0,0:0:0:0:
344,328,156675,1,2,1:2:0:0:
428,280,156851,1,0,0:0:0:0:
340,136,157028,1,0,3:0:0:0:
424,184,157204,1,0,0:0:0:0:
253,171,157381,2,0,P|211:151|186:106,1,95.9999970703126,2|0,1:2|0:0,0:0:0:0:
391,75,157734,6,0,B|419:65|437:26|372:-5|302:22|279:82,1,191.999994140625,2|0,0:0|1:0,0:0:0:0:
359,215,158263,2,0,B|366:250|392:274|435:282,1,95.9999970703126,2|0,0:0|0:0,0:0:0:0:
442,280,158527,1,0,3:0:0:0:
460,274,158616,1,2,0:0:0:0:
256,224,158793,1,0,1:0:0:0:
112,357,158969,6,0,B|60:368|60:368|68:352|68:352|36:344|4:308|4:252,1,191.999994140625,4|0,0:0|0:0,0:0:0:0:
44,100,159498,1,2,1:2:0:0:
72,192,159675,1,0,0:0:0:0:
164,220,159851,2,0,P|212:220|264:200,1,95.9999970703126,0|0,3:0|0:0,0:0:0:0:
376,100,160204,2,0,P|328:100|276:120,1,95.9999970703126,2|0,1:2|0:0,0:0:0:0:
310,276,160557,6,0,P|357:283|404:272,1,95.9999970703126,2|0,0:0|0:0,0:0:0:0:
479,207,160910,1,0,1:0:0:0:
369,55,161087,1,2,0:0:0:0:
296,85,161263,1,0,0:0:0:0:
229,38,161440,2,0,P|174:42|132:74,1,95.9999970703126,2|0,0:0|1:0,0:0:0:0:
310,185,161792,6,0,P|343:282|275:352,1,191.999994140625,6|0,0:0|0:0,0:0:0:0:
116,215,162322,1,2,1:2:0:0:
251,261,162498,1,0,3:0:0:0:
153,154,162675,1,2,3:2:0:0:
310,185,162851,2,0,P|338:221|343:285,1,95.9999970703126,0|2,0:0|1:2,0:0:0:0:
126,336,163204,6,0,L|73:378,2,47.9999985351563,2|0|0,0:2|0:0|3:0,0:0:0:0:
310,185,163557,1,2,1:2:0:0:
83,154,163733,1,2,1:2:0:0:
118,308,163910,1,0,3:0:0:0:
272,319,164086,1,2,3:2:0:0:
222,68,164263,1,8,3:0:0:0:
222,68,164351,1,8,3:0:0:0:
222,68,164440,1,4,3:0:0:0:
376,210,164616,6,0,B|422:245|354:328|272:319,1,191.999994140625,6|0,0:0|0:0,0:0:0:0:
180,331,165145,2,0,P|145:290|102:280,1,95.9999970703126,2|0,1:2|0:0,0:0:0:0:
227,221,165498,2,0,P|264:191|278:146,1,95.9999970703126,0|0,3:0|0:0,0:0:0:0:
250,60,165851,1,2,1:2:0:0:
186,135,166028,1,0,0:0:0:0:
428,286,166204,6,0,B|437:298|428:347|368:362|316:352|316:352|281:328,1,191.999994140625,2|0,0:0|1:0,0:0:0:0:
279,147,166733,2,0,B|311:125|311:125|363:115|423:130|432:179|424:191,1,191.999994140625,2|2,0:0|2:2,0:0:0:0:
346,236,167263,1,0,1:0:0:0:
220,80,167439,6,0,B|202:48|165:44|135:56|135:56|113:81|107:114|128:144,1,191.999994140625,6|0,0:2|0:0,0:0:0:0:
220,180,167969,1,2,1:2:0:0:
220,80,168145,1,0,0:0:0:0:
160,240,168322,2,0,B|160:276|160:276|168:312|188:344,1,95.9999970703126,0|0,3:0|0:0,0:0:0:0:
128,144,168675,2,0,B|128:108|128:108|120:72|100:40,1,95.9999970703126,2|0,1:2|0:0,0:0:0:0:
160,240,169028,6,0,B|184:208|250:142|306:162|322:192,1,191.999994140625,2|0,0:0|1:0,0:0:0:0:
408,340,169557,2,0,B|437:347|437:347|473:355|499:329,1,95.9999970703126,2|0,0:0|0:0,0:0:0:0:
502,311,169822,1,0,3:0:0:0:
506,291,169910,1,2,0:0:0:0:
472,194,170087,1,0,1:0:0:0:
390,46,170263,6,0,B|336:22|287:83|283:131|295:173,1,191.999994140625,6|0,0:0|0:0,0:0:0:0:
316,260,170792,1,2,1:2:0:0:
340,352,170969,1,0,0:0:0:0:
256,304,171145,2,0,P|204:296|144:304,1,95.9999970703126,0|0,3:0|0:0,0:0:0:0:
384,288,171498,2,0,P|420:264|488:244,1,95.9999970703126,2|0,1:2|0:0,0:0:0:0:
272,76,171851,6,0,L|300:192,1,95.9999970703126,2|0,0:0|0:0,0:0:0:0:
316,260,172204,1,0,1:0:0:0:
192,48,172381,2,0,B|224:188|224:188|152:244,1,191.999994140625,2|2,0:0|0:0,0:0:0:0:
104,264,172910,1,0,1:0:0:0:
20,308,173087,1,2,0:0:0:0:
212,292,173263,6,0,B|264:252|264:252|400:316,1,191.999994140625,6|0,0:0|1:0,0:0:0:0:
468,340,173792,1,2,0:0:0:0:
416,212,173969,1,2,0:0:0:0:
378,305,174145,1,0,0:0:0:0:
504,252,174322,1,0,1:0:0:0:
452,128,174498,1,2,0:0:0:0:
272,64,174675,5,6,2:2:0:0:
198,241,174851,1,0,1:0:0:0:
378,305,175027,1,0,1:0:0:0:
320,184,175204,1,4,0:3:0:0:
198,241,175380,1,2,1:2:0:0:
256,364,175557,1,4,0:3:0:0:
256,364,175645,1,4,0:3:0:0:
256,364,175734,1,8,1:3:0:0:
272,64,175910,6,0,P|380:88|456:176,1,191.999994140625,6|0,0:0|0:0,0:0:0:0:
167,319,176439,2,0,P|135:230|152:137,1,191.999994140625,2|2,1:2|0:0,0:0:0:0:
312,244,177145,1,0,1:2:0:0:
204,88,177498,6,0,L|148:0,2,95.9999970703126,2|0|0,0:0|0:0|1:0,0:0:0:0:
261,162,178028,2,0,L|318:254,1,95.9999970703126,2|0,0:0|0:0,0:0:0:0:
324,260,178293,1,0,3:0:0:0:
336,276,178381,1,2,0:0:0:0:
392,352,178557,1,0,1:0:0:0:
155,322,178734,6,0,B|132:321|121:333|121:333|167:374|231:374|265:350,1,191.999994140625,6|2,0:0|0:0,0:0:0:0:
336,276,179263,1,2,1:2:0:0:
408,212,179440,1,0,0:0:0:0:
316,184,179616,1,2,0:0:0:0:
316,184,179969,1,2,1:2:0:0:
268,348,180145,1,4,0:0:0:0:
348,94,180322,6,0,P|295:95|257:116,1,95.9999970703126,0|0,1:0|0:0,0:0:0:0:
289,271,180675,2,0,P|314:231|316:184,1,95.9999970703126,0|0,1:0|0:0,0:0:0:0:
156,140,181027,2,0,P|180:182|220:207,1,95.9999970703126,0|0,1:0|0:0,0:0:0:0:
196,36,181381,1,0,1:0:0:0:
368,20,181557,1,2,0:0:0:0:
388,20,181645,1,0,0:0:0:0:
408,20,181734,6,0,B|428:44|428:44|448:64|496:72,1,95.9999970703126,4|0,0:0|0:0,0:0:0:0:
344,120,182087,1,2,1:2:0:0:
220,207,182263,2,0,B|186:203|156:215|156:215|116:153|24:169,1,191.999994140625,4|0,0:0|0:0,0:0:0:0:
184,40,182793,1,2,1:2:0:0:
324,208,182969,6,0,B|335:232|361:248|361:248|311:303|368:376,1,191.999994140625,4|0,0:0|0:0,0:0:0:0:
220,207,183498,1,2,1:2:0:0:
441,28,183675,2,0,B|473:50|424:93|336:73|336:73|328:102|310:119,1,191.999994140625,4|0,0:0|0:0,0:0:0:0:
324,208,184204,1,2,1:2:0:0:
144,32,184381,1,4,0:0:0:0:
256,348,184734,5,0,1:2:0:0:
239,253,184910,1,0,1:2:0:0:
164,313,185087,1,0,1:2:0:0:
234,248,185263,1,0,1:2:0:0:
269,156,185439,1,0,1:2:0:0:
329,231,185616,1,0,1:2:0:0:
176,174,185792,1,0,1:2:0:0:
353,326,185969,5,6,1:2:0:0:
89,251,186145,1,6,1:2:0:0:
464,52,187380,5,4,3:2:0:0:
464,52,187557,1,2,3:2:0:0:
493,209,187733,2,0,B|546:175|525:106|525:106|496:115|489:129,1,160,2|2,1:2|0:0,0:0:0:0:
433,170,188175,1,0,3:0:0:0:
433,170,188263,1,0,0:0:0:0:
326,202,188439,1,2,1:2:0:0:
128,62,188616,6,0,P|204:59|264:120,1,160,6|0,0:2|0:0,0:0:0:0:
33,101,189145,1,2,1:2:0:0:
14,212,189322,5,2,0:0:0:0:
15,243,189410,1,2,3:2:0:0:
36,266,189498,1,2,0:0:0:0:
119,342,189675,1,2,0:0:0:0:
144,314,189763,1,2,0:0:0:0:
145,277,189851,1,2,1:2:0:0:
36,266,190027,1,2,0:0:0:0:
196,191,190204,5,2,3:2:0:0:
196,191,190380,1,2,3:2:0:0:
463,340,190557,2,0,B|442:337|416:354|416:354|421:282|356:265,1,160,6|2,1:2|0:0,0:0:0:0:
341,340,190998,1,0,3:0:0:0:
341,340,191086,1,0,0:0:0:0:
238,293,191263,1,2,1:2:0:0:
387,128,191439,6,0,P|294:138|241:190,1,160,6|2,0:0|0:0,0:0:0:0:
242,198,191880,1,2,0:0:0:0:
241,217,191969,1,2,1:2:0:0:
157,126,192145,1,2,0:0:0:0:
140,120,192233,1,2,3:2:0:0:
121,117,192322,1,2,0:0:0:0:
24,153,192498,1,2,0:0:0:0:
238,293,192675,5,2,1:2:0:0:
261,306,192763,1,2,1:2:0:0:
284,312,192851,1,2,1:2:0:0:
307,312,192939,1,2,1:2:0:0:
331,310,193027,2,0,P|349:275|396:246,1,80,4|0,0:2|0:0,0:0:0:0:
126,259,193380,6,0,B|192:245|238:293|238:293|221:309|196:310,1,160,2|2,1:2|0:0,0:0:0:0:
140,331,193822,1,0,3:0:0:0:
140,331,193910,1,0,0:0:0:0:
243,373,194086,1,2,1:2:0:0:
253,92,194263,6,0,P|235:162|137:144,1,160,6|2,0:0|0:0,0:0:0:0:
150,50,194792,1,0,1:0:0:0:
48,92,194969,1,2,0:0:0:0:
24,119,195057,1,0,1:2:0:0:
0,146,195145,1,2,0:0:0:0:
23,174,195233,1,0,1:2:0:0:
43,197,195322,1,2,0:0:0:0:
257,218,195498,1,2,1:2:0:0:
157,166,195675,1,2,0:0:0:0:
160,289,195851,6,2,B|185:329|185:329|176:315|176:315|227:345|227:345|213:336|213:336|267:336,1,180.000006866455,2|0,0:3|0:3,0:3:0:0:
261,320,196204,1,4,1:2:0:0:
286,128,196380,1,0,0:0:0:0:
338,237,196557,1,2,0:0:0:0:
359,247,196645,1,2,3:2:0:0:
381,256,196733,1,2,0:0:0:0:
409,138,196910,1,2,1:2:0:0:
141,50,197086,6,0,P|174:32|245:25,1,80,6|0,0:0|0:0,0:0:0:0:
170,161,197439,1,2,0:0:0:0:
151,270,197616,2,0,P|118:288|47:295,1,80,2|0,1:2|0:0,0:0:0:0:
62,289,197880,1,0,3:0:0:0:
50,278,197969,1,2,0:0:0:0:
221,210,198145,1,2,0:0:0:0:
303,326,198322,5,2,1:2:0:0:
316,334,198410,1,2,1:2:0:0:
328,338,198498,2,0,B|350:315|350:315|371:368|424:370|451:333,1,160,6|0,0:0|0:0,0:0:0:0:
425,209,199027,1,0,1:0:0:0:
109,154,199380,1,2,0:0:0:0:
209,112,199557,1,2,0:0:0:0:
214,99,199645,1,0,0:0:0:0:
218,84,199733,2,0,P|201:66|183:38,1,40,2|0,1:2|0:0,0:0:0:0:
346,21,199910,6,0,P|306:18|260:26,1,80,4|0,0:0|0:0,0:0:0:0:
314,109,200175,1,2,0:0:0:0:
314,109,200263,2,0,P|305:137|290:167,2,40,2|2|0,0:0|0:0|1:0,0:0:0:0:
384,159,200527,1,2,0:0:0:0:
384,159,200616,2,0,L|429:139,1,40,2|0,0:0|0:0,0:0:0:0:
397,237,200792,1,2,0:0:0:0:
397,237,200880,2,0,P|397:289|414:324,1,80,2|0,0:0|0:0,0:0:0:0:
409,325,201145,2,0,P|382:324|351:316,1,40,0|0,1:0|0:0,0:0:0:0:
292,264,201322,2,0,L|305:220,1,40,4|0,0:0|0:0,0:0:0:0:
313,100,201498,6,0,P|312:75|301:47,1,40,2|0,0:0|0:0,0:0:0:0:
256,146,201675,1,2,0:0:0:0:
256,146,201763,2,0,L|205:147,2,40,0|0|0,1:2|1:2|1:2,0:0:0:0:
193,78,202027,2,0,P|180:69|156:58,1,40,6|0,0:0|0:0,0:0:0:0:
191,218,202204,2,0,P|178:227|154:238,1,40,2|0,0:0|1:0,0:0:0:0:
45,196,202380,2,0,P|64:199|82:207,1,40,2|0,3:2|0:0,0:0:0:0:
89,83,202557,2,0,P|87:102|80:121,1,40,2|0,1:3|0:0,0:0:0:0:
35,22,202733,1,6,1:2:0:0:
256,192,203086,12,0,204145,0:0:0:0:
256,192,204322,12,2,205733,0:0:0:0:
57,335,206439,5,2,0:0:0:0:
286,213,206969,1,0,0:0:0:0:
232,145,207145,1,2,3:2:0:0:
286,213,207322,1,0,0:0:0:0:
31,262,207851,1,2,0:0:0:0:
372,315,208557,5,2,0:0:0:0:
374,50,209792,5,0,0:0:0:0:
295,86,209969,1,2,3:2:0:0:
374,50,210145,1,0,0:0:0:0:
297,89,210322,5,0,0:0:0:0:
209,62,210498,1,0,0:0:0:0:
130,108,210675,1,2,0:0:0:0:
212,65,210851,1,0,0:0:0:0:
300,92,211027,1,0,0:0:0:0:
57,51,211380,5,2,3:2:0:0:
373,189,212086,1,2,0:0:0:0:
117,233,212616,1,0,0:0:0:0:
185,181,212792,1,2,3:2:0:0:
117,233,212969,1,0,0:0:0:0:
370,285,213498,1,2,0:0:0:0:
74,161,214204,6,0,B|-34:92|-49:19|44:-38|85:35|85:35|132:-15|242:21|120:161|120:161|98:189|124:208,1,560,2|0,0:0|0:0,0:0:0:0:
200,327,215616,5,0,1:0:0:0:
43,266,215792,1,0,1:0:0:0:
209,243,215969,1,0,1:0:0:0:
83,353,216145,1,8,0:0:0:0:
407,342,216322,6,0,L|438:363,2,23.9999992675781,2|0|0,0:0|0:0|0:0,0:0:0:0:
318,351,216586,1,0,0:0:0:0:
318,351,216675,2,0,L|299:366,1,23.9999992675781,4|0,0:3|0:0,0:0:0:0:
359,260,216851,6,0,B|363:232|379:216|379:216|343:192|343:192|353:140|453:132,1,191.999994140625,6|0,0:0|0:0,0:0:0:0:
262,136,217380,2,0,P|235:96|237:42,1,95.9999970703126,4|0,1:2|0:0,0:0:0:0:
386,4,217733,2,0,P|358:51|305:73,1,95.9999970703126,2|0,3:2|0:0,0:0:0:0:
110,73,218086,1,2,1:2:0:0:
214,23,218263,1,0,0:0:0:0:
221,203,218439,6,0,P|135:257|29:219,1,191.999994140625,2|0,0:0|1:0,0:0:0:0:
221,203,218969,2,0,P|259:233|278:300,1,95.9999970703126,2|0,0:0|0:0,0:0:0:0:
176,331,219322,1,2,0:0:0:0:
285,296,219498,1,0,1:0:0:0:
450,370,219674,6,0,B|506:402|580:301|401:232,1,191.999994140625,4|0,0:0|0:0,0:0:0:0:
323,185,220204,1,2,1:2:0:0:
359,280,220380,1,0,0:0:0:0:
404,140,220557,1,2,3:2:0:0:
175,168,220910,2,0,P|127:161|84:123,1,95.9999970703126,2|0,1:2|0:0,0:0:0:0:
404,140,221263,6,0,B|378:131|377:99|377:99|330:90|275:110|236:157,1,191.999994140625,2|0,0:0|1:0,0:0:0:0:
404,140,221792,2,0,P|448:121|471:64,1,95.9999970703126,2|0,0:0|0:0,0:0:0:0:
468,57,222056,1,0,3:0:0:0:
462,37,222145,1,2,0:0:0:0:
310,23,222322,1,0,1:0:0:0:
232,215,222498,6,0,P|249:303|355:299,1,191.999994140625,6|0,0:0|0:0,0:0:0:0:
421,264,223027,1,2,1:2:0:0:
473,183,223204,1,0,0:0:0:0:
451,89,223380,2,0,P|429:53|358:29,1,95.9999970703126,2|0,3:2|0:0,0:0:0:0:
312,200,223733,2,0,P|354:167|367:114,1,95.9999970703126,2|0,1:2|0:0,0:0:0:0:
175,105,224086,6,0,P|221:94|268:101,1,95.9999970703126,2|0,0:0|0:0,0:0:0:0:
227,225,224439,1,0,1:0:0:0:
112,188,224616,1,2,0:0:0:0:
136,313,224792,1,0,0:0:0:0:
253,350,224969,2,0,P|300:359|346:343,1,95.9999970703126,2|0,0:0|1:0,0:0:0:0:
491,169,225322,6,0,B|497:147|484:128|484:128|395:156|399:255,1,191.999994140625,6|0,0:0|0:0,0:0:0:0:
472,328,225851,1,2,1:2:0:0:
302,173,226027,1,0,3:0:0:0:
276,157,226116,1,0,3:0:0:0:
247,163,226204,1,2,3:2:0:0:
164,243,226380,1,2,3:2:0:0:
206,350,226557,1,0,1:2:0:0:
90,223,226733,6,0,B|55:215|55:215|28:243|-21:244,1,95.9999970703126,4|0,3:2|0:0,0:0:0:0:
415,182,227086,1,2,3:2:0:0:
90,141,227262,1,2,1:2:0:0:
354,220,227439,1,2,1:2:0:0:
350,239,227527,1,2,1:2:0:0:
332,246,227615,1,2,3:2:0:0:
145,60,227792,5,8,3:3:0:0:
174,46,227880,1,8,3:0:0:0:
201,50,227969,1,4,3:0:0:0:
216,57,228057,1,4,0:3:0:0:
223,68,228145,2,0,P|192:161|93:185,1,191.999994140625,6|0,0:0|0:0,0:0:0:0:
403,46,228674,2,0,P|355:49|317:77,1,95.9999970703126,6|0,1:2|0:0,0:0:0:0:
402,219,229027,2,0,P|404:165|365:111,1,95.9999970703126,2|0,3:2|0:0,0:0:0:0:
316,189,229380,1,2,1:2:0:0:
146,345,229733,6,0,P|219:357|208:259,1,191.999994140625,2|0,0:0|1:0,0:0:0:0:
291,184,230263,2,0,P|303:267|219:265,1,191.999994140625,2|2,0:0|3:2,0:0:0:0:
133,185,230792,1,0,1:0:0:0:
306,361,230969,6,0,P|375:308|391:205,1,191.999994140625,6|0,0:0|0:0,0:0:0:0:
308,71,231498,1,2,1:2:0:0:
290,183,231674,1,0,0:0:0:0:
417,108,231851,2,0,P|465:120|523:99,1,95.9999970703126,2|0,3:2|0:0,0:0:0:0:
308,71,232204,2,0,P|260:59|202:80,1,95.9999970703126,2|0,1:2|0:0,0:0:0:0:
31,58,232557,6,0,B|18:57|1:73|1:73|26:115|85:123|143:99,1,191.999994140625,2|0,0:0|1:0,0:0:0:0:
308,71,233086,2,0,P|260:59|202:80,1,95.9999970703126,2|0,0:0|0:0,0:0:0:0:
212,88,233351,1,0,3:0:0:0:
214,107,233439,1,2,0:0:0:0:
315,173,233616,1,0,1:0:0:0:
78,290,233792,6,0,B|118:333|187:296|209:253|215:213,1,191.999994140625,6|0,0:0|0:0,0:0:0:0:
201,109,234321,1,2,1:2:0:0:
108,57,234498,1,0,0:0:0:0:
53,147,234675,2,0,P|94:162|163:146,1,95.9999970703126,2|0,3:2|0:0,0:0:0:0:
268,288,235027,2,0,P|233:257|215:213,1,95.9999970703126,2|0,1:2|0:0,0:0:0:0:
394,49,235380,6,0,L|285:84,1,95.9999970703126,2|0,0:0|0:0,0:0:0:0:
201,109,235733,1,0,1:0:0:0:
354,302,235910,2,0,B|356:213|302:172|302:172|363:153,1,191.999994140625,2|2,0:0|0:0,0:0:0:0:
448,132,236439,1,2,1:2:0:0:
433,236,236616,1,2,0:2:0:0:
216,213,236792,6,0,B|159:231|159:231|186:144|109:94,1,191.999994140625,6|0,0:0|1:0,0:0:0:0:
40,75,237321,1,2,0:0:0:0:
92,203,237498,1,2,0:0:0:0:
130,110,237674,1,0,0:0:0:0:
4,163,237851,1,2,1:2:0:0:
56,287,238027,1,2,0:0:0:0:
240,319,238204,5,6,1:2:0:0:
314,142,238380,1,0,1:0:0:0:
134,78,238556,1,0,1:0:0:0:
192,199,238733,1,4,0:3:0:0:
314,142,238910,1,2,1:2:0:0:
256,19,239086,1,4,0:3:0:0:
256,19,239174,1,4,0:3:0:0:
256,19,239263,1,8,1:3:0:0:
192,288,239439,6,0,B|160:320|160:352|160:352|128:320|96:320|32:352,1,191.999994140625,6|0,0:0|0:0,0:0:0:0:
320,288,239969,2,0,B|352:320|352:352|352:352|384:320|416:320|480:352,1,191.999994140625,2|2,1:2|0:0,0:0:0:0:
256,192,240674,1,0,1:0:0:0:
256,192,241027,6,0,L|256:96,2,95.9999970703126,2|0|0,0:0|0:0|1:0,0:0:0:0:
346,247,241557,2,0,P|390:251|445:215,1,95.9999970703126,2|0,0:0|0:0,0:0:0:0:
439,210,241822,1,0,3:0:0:0:
440,194,241910,1,2,0:0:0:0:
410,92,242086,1,0,1:0:0:0:
170,45,242263,6,0,B|204:21|266:23|306:38|326:62|326:62|306:80,1,191.999994140625,6|2,0:0|0:0,0:0:0:0:
235,153,242792,1,2,1:2:0:0:
157,225,242969,1,0,0:0:0:0:
104,133,243145,1,2,0:0:0:0:
284,242,243498,1,2,1:2:0:0:
235,153,243674,1,4,0:0:0:0:
341,331,243851,6,0,P|389:330|432:309,1,95.9999970703126,0|0,1:0|0:0,0:0:0:0:
171,331,244204,2,0,P|123:330|80:309,1,95.9999970703126,0|0,1:0|0:0,0:0:0:0:
256,256,244556,2,0,B|261:227|251:196|256:160,1,95.9999970703126,0|0,1:0|0:0,0:0:0:0:
256,267,244822,1,0,3:0:0:0:
256,278,244910,1,0,1:0:0:0:
256,64,245086,1,0,0:0:0:0:
144,245,245263,6,0,P|101:224|53:223,1,95.9999970703126,6|0,0:0|0:0,0:0:0:0:
171,331,245616,1,2,1:2:0:0:
304,207,245792,2,0,B|311:133|445:167|478:234,1,191.999994140625,4|0,0:0|0:0,0:0:0:0:
298,302,246322,1,2,1:2:0:0:
179,155,246498,6,0,B|138:103|138:103|104:202|7:184,1,191.999994140625,4|0,0:0|0:0,0:0:0:0:
150,13,247027,1,2,1:2:0:0:
378,36,247204,2,0,B|404:76|404:76|341:55|286:59|266:114,1,191.999994140625,4|0,0:0|0:0,0:0:0:0:
455,151,247733,1,2,1:2:0:0:
340,295,247910,1,4,0:0:0:0:
107,190,248263,5,0,1:2:0:0:
193,231,248439,1,0,1:2:0:0:
256,160,248616,1,0,1:2:0:0:
405,190,248792,5,0,1:2:0:0:
319,231,248968,1,0,1:2:0:0:
256,160,249145,1,0,1:2:0:0:
256,64,249322,5,0,1:2:0:0:
434,98,249498,5,6,1:2:0:0:
78,98,249674,1,6,1:2:0:0:
256,64,250557,5,0,1:0:0:0:
256,256,250733,2,0,P|243:298|201:334,2,80,6|0|0,0:0|0:0|0:0,0:0:0:0:
152,245,251263,1,2,1:2:0:0:
219,324,251439,1,0,0:0:0:0:
235,182,251616,2,0,P|181:142|61:191,1,160,2|0,0:0|1:0,0:0:0:0:
425,71,252145,6,0,P|347:65|290:118,1,160,6|0,0:0|0:0,0:0:0:0:
343,245,252675,2,0,P|371:216|380:176,1,80,2|0,1:2|0:0,0:0:0:0:
373,165,252939,1,2,3:2:0:0:
360,157,253027,1,2,0:0:0:0:
480,236,253204,1,0,0:0:0:0:
459,133,253380,1,2,1:2:0:0:
381,308,253557,6,0,P|349:335|294:340,1,80,6|0,0:0|0:0,0:0:0:0:
392,229,253910,1,2,0:0:0:0:
331,145,254086,1,0,1:2:0:0:
177,130,254263,2,0,P|209:155|257:159,1,80,2|0,0:0|0:0,0:0:0:0:
165,50,254616,1,2,0:0:0:0:
266,12,254792,1,0,1:0:0:0:
89,117,254969,6,0,P|26:148|27:76,1,160,6|2,0:0|0:0,0:0:0:0:
87,25,255498,1,2,1:2:0:0:
177,130,255675,1,0,0:0:0:0:
88,237,255851,2,0,P|46:248|-3:234,1,80,6|0,0:0|0:0,0:0:0:0:
245,263,256204,5,0,1:0:0:0:
245,263,256292,1,0,1:0:0:0:
245,263,256380,2,0,P|236:305|221:350,1,80,4|0,0:0|0:0,0:0:0:0:
285,178,256733,1,2,0:0:0:0:
420,228,256910,2,0,B|389:241|356:224|356:224|376:211,1,80,2|0,1:2|0:0,0:0:0:0:
462,220,257174,1,0,0:0:0:0:
462,220,257263,2,0,B|470:236|470:236|486:248|486:248|487:290|465:329|403:338,1,160,2|0,2:2|1:0,0:0:0:0:
191,107,257792,6,0,P|182:71|202:19,2,80,6|0|2,0:0|0:0|0:0,0:0:0:0:
370,48,258322,2,0,B|334:76|274:72|274:72|298:109,1,120,2|0,1:2|1:0,0:0:0:0:
275,101,258674,1,2,0:0:0:0:
403,152,258851,1,2,0:0:0:0:
256,288,259027,5,0,3:2:0:0:
256,288,259116,1,0,3:2:0:0:
256,288,259204,2,0,B|256:312|256:312|248:340,1,40,4|0,0:0|0:0,0:0:0:0:
309,239,259380,2,0,B|329:227|329:227|358:219,1,40,2|0,0:0|0:0,0:0:0:0:
245,212,259557,2,0,B|224:200|224:200|203:179,1,40,2|0,0:0|0:0,0:0:0:0:
183,260,259733,5,2,1:2:0:0:
159,281,259821,1,0,0:0:0:0:
127,279,259909,1,0,0:0:0:0:
104,256,259998,1,0,0:0:0:0:
102,224,260086,1,2,0:0:0:0:
126,202,260175,2,0,B|134:184|134:184|124:163,2,40,2|0|0,0:0|0:0|0:0,0:0:0:0:
156,49,260439,5,2,1:2:0:0:
188,56,260527,1,2,1:2:0:0:
216,73,260616,1,2,1:2:0:0:
231,102,260704,1,2,1:2:0:0:
237,134,260792,2,0,P|312:155|385:126,1,160,6|4,0:2|1:2,0:0:0:0:
460,23,261498,1,4,1:3:0:0:
89,124,261675,2,0,P|193:108|247:144,1,160,6|4,1:2|1:3,0:0:0:0:
367,313,262204,5,6,0:0:0:0:
12,214,262557,1,8,1:3:0:0:
426,138,262910,1,8,0:3:0:0:
253,169,263086,2,0,B|277:162|277:162|285:167|285:167|301:156|331:154,1,80,8|4,3:0|3:0,0:0:0:0:
161,189,263439,1,6,1:2:0:0:
256,192,263616,12,0,271733,0:0:0:0:
